osu file format v14

[General]
AudioFilename: audio.mp3
AudioLeadIn: 0
PreviewTime: 144091
Countdown: 0
SampleSet: Soft
StackLeniency: 0.7
Mode: 0
LetterboxInBreaks: 0
WidescreenStoryboard: 0

[Editor]
Bookmarks: 2127,19269,32984,46698,60412,74127,87841,101555,115269,128984,142698,142805,142912,143019,143127,143234,143341,143448,143555,143662,143769,143877,143984,144091,144198,144305,144412,144519,144627,144734,144841,144948,145055,145162,145269,145377,145484,145591,145698,145805,145912,146019,146127,146234,146341,146448,146555,146662,146769,146877,146984,147091,147198,147305,147412,147519,147627,147734,147841,147948,148055,148162,148269,148377,148484,148591,148698,148805,148912,149019,149127,149234,149341,149448,149555,163269,176984,190698,211269,218127
DistanceSpacing: 1.5
BeatDivisor: 16
GridSize: 8
TimelineZoom: 2.2

[Metadata]
Title:Ni**as in Paris
TitleUnicode:Ni**as in Paris
Artist:Jay-Z & Kanye West
ArtistUnicode:Jay-Z & Kanye West
Creator:Myahkey
Version:Homies in Paris
Source:
Tags:1103 fellas watch the throne no equal jayz yeezy hip hop hip-hop rap english hit-boy mike dean anthony kilhoffer blades of glory will ferrell puff daddy victory niggas
BeatmapID:3163286
BeatmapSetID:1547973

[Difficulty]
HPDrainRate:6
CircleSize:4
OverallDifficulty:8
ApproachRate:9
SliderMultiplier:1.9
SliderTickRate:1

[Events]
//Background and Video events
0,0,"288027.jpg",0,0
//Break Periods
2,127265,128394
2,142708,148965
//Storyboard Layer 0 (Background)
//Storyboard Layer 1 (Fail)
//Storyboard Layer 2 (Pass)
//Storyboard Layer 3 (Foreground)
//Storyboard Layer 4 (Overlay)
//Storyboard Sound Samples

[TimingPoints]
2137,428.571428571429,4,2,1,50,1,0
5565,-66.6666666666667,4,2,1,60,0,0
5779,-100,4,2,1,60,0,0
6422,-66.6666666666667,4,2,1,60,0,0
6637,-100,4,2,1,60,0,0
7279,-66.6666666666667,4,2,1,60,0,0
7494,-100,4,2,1,60,0,0
8137,-66.6666666666667,4,2,1,60,0,0
8351,-100,4,2,1,60,0,0
8565,-57.1428571428571,4,2,1,60,0,0
8887,-57.1428571428571,4,2,1,5,0,0
8994,-66.6666666666667,4,2,1,60,0,0
9208,-100,4,2,1,60,0,0
9851,-66.6666666666667,4,2,1,60,0,0
10065,-100,4,2,1,60,0,0
10708,-66.6666666666667,4,2,1,60,0,0
10922,-100,4,2,1,60,0,0
11565,-66.6666666666667,4,2,1,60,0,0
11779,-100,4,2,1,60,0,0
11994,-57.1428571428571,4,2,1,60,0,0
12315,-57.1428571428571,4,2,1,5,0,0
12422,-66.6666666666667,4,2,1,60,0,0
12637,-100,4,2,1,60,0,0
13279,-66.6666666666667,4,2,1,60,0,0
13494,-100,4,2,1,60,0,0
14137,-66.6666666666667,4,2,1,60,0,0
14351,-100,4,2,1,60,0,0
14994,-66.6666666666667,4,2,1,60,0,0
15208,-100,4,2,1,60,0,0
15422,-57.1428571428571,4,2,1,60,0,0
15744,-57.1428571428571,4,2,1,5,0,0
15851,-66.6666666666667,4,2,1,60,0,0
16708,-66.6666666666667,4,2,1,65,0,0
17565,-66.6666666666667,4,2,1,70,0,0
18422,-66.6666666666667,4,2,1,75,0,0
18851,-57.1428571428571,4,2,1,75,0,0
19279,-57.1428571428571,4,2,1,70,0,0
19494,-100,4,2,1,70,0,0
20887,-100,4,2,1,5,0,0
20994,-66.6666666666667,4,2,1,70,0,0
21208,-100,4,2,1,70,0,0
21851,-66.6666666666667,4,2,1,70,0,0
22279,-57.1428571428571,4,2,1,70,0,0
22601,-57.1428571428571,4,2,1,5,0,0
22708,-66.6666666666667,4,2,1,70,0,0
22922,-100,4,2,1,70,0,0
23565,-66.6666666666667,4,2,1,70,0,0
25601,-57.1428571428571,4,2,1,70,0,0
25815,-57.1428571428571,4,2,1,5,0,0
25922,-57.1428571428571,4,2,1,70,0,0
26351,-100,4,2,1,70,0,0
27851,-66.6666666666667,4,2,1,70,0,0
28065,-100,4,2,1,70,0,0
28708,-66.6666666666667,4,2,1,70,0,0
29136,-57.1428571428571,4,2,1,70,0,0
29565,-66.6666666666667,4,2,1,70,0,0
29779,-100,4,2,1,70,0,0
30422,-66.6666666666667,4,2,1,70,0,0
31279,-66.6666666666667,4,2,1,75,0,0
32994,-57.1428571428571,4,2,1,80,0,0
33208,-100,4,2,1,80,0,0
33422,-57.1428571428571,4,2,1,80,0,0
33851,-66.6666666666667,4,2,2,80,0,0
34279,-80,4,2,2,80,0,0
34601,-80,4,2,2,5,0,0
34708,-80,4,2,2,80,0,0
35565,-66.6666666666667,4,2,2,80,0,0
35779,-100,4,2,2,80,0,0
36422,-80,4,2,1,80,0,0
37065,-66.6666666666667,4,2,2,80,0,0
37708,-80,4,2,2,80,0,0
38029,-80,4,2,2,5,0,0
38137,-80,4,2,2,80,0,0
38994,-66.6666666666667,4,2,2,80,0,0
39208,-100,4,2,2,80,0,0
39851,-80,4,2,2,80,0,0
40708,-100,4,2,2,80,0,0
41887,-100,4,2,2,5,0,0
41994,-80,4,2,2,80,0,0
42315,-80,4,2,2,5,0,0
42422,-66.6666666666667,4,2,2,80,0,0
42637,-100,4,2,2,80,0,0
43279,-80,4,2,2,80,0,0
43601,-80,4,2,2,5,0,0
43708,-80,4,2,2,80,0,0
44887,-80,4,2,2,5,0,0
44994,-100,4,2,2,80,0,0
45422,-80,4,2,2,80,0,0
46708,-57.1428571428571,4,2,1,80,0,0
46922,-100,4,2,1,80,0,0
47136,-57.1428571428571,4,2,1,80,0,0
47565,-66.6666666666667,4,2,2,80,0,0
47993,-80,4,2,2,80,0,0
48315,-80,4,2,2,5,0,0
48422,-80,4,2,2,80,0,0
49279,-66.6666666666667,4,2,2,80,0,0
49493,-100,4,2,2,80,0,0
50136,-80,4,2,2,80,0,0
50672,-80,4,2,2,5,0,0
50779,-66.6666666666667,4,2,2,80,0,0
51315,-66.6666666666667,4,2,2,5,0,0
51422,-80,4,2,2,80,0,0
52708,-66.6666666666667,4,2,2,80,0,0
52922,-100,4,2,2,80,0,0
53404,-100,4,2,2,5,0,0
53565,-80,4,2,1,80,0,0
53994,-62.5,4,2,1,80,0,0
54422,-100,4,2,2,80,0,0
55708,-80,4,2,2,80,0,0
56136,-66.6666666666667,4,2,2,80,0,0
56351,-100,4,2,2,80,0,0
56993,-80,4,2,2,80,0,0
57637,-80,4,2,2,80,0,0
58708,-100,4,2,2,80,0,0
59136,-80,4,2,2,80,0,0
60422,-100,4,2,1,70,0,0
67119,-100,4,2,1,5,0,0
67279,-100,4,2,1,70,0,0
72422,-100,4,2,1,75,0,0
74137,-133.333333333333,4,2,1,80,0,0
74351,-76.9230769230769,4,2,1,80,0,0
74994,-76.9230769230769,4,2,2,80,0,0
75422,-133.333333333333,4,2,2,80,0,0
75744,-133.333333333333,4,2,2,5,0,0
75851,-133.333333333333,4,2,2,80,0,0
76494,-76.9230769230769,4,2,2,80,0,0
77458,-76.9230769230769,4,2,2,5,0,0
77565,-76.9230769230769,4,2,2,80,0,0
79172,-76.9230769230769,4,2,2,5,0,0
79279,-76.9230769230769,4,2,2,80,0,0
79708,-333.333333333333,4,2,2,80,0,0
80029,-333.333333333333,4,2,2,5,0,0
80137,-76.9230769230769,4,2,2,80,0,0
80833,-76.9230769230769,4,2,2,5,0,0
80994,-133.333333333333,4,2,1,80,0,0
81208,-76.9230769230769,4,2,1,80,0,0
81851,-76.9230769230769,4,2,2,80,0,0
82279,-133.333333333333,4,2,2,80,0,0
82601,-133.333333333333,4,2,2,5,0,0
82708,-133.333333333333,4,2,2,80,0,0
83351,-76.9230769230769,4,2,2,80,0,0
84315,-76.9230769230769,4,2,2,5,0,0
84422,-76.9230769230769,4,2,2,80,0,0
86029,-76.9230769230769,4,2,2,5,0,0
86136,-76.9230769230769,4,2,2,80,0,0
86565,-333.333333333333,4,2,2,80,0,0
86994,-76.9230769230769,4,2,2,45,0,0
87851,-76.9230769230769,4,2,2,75,0,0
88065,-133.333333333333,4,2,2,75,0,0
89994,-133.333333333333,4,2,2,65,0,0
90422,-133.333333333333,4,2,2,35,0,0
91172,-133.333333333333,4,2,2,5,0,0
91279,-133.333333333333,4,2,2,75,0,0
93422,-133.333333333333,4,2,2,65,0,0
93851,-133.333333333333,4,2,2,35,0,0
94601,-133.333333333333,4,2,2,5,0,0
94708,-133.333333333333,4,2,2,75,0,0
96744,-133.333333333333,4,2,2,5,0,0
96851,-133.333333333333,4,2,2,65,0,0
97172,-133.333333333333,4,2,2,5,0,0
97279,-133.333333333333,4,2,2,35,0,0
98029,-133.333333333333,4,2,2,5,0,0
98137,-133.333333333333,4,2,2,75,0,0
100279,-133.333333333333,4,2,2,65,0,0
100708,-133.333333333333,4,2,2,35,0,0
101458,-133.333333333333,4,2,2,5,0,0
101565,-133.333333333333,4,2,1,70,0,0
103279,-133.333333333333,4,2,1,45,0,0
104137,-133.333333333333,4,2,1,70,0,0
106708,-133.333333333333,4,2,1,45,0,0
107565,-133.333333333333,4,2,1,70,0,0
108422,-100,4,2,1,70,0,0
110029,-100,4,2,1,5,0,0
110137,-100,4,2,1,45,0,0
110994,-100,4,2,1,70,0,0
112601,-100,4,2,1,5,0,0
112708,-100,4,2,1,75,0,0
115172,-100,4,2,1,5,0,0
115279,-80,4,2,1,80,0,0
115708,-100,4,2,1,80,0,0
116137,-100,4,2,2,80,0,0
116565,-80,4,2,2,80,0,0
116887,-80,4,2,2,5,0,0
116994,-100,4,2,2,80,0,0
117422,-80,4,2,2,80,0,0
119137,-100,4,2,2,80,0,0
119351,-80,4,2,2,80,0,0
120315,-80,4,2,2,5,0,0
120422,-100,4,2,2,80,0,0
122137,-80,4,2,2,80,0,0
122779,-100,4,2,2,80,0,0
123422,-80,4,2,2,80,0,0
123744,-80,4,2,2,5,0,0
123851,-80,4,2,2,80,0,0
124708,-100,4,2,2,80,0,0
125565,-80,4,2,2,80,0,0
128994,-71.4285714285714,4,2,2,80,0,0
129422,-86.9565217391304,4,2,2,80,0,0
130279,-71.4285714285714,4,2,2,80,0,0
130709,-86.9565217391304,4,2,2,80,0,0
131137,-71.4285714285714,4,2,2,80,0,0
132851,-86.9565217391304,4,2,2,80,0,0
133065,-71.4285714285714,4,2,2,80,0,0
134137,-86.9565217391304,4,2,2,80,0,0
135851,-62.5,4,2,2,85,0,0
136493,-74.074074074074,4,2,2,85,0,0
137136,-62.5,4,2,2,85,0,0
138422,-74.074074074074,4,2,2,85,0,0
139279,-62.5,4,2,2,85,0,0
140137,-74.074074074074,4,2,2,85,0,0
140565,-62.5,4,2,2,85,0,0
140994,-74.074074074074,4,2,2,85,0,0
141422,-62.5,4,2,2,85,0,0
142279,-58.8235294117647,4,2,2,85,0,0
149565,-80,4,2,2,70,0,0
149779,-100,4,2,2,70,0,0
149994,-133.333333333333,4,2,2,70,0,0
156208,-80,4,2,2,70,0,0
156262,-80,4,2,2,5,0,0
156422,-80,4,2,2,75,0,0
156637,-100,4,2,2,75,0,0
156851,-133.333333333333,4,2,2,75,0,0
159851,-133.333333333333,4,2,2,60,0,0
163279,-500,4,2,3,90,0,0
164029,-500,4,2,3,5,0,0
164137,-40,4,2,3,90,0,1
164458,-40,4,2,3,5,0,1
164565,-500,4,2,3,90,0,0
165315,-500,4,2,3,5,0,0
165422,-500,4,2,3,90,0,0
165743,-500,4,2,3,5,0,0
165851,-40,4,2,3,90,0,1
166494,-40,4,2,3,90,0,0
166708,-500,4,2,3,90,0,0
167243,-500,4,2,3,5,0,0
167351,-500,4,2,3,90,0,0
167565,-40,4,2,3,90,0,1
167886,-40,4,2,3,5,0,1
167994,-500,4,2,3,90,0,0
168744,-500,4,2,3,5,0,0
168851,-500,4,2,3,90,0,0
169172,-500,4,2,3,5,0,0
169279,-40,4,2,3,90,0,1
169708,-40,4,2,3,90,0,0
169922,-40,4,2,3,90,0,0
170137,-500,4,2,3,90,0,0
170887,-500,4,2,3,5,0,0
170994,-40,4,2,3,90,0,1
171315,-40,4,2,3,5,0,1
171422,-500,4,2,3,90,0,0
172172,-500,4,2,3,5,0,0
172279,-500,4,2,3,90,0,0
172600,-500,4,2,3,5,0,0
172708,-40,4,2,3,90,0,1
173351,-40,4,2,3,90,0,0
173565,-500,4,2,3,90,0,0
174100,-500,4,2,3,5,0,0
174208,-500,4,2,3,90,0,0
174422,-40,4,2,3,90,0,1
174743,-40,4,2,3,5,0,1
174851,-500,4,2,3,90,0,0
175601,-500,4,2,3,5,0,0
175708,-500,4,2,3,90,0,0
176029,-500,4,2,3,5,0,0
176137,-30.3030303030303,4,2,3,90,0,1
176565,-30.3030303030303,4,2,3,90,0,0
176779,-30.3030303030303,4,2,3,90,0,0
176994,-500,4,2,3,90,0,0
177851,-40,4,2,3,90,0,1
178279,-40,4,2,3,90,0,0
178708,-500,4,2,3,90,0,0
179565,-40,4,2,3,90,0,1
179994,-40,4,2,3,90,0,0
180208,-40,4,2,3,90,0,0
180422,-500,4,2,3,90,0,0
181279,-40,4,2,3,90,0,1
181601,-40,4,2,3,5,0,1
181708,-500,4,2,3,90,0,0
182994,-30.3030303030303,4,2,3,90,0,1
183422,-30.3030303030303,4,2,3,90,0,0
183637,-30.3030303030303,4,2,3,90,0,0
183851,-500,4,2,3,90,0,0
184494,-500,4,2,3,90,0,0
184708,-40,4,2,3,90,0,1
185029,-40,4,2,3,5,0,1
185137,-500,4,2,3,90,0,0
186315,-500,4,2,3,5,0,0
186422,-40,4,2,3,90,0,1
186851,-66.6666666666667,4,2,3,90,0,0
187279,-500,4,2,3,90,0,0
187815,-500,4,2,3,90,0,0
188137,-40,4,2,3,90,0,1
188458,-40,4,2,3,5,0,1
188565,-500,4,2,3,90,0,0
189851,-30.3030303030303,4,2,3,90,0,1
190279,-30.3030303030303,4,2,3,90,0,0
190494,-30.3030303030303,4,2,3,90,0,0
190708,-500,4,2,3,90,0,0
191351,-500,4,2,3,90,0,0
191565,-40,4,2,3,90,0,1
191887,-40,4,2,3,5,0,1
191994,-500,4,2,3,90,0,0
192422,-500,4,2,3,90,0,0
193279,-40,4,2,3,90,0,1
193922,-40,4,2,3,90,0,0
194136,-250,4,2,3,90,0,0
194994,-40,4,2,3,90,0,1
195315,-40,4,2,3,5,0,1
195422,-500,4,2,3,90,0,0
196386,-500,4,2,3,5,0,0
196494,-500,4,2,3,90,0,0
196708,-30.3030303030303,4,2,3,90,0,0
197137,-30.3030303030303,4,2,3,90,0,1
197565,-500,4,2,3,90,0,0
197887,-500,4,2,3,5,0,0
197994,-500,4,2,3,90,0,0
198315,-500,4,2,3,5,0,0
198422,-40,4,2,3,90,0,1
198744,-40,4,2,3,5,0,1
198851,-500,4,2,3,90,0,0
200137,-40,4,2,3,90,0,1
200779,-66.6666666666667,4,2,3,90,0,1
200994,-500,4,2,3,90,0,0
201851,-40,4,2,3,90,0,1
202172,-40,4,2,3,5,0,1
202279,-500,4,2,3,90,0,0
203565,-30.3030303030303,4,2,3,90,0,1
204208,-30.3030303030303,4,2,3,90,0,0
204422,-500,4,2,3,90,0,0
205065,-500,4,2,3,90,0,0
205279,-40,4,2,3,90,0,1
205601,-40,4,2,3,5,0,1
205708,-500,4,2,3,90,0,0
206779,-500,4,2,3,90,0,0
206994,-40,4,2,3,90,0,1
207744,-40,4,2,3,5,0,1
207851,-500,4,2,3,90,0,0
208708,-40,4,2,3,90,0,1
209029,-40,4,2,3,5,0,1
209137,-500,4,2,3,90,0,0
210422,-30.3030303030303,4,2,3,90,0,1
210851,-30.3030303030303,4,2,3,90,0,0
211279,-500,4,2,3,90,0,0
212029,-500,4,2,3,5,0,0
212137,-55.5555555555556,4,2,3,90,0,1
212458,-55.5555555555556,4,2,3,5,0,1
212565,-500,4,2,3,90,0,0
213315,-500,4,2,3,5,0,0
213422,-500,4,2,3,90,0,0
213743,-500,4,2,3,5,0,0
213851,-55.5555555555556,4,2,3,90,0,1
214601,-55.5555555555556,4,2,3,5,0,0
214708,-500,4,2,3,90,0,0
215243,-500,4,2,3,5,0,0
215351,-500,4,2,3,90,0,0
215565,-55.5555555555556,4,2,3,90,0,1
215886,-55.5555555555556,4,2,3,5,0,1
215994,-500,4,2,3,90,0,0
216744,-500,4,2,3,5,0,0
216851,-500,4,2,3,90,0,0
217172,-500,4,2,3,5,0,0
217279,-55.5555555555556,4,2,3,90,0,1
217922,-55.5555555555556,4,2,3,5,0,0

[Colours]
Combo1 : 243,213,110
Combo2 : 128,0,255
Combo3 : 238,183,83
Combo4 : 69,42,164

[HitObjects]
143,35,2137,5,8,0:0:0:0:
418,77,2994,5,8,0:0:0:0:
376,339,3851,37,8,0:0:0:0:
101,295,4708,5,8,0:0:0:0:
272,379,5565,38,0,P|282:347|319:306,1,71.2500027179719,10|0,0:0|0:0,0:0:0:0:
376,339,5779,2,0,P|394:322|422:308,1,47.5,2|0,0:0|0:0,0:0:0:0:
477,359,5994,1,8,0:0:0:0:
245,268,6422,6,0,P|235:236|198:195,1,71.2500027179719,10|0,0:0|0:0,0:0:0:0:
141,228,6637,2,0,P|123:211|96:202,1,47.5,2|0,0:0|0:0,0:0:0:0:
40,248,6851,1,8,0:0:0:0:
238,91,7279,38,0,P|248:123|285:164,1,71.2500027179719,10|0,0:0|0:0,0:0:0:0:
349,148,7494,2,0,P|367:165|394:174,1,47.5,2|0,0:0|0:0,0:0:0:0:
455,129,7708,1,8,0:0:0:0:
187,309,8137,6,0,P|213:285|269:260,1,71.2500027179719,10|0,0:0|0:0,0:0:0:0:
346,253,8351,2,0,P|327:234|298:221,1,47.5,2|0,0:0|0:0,0:0:0:0:
238,91,8565,2,0,P|271:222|279:355,1,249.375002378225,10|0,0:0|0:0,0:0:0:0:
358,262,8994,38,0,P|368:230|405:189,1,71.2500027179719,10|0,0:0|0:0,0:0:0:0:
463,165,9208,2,0,P|454:137|428:111,1,47.5,2|0,0:0|0:0,0:0:0:0:
373,80,9422,1,8,0:0:0:0:
134,187,9851,6,0,P|124:155|87:114,1,71.2500027179719,10|0,0:0|0:0,0:0:0:0:
29,90,10065,2,0,P|38:62|64:36,1,47.5,2|0,0:0|0:0,0:0:0:0:
117,6,10279,1,8,0:0:0:0:
263,279,10708,38,0,P|280:250|287:196,1,71.2500027179719,10|0,0:0|0:0,0:0:0:0:
226,168,10922,2,0,P|222:140|235:105,1,47.5,2|0,0:0|0:0,0:0:0:0:
283,70,11137,1,8,0:0:0:0:
279,59,11565,6,0,P|310:75|365:76,1,71.2500027179719,10|0,0:0|0:0,0:0:0:0:
224,113,11779,2,0,P|203:124|165:129,1,47.5,2|0,0:0|0:0,0:0:0:0:
264,278,11994,2,0,P|254:146|202:32,1,249.375002378225,10|0,0:0|0:0,0:0:0:0:
226,121,12422,38,0,P|195:137|140:138,1,71.2500027179719,10|0,0:0|0:0,0:0:0:0:
119,206,12637,2,0,P|93:203|64:192,1,47.5,2|0,0:0|0:0,0:0:0:0:
41,125,12851,1,8,0:0:0:0:
295,194,13279,6,0,P|326:210|381:211,1,71.2500027179719,10|0,0:0|0:0,0:0:0:0:
402,279,13494,2,0,P|428:276|457:265,1,47.5,2|0,0:0|0:0,0:0:0:0:
480,198,13708,1,8,0:0:0:0:
319,73,14137,38,0,P|336:103|343:138,1,71.2500027179719,10|0,0:0|0:0,0:0:0:0:
295,194,14351,2,0,P|289:221|272:240,1,47.5,2|0,0:0|0:0,0:0:0:0:
201,247,14565,1,8,0:0:0:0:
209,256,14994,6,0,P|246:256|293:238,1,71.2500027179719,10|0,0:0|0:0,0:0:0:0:
351,149,15208,2,0,P|326:150|289:165,1,47.5,2|0,0:0|0:0,0:0:0:0:
125,163,15422,2,0,P|248:185|363:234,1,249.375002378225,10|0,0:0|0:0,0:0:0:0:
463,90,15851,37,10,0:0:0:0:
487,167,16065,1,2,0:0:0:0:
476,180,16279,1,8,0:0:0:0:
362,233,16708,5,10,0:0:0:0:
339,311,16922,1,2,0:0:0:0:
350,322,17136,1,8,0:0:0:0:
225,272,17565,37,10,0:0:0:0:
206,179,17779,1,2,0:0:0:0:
214,171,17994,1,8,0:0:0:0:
345,88,18422,5,10,0:0:0:0:
351,6,18637,1,2,0:0:0:0:
172,93,18851,2,0,P|288:64|429:51,1,249.375002378225,10|0,0:0|0:0,0:0:0:0:
512,56,19279,6,0,P|490:92|475:143,1,83.1250007927418,10|0,0:0|0:0,0:0:0:0:
402,177,19494,2,0,P|412:218|428:252,1,47.5,2|0,0:0|0:0,0:0:0:0:
390,314,19708,2,0,P|431:324|468:329,1,47.5,8|0,0:0|0:0,0:0:0:0:
368,216,19922,1,0,0:0:0:0:
325,237,20029,1,0,0:0:0:0:
298,276,20136,1,10,0:0:0:0:
288,316,20244,1,0,0:0:0:0:
268,351,20351,1,2,0:0:0:0:
238,358,20458,1,0,0:0:0:0:
205,352,20565,2,0,P|145:294|62:258,1,142.500005435944,8|0,0:0|0:0,0:0:0:0:
34,306,20994,6,0,P|66:291|93:268,1,71.2500027179719,10|0,0:0|0:0,0:0:0:0:
183,217,21208,1,2,0:0:0:0:
103,169,21422,1,8,0:0:0:0:
250,157,21637,38,0,P|271:211|280:220,1,47.5
332,149,21851,1,10,0:0:0:0:
322,120,21958,1,0,0:0:0:0:
292,86,22065,1,2,0:0:0:0:
234,76,22172,1,0,0:0:0:0:
183,106,22279,2,0,P|300:127|451:252,1,249.375002378225,10|0,0:0|0:0,0:0:0:0:
436,133,22708,6,0,P|415:186|388:219,1,71.2500027179719,10|0,0:0|0:0,0:0:0:0:
342,258,22922,1,2,0:0:0:0:
427,289,23137,1,8,0:0:0:0:
259,337,23351,38,0,P|250:302|248:267,1,47.5
136,335,23565,1,10,0:0:0:0:
154,341,23672,1,0,0:0:0:0:
171,353,23779,1,2,0:0:0:0:
60,383,23994,1,8,0:0:0:0:
43,348,24101,1,0,0:0:0:0:
47,305,24208,1,0,0:0:0:0:
81,268,24315,1,0,0:0:0:0:
129,247,24422,1,10,0:0:0:0:
163,220,24529,1,0,0:0:0:0:
183,186,24636,1,2,0:0:0:0:
183,136,24743,1,0,0:0:0:0:
162,99,24851,2,0,B|137:59|167:73|141:31,1,71.2500027179719,8|0,0:0|0:0,0:0:0:0:
112,5,25065,1,0,0:0:0:0:
126,25,25172,1,0,0:0:0:0:
141,32,25279,6,0,P|177:35|212:42,1,71.2500027179719,10|0,0:0|0:0,0:0:0:0:
59,75,25494,1,2,0:0:0:0:
46,62,25601,2,0,P|95:58|210:42,1,166.250001585484
342,23,25922,1,0,0:0:0:0:
512,55,26137,38,0,P|490:91|474:145,1,83.1250007927418,10|0,0:0|0:0,0:0:0:0:
402,177,26351,2,0,P|412:218|428:252,1,47.5,2|0,0:0|0:0,0:0:0:0:
390,314,26565,2,0,P|431:324|468:329,1,47.5,8|0,0:0|0:0,0:0:0:0:
329,147,26779,5,0,0:0:0:0:
160,168,26994,1,10,0:0:0:0:
2,187,27208,1,2,0:0:0:0:
2,187,27637,38,0,P|28:202|47:216,1,47.5
0,320,27851,5,10,0:0:0:0:
0,334,27958,2,0,P|32:305|78:282,1,71.2500027179719,0|2,0:0|0:0,0:0:0:0:
118,379,28172,2,0,P|128:332|148:289,1,95
216,256,28494,1,0,0:0:0:0:
43,59,28708,38,0,P|73:124|78:147,1,71.2500027179719,10|0,0:0|0:0,0:0:0:0:
36,49,28922,2,0,P|122:99|214:127,1,142.500005435944,2|10,0:0|0:0,0:0:0:0:
400,0,29458,5,0,0:0:0:0:
389,8,29565,2,0,P|363:73|345:142,1,142.500005435944,10|2,0:0|0:0,0:0:0:0:
404,199,29887,1,0,0:0:0:0:
435,125,29994,2,0,P|446:79|464:35,1,95,8|0,0:0|0:0,0:0:0:0:
259,197,30422,38,0,P|318:218|345:238,1,71.2500027179719,10|0,0:0|0:0,0:0:0:0:
356,291,30637,1,2,0:0:0:0:
346,303,30744,1,0,0:0:0:0:
337,306,30851,1,8,0:0:0:0:
197,49,31065,5,0,0:0:0:0:
206,52,31172,1,0,0:0:0:0:
214,61,31279,1,10,0:0:0:0:
112,184,31494,37,2,0:0:0:0:
112,184,31601,1,0,0:0:0:0:
262,272,31815,5,0,0:0:0:0:
264,284,31922,1,2,0:0:0:0:
304,8,32137,37,10,0:0:0:0:
208,376,32351,5,2,0:0:0:0:
256,192,32565,37,10,0:0:0:0:
21,163,32994,38,0,P|45:198|57:238,1,83.1250007927418,10|0,1:2|0:0,0:0:0:0:
104,348,33208,2,0,P|115:321|121:283,1,47.5,2|0,0:2|0:0,0:0:0:0:
0,316,33422,2,0,P|82:273|176:203,1,166.250001585484,8|0,0:0|0:0,0:0:0:0:
244,86,33851,1,10,0:2:0:0:
337,63,34065,1,2,0:2:0:0:
275,250,34279,2,0,B|309:168|406:131,1,178.125,0|0,1:0|0:0,0:0:0:0:
358,283,34708,37,2,0:2:0:0:
218,352,34922,1,2,0:2:0:0:
218,352,35029,1,0,0:0:0:0:
218,352,35137,2,0,B|183:270|86:233,1,178.125,0|0,1:0|0:0,0:0:0:0:
89,204,35565,6,0,P|122:217|162:240,1,71.2500027179719,10|0,0:2|0:0,0:0:0:0:
268,161,35779,2,0,P|245:168|215:187,1,47.5,2|0,0:2|0:0,0:0:0:0:
30,73,35994,1,2,0:2:0:0:
42,63,36422,38,0,P|72:140|91:261,1,178.125,10|0,1:2|0:0,0:0:0:0:
80,248,36851,1,8,0:0:0:0:
350,306,37065,2,0,P|318:290|279:283,1,71.2500027179719,0|0,1:0|0:0,0:0:0:0:
151,302,37279,1,10,0:2:0:0:
227,353,37494,1,2,0:2:0:0:
227,353,37708,2,0,P|240:268|284:174,1,178.125,0|0,1:0|0:0,0:0:0:0:
470,132,38137,5,2,0:2:0:0:
390,87,38351,1,2,0:2:0:0:
390,87,38458,1,0,0:0:0:0:
390,87,38565,2,0,P|394:152|429:225,1,118.75,0|0,1:0|0:0,0:0:0:0:
322,313,38994,38,0,P|290:297|251:292,1,71.2500027179719,10|0,0:2|0:0,0:0:0:0:
160,228,39208,2,0,P|184:214|215:208,1,47.5,2|0,0:2|0:0,0:0:0:0:
313,30,39422,1,2,0:2:0:0:
298,35,39851,6,0,P|283:96|276:155,2,118.75,2|2|0,1:2|0:2|0:0,0:0:0:0:
34,101,40601,1,0,0:0:0:0:
40,91,40708,2,0,P|85:96|153:111,1,95,10|2,0:2|0:2,0:0:0:0:
332,206,41137,1,0,1:0:0:0:
272,267,41351,1,0,0:0:0:0:
272,267,41458,1,0,0:0:0:0:
272,267,41565,2,0,P|198:278|125:296,1,142.5,2|0,0:2|0:0,0:0:0:0:
357,301,41994,2,0,P|365:221|411:123,1,178.125,0|0,1:0|0:0,0:0:0:0:
425,128,42422,38,0,P|404:158|387:209,1,71.2500027179719,10|0,0:2|0:0,0:0:0:0:
463,302,42637,2,0,P|444:275|433:245,1,47.5,2|0,0:2|0:0,0:0:0:0:
429,15,42851,1,2,0:2:0:0:
287,354,43279,6,0,P|270:270|200:182,1,178.125,2|0,1:2|0:0,0:0:0:0:
204,198,43708,1,0,0:0:0:0:
3,165,43922,2,0,P|34:159|75:134,1,59.375,0|0,1:0|0:0,0:0:0:0:
178,64,44137,2,0,P|197:77|213:121,1,59.375,10|0,0:2|0:0,0:0:0:0:
336,163,44351,1,2,0:2:0:0:
341,153,44565,2,0,P|265:94|170:72,1,178.125,0|0,1:0|0:0,0:0:0:0:
0,148,44994,38,0,P|47:153|108:194,1,95,2|2,0:2|0:2,0:0:0:0:
241,272,45422,1,0,1:0:0:0:
238,284,45851,5,10,0:2:0:0:
309,222,46065,1,2,0:2:0:0:
252,3,46279,1,2,0:2:0:0:
416,26,46708,6,0,P|380:54|357:89,1,83.1250007927418,10|0,1:2|0:0,0:0:0:0:
432,148,46922,2,0,P|428:173|433:196,1,47.5,2|0,0:2|0:0,0:0:0:0:
501,106,47137,2,0,P|408:140|335:207,1,166.250001585484,8|0,0:0|0:0,0:0:0:0:
288,231,47458,1,0,0:0:0:0:
294,217,47565,2,0,P|278:186|258:157,1,71.2500027179719,10|0,0:2|0:0,0:0:0:0:
507,341,47887,1,0,0:0:0:0:
512,357,47994,2,0,P|435:319|327:305,1,178.12500679493,0|0,1:0|0:0,0:0:0:0:
332,313,48422,6,0,P|321:363|314:383,1,59.375,2|0,0:2|0:0,0:0:0:0:
200,263,48744,1,0,0:0:0:0:
195,275,48851,2,0,P|229:349|242:395,1,118.75,0|0,1:0|0:0,0:0:0:0:
114,239,49279,38,0,P|140:205|166:191,1,71.2500027179719,10|0,0:2|0:0,0:0:0:0:
26,102,49494,2,0,P|39:121|59:133,1,47.5,2|0,0:2|0:0,0:0:0:0:
106,232,49708,2,0,P|161:181|197:170,1,95,2|0,0:2|0:0,0:0:0:0:
214,91,50137,6,0,L|330:112,1,118.75,2|2,1:2|0:2,0:0:0:0:
393,54,50458,2,0,L|509:75,1,118.75
512,89,50779,2,0,L|435:76,1,71.2500027179719,0|0,1:0|0:0,0:0:0:0:
335,128,50994,2,0,L|110:87,1,213.750008153916,10|0,0:2|0:0,0:0:0:0:
43,12,51422,2,0,B|74:83|90:26|125:90,1,118.75,0|0,1:0|0:0,0:0:0:0:
0,229,51851,37,2,0:2:0:0:
12,202,51958,1,0,0:0:0:0:
35,184,52065,1,2,0:2:0:0:
67,176,52172,1,0,0:0:0:0:
96,177,52279,2,0,P|110:242|128:294,1,118.75,0|0,1:0|0:0,0:0:0:0:
0,314,52708,6,0,P|24:337|60:349,1,71.2500027179719,10|0,0:2|0:0,0:0:0:0:
169,272,52922,2,0,P|141:280|120:300,1,47.5,2|0,0:2|0:0,0:0:0:0:
186,365,53137,1,2,0:2:0:0:
224,146,53351,38,0,P|206:160|194:177,1,23.75
92,67,53565,2,0,P|110:91|134:106,1,59.375,10|0,1:2|0:0,0:0:0:0:
207,52,53779,2,0,P|237:55|265:50,1,59.375,2|0,0:2|0:0,0:0:0:0:
29,23,53994,2,0,P|93:35|134:109,1,152,8|0,0:2|0:0,0:0:0:0:
342,115,54422,6,0,P|303:166|283:209,1,95,10|2,0:2|0:2,0:0:0:0:
386,249,54851,2,0,P|424:197|444:154,1,95,0|0,1:0|0:0,0:0:0:0:
425,78,55279,1,2,0:2:0:0:
492,319,55494,1,2,0:2:0:0:
492,319,55601,1,0,0:0:0:0:
492,319,55708,2,0,P|457:314|432:317,1,59.375,0|0,1:0|0:0,0:0:0:0:
374,250,55922,2,0,P|346:271|330:290,1,59.375
234,368,56137,38,0,P|223:317|211:292,1,71.2500027179719,10|0,0:2|0:0,0:0:0:0:
303,148,56351,2,0,P|296:178|289:193,1,47.5,2|0,0:2|0:0,0:0:0:0:
224,384,56565,2,0,P|211:324|196:294,1,95,2|0,0:2|0:0,0:0:0:0:
24,293,56994,6,0,P|61:337|123:357,1,118.75,2|2,1:2|0:2,0:0:0:0:
193,221,57315,2,0,P|154:176|99:156,1,118.75
15,214,57637,1,0,1:0:0:0:
98,156,57851,2,0,P|78:100|46:51,1,118.75,10|2,0:2|0:2,0:0:0:0:
35,45,58172,1,0,0:0:0:0:
140,2,58279,2,0,P|159:57|192:107,1,118.75,0|0,1:0|0:0,0:0:0:0:
326,68,58708,37,2,0:2:0:0:
301,90,58815,1,0,0:0:0:0:
280,117,58922,1,2,0:2:0:0:
266,148,59029,1,0,0:0:0:0:
264,169,59137,2,0,B|274:205|280:181|292:227,1,59.375,0|0,1:0|0:0,0:0:0:0:
368,292,59351,2,0,B|368:254|380:276|380:228,1,59.375
440,176,59565,5,10,0:2:0:0:
290,221,59779,1,2,0:2:0:0:
140,266,59994,1,2,0:2:0:0:
136,278,60208,1,0,0:0:0:0:
0,123,60422,6,0,P|43:150|97:155,1,95,10|2,0:0|0:0,0:0:0:0:
142,93,60851,2,0,P|188:85|228:59,1,95,8|0,0:0|0:0,0:0:0:0:
512,142,61279,2,0,P|469:115|415:110,1,95,10|2,0:0|0:0,0:0:0:0:
370,172,61708,2,0,P|323:179|283:205,1,95,8|0,0:0|0:0,0:0:0:0:
494,335,62137,5,10,0:0:0:0:
414,269,62351,1,2,0:0:0:0:
414,269,62458,1,0,0:0:0:0:
414,269,62565,2,0,P|388:275|347:291,1,47.5,8|0,0:0|0:0,0:0:0:0:
333,375,62779,1,0,0:0:0:0:
223,146,62994,38,0,P|184:114|132:114,1,95,10|2,0:0|0:0,0:0:0:0:
52,151,63422,1,10,0:0:0:0:
73,156,63851,6,0,P|72:206|40:263,1,95,10|2,0:0|0:0,0:0:0:0:
133,318,64279,1,8,0:0:0:0:
133,318,64387,1,0,0:0:0:0:
133,318,64494,1,0,0:0:0:0:
455,189,64708,2,0,P|456:239|488:296,1,95,10|2,0:0|0:0,0:0:0:0:
400,349,65136,1,8,0:0:0:0:
400,349,65244,1,0,0:0:0:0:
400,349,65351,1,0,0:0:0:0:
271,193,65565,38,0,P|278:149|301:77,1,95,10|2,0:0|0:0,0:0:0:0:
356,57,65887,1,0,0:0:0:0:
356,57,65994,2,0,P|364:81|372:122,2,47.5,8|0|0,0:0|0:0|0:0,0:0:0:0:
132,241,66422,5,10,0:0:0:0:
268,209,66637,1,2,0:0:0:0:
410,175,66851,1,10,0:0:0:0:
424,180,67065,2,0,L|418:217,1,23.75
431,338,67279,38,0,P|477:324|513:294,1,95,10|2,0:0|0:0,0:0:0:0:
396,170,67708,2,0,L|404:221,1,47.5,8|0,0:0|0:0,0:0:0:0:
338,265,67922,1,0,0:0:0:0:
167,235,68137,1,10,0:0:0:0:
253,134,68351,2,0,P|260:180|266:249,1,95,2|8,0:0|0:0,0:0:0:0:
262,205,68994,6,0,P|266:157|273:110,1,95,10|2,0:0|0:0,0:0:0:0:
328,53,69315,1,0,0:0:0:0:
328,53,69422,2,0,P|352:56|379:64,1,47.5,8|0,0:0|0:0,0:0:0:0:
261,3,69637,2,0,P|238:4|189:14,1,47.5
122,87,69851,37,10,0:0:0:0:
147,206,70065,1,2,0:0:0:0:
178,341,70279,1,10,0:0:0:0:
172,353,70708,6,0,B|118:353|140:373|74:375,1,95,10|2,0:0|0:0,0:0:0:0:
8,311,71137,1,8,0:0:0:0:
348,211,71565,38,0,B|402:211|380:231|446:233,1,95,10|2,0:0|0:0,0:0:0:0:
512,169,71994,1,8,0:0:0:0:
216,62,72422,1,10,0:0:0:0:
220,80,72529,1,0,0:0:0:0:
225,98,72637,1,2,0:0:0:0:
230,116,72744,1,0,0:0:0:0:
236,134,72851,1,8,0:0:0:0:
255,384,73279,6,0,B|255:330|275:352|277:286,1,95,10|2,0:0|0:0,0:0:0:0:
215,216,73708,1,10,0:0:0:0:
40,352,74137,6,0,P|66:347|89:326,1,35.625001358986,10|0,1:2|0:0,0:0:0:0:
33,213,74351,2,0,P|23:239|30:270,1,61.7499971733095,2|0,0:2|0:0,0:0:0:0:
152,280,74565,2,0,P|133:258|101:248,1,61.7499971733095,8|0,0:0|0:0,0:0:0:0:
165,371,74779,5,0,0:0:0:0:
199,362,74886,1,0,0:0:0:0:
227,342,74993,1,10,0:2:0:0:
244,310,75100,1,0,0:0:0:0:
246,275,75208,1,2,0:2:0:0:
255,227,75315,1,0,0:0:0:0:
286,191,75422,2,0,P|339:191|389:207,1,106.875004076958,0|0,1:0|0:0,0:0:0:0:
396,218,75851,38,0,P|365:207|352:205,1,35.625001358986,2|0,0:2|0:0,0:0:0:0:
360,287,76065,1,2,0:2:0:0:
432,368,76279,1,0,1:0:0:0:
453,117,76494,6,0,L|466:203,1,61.7499971733095
368,56,76708,2,0,L|381:142,1,61.7499971733095,10|0,0:2|0:0,0:0:0:0:
284,0,76922,2,0,L|297:86,1,61.7499971733095,2|0,0:2|0:0,0:0:0:0:
468,38,77137,2,0,L|280:60,1,185.249991519928,2|0,0:2|0:0,0:0:0:0:
276,61,77565,1,2,1:2:0:0:
208,256,77779,1,2,0:2:0:0:
312,208,77994,1,0,0:0:0:0:
59,117,78208,38,0,L|46:203,1,61.7499971733095,0|0,1:0|0:0,0:0:0:0:
144,56,78422,2,0,L|131:142,1,61.7499971733095,10|0,0:2|0:0,0:0:0:0:
228,0,78636,2,0,L|215:86,1,61.7499971733095,2|0,0:2|0:0,0:0:0:0:
44,38,78851,2,0,L|231:60,1,185.249991519928,0|0,1:0|0:0,0:0:0:0:
236,61,79279,1,2,0:2:0:0:
304,256,79493,1,2,0:2:0:0:
200,208,79708,2,0,B|206:242|211:227|217:259,1,42.7499986953736,0|0,1:0|0:0,0:0:0:0:
232,376,80137,6,0,L|271:320,1,61.7499971733095,10|0,0:2|0:0,0:0:0:0:
443,267,80351,2,0,L|374:260,1,61.7499971733095,2|0,0:2|0:0,0:0:0:0:
248,128,80565,2,0,L|276:190,1,61.7499971733095,2|0,0:2|0:0,0:0:0:0:
40,352,80779,38,0,P|66:347|89:326,1,30.8749985866547
40,352,80994,2,0,P|66:347|89:326,1,35.625001358986,10|0,1:2|0:0,0:0:0:0:
33,213,81208,2,0,P|23:239|30:270,1,61.7499971733095,2|0,0:2|0:0,0:0:0:0:
152,280,81422,2,0,P|133:258|101:248,1,61.7499971733095,8|0,0:2|0:0,0:0:0:0:
155,375,81637,5,0,0:0:0:0:
198,363,81744,1,0,0:0:0:0:
231,333,81851,1,10,0:2:0:0:
246,290,81958,1,0,0:0:0:0:
241,245,82065,1,2,0:2:0:0:
211,189,82172,1,0,0:0:0:0:
160,163,82279,2,0,P|126:143|92:85,1,106.875004076958,0|0,1:0|0:0,0:0:0:0:
100,75,82708,38,0,P|111:98|126:117,1,35.625001358986,2|0,0:2|0:0,0:0:0:0:
177,54,82922,1,2,0:2:0:0:
40,24,83137,1,0,1:0:0:0:
320,16,83351,6,0,L|329:89,1,61.7499971733095
458,0,83565,2,0,L|385:9,1,61.7499971733095,10|0,0:2|0:0,0:0:0:0:
480,137,83779,2,0,L|471:64,1,61.7499971733095,2|0,0:2|0:0,0:0:0:0:
276,162,83994,2,0,L|468:138,1,185.249991519928,2|0,0:2|0:0,0:0:0:0:
469,138,84422,1,2,1:2:0:0:
352,296,84637,1,2,0:2:0:0:
312,232,84851,1,0,0:0:0:0:
192,16,85065,38,0,L|183:89,1,61.7499971733095,0|0,1:0|0:0,0:0:0:0:
54,0,85279,2,0,L|127:9,1,61.7499971733095,10|0,0:2|0:0,0:0:0:0:
32,137,85493,2,0,L|41:64,1,61.7499971733095,2|0,0:2|0:0,0:0:0:0:
236,162,85708,2,0,L|43:138,1,185.249991519928,0|0,1:0|0:0,0:0:0:0:
43,138,86136,1,2,0:2:0:0:
160,296,86351,1,2,0:2:0:0:
200,232,86565,1,0,1:0:0:0:
256,0,86994,5,0,0:2:0:0:
256,0,87208,1,0,0:2:0:0:
256,0,87422,1,0,0:2:0:0:
251,379,87851,5,2,1:2:0:0:
322,345,88065,2,0,P|314:312|299:271,1,71.2500027179719,2|0,0:2|0:0,0:0:0:0:
5,200,88708,2,0,P|39:190|85:181,1,71.2500027179719,10|2,0:2|0:2,0:0:0:0:
185,230,89137,2,0,P|151:243|109:252,1,71.2500027179719,0|0,1:0|0:0,0:0:0:0:
216,151,89565,2,0,P|250:159|292:173,1,71.2500027179719,2|2,0:2|0:2,0:0:0:0:
358,131,89994,1,0,0:0:0:0:
358,131,90208,1,0,0:0:0:0:
318,54,90422,6,2,P|177:82|50:112,1,249.375009512902,0|0,0:2|0:2,0:1:0:0:
42,73,91279,37,2,1:2:0:0:
126,126,91494,2,0,P|134:161|141:207,1,71.2500027179719,2|0,0:2|0:0,0:0:0:0:
85,254,91922,1,0,1:0:0:0:
85,254,92137,1,10,0:2:0:0:
347,339,92565,2,0,P|357:305|362:258,1,71.2500027179719,0|0,1:0|0:0,0:0:0:0:
435,225,92994,1,2,0:2:0:0:
143,78,93422,1,0,0:0:0:0:
143,78,93637,1,0,0:0:0:0:
219,27,93851,6,2,P|243:166|267:286,1,249.375009512902,0|0,0:2|0:2,0:1:0:0:
246,305,94708,37,2,1:2:0:0:
491,79,95137,2,0,P|455:69|415:63,1,71.2500027179719
366,129,95565,2,0,P|330:139|290:145,1,71.2500027179719,10|2,0:0|0:0,0:0:0:0:
120,123,95994,1,0,1:0:0:0:
201,197,96208,1,0,0:0:0:0:
100,146,96422,2,0,P|154:152|206:185,1,106.875004076958,2|0,0:2|0:0,0:0:0:0:
362,221,96851,2,0,P|308:227|256:260,1,106.875004076958,2|0,0:2|0:0,0:0:0:0:
210,44,97279,6,2,P|227:187|227:308,1,249.375009512902,0|0,0:0|0:0,0:1:0:0:
205,321,98137,37,2,1:2:0:0:
373,243,98351,2,0,L|388:170,1,71.2500027179719,2|0,0:2|0:0,0:0:0:0:
354,364,98779,1,0,1:0:0:0:
354,364,98994,1,10,0:2:0:0:
293,291,99208,2,0,L|276:216,1,71.2500027179719,2|0,0:2|1:0,0:0:0:0:
215,152,99637,2,0,L|231:72,2,71.2500027179719,0|2|2,0:0|0:2|0:2,0:0:0:0:
320,40,100279,1,0,2:0:0:0:
320,40,100494,1,0,2:0:0:0:
364,131,100708,6,2,P|224:109|101:99,1,249.375009512902,0|0,2:2|0:0,0:1:0:0:
8,16,101564,5,8,0:0:0:0:
86,28,101779,1,2,0:0:0:0:
24,168,101994,1,8,0:0:0:0:
23,179,102208,1,0,0:0:0:0:
80,240,102422,1,10,0:0:0:0:
176,216,102636,1,2,0:0:0:0:
200,312,102850,1,8,0:0:0:0:
191,304,103065,1,0,0:0:0:0:
104,336,103279,2,0,L|32:320,3,71.2500027179719,10|2|8|0,0:0|0:0|0:0|0:0,0:0:0:0:
175,128,104137,5,10,0:0:0:0:
272,136,104351,1,2,0:0:0:0:
368,144,104565,1,10,0:0:0:0:
504,16,104779,37,0,0:0:0:0:
504,16,104994,1,10,0:0:0:0:
426,28,105208,1,2,0:0:0:0:
488,168,105423,1,8,0:0:0:0:
489,179,105637,1,0,0:0:0:0:
432,240,105851,1,10,0:0:0:0:
336,216,106065,1,2,0:0:0:0:
312,312,106279,1,8,0:0:0:0:
408,336,106494,1,0,0:0:0:0:
408,336,106708,2,0,L|480:320,3,71.2500027179719,10|2|8|0,0:0|0:0|0:0|0:0,0:0:0:0:
336,128,107565,5,10,0:0:0:0:
240,136,107779,1,2,0:0:0:0:
144,144,107993,1,10,0:0:0:0:
8,16,108208,37,0,0:0:0:0:
8,16,108422,2,0,B|38:34|72:58|150:70,1,142.5,10|0,0:0|0:0,0:0:0:0:
155,65,108851,1,8,0:0:0:0:
243,0,109065,6,0,P|228:33|222:57,1,47.5
323,9,109279,2,0,P|297:69|286:112,1,95,10|2,0:0|0:0,0:0:0:0:
406,19,109708,2,0,P|373:98|358:154,1,142.5,8|0,0:0|0:0,0:0:0:0:
363,162,110137,37,10,0:0:0:0:
448,136,110351,1,2,0:0:0:0:
323,9,110565,2,0,P|301:62|291:99,1,95,8|0,0:0|0:0,0:0:0:0:
432,248,110994,5,10,0:0:0:0:
360,272,111208,1,2,0:0:0:0:
272,216,111422,1,10,0:0:0:0:
267,205,111637,1,0,0:0:0:0:
256,327,111851,38,0,P|224:318|194:317,1,47.5,10|0,0:0|0:0,0:0:0:0:
145,362,112065,1,2,0:0:0:0:
264,313,112279,2,0,P|205:301|137:363,1,142.5,8|0,0:0|0:0,0:0:0:0:
65,329,112708,5,10,0:0:0:0:
0,184,112922,1,2,0:0:0:0:
32,185,113029,1,0,0:0:0:0:
60,205,113136,1,8,0:0:0:0:
72,236,113243,1,0,0:0:0:0:
99,255,113351,1,0,0:0:0:0:
133,252,113458,1,0,0:0:0:0:
157,229,113565,38,0,P|167:176|168:151,1,47.5,10|0,0:0|0:0,0:0:0:0:
90,92,113779,1,2,0:0:0:0:
90,92,113887,1,0,0:0:0:0:
90,92,113994,2,0,P|93:115|100:138,1,47.5,8|0,0:0|0:0,0:0:0:0:
224,116,114208,2,0,P|220:92|213:69,1,47.5
139,23,114422,5,10,0:0:0:0:
224,127,114637,1,2,0:0:0:0:
296,224,114851,2,0,L|267:368,1,142.5,10|0,0:0|0:0,0:0:0:0:
274,337,115279,6,0,P|258:288|201:241,1,118.75,2|2,1:2|0:2,0:0:0:0:
95,221,115708,2,0,P|46:233|0:247,1,95
298,225,116137,1,10,0:2:0:0:
382,274,116351,1,2,0:2:0:0:
461,222,116565,2,0,P|468:141|484:35,1,178.125,0|0,1:0|0:0,0:0:0:0:
342,141,116994,6,0,P|364:147|384:160,1,47.5,2|0,0:2|0:0,0:0:0:0:
319,63,117208,2,0,P|296:69|276:82,1,47.5,2|0,0:2|0:0,0:0:0:0:
281,188,117422,2,0,P|299:128|319:68,1,118.75,0|0,1:0|0:0,0:0:0:0:
335,244,117851,37,10,0:2:0:0:
209,262,118065,1,2,0:2:0:0:
90,278,118279,1,2,0:2:0:0:
81,271,118708,6,0,P|66:209|18:169,1,118.75,2|2,1:2|0:2,0:0:0:0:
76,104,119137,2,0,P|90:122|113:139,1,47.5
106,93,119351,2,0,P|138:119|208:166,1,118.75,0|10,1:0|0:2,0:0:0:0:
362,222,119779,1,2,0:2:0:0:
278,286,119994,2,0,P|185:268|93:255,1,178.125,0|0,1:0|0:0,0:0:0:0:
110,289,120422,2,0,P|159:295|207:303,1,95,2|2,0:2|0:2,0:0:0:0:
309,383,120851,1,0,1:0:0:0:
317,368,121279,37,10,0:2:0:0:
343,217,121494,1,2,0:2:0:0:
368,61,121708,1,2,0:2:0:0:
359,47,122137,6,0,P|393:103|458:129,1,118.75,2|2,1:2|0:2,0:0:0:0:
512,70,122565,1,0,0:0:0:0:
506,62,122779,1,0,0:0:0:0:
309,128,122994,2,0,P|283:88|250:50,1,95,10|2,0:2|0:2,0:0:0:0:
245,216,123422,2,0,P|266:130|280:28,1,178.125,0|0,1:0|0:0,0:0:0:0:
234,64,123851,37,2,0:2:0:0:
307,125,124065,1,2,0:2:0:0:
205,335,124279,2,0,P|233:324|264:321,1,59.375,0|0,1:0|0:0,0:0:0:0:
159,262,124494,2,0,P|131:250|91:249,1,59.375
256,219,124708,6,0,P|305:228|367:248,1,95,10|2,0:2|0:2,0:0:0:0:
417,299,125137,1,2,0:2:0:0:
327,218,125565,38,0,P|269:229|211:250,1,118.75,2|2,1:2|0:2,0:0:0:0:
276,332,125994,1,0,0:0:0:0:
394,179,126208,1,0,1:0:0:0:
208,137,126422,1,10,0:2:0:0:
208,137,126637,1,2,0:2:0:0:
258,190,126851,2,0,L|242:49,1,118.75,0|0,1:0|0:0,0:0:0:0:
8,0,128994,21,2,1:2:0:0:
40,107,129208,1,2,0:2:0:0:
181,16,129422,2,0,P|147:59|120:130,1,109.250002083778
117,247,129851,1,2,0:2:0:0:
216,180,130065,1,2,0:2:0:0:
18,181,130279,2,0,L|47:339,1,132.999995941162,0|0,1:0|0:0,0:0:0:0:
235,97,130708,5,2,0:2:0:0:
270,248,130922,1,2,0:2:0:0:
351,123,131137,2,0,L|366:226,1,66.4999979705811,0|0,1:0|0:0,0:0:0:0:
441,177,131351,2,0,L|431:111,1,66.4999979705811
462,37,131565,37,2,0:2:0:0:
441,177,131779,1,2,0:2:0:0:
422,305,131994,1,2,0:2:0:0:
435,312,132422,6,0,P|375:329|292:397,1,132.999995941162,2|2,1:2|0:2,0:0:0:0:
317,254,132851,2,0,P|342:271|356:309,1,54.6250010418892
238,376,133065,2,0,P|214:362|195:321,1,66.4999979705811,0|0,1:0|0:0,0:0:0:0:
222,256,133279,1,2,0:2:0:0:
135,372,133494,2,0,P|186:318|217:265,1,132.999995941162,2|0,0:2|1:0,0:0:0:0:
150,189,133922,1,0,0:0:0:0:
223,133,134137,38,0,B|169:119|137:69,1,109.250002083778,2|2,0:2|0:2,0:0:0:0:
215,0,134565,2,0,P|221:35|232:60,1,54.6250010418892,0|0,1:0|0:0,0:0:0:0:
304,88,134779,1,0,0:0:0:0:
379,3,134994,5,2,0:2:0:0:
322,178,135208,1,2,0:2:0:0:
265,353,135422,1,2,0:2:0:0:
257,356,135851,38,0,P|248:282|245:196,1,152,2|2,1:2|0:2,0:0:0:0:
296,136,136279,1,0,0:0:0:0:
225,70,136494,1,0,0:0:0:0:
75,135,136708,1,2,0:2:0:0:
9,86,136922,1,2,0:2:0:0:
63,0,137137,2,0,P|94:121|107:200,1,152,0|0,1:0|0:0,0:0:0:0:
41,226,137565,1,2,0:2:0:0:
135,255,137779,1,2,0:2:0:0:
71,326,137994,2,0,P|171:290|253:280,1,152,0|0,1:0|0:0,0:0:0:0:
305,291,138422,5,2,0:2:0:0:
408,337,138637,1,2,0:2:0:0:
509,383,138851,1,2,0:2:0:0:
495,380,139279,38,0,P|478:310|490:226,1,152,2|2,1:2|0:2,0:0:0:0:
428,174,139708,1,0,0:0:0:0:
360,211,139922,2,0,P|350:285|314:352,1,152,0|2,1:0|0:2,0:0:0:0:
256,296,140565,1,0,1:0:0:0:
256,192,140779,1,0,0:0:0:0:
184,240,140994,2,0,P|148:173|131:107,1,128.250000489235,2|2,0:2|0:0,0:0:0:0:
70,61,141423,1,0,1:0:0:0:
10,118,141637,2,0,P|19:192|3:266,1,152,0|2,0:0|0:2,0:0:0:0:
101,311,142065,1,2,0:2:0:0:
93,239,142279,1,2,0:2:0:0:
26,66,149565,22,0,P|33:101|74:132,1,59.375,10|0,0:0|0:0,0:0:0:0:
44,203,149779,2,0,P|68:221|108:224,1,47.5,2|0,0:0|0:0,0:0:0:0:
157,273,149994,6,0,P|192:272|241:260,1,71.2500027179719,8|0,0:0|0:0,0:0:0:0:
272,196,150315,37,0,0:0:0:0:
268,178,150422,1,10,0:0:0:0:
263,160,150529,1,0,0:0:0:0:
258,142,150637,1,2,0:0:0:0:
254,124,150744,1,0,0:0:0:0:
246,104,150851,6,0,L|214:265,1,142.500005435944,8|10,0:0|0:0,0:0:0:0:
377,273,151708,1,8,0:0:0:0:
406,106,152137,1,10,0:0:0:0:
243,85,152565,1,10,0:0:0:0:
406,106,152994,37,10,0:0:0:0:
379,276,153422,1,8,0:0:0:0:
217,245,153851,1,10,0:0:0:0:
246,88,154279,1,8,0:0:0:0:
186,265,154708,5,10,0:0:0:0:
394,304,155137,1,8,0:0:0:0:
432,91,155565,1,10,0:0:0:0:
226,62,155994,1,10,0:0:0:0:
164,111,156208,2,0,L|172:145,1,29.6875
252,148,156422,38,0,P|245:183|227:211,1,59.375,10|0,0:0|0:0,0:0:0:0:
234,285,156637,2,0,P|210:303|170:306,1,47.5,2|0,0:0|0:0,0:0:0:0:
121,355,156851,6,0,P|86:354|37:342,1,71.2500027179719,8|0,0:0|0:0,0:0:0:0:
5,278,157172,37,0,0:0:0:0:
10,260,157279,1,10,0:0:0:0:
15,242,157386,1,0,0:0:0:0:
20,224,157494,1,2,0:0:0:0:
24,206,157601,1,0,0:0:0:0:
32,186,157708,6,0,L|64:347,1,142.500005435944,8|10,0:0|0:0,0:0:0:0:
246,293,158565,1,8,0:0:0:0:
216,105,158994,1,10,0:0:0:0:
29,137,159422,1,10,0:0:0:0:
312,207,159851,37,2,0:0:0:0:
256,192,160065,12,2,162851,0:0:0:0:
416,8,163279,22,0,B|419:32|419:32|426:23|426:23|430:57,1,66.5,4|0,1:3|0:0,0:0:0:0:
512,64,164137,6,0,B|498:79|498:79|487:71|487:71|445:101|445:101|436:93|436:93|390:115|390:115|379:105|379:105|331:132|331:132|322:124|322:124|278:151|278:151|265:148|265:148|239:167|239:167|223:166|223:166|144:227,1,356.25,8|0,0:3|0:0,0:0:0:0:
136,192,164565,38,0,B|132:160|132:160|125:169|125:169|121:145,1,66.5,4|0,1:3|0:0,0:0:0:0:
121,145,165422,2,0,B|119:132|119:132|116:135|116:135|114:125,1,28.5,4|0,1:3|0:0,0:0:0:0:
0,0,165851,6,0,B|19:11|19:11|12:24|12:24|51:63|51:63|45:74|45:74|76:118|76:118|68:132|68:132|105:177|105:177|98:189|98:189|136:229|136:229|135:244|135:244|159:268|159:268|161:285|161:285|190:321|190:321|186:329|186:329|236:363|236:363|263:347|263:347|203:296|203:296|214:293|214:293|150:251|150:251|94:237|94:237,1,712.5,8|0,0:3|1:3,0:0:0:0:
16,336,166708,38,0,B|15:353|15:353|9:347|9:347|8:373,1,47.5,4|0,1:3|0:0,0:0:0:0:
8,369,167351,2,0,B|7:373|7:373|6:371|6:371|6:378,1,9.5,4|0,1:3|0:0,0:0:0:0:
40,224,167565,6,0,B|59:231|59:231|65:218|65:218|116:223|116:223|120:211|120:211|170:207|170:207|175:193|175:193|230:192|230:192|234:181|234:181|286:183|286:183|295:174|295:174|327:176|327:176|340:168|340:168|439:182,1,356.25,8|0,0:3|0:0,0:0:0:0:
432,152,167994,38,0,B|430:121|430:121|423:130|423:130|421:105,1,66.5,4|0,1:3|0:0,0:0:0:0:
421,104,168851,2,0,B|420:89|420:89|416:93|416:93|416:82,1,28.5,4|0,1:3|0:0,0:0:0:0:
455,13,169279,6,0,B|457:23|457:23|450:26|450:26|440:81|440:81|432:83|432:83|421:142|421:142|416:146|416:146|400:258,2,237.5,8|0|0,0:3|0:3|1:3,0:0:0:0:
336,80,169922,1,0,1:3:0:0:
336,80,170029,1,0,0:0:0:0:
336,80,170137,38,0,B|338:49|338:49|345:58|345:58|347:33,1,66.5,4|0,1:3|0:0,0:0:0:0:
272,0,170994,6,0,B|268:15|268:15|279:19|279:19|294:102|294:102|306:105|306:105|290:112|290:112|301:152|301:152|314:144|314:144|323:194|323:194|330:200|330:200|337:279|351:268|351:268|349:333,1,356.25,8|0,0:3|0:0,0:0:0:0:
266,367,171422,38,0,B|268:336|268:336|275:345|275:345|277:320,1,66.5,4|0,1:3|0:0,0:0:0:0:
276,321,172279,2,0,B|276:306|276:306|280:311|280:311|280:299,1,28.5,4|0,1:3|0:0,0:0:0:0:
426,323,172708,6,0,B|414:312|414:312|405:319|405:319|325:291|325:291|317:300|317:300|279:272|279:272|279:287|279:287|231:270|231:270|222:273|222:273|153:257|153:257|144:238|144:238|102:237|102:237|94:225|94:225|147:169|147:169|155:188|155:188|177:206|177:206|204:216|204:216|124:317|124:317|140:308|140:308|119:348|119:348,1,712.5,8|0,0:3|1:3,0:0:0:0:
31,384,173565,38,0,B|29:362|29:362|24:368|24:368|23:350,1,47.5,4|0,1:3|0:0,0:0:0:0:
23,350,174208,2,0,B|22:344|22:344|21:346|21:346|21:341,1,9.5,4|0,1:3|0:0,0:0:0:0:
0,256,174422,6,0,B|48:272|48:272|67:270|67:270|65:260|65:260|96:268|96:268|114:281|114:281|124:275|124:275|151:297|151:297|180:291|180:291|177:263|177:263|212:240|212:240|309:270|309:270,1,356.25,8|0,0:3|0:0,0:0:0:0:
374,281,174851,38,0,B|375:250|375:250|382:259|382:259|384:235,1,66.5,4|0,1:3|0:0,0:0:0:0:
384,234,175708,2,0,B|384:221|384:221|387:224|387:224|388:214,1,28.5,4|0,1:3|0:0,0:0:0:0:
489,222,176137,6,0,B|450:228|450:228|415:267|415:267|375:290|375:290|368:274|368:274|342:301|342:301|330:315|330:315|288:344|288:344|336:360|336:360,2,313.500002989769,8|0|0,0:3|0:3|1:3,0:0:0:0:
512,136,176779,37,0,1:3:0:0:
512,136,176887,5,0,0:0:0:0:
436,68,176994,6,0,B|414:75|414:75|404:86|404:86|386:94,1,57,6|0,1:3|0:3,0:0:0:0:
491,103,177851,6,0,B|493:109|493:109|480:160|480:160|470:165|470:165|471:210|471:210|460:214|460:214|426:227|426:227|421:239|421:239|387:242|387:242|376:245|376:245|353:196|353:196|344:190|344:190|360:151|360:151|354:144|354:144|370:111|370:111|363:101|363:101|379:70|379:70|372:63|372:63|384:21,1,475,8|4,0:3|1:3,0:0:0:0:
200,62,178494,37,0,0:3:0:0:
280,15,178708,2,0,B|277:25|277:25|277:36,1,19,0|0,0:3|0:3,0:0:0:0:
264,170,179029,1,0,0:0:0:0:
253,131,179137,1,4,1:3:0:0:
292,117,179244,1,0,0:0:0:0:
308,156,179351,1,0,0:3:0:0:
34,208,179565,6,0,B|80:220|80:220|68:223|68:223|125:235|125:235|114:240|114:240|174:249|174:249|163:252|163:252|226:261|226:261|218:265|218:265|288:277|288:277|284:282|284:282|353:291|353:291|344:296|344:296|418:314,1,475,8|0,0:3|0:3,0:0:0:0:
512,250,180208,37,0,1:3:0:0:
431,222,180422,2,0,L|437:196,1,19,6|0,1:3|0:3,0:0:0:0:
456,131,180744,1,0,0:0:0:0:
419,49,180958,1,0,0:0:0:0:
419,49,181065,2,0,L|424:64,1,9.5,4|0,1:3|0:0,0:0:0:0:
284,0,181279,6,0,B|295:39|295:39|302:43|302:43|313:76|313:76|310:84|310:84|319:120|319:120|324:125|324:125|337:161|337:161|335:169|335:169|348:220|348:220|353:223|353:223|365:268|365:268|361:275|361:275|381:341,1,356.25,8|0,0:3|0:0,0:0:0:0:
329,268,181708,38,0,L|307:275,1,19,4|0,1:3|0:3,0:0:0:0:
232,332,182137,1,0,0:3:0:0:
166,273,182351,1,0,0:3:0:0:
166,273,182458,1,0,0:0:0:0:
166,273,182565,2,0,L|168:252,1,19,4|0,1:3|0:3,0:0:0:0:
0,359,182994,6,0,B|35:339|35:339|65:342|65:342|102:344|102:344|182:289|182:289|199:294|199:294|203:229|203:229|242:202,2,313.500002989769,8|0|0,0:3|0:3|1:3,0:0:0:0:
83,230,183637,37,0,1:3:0:0:
16,178,183851,2,0,L|11:145,1,28.5,6|0,1:3|0:0,0:0:0:0:
148,63,184494,1,0,0:3:0:0:
148,63,184601,1,0,0:0:0:0:
148,63,184708,6,0,B|140:100|140:100|133:101|133:101|126:140|126:140|119:144|119:144|112:186|112:186|114:193|114:193|103:236|103:236|94:243|94:243|112:329|112:329|124:339|124:339|139:335|139:335|200:290|200:290|200:279|200:279|218:218|218:218,1,356.25,8|0,0:3|0:0,0:0:0:0:
189,303,185137,38,0,L|196:281,1,19,4|0,1:3|0:3,0:0:0:0:
218,216,185458,1,0,0:0:0:0:
218,216,185565,1,0,0:3:0:0:
390,279,185779,1,0,0:3:0:0:
369,287,185887,1,0,0:0:0:0:
344,296,185994,2,0,L|350:265,1,28.5,4|0,1:3|0:0,0:0:0:0:
484,362,186422,6,0,B|468:300|468:300|470:291|470:291|457:236|457:236|449:229|449:229|432:164|432:164|435:153|435:153|441:150|441:150|433:149|433:149|425:111|425:111|427:100|427:100|410:33|410:33|403:29|403:29|404:29,1,356.25,8|0,0:3|0:0,0:0:0:0:
351,144,186851,38,0,L|336:75,1,71.2500027179719,0|0,1:3|0:0,0:0:0:0:
267,116,187065,2,0,L|289:198,1,71.2500027179719,0|0,1:3|0:0,0:0:0:0:
206,66,187279,2,0,L|213:36,1,28.5,6|0,1:3|0:0,0:0:0:0:
108,20,187815,1,0,0:0:0:0:
112,24,187922,2,0,L|114:37,1,9.5,4|0,1:3|0:0,0:0:0:0:
0,168,188137,6,0,B|54:154|54:154|62:155|62:155|97:147|97:147|104:147|104:147|141:139|141:139|148:132|148:132|191:121|191:121|202:124|202:124|231:117|231:117|238:123|238:123|241:114|241:114|271:106|271:106|278:97|278:97|342:79,1,356.25,8|0,0:3|0:0,0:0:0:0:
416,129,188565,38,0,L|396:137,2,12.6666666666667,4|0|0,1:3|0:0|0:0,0:0:0:0:
499,161,188994,1,2,0:3:0:0:
459,266,189315,1,0,0:0:0:0:
459,266,189422,2,0,L|436:259,1,19,4|0,1:3|0:3,0:0:0:0:
365,351,189851,6,0,B|326:339|326:339|320:334|320:334|262:322|262:322|254:323|254:323|234:345|234:345|208:354|208:354|204:347|204:347|156:332|156:332|146:336|146:336|84:303|84:303|82:294,2,313.500002989769,10|0|0,0:3|0:3|1:3,0:0:0:0:
253,287,190494,1,0,1:3:0:0:
328,184,190708,6,0,L|333:202,1,19,6|0,1:3|0:3,0:0:0:0:
256,160,191029,2,0,L|250:141,1,19
272,72,191351,1,0,0:3:0:0:
336,212,191565,6,0,B|304:185|304:185|250:184|250:184|225:176|225:176|230:181|230:181|210:163|210:163|175:156|175:156|151:135|151:135|148:141|148:141|101:128|101:128|106:137|106:137|-16:58,1,356.25,8|0,0:3|0:0,0:0:0:0:
38,89,191994,38,0,L|48:87,1,9.5,4|0,1:3|0:0,0:0:0:0:
0,15,192208,2,0,L|10:16,1,9.5,0|0,0:3|0:0,0:0:0:0:
88,2,192422,2,0,L|90:26,1,19,0|0,0:3|0:3,0:0:0:0:
168,31,192744,1,0,0:0:0:0:
167,39,192851,2,0,L|165:51,2,9.5,4|0|0,1:3|0:0|0:3,0:0:0:0:
0,217,193279,6,0,B|9:201|9:201|78:183|78:183|72:191|72:191|133:164|133:164|128:173|128:173|161:142|161:142|164:149|164:149|217:105|217:105|284:94|284:94|291:179|291:179|351:215|351:215|344:250|344:250|306:254|306:254|305:227|305:227|258:199|258:199|258:176|258:176|306:166|306:166,1,712.5,8|0,0:3|1:3,0:0:0:0:
366,74,194137,38,0,L|359:118,1,38,6|0,1:3|0:3,0:0:0:0:
454,29,194458,1,0,0:0:0:0:
454,39,194565,2,0,L|459:79,1,38,0|4,0:3|1:3,0:0:0:0:
512,154,194994,6,0,B|479:168|479:168|441:178|441:178|445:171|445:171|417:163|417:163|370:197|370:197|332:210|332:210|273:243|273:243|272:235|272:235|147:263,1,356.25,8|0,0:3|0:0,0:0:0:0:
194,252,195422,38,0,L|178:255,1,9.5,4|0,1:3|0:0,0:0:0:0:
114,194,195637,2,0,L|129:197,1,9.5,0|0,0:3|0:0,0:0:0:0:
165,334,195851,2,0,L|191:331,1,19,0|0,0:3|0:3,0:0:0:0:
247,369,196172,2,0,L|256:371,1,9.5,0|4,0:0|1:3,0:0:0:0:
315,324,196494,1,0,0:3:0:0:
512,242,196708,6,0,B|474:268|474:268|434:266|434:266|443:242|443:242|412:293|412:293|384:315|384:315|362:286|362:286|384:339|384:339|379:381|379:381|499:415,2,313.500002989769,8|0|0,2:3|0:3|1:3,0:0:0:0:
484,359,197351,1,0,1:3:0:0:
294,226,197565,38,0,L|290:197,1,28.5,6|0,1:3|0:0,0:0:0:0:
368,182,197994,2,0,L|372:211,1,28.5,0|0,0:3|0:0,0:0:0:0:
313,124,198422,6,0,B|251:107|251:107|258:116|258:116|208:93|208:93|163:108|163:108|184:108|184:108|94:129|94:129|111:137|111:137|45:192|45:192,1,356.25,8|0,0:3|0:0,0:0:0:0:
80,164,198851,38,0,L|83:184,1,19,4|0,1:3|0:3,0:0:0:0:
29,271,199279,2,0,L|31:252,1,19,0|0,0:3|0:3,0:0:0:0:
104,288,199708,2,0,L|106:269,1,19,4|0,1:3|0:3,0:0:0:0:
0,181,200137,6,0,B|55:201|55:201|40:204|40:204|126:237|126:237|109:235|109:235|170:263|170:263|151:258|151:258|208:312|208:312|210:353|210:353|235:381|235:381|234:320|234:320|257:304|257:304|273:282|273:282|279:293|279:293|313:272|313:272|299:257|299:257|331:221|331:221|390:204,1,712.5,8|0,0:3|1:3,0:0:0:0:
480,194,200994,38,0,L|483:214,1,19,6|0,1:3|0:3,0:0:0:0:
421,283,201422,2,0,L|419:295,2,9.5,0|0|4,0:3|0:0|1:3,0:0:0:0:
474,175,201851,6,0,B|460:159|460:159|472:156|472:156|451:132|451:132|463:118|463:118|453:96|453:96|449:85|449:85|417:72|417:72|429:61|429:61|401:59|401:59|376:50|376:50|371:41|371:41|344:37|344:37|322:33|322:33|304:23|304:23|301:29|301:29|266:33|266:33|252:39|252:39|219:40|219:40,1,356.25,8|0,0:3|0:0,0:0:0:0:
188,62,202279,38,0,L|192:72,1,9.5,4|0,1:3|0:0,0:0:0:0:
112,16,202494,2,0,L|121:14,1,9.5,0|0,0:3|0:0,0:0:0:0:
130,12,202708,1,2,0:3:0:0:
107,133,202922,1,0,0:3:0:0:
216,192,203137,1,4,1:3:0:0:
352,128,203351,1,0,0:3:0:0:
248,344,203565,6,0,B|246:297|246:297|259:300|259:300|255:279|255:279|289:259|289:259|267:222|267:222|249:177|249:177|238:190|238:190|269:110|269:110|261:63|261:63|268:73|268:73|267:36|267:36|263:34|263:34|260:-6|260:-6|220:-5|220:-5|229:5|229:5|215:7|215:7|210:54|210:54|215:43|215:43|205:75|205:75|200:65|200:65|221:96|221:96|293:133|293:133|294:175|294:175|245:228|245:228|278:343,1,940.500008969307,10|0,0:3|1:3,0:0:0:0:
332,349,204422,38,0,L|350:354,1,19,6|0,1:3|0:3,0:0:0:0:
435,306,204744,2,0,L|417:300,1,19
405,296,205065,1,0,0:3:0:0:
490,234,205279,6,0,B|430:246|430:246|435:251|435:251|385:265|385:265|332:293|332:293|340:298|340:298|291:341|291:341|231:350|231:350|199:342|199:342|168:297|168:297,1,356.25,8|0,0:3|0:0,0:0:0:0:
216,248,205708,38,0,L|221:268,1,19,4|0,1:3|0:3,0:0:0:0:
128,296,206137,2,0,L|122:277,1,19,0|0,0:3|0:3,0:0:0:0:
90,266,206458,2,0,L|96:253,1,9.5,0|4,0:0|1:3,0:0:0:0:
67,187,206779,1,0,0:3:0:0:
19,325,206994,6,0,B|57:308|57:308|58:315|58:315|100:294|100:294|103:306|103:306|143:292|143:292|159:270|159:270|199:245|199:245|191:242|191:242|213:224|213:224|258:195|258:195|247:198|247:198|276:176|276:176|309:152|309:152|357:81|357:81|358:38|358:38|368:29|368:29|373:12|373:12|391:-10|391:-10|336:3|336:3|342:10|342:10|305:11|305:11|271:2|271:2|233:-4|233:-4|224:19|224:19|247:66|247:66,1,831.25,8|0,0:3|0:0,0:0:0:0:
172,84,207851,38,0,L|164:68,1,19,6|0,1:3|0:3,0:0:0:0:
159,56,208172,1,0,0:0:0:0:
72,32,208387,1,0,0:0:0:0:
72,32,208494,1,4,1:3:0:0:
0,0,208708,6,0,B|36:24|36:24|44:41|44:41|64:41|64:41|81:62|81:62|120:72|120:72|139:98|139:98|134:89|134:89|208:123|208:123|197:128|197:128|248:167|248:167|260:163|260:163|298:179|298:179,1,356.25,8|0,0:3|0:0,0:0:0:0:
326,174,209137,38,0,L|335:194,1,19,4|0,1:3|0:3,0:0:0:0:
363,111,209565,5,0,0:3:0:0:
363,111,209672,37,0,0:0:0:0:
363,111,209779,5,0,0:3:0:0:
296,272,209994,37,4,1:3:0:0:
296,272,210208,5,0,0:3:0:0:
189,132,210422,37,8,0:3:0:0:
287,76,210637,5,0,0:0:0:0:
211,329,210851,37,0,1:3:0:0:
143,211,211065,5,0,1:3:0:0:
439,264,211279,6,0,B|410:270|410:270|400:274|400:274|373:281,1,66.5,4|0,1:3|0:0,0:0:0:0:
293,211,212137,6,0,B|264:206|264:206|258:201|258:201|216:194|216:194|206:197|206:197|167:192|167:192|142:197|142:197|122:183|122:183|22:166,1,256.499992172241,8|0,0:3|0:0,0:0:0:0:
148,164,212565,38,0,B|140:132|140:132|136:125|136:125|129:99,1,66.5,4|0,1:3|0:0,0:0:0:0:
44,68,213422,2,0,L|53:33,1,28.5,4|0,1:3|0:0,0:0:0:0:
227,123,213851,6,0,B|287:137|287:137|316:134|316:134|363:145|363:145|388:161|388:161|414:169|414:169|412:176|412:176|414:169|414:169|448:178|448:178|476:206|476:206|477:238|477:238|458:264|458:264|423:281|423:281|398:296|398:296|373:317|373:317|345:335|345:335|338:283|338:283|408:248,1,598.49998173523,8|0,0:3|0:0,0:0:0:0:
413,175,214708,38,0,L|401:125,1,47.5,4|0,1:3|0:0,0:0:0:0:
337,76,215351,2,0,L|341:60,1,9.5,4|0,1:3|0:0,0:0:0:0:
166,113,215565,6,0,B|171:136|171:136|187:146|187:146|196:193|196:193|191:203|191:203|185:211|185:211|196:257|196:257|203:262|203:262|211:267|211:267|219:306|219:306|220:318|220:318|193:340,1,256.499992172241,8|0,0:3|0:0,0:0:0:0:
218,227,215994,38,0,L|284:211,1,66.5,4|0,1:3|0:0,0:0:0:0:
356,265,216851,2,0,L|390:257,1,28.5,4|0,1:3|0:0,0:0:0:0:
507,315,217279,6,0,B|458:323|458:323|442:336|442:336|331:363|331:363|311:356|311:356|231:373|231:373|211:369|211:369|132:383|132:383|138:376|138:376|271:339|271:339,1,512.999984344483,8|0,0:3|0:3,0:0:0:0:
