osu file format v14

[General]
AudioFilename: audio.mp3
AudioLeadIn: 0
PreviewTime: 144091
Countdown: 0
SampleSet: Soft
StackLeniency: 0.7
Mode: 0
LetterboxInBreaks: 0
WidescreenStoryboard: 1

[Editor]
Bookmarks: 2127,19269,32984,46698,60412,74127,87841,101555,115269,128984,142698,142805,142912,143019,143127,143234,143341,143448,143555,143662,143769,143877,143984,144091,144198,144305,144412,144519,144627,144734,144841,144948,145055,145162,145269,145377,145484,145591,145698,145805,145912,146019,146127,146234,146341,146448,146555,146662,146769,146877,146984,147091,147198,147305,147412,147519,147627,147734,147841,147948,148055,148162,148269,148377,148484,148591,148698,148805,148912,149019,149127,149234,149341,149448,149555,163269,176984,190698,204412,218127
DistanceSpacing: 1.2
BeatDivisor: 4
GridSize: 8
TimelineZoom: 2.2

[Metadata]
Title:Ni**as in Paris
TitleUnicode:Ni**as in Paris
Artist:Jay-Z & Kanye West
ArtistUnicode:Jay-Z & Kanye West
Creator:Myahkey
Version:Hard
Source:
Tags:1103 fellas watch the throne no equal jayz yeezy hip hop hip-hop rap english hit-boy mike dean anthony kilhoffer blades of glory will ferrell puff daddy victory niggas
BeatmapID:3169607
BeatmapSetID:1547973

[Difficulty]
HPDrainRate:5
CircleSize:3.3
OverallDifficulty:6.2
ApproachRate:8
SliderMultiplier:1.7
SliderTickRate:1

[Events]
//Background and Video events
0,0,"288027.jpg",0,0
//Break Periods
2,89765,90529
2,93194,93958
2,96622,97387
2,100051,100815
2,127265,128244
2,142708,148815
//Storyboard Layer 0 (Background)
//Storyboard Layer 1 (Fail)
//Storyboard Layer 2 (Pass)
//Storyboard Layer 3 (Foreground)
//Storyboard Layer 4 (Overlay)
//Storyboard Sound Samples

[TimingPoints]
2137,428.571428571429,4,2,1,50,1,0
5565,-100,4,2,1,60,0,0
16708,-100,4,2,1,65,0,0
17565,-100,4,2,1,70,0,0
18422,-100,4,2,1,75,0,0
19279,-100,4,2,1,70,0,0
20887,-100,4,2,1,5,0,0
20994,-100,4,2,1,70,0,0
31279,-100,4,2,1,75,0,0
32994,-86.9565217391304,4,2,1,80,0,0
33851,-86.9565217391304,4,2,2,80,0,0
34601,-86.9565217391304,4,2,2,5,0,0
34708,-86.9565217391304,4,2,2,80,0,0
36422,-86.9565217391304,4,2,1,80,0,0
37279,-86.9565217391304,4,2,2,80,0,0
45744,-86.9565217391304,4,2,2,5,0,0
45851,-86.9565217391304,4,2,2,80,0,0
46708,-86.9565217391304,4,2,1,80,0,0
47565,-86.9565217391304,4,2,2,80,0,0
48315,-86.9565217391304,4,2,2,5,0,0
48422,-86.9565217391304,4,2,2,80,0,0
50672,-86.9565217391304,4,2,2,80,0,0
50779,-86.9565217391304,4,2,2,80,0,0
51744,-86.9565217391304,4,2,2,5,0,0
51851,-86.9565217391304,4,2,2,80,0,0
53565,-86.9565217391304,4,2,1,80,0,0
54422,-86.9565217391304,4,2,2,80,0,0
59458,-86.9565217391304,4,2,2,5,0,0
59565,-86.9565217391304,4,2,2,80,0,0
60422,-100,4,2,1,70,0,0
72422,-100,4,2,1,75,0,0
74137,-86.9565217391305,4,2,1,80,0,0
74994,-86.9565217391305,4,2,2,80,0,0
80994,-86.9565217391305,4,2,1,80,0,0
81851,-86.9565217391305,4,2,2,80,0,0
86994,-86.9565217391305,4,2,2,45,0,0
87851,-86.9565217391305,4,2,2,75,0,0
88601,-86.9565217391305,4,2,2,5,0,0
88708,-86.9565217391305,4,2,2,75,0,0
89994,-86.9565217391305,4,2,2,65,0,0
91279,-86.9565217391305,4,2,2,75,0,0
93422,-86.9565217391305,4,2,2,65,0,0
94708,-86.9565217391305,4,2,2,75,0,0
96851,-86.9565217391305,4,2,2,65,0,0
98137,-86.9565217391305,4,2,2,75,0,0
100279,-86.9565217391305,4,2,2,65,0,0
101565,-100,4,2,1,70,0,0
103172,-100,4,2,1,5,0,0
103279,-100,4,2,1,45,0,0
104029,-100,4,2,1,5,0,0
104137,-100,4,2,1,70,0,0
106708,-100,4,2,1,45,0,0
107565,-100,4,2,1,70,0,0
110137,-100,4,2,1,45,0,0
110994,-100,4,2,1,70,0,0
112708,-100,4,2,1,75,0,0
115279,-86.9565217391305,4,2,1,80,0,0
116137,-86.9565217391305,4,2,2,80,0,0
116887,-86.9565217391305,4,2,2,5,0,0
116994,-86.9565217391305,4,2,2,80,0,0
122672,-86.9565217391305,4,2,2,5,0,0
122779,-86.9565217391305,4,2,2,80,0,0
135851,-86.9565217391305,4,2,2,85,0,0
137458,-86.9565217391305,4,2,2,5,0,0
137565,-86.9565217391305,4,2,2,85,0,0
149565,-100,4,2,2,70,0,0
151172,-100,4,2,2,5,0,0
151279,-100,4,2,2,70,0,0
156422,-100,4,2,2,75,0,0
159851,-100,4,2,2,60,0,0
163279,-125,4,2,3,90,0,0
164137,-125,4,2,3,90,0,1
164458,-125,4,2,3,5,0,0
164565,-125,4,2,3,90,0,0
165851,-125,4,2,3,90,0,1
166494,-125,4,2,3,90,0,0
167565,-125,4,2,3,90,0,1
167887,-125,4,2,3,5,0,0
167994,-125,4,2,3,90,0,0
169279,-125,4,2,3,90,0,1
169708,-125,4,2,3,90,0,0
170994,-125,4,2,3,90,0,1
171315,-125,4,2,3,5,0,0
171422,-125,4,2,3,90,0,0
172708,-125,4,2,3,90,0,1
173351,-125,4,2,3,90,0,0
174422,-125,4,2,3,90,0,1
174744,-125,4,2,3,5,0,0
174851,-125,4,2,3,90,0,0
176137,-125,4,2,3,90,0,1
176565,-125,4,2,3,90,0,0
177851,-125,4,2,3,90,0,1
178172,-125,4,2,3,5,0,1
178279,-125,4,2,3,90,0,0
179565,-125,4,2,3,90,0,1
180208,-125,4,2,3,90,0,0
181279,-125,4,2,3,90,0,1
181601,-125,4,2,3,5,0,1
181708,-125,4,2,3,90,0,0
182994,-125,4,2,3,90,0,1
183422,-125,4,2,3,90,0,0
184708,-125,4,2,3,90,0,1
185029,-125,4,2,3,5,0,1
185137,-125,4,2,3,90,0,0
186422,-125,4,2,3,90,0,1
186744,-125,4,2,3,5,0,1
186851,-125,4,2,3,90,0,0
188137,-125,4,2,3,90,0,1
188458,-125,4,2,3,5,0,1
188565,-125,4,2,3,90,0,0
189851,-125,4,2,3,90,0,1
190279,-125,4,2,3,90,0,0
191565,-125,4,2,3,90,0,1
191887,-125,4,2,3,5,0,1
191994,-125,4,2,3,90,0,0
193279,-125,4,2,3,90,0,1
193708,-125,4,2,3,90,0,0
194994,-125,4,2,3,90,0,1
195315,-125,4,2,3,5,0,1
195422,-125,4,2,3,90,0,0
196708,-125,4,2,3,90,0,1
197137,-125,4,2,3,90,0,0
198422,-125,4,2,3,90,0,1
198744,-125,4,2,3,5,0,1
198851,-125,4,2,3,90,0,0
200137,-125,4,2,3,90,0,1
200779,-125,4,2,3,90,0,0
201851,-125,4,2,3,90,0,1
202172,-125,4,2,3,5,0,1
202279,-125,4,2,3,90,0,0
203565,-125,4,2,3,90,0,0
204422,-125,4,2,3,90,0,0
204851,-125,4,2,3,90,0,0
205279,-125,4,2,3,90,0,1
205601,-125,4,2,3,5,0,1
205708,-125,4,2,3,90,0,0
206994,-125,4,2,3,90,0,1
207637,-125,4,2,3,90,0,0
208708,-125,4,2,3,90,0,1
209029,-125,4,2,3,5,0,1
209137,-125,4,2,3,90,0,0
210422,-125,4,2,3,90,0,1
211065,-125,4,2,3,90,0,0

[Colours]
Combo1 : 243,213,110
Combo2 : 128,0,255
Combo3 : 238,183,83
Combo4 : 69,42,164

[HitObjects]
453,346,2137,5,8,0:0:0:0:
346,279,2994,1,8,0:0:0:0:
253,349,3851,1,8,0:0:0:0:
205,341,4279,1,0,0:0:0:0:
150,371,4708,1,8,0:0:0:0:
24,302,5565,5,10,0:0:0:0:
134,327,5779,2,0,P|84:333|44:325,1,85,2|8,0:0|0:0,0:0:0:0:
31,123,6422,1,10,0:0:0:0:
91,218,6636,2,0,P|51:186|28:152,1,85,2|8,0:0|0:0,0:0:0:0:
183,22,7279,1,10,0:0:0:0:
158,131,7493,2,0,P|152:81|160:41,1,85,2|8,0:0|0:0,0:0:0:0:
283,209,8137,5,10,0:0:0:0:
378,174,8351,1,2,0:0:0:0:
477,247,8565,1,10,0:0:0:0:
311,366,8994,5,10,0:0:0:0:
209,367,9208,2,0,P|256:346|322:343,1,85,2|8,0:0|0:0,0:0:0:0:
86,367,9851,5,10,0:0:0:0:
34,279,10065,2,0,P|75:309|111:364,1,85,2|8,0:0|0:0,0:0:0:0:
23,144,10708,1,10,0:0:0:0:
73,55,10922,2,0,P|67:106|37:164,1,85,2|8,0:0|0:0,0:0:0:0:
235,40,11565,5,10,0:0:0:0:
211,139,11779,1,2,0:0:0:0:
135,207,11994,1,10,0:0:0:0:
267,361,12422,5,10,0:0:0:0:
369,361,12637,2,0,L|273:351,1,85,2|8,0:0|0:0,0:0:0:0:
468,264,13279,1,10,0:0:0:0:
366,254,13494,2,0,L|461:240,1,85,2|8,0:0|0:0,0:0:0:0:
380,49,14137,1,10,0:0:0:0:
482,49,14352,2,0,L|386:39,1,85,2|8,0:0|0:0,0:0:0:0:
205,109,14994,5,10,0:0:0:0:
229,207,15208,1,2,0:0:0:0:
251,306,15422,1,10,0:0:0:0:
53,358,15851,6,0,P|103:345|144:348,1,85,10|2,0:0|0:0,0:0:0:0:
42,339,16279,1,8,0:0:0:0:
167,177,16708,1,10,0:0:0:0:
67,198,16922,2,0,P|130:210|179:198,1,85,2|8,0:0|0:0,0:0:0:0:
94,10,17565,2,0,P|54:15|4:43,1,85,10|2,0:0|0:0,0:0:0:0:
126,25,17994,1,8,0:0:0:0:
317,93,18422,5,10,0:0:0:0:
287,191,18637,1,2,0:0:0:0:
275,292,18851,1,10,0:0:0:0:
425,132,19279,5,10,0:0:0:0:
475,43,19493,2,0,P|469:94|439:152,1,85,2|8,0:0|0:0,0:0:0:0:
355,74,19922,2,0,B|346:9,1,42.5
360,87,20137,2,0,P|316:70|248:66,1,85,10|2,0:0|0:0,0:0:0:0:
183,124,20565,2,0,P|119:134|50:152,1,127.5,8|0,0:0|0:0,0:0:0:0:
12,115,20994,2,0,P|16:122|40:211,1,85,10|2,0:0|0:0,0:0:0:0:
145,233,21422,1,8,0:0:0:0:
79,325,21637,2,0,L|62:282,1,42.5
102,326,21851,5,10,0:0:0:0:
210,358,22065,1,2,0:0:0:0:
319,384,22279,1,10,0:0:0:0:
426,181,22708,5,10,0:0:0:0:
511,237,22922,2,0,P|460:227|404:193,1,85,2|8,0:0|0:0,0:0:0:0:
318,229,23351,2,0,L|344:298,1,42.5
298,222,23565,2,0,P|258:237|190:244,1,85,10|2,0:0|0:0,0:0:0:0:
123,178,23994,2,0,P|163:163|231:156,1,85,8|0,0:0|0:0,0:0:0:0:
316,140,24422,2,0,L|331:87,2,42.5,10|0|2,0:0|0:0|0:0,0:0:0:0:
429,145,24851,2,0,P|444:207|454:286,1,127.5,8|0,0:0|0:0,0:0:0:0:
399,289,25279,5,10,0:0:0:0:
289,269,25493,1,2,0:0:0:0:
178,245,25708,1,10,0:0:0:0:
93,59,26137,5,10,0:0:0:0:
0,94,26351,2,0,P|50:84|106:50,1,85,2|8,0:0|0:0,0:0:0:0:
153,156,26779,2,0,P|191:138|233:131,1,85,0|10,0:0|0:0,0:0:0:0:
266,26,27208,1,2,0:0:0:0:
266,26,27422,1,8,0:0:0:0:
251,251,27851,2,0,L|266:306,2,42.5,10|0|2,0:0|0:0|0:0,0:0:0:0:
356,210,28279,2,0,L|454:226,1,85,8|0,0:0|0:0,0:0:0:0:
395,119,28708,5,10,0:0:0:0:
285,139,28922,1,2,0:0:0:0:
174,163,29137,1,10,0:0:0:0:
19,328,29565,6,0,P|60:313|105:308,1,85,10|2,0:0|0:0,0:0:0:0:
200,362,29994,1,8,0:0:0:0:
395,249,30422,2,0,P|353:231|296:223,2,85,10|2|8,0:0|0:0|0:0,0:0:0:0:
474,329,31065,2,0,L|465:374,2,42.5,0|0|10,0:0|0:0|0:0,0:0:0:0:
501,219,31494,2,0,P|488:177|493:124,1,85,2|8,0:0|0:0,0:0:0:0:
506,24,31922,1,2,0:0:0:0:
401,67,32137,5,10,0:0:0:0:
290,43,32352,1,2,0:0:0:0:
180,23,32566,1,10,0:0:0:0:
19,226,32994,6,0,B|132:227|67:273|207:276,1,195.500003728867,10|8,1:2|0:0,0:0:0:0:
299,207,33637,1,0,0:0:0:0:
223,117,33851,2,0,P|174:116|122:135,1,97.7500018644333,10|2,0:2|0:2,0:0:0:0:
143,247,34279,2,0,P|219:261|297:305,1,146.62500279665,0|0,1:0|0:0,0:0:0:0:
336,269,34708,2,0,P|316:320|274:354,1,97.7500018644333,2|2,0:2|0:2,0:0:0:0:
241,239,35137,2,0,P|261:188|303:154,1,97.7500018644333,0|0,1:0|0:0,0:0:0:0:
336,269,35565,5,10,0:2:0:0:
219,282,35779,1,2,0:2:0:0:
102,296,35994,1,2,0:2:0:0:
0,76,36422,6,0,P|50:80|115:112,1,97.7500018644333,10|2,1:2|0:2,0:0:0:0:
170,187,36851,1,8,0:0:0:0:
170,187,37065,1,0,1:0:0:0:
283,159,37279,2,0,L|396:132,2,97.7500018644333,10|2|0,0:2|0:2|1:0,0:0:0:0:
53,210,38137,2,0,L|34:276,2,48.8750009322167,2|0|2,0:2|0:0|0:2,0:0:0:0:
123,303,38565,2,0,L|133:359,2,48.8750009322167,0|0|0,1:0|0:0|0:0,0:0:0:0:
228,251,38994,5,10,0:2:0:0:
342,277,39208,1,2,0:2:0:0:
456,299,39422,1,2,0:2:0:0:
499,68,39851,6,0,L|393:92,1,97.7500018644333,2|2,1:2|0:2,0:0:0:0:
52,63,40708,2,0,L|170:28,1,97.7500018644333,10|2,0:2|0:2,0:0:0:0:
189,144,41137,1,0,1:0:0:0:
281,216,41351,2,0,L|262:283,2,48.8750009322167,0|0|2,0:0|0:0|0:2,0:0:0:0:
397,204,41779,1,2,0:2:0:0:
458,103,41994,1,0,1:0:0:0:
423,332,42422,5,10,0:2:0:0:
397,204,42637,1,2,0:2:0:0:
374,76,42851,1,2,0:2:0:0:
218,251,43279,6,0,B|98:261|160:205|19:198,1,195.500003728867,2|0,1:2|0:0,0:0:0:0:
143,150,43922,1,0,1:0:0:0:
47,218,44137,2,0,B|167:228|105:172|246:165,1,195.500003728867,10|0,0:2|1:0,0:0:0:0:
392,363,44994,1,2,0:2:0:0:
392,363,45208,1,2,0:2:0:0:
392,363,45422,2,0,P|404:294|475:231,1,146.62500279665,0|0,1:0|0:0,0:0:0:0:
504,207,45851,5,10,0:2:0:0:
389,180,46065,1,2,0:2:0:0:
275,151,46279,1,2,0:2:0:0:
45,199,46708,6,0,L|59:265,1,48.8750009322167,10|0,1:2|0:0,0:0:0:0:
56,188,46922,2,0,P|97:165|178:159,1,97.7500018644333,2|8,0:2|0:0,0:0:0:0:
222,66,47351,2,0,L|212:126,2,48.8750009322167,0|0|10,0:0|0:0|0:2,0:0:0:0:
272,171,47779,1,2,0:2:0:0:
322,277,47994,2,0,P|245:298|178:276,1,146.62500279665,0|0,1:0|0:0,0:0:0:0:
217,326,48422,2,0,P|171:307|99:303,1,97.7500018644333,2|2,0:2|0:2,0:0:0:0:
7,314,48851,2,0,L|30:197,1,97.7500018644333,0|0,1:0|0:0,0:0:0:0:
112,139,49279,5,10,0:2:0:0:
228,125,49494,1,2,0:2:0:0:
344,111,49708,1,2,0:2:0:0:
497,288,50137,6,0,L|486:344,1,48.8750009322167,2|0,1:2|0:0,0:0:0:0:
474,278,50351,2,0,L|447:108,1,146.62500279665,2|0,0:2|0:0,0:0:0:0:
498,98,50779,1,0,1:0:0:0:
394,41,50994,2,0,P|348:18|288:18,1,97.7500018644333,10|2,0:2|0:2,0:0:0:0:
215,93,51422,2,0,P|135:104|62:157,1,146.62500279665,0|0,1:0|0:0,0:0:0:0:
92,80,51851,2,0,L|82:28,2,48.8750009322167,2|0|2,0:2|0:0|0:2,0:0:0:0:
188,145,52279,1,0,1:0:0:0:
4,291,52708,5,10,0:2:0:0:
120,277,52922,1,2,0:2:0:0:
236,263,53137,1,2,0:2:0:0:
460,197,53565,6,0,P|415:180|385:142,1,97.7500018644333,10|2,1:2|0:2,0:0:0:0:
272,176,53994,2,0,P|269:129|301:72,1,97.7500018644333,8|0,0:2|0:0,0:0:0:0:
393,29,54422,1,10,0:2:0:0:
489,97,54637,1,2,0:2:0:0:
385,142,54851,1,0,1:0:0:0:
167,227,55279,2,0,L|64:208,1,97.7500018644333,2|2,0:2|0:2,0:0:0:0:
2,113,55708,2,0,L|-8:59,2,48.8750009322167,0|0|0,1:0|0:0|0:0,0:0:0:0:
119,102,56137,5,10,0:2:0:0:
144,216,56351,1,2,0:2:0:0:
172,329,56565,1,2,0:2:0:0:
317,144,56994,6,0,B|442:149|380:205|500:195,1,195.500003728867,2|0,1:2|0:0,0:0:0:0:
404,128,57637,1,0,1:0:0:0:
512,177,57852,2,0,B|386:182|448:238|328:228,1,195.500003728867,10|0,0:2|1:0,0:0:0:0:
165,61,58708,2,0,L|176:131,2,48.8750009322167,2|0|2,0:2|0:0|0:2,0:0:0:0:
113,160,59137,2,0,B|214:167|171:114|273:118,1,146.62500279665,0|0,1:0|0:0,0:0:0:0:
296,82,59565,5,10,0:2:0:0:
282,199,59779,1,2,0:2:0:0:
265,315,59994,1,2,0:2:0:0:
196,123,60422,5,10,0:0:0:0:
296,104,60637,1,2,0:0:0:0:
395,84,60851,1,8,0:0:0:0:
478,142,61065,1,0,0:0:0:0:
414,223,61279,2,0,L|437:326,1,85,10|2,0:0|0:0,0:0:0:0:
410,205,61708,1,8,0:0:0:0:
205,186,62137,2,0,L|216:249,2,42.5,10|0|2,0:0|0:0|0:0,0:0:0:0:
134,120,62565,2,0,L|153:18,1,85,8|0,0:0|0:0,0:0:0:0:
234,93,62994,5,10,0:0:0:0:
134,120,63208,1,2,0:0:0:0:
34,141,63422,1,10,0:0:0:0:
116,327,63851,5,10,0:0:0:0:
17,314,64065,2,0,P|59:300|124:298,1,85,2|8,0:0|0:0,0:0:0:0:
296,244,64708,5,10,0:0:0:0:
395,231,64922,2,0,P|353:217|288:215,1,85,2|8,0:0|0:0,0:0:0:0:
123,135,65565,2,0,L|140:190,2,42.5,10|0|2,0:0|0:0|0:0,0:0:0:0:
202,70,65994,2,0,P|244:56|309:54,1,85,8|0,0:0|0:0,0:0:0:0:
311,150,66422,5,10,0:0:0:0:
335,248,66636,1,2,0:0:0:0:
360,346,66850,1,10,0:0:0:0:
216,201,67279,6,0,P|172:205|118:235,1,85,10|2,0:0|0:0,0:0:0:0:
227,178,67708,1,8,0:0:0:0:
151,109,67922,1,0,0:0:0:0:
197,17,68137,2,0,L|178:118,2,85,10|2|8,0:0|0:0|0:0,0:0:0:0:
382,86,68994,2,0,P|425:78|467:35,1,85,10|2,0:0|0:0,0:0:0:0:
507,140,69422,2,0,P|473:113|432:106,1,85,8|0,0:0|0:0,0:0:0:0:
332,130,69851,5,10,0:0:0:0:
231,145,70065,1,2,0:0:0:0:
130,160,70279,1,10,0:0:0:0:
323,226,70708,6,0,L|340:315,2,85,10|2|8,0:0|0:0|0:0,0:0:0:0:
465,79,71565,2,0,L|448:168,2,85,10|2|8,0:0|0:0|0:0,0:0:0:0:
268,22,72422,2,0,L|338:12,2,42.5,10|0|2,0:0|0:0|0:0,0:0:0:0:
345,88,72851,1,8,0:0:0:0:
264,275,73279,5,10,0:0:0:0:
237,176,73494,1,2,0:0:0:0:
207,78,73708,1,10,0:0:0:0:
426,160,74137,6,0,L|439:100,1,48.8750009322167,10|0,1:2|0:0,0:0:0:0:
492,96,74351,2,0,P|463:59|413:37,1,97.7500018644333,2|8,0:2|0:0,0:0:0:0:
303,11,74779,2,0,L|313:61,2,48.8750009322167,0|0|10,0:0|0:0|0:2,0:0:0:0:
218,92,75208,1,2,0:2:0:0:
218,92,75422,1,0,1:0:0:0:
438,172,75851,2,0,P|409:209|359:231,1,97.7500018644333,2|2,0:2|0:2,0:0:0:0:
261,173,76279,1,0,1:0:0:0:
145,196,76494,6,0,L|158:253,1,48.8750009322167
127,192,76708,2,0,L|155:74,1,97.7500018644333,10|2,0:2|0:2,0:0:0:0:
80,1,77137,1,2,0:2:0:0:
24,228,77565,5,2,1:2:0:0:
24,228,77779,1,2,0:2:0:0:
250,289,78208,2,0,L|263:346,1,48.8750009322167,0|0,1:0|0:0,0:0:0:0:
263,278,78422,2,0,L|389:303,1,97.7500018644333,10|2,0:2|0:2,0:0:0:0:
457,232,78851,2,0,L|356:211,1,97.7500018644333,0|0,1:0|0:0,0:0:0:0:
314,116,79279,1,2,0:2:0:0:
314,116,79494,1,2,0:2:0:0:
314,116,79708,1,0,1:0:0:0:
260,336,80137,6,0,L|250:289,1,48.8750009322167,10|0,0:2|0:0,0:0:0:0:
208,247,80351,2,0,L|197:199,1,48.8750009322167,2|0,0:2|0:0,0:0:0:0:
157,156,80565,1,2,0:2:0:0:
390,130,80994,5,10,1:2:0:0:
391,12,81208,2,0,P|405:56|412:111,1,97.7500018644333,2|8,0:2|0:2,0:0:0:0:
509,172,81637,2,0,P|507:199|500:230,1,48.8750009322167
454,255,81851,1,10,0:2:0:0:
374,341,82065,2,0,P|372:316|367:292,1,48.8750009322167,2|0,0:2|0:0,0:0:0:0:
319,258,82279,1,0,1:0:0:0:
91,199,82708,1,2,0:2:0:0:
91,199,82922,1,2,0:2:0:0:
91,199,83137,1,0,1:0:0:0:
59,86,83351,6,0,L|47:28,1,48.8750009322167
76,89,83565,2,0,L|185:111,1,97.7500018644333,10|2,0:2|0:2,0:0:0:0:
249,19,83994,1,2,0:2:0:0:
347,231,84422,6,0,L|366:118,1,97.7500018644333,2|2,1:2|0:2,0:0:0:0:
491,331,85065,2,0,L|503:389,1,48.8750009322167,0|0,1:0|0:0,0:0:0:0:
474,326,85279,2,0,L|365:304,1,97.7500018644333,10|2,0:2|0:2,0:0:0:0:
336,196,85708,1,0,1:0:0:0:
105,242,86137,2,0,L|214:220,1,97.7500018644333,2|2,0:2|0:2,0:0:0:0:
243,112,86566,1,0,1:0:0:0:
96,92,87851,5,2,1:2:0:0:
96,92,88065,1,2,0:2:0:0:
35,192,88279,2,0,P|81:153|187:142,1,146.62500279665
198,185,88708,2,0,P|245:208|306:198,1,97.7500018644333,10|2,0:2|0:2,0:0:0:0:
358,109,89137,2,0,P|406:106|449:129,1,97.7500018644333,0|0,1:0|0:0,0:0:0:0:
481,241,89565,1,2,0:2:0:0:
422,242,91279,5,2,1:2:0:0:
422,242,91493,1,2,0:2:0:0:
501,327,91707,2,0,P|455:288|386:275,1,97.7500018644333,0|0,0:0|1:0,0:0:0:0:
302,287,92137,2,0,L|184:318,1,97.7500018644333,10|2,0:2|0:2,0:0:0:0:
94,280,92565,1,0,1:0:0:0:
94,280,92779,1,0,0:0:0:0:
94,280,92994,1,2,0:2:0:0:
221,20,94708,5,2,1:2:0:0:
221,20,94922,1,2,0:2:0:0:
246,134,95137,2,0,P|255:80|295:42,1,97.7500018644333
360,137,95565,2,0,L|375:233,1,97.7500018644333,10|2,0:2|0:2,0:0:0:0:
266,252,95994,1,0,1:0:0:0:
266,252,96208,1,0,0:0:0:0:
266,252,96422,1,2,0:2:0:0:
98,123,98137,5,2,1:2:0:0:
9,200,98351,2,0,P|95:157|195:141,1,195.500003728867,2|0,0:2|1:0,0:0:0:0:
286,70,98994,2,0,P|238:43|182:36,1,97.7500018644333,10|2,0:2|0:2,0:0:0:0:
101,99,99422,1,0,1:0:0:0:
101,99,99637,1,0,0:0:0:0:
101,99,99851,1,2,0:2:0:0:
109,233,101565,5,10,0:0:0:0:
26,293,101779,2,0,P|69:264|136:254,1,85,2|8,0:0|0:0,0:0:0:0:
188,317,102208,1,0,0:0:0:0:
188,317,102422,2,0,L|210:199,1,85,10|2,0:0|0:0,0:0:0:0:
301,205,102851,2,0,L|279:61,1,127.5,8|0,0:0|0:0,0:0:0:0:
309,36,103279,2,0,L|295:123,1,85,10|2,0:0|0:0,0:0:0:0:
214,182,103708,2,0,L|237:318,1,127.5,8|0,0:0|0:0,0:0:0:0:
194,338,104137,5,10,0:0:0:0:
293,317,104351,1,2,0:0:0:0:
391,291,104565,1,10,0:0:0:0:
424,89,104994,5,10,0:0:0:0:
507,149,105208,2,0,P|464:120|397:110,1,85,2|8,0:0|0:0,0:0:0:0:
267,231,105851,2,0,L|165:211,1,85,10|2,0:0|0:0,0:0:0:0:
115,139,106279,2,0,L|133:34,1,85,8|0,0:0|0:0,0:0:0:0:
216,0,106708,2,0,L|305:14,1,85,10|2,0:0|0:0,0:0:0:0:
366,91,107137,2,0,L|348:197,1,85,8|0,0:0|0:0,0:0:0:0:
274,239,107565,5,10,0:0:0:0:
174,219,107779,1,2,0:0:0:0:
74,195,107994,1,10,0:0:0:0:
257,159,108422,5,10,0:0:0:0:
174,219,108636,2,0,P|217:190|284:180,1,85,2|8,0:0|0:0,0:0:0:0:
323,250,109065,1,0,0:0:0:0:
406,310,109279,2,0,P|363:281|296:271,1,85,10|2,0:0|0:0,0:0:0:0:
232,298,109708,2,0,L|139:323,1,85,8|0,0:0|0:0,0:0:0:0:
135,218,110137,2,0,P|178:189|245:179,1,85,10|2,0:0|0:0,0:0:0:0:
309,206,110566,2,0,L|402:231,1,85,8|0,0:0|0:0,0:0:0:0:
490,250,110994,5,10,0:0:0:0:
456,153,111208,1,2,0:0:0:0:
423,56,111422,1,10,0:0:0:0:
229,120,111851,5,10,0:0:0:0:
229,120,112065,1,2,0:0:0:0:
229,120,112279,1,8,0:0:0:0:
384,252,112708,1,10,0:0:0:0:
292,296,112922,2,0,L|231:314,1,42.5,2|0,0:0|0:0,0:0:0:0:
202,323,113137,2,0,L|145:305,3,42.5,8|0|0|0,0:0|0:0|0:0|0:0,0:0:0:0:
112,296,113565,2,0,L|74:181,1,85,10|2,0:0|0:0,0:0:0:0:
58,116,113994,2,0,L|46:68,1,42.5,8|0,0:0|0:0,0:0:0:0:
74,118,114208,6,0,L|182:157,1,85,0|10,0:0|0:0,0:0:0:0:
257,125,114637,1,2,0:0:0:0:
257,125,114851,1,10,0:0:0:0:
419,248,115279,6,0,P|457:226|524:216,1,97.7500018644333,2|2,1:2|0:2,0:0:0:0:
392,232,115708,1,0,0:0:0:0:
176,325,116137,1,10,0:2:0:0:
78,259,116351,1,2,0:2:0:0:
6,352,116565,2,0,P|22:283|90:219,1,146.62500279665,0|0,1:0|0:0,0:0:0:0:
69,169,116994,2,0,L|44:64,2,97.7500018644333,2|2|0,0:2|0:2|1:0,0:0:0:0:
174,220,117637,1,0,0:0:0:0:
283,262,117851,5,10,0:2:0:0:
383,201,118065,1,2,0:2:0:0:
477,132,118279,1,2,0:2:0:0:
252,63,118708,6,0,L|199:48,1,48.8750009322167,2|0,1:2|0:0,0:0:0:0:
256,77,118922,2,0,L|313:273,1,195.500003728867,2|0,0:2|1:0,0:0:0:0:
214,332,119565,2,0,P|195:289|141:269,1,97.7500018644333,10|2,0:2|0:2,0:0:0:0:
33,270,119994,1,0,1:0:0:0:
109,53,120422,1,2,0:2:0:0:
109,53,120637,1,2,0:2:0:0:
109,53,120851,1,0,1:0:0:0:
259,206,121279,5,10,0:2:0:0:
143,185,121494,1,2,0:2:0:0:
28,158,121708,1,2,0:2:0:0:
152,356,122137,5,2,1:2:0:0:
222,262,122351,2,0,P|270:230|369:214,1,146.62500279665,2|0,0:2|0:0,0:0:0:0:
387,262,122779,2,0,P|427:272|490:318,1,97.7500018644333,0|10,0:0|0:2,0:0:0:0:
488,184,123208,1,2,0:2:0:0:
488,184,123422,2,0,L|503:69,1,97.7500018644333,0|0,1:0|0:0,0:0:0:0:
395,33,123851,2,0,L|378:154,1,97.7500018644333,2|2,0:2|0:2,0:0:0:0:
267,156,124279,1,0,1:0:0:0:
40,92,124708,5,10,0:2:0:0:
154,64,124923,1,2,0:2:0:0:
268,37,125137,1,2,0:2:0:0:
350,256,125565,5,2,1:2:0:0:
350,256,125779,2,0,P|392:227|462:228,1,97.7500018644333,2|0,0:2|0:0,0:0:0:0:
332,168,126208,2,0,P|292:143|221:143,1,97.7500018644333,0|10,1:0|0:2,0:0:0:0:
137,190,126637,1,2,0:2:0:0:
137,190,126851,1,0,1:0:0:0:
137,190,127065,1,0,0:0:0:0:
7,121,128994,6,0,P|55:125|107:165,1,97.7500018644333,2|2,1:2|0:2,0:0:0:0:
143,258,129422,1,0,0:0:0:0:
143,258,129637,1,0,0:0:0:0:
143,258,129851,1,2,0:2:0:0:
363,178,130279,1,0,1:0:0:0:
256,228,130494,1,0,0:0:0:0:
256,228,130708,2,0,L|275:94,1,97.7500018644333,2|2,0:2|0:2,0:0:0:0:
374,184,131137,2,0,L|397:300,1,97.7500018644333,0|0,1:0|0:0,0:0:0:0:
288,332,131565,5,2,0:2:0:0:
174,304,131780,1,2,0:2:0:0:
60,277,131994,1,2,0:2:0:0:
175,73,132422,6,0,P|210:42|281:29,1,97.7500018644333,2|2,1:2|0:2,0:0:0:0:
274,144,132851,1,0,0:0:0:0:
274,144,133065,2,0,L|247:355,1,195.500003728867,0|2,1:0|0:2,0:0:0:0:
361,303,133708,2,0,P|336:266|287:240,1,97.7500018644333,0|0,1:0|0:0,0:0:0:0:
172,249,134137,2,0,L|58:283,1,97.7500018644333,2|2,0:2|0:2,0:0:0:0:
10,372,134565,1,0,1:0:0:0:
206,243,134994,5,2,0:2:0:0:
179,128,135208,1,2,0:2:0:0:
148,14,135422,1,2,0:2:0:0:
343,144,135851,6,0,P|373:110|440:89,1,97.7500018644333,2|2,1:2|0:2,0:0:0:0:
431,206,136279,1,0,0:0:0:0:
320,247,136494,2,0,P|290:213|223:192,1,97.7500018644333,0|2,0:0|0:2,0:0:0:0:
126,210,136922,1,2,0:2:0:0:
227,269,137137,2,0,L|249:89,1,146.62500279665,0|0,1:0|0:0,0:0:0:0:
279,75,137565,2,0,L|293:152,2,48.8750009322167,2|0|2,0:2|0:0|0:2,0:0:0:0:
179,12,137994,1,0,1:0:0:0:
305,209,138422,5,2,0:2:0:0:
191,236,138636,1,2,0:2:0:0:
77,264,138851,1,2,0:2:0:0:
293,352,139279,6,0,P|321:316|375:294,1,97.7500018644333,2|2,1:2|0:2,0:0:0:0:
469,354,139708,1,0,0:0:0:0:
471,236,139922,2,0,P|443:200|389:178,1,97.7500018644333,0|2,1:0|0:2,0:0:0:0:
281,151,140351,1,2,0:2:0:0:
166,176,140565,2,0,L|32:206,1,97.7500018644333,0|0,1:0|0:0,0:0:0:0:
3,100,140994,2,0,L|109:77,1,97.7500018644333,2|2,0:2|0:2,0:0:0:0:
212,53,141422,1,0,1:0:0:0:
343,247,141851,5,2,0:2:0:0:
370,132,142065,1,2,0:2:0:0:
401,18,142279,1,2,0:2:0:0:
87,252,149565,5,10,0:0:0:0:
37,341,149779,2,0,P|43:290|73:232,1,85,2|8,0:0|0:0,0:0:0:0:
157,310,150208,2,0,B|166:375,1,42.5
152,297,150423,2,0,P|196:314|264:318,1,85,10|2,0:0|0:0,0:0:0:0:
329,260,150851,2,0,P|393:250|462:232,1,127.5,8|0,0:0|0:0,0:0:0:0:
474,216,151279,1,10,0:0:0:0:
460,104,151708,1,8,0:0:0:0:
349,123,152137,1,10,0:0:0:0:
370,232,152565,1,10,0:0:0:0:
349,123,152994,5,10,0:0:0:0:
460,104,153423,1,8,0:0:0:0:
474,216,153852,1,10,0:0:0:0:
370,232,154280,1,8,0:0:0:0:
474,216,154708,1,10,0:0:0:0:
460,104,155137,1,8,0:0:0:0:
349,123,155565,1,10,0:0:0:0:
370,232,155993,1,10,0:0:0:0:
188,137,156422,5,10,0:0:0:0:
138,226,156636,2,0,P|144:175|174:117,1,85,2|8,0:0|0:0,0:0:0:0:
91,64,157065,2,0,L|35:78,1,42.5
27,120,157279,2,0,L|5:26,2,85,10|2|8,0:0|0:0|0:0,0:0:0:0:
47,230,158137,1,10,0:0:0:0:
156,208,158565,1,8,0:0:0:0:
136,97,158994,1,10,0:0:0:0:
27,120,159422,1,10,0:0:0:0:
256,192,159851,12,2,162851,0:0:0:0:
512,323,163279,6,0,L|431:312,1,68,4|0,1:3|0:3,0:0:0:0:
148,285,164137,6,0,B|178:278|178:278|185:282|185:282|227:273|227:273|233:267|233:267|270:261,1,102,8|0,0:3|0:0,0:0:0:0:
284,275,164565,6,0,L|269:189,1,68,4|0,1:3|0:3,0:0:0:0:
112,22,165422,2,0,L|100:102,1,68,4|0,1:3|0:3,0:0:0:0:
28,124,165851,6,0,B|73:117|73:117|83:122|83:122|149:109|149:109|158:101|158:101|193:95|193:95|205:98|205:98|234:93,1,204,8|0,0:3|1:3,0:0:0:0:
298,129,166708,6,0,L|384:144,1,68,4|0,1:3|0:3,0:0:0:0:
496,237,167351,1,4,1:3:0:0:
441,297,167565,6,0,B|408:293|408:293|398:295|398:295|378:292|378:292|371:287|371:287|332:282,1,102,8|0,0:3|0:0,0:0:0:0:
311,311,167994,6,0,L|325:235,1,68,4|0,1:3|0:3,0:0:0:0:
101,347,168851,2,0,L|85:268,1,68,4|0,1:3|0:3,0:0:0:0:
132,212,169279,6,0,B|165:230|165:230|206:222,2,68,8|0|0,0:3|0:3|1:3,0:0:0:0:
270,123,170137,6,0,L|364:106,1,68,4|0,1:3|0:3,0:0:0:0:
110,16,170994,6,0,B|115:55|115:55|129:76|129:76|139:130,1,102,8|0,0:3|0:0,0:0:0:0:
168,137,171422,6,0,L|74:120,1,68,4|0,1:3|0:3,0:0:0:0:
2,349,172279,2,0,L|96:332,1,68,4|0,1:3|0:3,0:0:0:0:
149,320,172708,6,0,B|168:323|168:323|180:320|180:320|215:326|215:326|224:334|224:334|290:347|290:347|300:342|300:342|345:349,1,204,8|0,0:3|1:3,0:0:0:0:
426,360,173565,6,0,L|408:287,1,68,4|0,1:3|0:3,0:0:0:0:
375,134,174208,1,4,1:3:0:0:
443,177,174422,6,0,B|407:184|407:184|400:191|400:191|364:199|364:199|351:195|351:195|322:203,1,102,8|0,0:3|0:0,0:0:0:0:
305,204,174851,5,4,1:3:0:0:
10,62,175708,1,4,1:3:0:0:
128,174,176137,6,0,B|134:137|134:137|112:97,2,68,8|0|0,0:3|0:3|1:3,0:0:0:0:
198,215,176779,5,0,1:3:0:0:
269,175,176994,2,0,L|283:97,1,68,6|0,1:3|0:3,0:0:0:0:
354,72,177422,2,0,L|429:83,1,68,0|0,0:3|0:3,0:0:0:0:
480,138,177851,6,0,B|474:183|474:183|478:195|478:195|472:258,1,102,8|0,0:3|0:0,0:0:0:0:
503,266,178279,5,4,1:3:0:0:
439,318,178494,1,0,0:3:0:0:
360,294,178708,2,0,L|269:314,1,68,0|0,0:3|0:3,0:0:0:0:
220,272,179137,2,0,L|141:289,1,68,4|0,1:3|0:3,0:0:0:0:
112,356,179565,6,0,B|106:311|106:311|110:299|110:299|98:200|98:200|91:191|91:191|84:145,1,204,8|0,0:3|1:3,0:0:0:0:
156,114,180422,6,0,L|225:127,1,68,6|0,1:3|0:3,0:0:0:0:
276,188,180851,1,0,0:3:0:0:
276,188,181065,1,4,1:3:0:0:
347,148,181279,6,0,B|342:111|342:111|351:84|351:84|346:36,1,102,8|0,0:3|0:0,0:0:0:0:
384,32,181708,5,4,1:3:0:0:
221,40,182137,2,0,L|139:29,1,68,0|0,0:3|0:3,0:0:0:0:
97,90,182565,2,0,L|18:101,1,68,4|0,1:3|0:3,0:0:0:0:
1,176,182994,6,0,B|7:208|7:208|31:237,2,68,8|0|0,0:3|0:3|1:3,0:0:0:0:
82,168,183637,5,0,1:3:0:0:
158,195,183851,2,0,L|146:269,1,68,6|0,1:3|0:3,0:0:0:0:
209,314,184279,2,0,L|294:301,1,68,0|0,0:3|0:3,0:0:0:0:
317,232,184708,6,0,B|307:192|307:192|296:175|296:175|285:127|289:114,1,102,8|0,0:3|0:0,0:0:0:0:
253,114,185137,5,4,1:3:0:0:
304,50,185351,2,0,L|296:7,1,34,0|0,0:3|0:0,0:0:0:0:
317,52,185565,2,0,L|408:66,2,68,0|0|4,0:3|0:3|1:3,0:0:0:0:
456,137,186422,6,0,B|426:144|426:144|422:151|422:151|398:158|398:158|393:152|393:152|347:165,1,102,8|0,0:3|0:0,0:0:0:0:
325,174,186851,6,0,L|336:220,1,34,0|0,1:3|0:0,0:0:0:0:
301,233,187065,2,0,L|312:273,1,34,0|0,1:3|0:0,0:0:0:0:
286,299,187279,1,6,1:3:0:0:
125,330,187708,2,0,L|32:350,1,68,0|4,0:3|1:3,0:0:0:0:
1,285,188137,6,0,B|12:239|12:239|11:231|11:231|26:166,1,102,8|0,0:3|0:0,0:0:0:0:
2,149,188565,6,0,L|83:138,1,68,4|0,1:3|0:3,0:0:0:0:
150,128,188994,1,2,0:3:0:0:
257,250,189422,2,0,L|165:233,1,68,4|0,1:3|0:3,0:0:0:0:
179,318,189851,6,0,B|212:336|212:336|252:330,2,68,10|0|0,0:3|0:3|1:3,0:0:0:0:
104,351,190494,5,0,1:3:0:0:
70,276,190708,2,0,B|59:219|59:219|14:175,2,102,6|0|0,1:3|0:3|0:3,0:0:0:0:
145,309,191565,6,0,B|183:304|183:304|186:307|186:307|203:307|203:307|207:302|207:302|259:294,1,102,8|0,0:3|0:0,0:0:0:0:
272,324,191994,5,4,1:3:0:0:
317,256,192208,1,0,0:3:0:0:
265,192,192422,2,0,L|251:103,1,68,0|0,0:3|0:3,0:0:0:0:
296,54,192851,1,4,1:3:0:0:
179,168,193279,6,0,B|143:162|143:162|139:157|139:157|125:156|125:156|118:160|118:160|96:157|96:157|91:162|91:162|19:149,1,136,8|0,0:3|0:3,0:0:0:0:
15,228,193922,6,0,L|-19:236,1,34,0|0,1:3|0:0,0:0:0:0:
23,237,194137,2,0,L|111:250,1,68,6|0,1:3|0:3,0:0:0:0:
148,312,194565,1,0,0:3:0:0:
148,312,194779,1,4,1:3:0:0:
216,267,194994,6,0,B|210:228|210:228|197:207|197:207|190:151,1,102,8|0,0:3|0:0,0:0:0:0:
154,153,195422,6,0,L|239:139,1,68,4|0,1:3|0:3,0:0:0:0:
295,197,195851,1,0,0:3:0:0:
295,197,196065,1,0,0:3:0:0:
295,197,196279,2,0,L|388:211,1,68,4|0,1:3|0:3,0:0:0:0:
430,252,196708,6,0,B|449:221|449:221|436:165,2,68,8|0|0,0:3|0:3|1:3,0:0:0:0:
370,308,197351,5,0,1:3:0:0:
309,362,197565,2,0,L|227:350,1,68,6|0,1:3|0:3,0:0:0:0:
199,281,197994,1,0,0:3:0:0:
199,281,198208,1,0,0:3:0:0:
148,216,198422,6,0,B|141:178|141:178|123:159|123:159|113:112,1,102,8|0,0:3|0:0,0:0:0:0:
83,96,198851,5,4,1:3:0:0:
130,29,199065,1,0,0:3:0:0:
193,79,199279,2,0,L|277:95,1,68,0|0,0:3|0:3,0:0:0:0:
326,139,199708,1,4,1:3:0:0:
233,273,200137,6,0,B|190:267|190:267|171:277|171:277|90:262|90:262|80:247|80:247|24:234,1,204,8|0,0:3|1:3,0:0:0:0:
94,301,200994,6,0,L|167:313,1,68,6|0,1:3|0:3,0:0:0:0:
224,371,201422,1,0,0:3:0:0:
224,371,201637,1,4,1:3:0:0:
289,322,201851,6,0,B|282:285|282:285|286:257|286:257|275:200,1,102,8|0,0:3|0:0,0:0:0:0:
247,196,202279,5,4,1:3:0:0:
308,142,202494,2,0,L|293:88,1,34,0|0,0:3|0:0,0:0:0:0:
321,143,202708,2,0,L|414:160,1,68,2|0,0:3|0:3,0:0:0:0:
468,166,203137,1,4,1:3:0:0:
485,86,203351,1,0,0:3:0:0:
405,72,203565,5,10,0:3:0:0:
82,21,204422,6,0,L|187:38,1,102,6|0,1:3|0:0,0:0:0:0:
204,72,204851,2,0,L|151:65,2,34,0|0|0,0:3|0:0|0:3,0:0:0:0:
249,139,205279,6,0,B|244:175|244:175|248:205|248:205|239:256,1,102,8|0,0:3|0:0,0:0:0:0:
265,273,205708,5,4,1:3:0:0:
325,327,205922,1,0,0:3:0:0:
396,286,206137,2,0,L|385:201,1,68,0|0,0:3|0:3,0:0:0:0:
444,161,206565,1,4,1:3:0:0:
288,109,206994,6,0,B|204:121|204:121|176:136|176:136|88:149,1,204,8|0,0:3|1:3,0:0:0:0:
39,213,207851,6,0,L|51:285,1,68,6|0,1:3|0:3,0:0:0:0:
121,319,208279,2,0,L|205:335,1,68,0|4,0:3|1:3,0:0:0:0:
254,284,208708,6,0,B|294:276|294:276|315:268|315:268|376:258,1,102,8|0,0:3|0:0,0:0:0:0:
383,289,209137,5,4,1:3:0:0:
440,230,209351,1,0,0:3:0:0:
388,166,209565,2,0,L|375:111,1,34,0|0,0:3|0:0,0:0:0:0:
373,173,209779,1,0,0:3:0:0:
291,179,209994,1,4,1:3:0:0:
245,246,210208,1,0,0:3:0:0:
203,315,210422,5,8,0:3:0:0:
121,324,210637,1,0,0:3:0:0:
57,272,210851,5,0,1:3:0:0:
97,201,211065,1,0,1:3:0:0:
38,143,211279,1,4,1:3:0:0:
