osu file format v14

[General]
AudioFilename: audio.mp3
AudioLeadIn: 0
PreviewTime: 176565
Countdown: 0
SampleSet: Normal
StackLeniency: 0.7
Mode: 1
LetterboxInBreaks: 0
WidescreenStoryboard: 0

[Editor]
DistanceSpacing: 1.5
BeatDivisor: 4
GridSize: 8
TimelineZoom: 1.7

[Metadata]
Title:Ni**as In Paris
TitleUnicode:Ni**as In Paris
Artist:Jay-Z & Kanye West
ArtistUnicode:Jay-Z & Kanye West
Creator:Boaz
Version:I**er O*i
Source:
Tags:fellas no equal and watch the throne jayz yeezy hip hop hiphop hip-hop mike dean anthony kilhoffer hit-boy rap english clockbite ye niggas
BeatmapID:3430140
BeatmapSetID:1678969

[Difficulty]
HPDrainRate:6
CircleSize:5
OverallDifficulty:6
ApproachRate:5
SliderMultiplier:1.4
SliderTickRate:3

[Events]
//Background and Video events
0,0,"bg.jpg",0,0
//Break Periods
2,142708,148365
//Storyboard Layer 0 (Background)
//Storyboard Layer 1 (Fail)
//Storyboard Layer 2 (Pass)
//Storyboard Layer 3 (Foreground)
//Storyboard Layer 4 (Overlay)
//Storyboard Sound Samples

[TimingPoints]
5565,428.571428571429,4,1,0,50,1,0
5565,-111.111111111111,4,1,0,65,0,0
15851,-111.111111111111,4,1,0,65,0,0
16065,-110.344827586207,4,1,0,65,0,0
16708,-108.108108108108,4,1,0,65,0,0
16922,-107.38255033557,4,1,0,65,0,0
17565,-105.263157894737,4,1,0,65,0,0
17779,-104.575163398693,4,1,0,65,0,0
18422,-102.564102564103,4,1,0,65,0,0
18637,-101.910828025478,4,1,0,65,0,0
18851,-101.26582278481,4,1,0,65,0,0
19065,-100.62893081761,4,1,0,65,0,0
19279,-100,4,1,0,65,0,0
102422,-100,4,1,0,65,0,0
102637,-103.423632506875,4,1,0,65,0,0
102851,-107.090115261091,4,1,0,65,0,0
103279,-115.262348631721,4,1,0,65,0,0
103494,-119.834676080879,4,1,0,65,0,0
103708,-124.784902025134,4,1,0,65,0,0
104137,-100,4,1,0,65,0,0
105851,-100,4,1,0,65,0,0
106065,-103.423632506875,4,1,0,65,0,0
106279,-107.090115261091,4,1,0,65,0,0
106707,-115.262348631721,4,1,0,65,0,0
106922,-119.834676080879,4,1,0,65,0,0
107137,-124.784902025134,4,1,0,65,0,0
107565,-100,4,1,0,65,0,0
110137,-100,4,1,0,65,0,0
110351,-103.448240190262,4,1,0,65,0,0
110565,-107.142895408177,4,1,0,65,0,0
110994,-115.384571005934,4,1,0,65,0,0
111208,-120.000048000019,4,1,0,65,0,0
111422,-125,4,1,0,65,0,0
111849,-100,4,1,0,65,0,0
141850,-86.2068965517241,4,1,0,65,0,0
142065,-75.7575757575758,4,1,0,65,0,0
142279,-66.6666666666667,4,1,0,65,0,0
142706,-100,4,1,0,5,0,0
149350,-100,4,1,0,65,0,0
163279,-133.333333333333,4,1,0,50,0,0
164137,-80,4,1,0,50,0,0
164565,-133.333333333333,4,1,0,50,0,0
165422,-133.333333333333,4,1,0,50,0,0
165851,-80,4,1,0,50,0,0
166706,-133.333333333333,4,1,0,50,0,0
167351,-133.333333333333,4,1,0,50,0,0
167565,-80,4,1,0,50,0,0
167994,-133.333333333333,4,1,0,50,0,0
168851,-133.333333333333,4,1,0,50,0,0
169279,-80,4,1,0,50,0,0
170136,-133.333333333333,4,1,0,50,0,0
170994,-80,4,1,0,50,0,0
171422,-133.333333333333,4,1,0,50,0,0
172279,-133.333333333333,4,1,0,50,0,0
172708,-80,4,1,0,50,0,0
173564,-133.333333333333,4,1,0,50,0,0
174208,-133.333333333333,4,1,0,50,0,0
174422,-80,4,1,0,50,0,0
174851,-133.333333333333,4,1,0,50,0,0
175708,-133.333333333333,4,1,0,50,0,0
176137,-80,4,1,0,50,0,0
176565,-100,4,1,0,65,0,0
176993,-100,4,1,0,65,0,1
177851,-66.6666666666667,4,1,0,65,0,1
178494,-100,4,1,0,65,0,1
179565,-66.6666666666667,4,1,0,65,0,1
180208,-100,4,1,0,65,0,1
181279,-66.6666666666667,4,1,0,65,0,1
181922,-100,4,1,0,65,0,1
182994,-66.6666666666667,4,1,0,65,0,1
183637,-100,4,1,0,65,0,1
184708,-66.6666666666667,4,1,0,65,0,1
185351,-100,4,1,0,65,0,1
186422,-66.6666666666667,4,1,0,65,0,1
186851,-100,4,1,0,65,0,1
188137,-66.6666666666667,4,1,0,65,0,1
188565,-100,4,1,0,65,0,1
189851,-66.6666666666667,4,1,0,65,0,1
190494,-100,4,1,0,65,0,1
191565,-66.6666666666667,4,1,0,65,0,1
192208,-100,4,1,0,65,0,1
193279,-66.6666666666667,4,1,0,65,0,1
193922,-100,4,1,0,65,0,1
194994,-66.6666666666667,4,1,0,65,0,1
195637,-100,4,1,0,65,0,1
196708,-66.6666666666667,4,1,0,65,0,1
197351,-100,4,1,0,65,0,1
198422,-66.6666666666667,4,1,0,65,0,1
199065,-100,4,1,0,65,0,1
200137,-66.6666666666667,4,1,0,65,0,1
200779,-100,4,1,0,65,0,1
201851,-66.6666666666667,4,1,0,65,0,1
202494,-100,4,1,0,65,0,1
203565,-66.6666666666667,4,1,0,65,0,1
204208,-100,4,1,0,65,0,1
205279,-66.6666666666667,4,1,0,65,0,1
205922,-100,4,1,0,65,0,1
206994,-66.6666666666667,4,1,0,65,0,1
207637,-100,4,1,0,65,0,1
208708,-66.6666666666667,4,1,0,65,0,1
209351,-100,4,1,0,65,0,1
210422,-66.6666666666667,4,1,0,65,0,1
211065,-100,4,1,0,65,0,0
212137,-66.6666666666667,4,1,0,65,0,0
212779,-100,4,1,0,65,0,0
213851,-66.6666666666667,4,1,0,65,0,0
214494,-100,4,1,0,65,0,0
215565,-66.6666666666667,4,1,0,65,0,0
216208,-100,4,1,0,65,0,0
217279,-66.6666666666667,4,1,0,65,0,0

[HitObjects]
274,190,5565,5,8,0:0:0:0:
221,175,5779,1,8,0:0:0:0:
221,175,6422,1,8,0:0:0:0:
221,175,6637,1,0,0:0:0:0:
221,175,7279,1,8,0:0:0:0:
221,175,7494,1,8,0:0:0:0:
221,175,8137,1,8,0:0:0:0:
221,175,8351,1,0,0:0:0:0:
202,154,8458,1,0,0:0:0:0:
221,175,8565,1,8,0:0:0:0:
221,175,8994,1,8,0:0:0:0:
221,175,9208,1,0,0:0:0:0:
221,175,9851,1,8,0:0:0:0:
221,175,10065,1,0,0:0:0:0:
221,175,10708,1,8,0:0:0:0:
221,175,10922,1,8,0:0:0:0:
221,175,11565,1,8,0:0:0:0:
221,175,11779,1,8,0:0:0:0:
202,154,11887,1,0,0:0:0:0:
221,175,11994,1,8,0:0:0:0:
221,175,12422,1,8,0:0:0:0:
221,175,12637,1,0,0:0:0:0:
221,175,13279,1,8,0:0:0:0:
221,175,13494,1,8,0:0:0:0:
221,175,14137,1,8,0:0:0:0:
221,175,14351,1,0,0:0:0:0:
284,183,14994,1,8,0:0:0:0:
284,183,15208,1,0,0:0:0:0:
247,151,15315,1,0,0:0:0:0:
284,183,15422,1,8,0:0:0:0:
284,183,15851,1,8,0:0:0:0:
284,183,16065,1,8,0:0:0:0:
284,183,16708,1,8,0:0:0:0:
284,183,16922,1,0,0:0:0:0:
284,183,17565,1,8,0:0:0:0:
284,183,17779,1,8,0:0:0:0:
284,183,18422,1,8,0:0:0:0:
284,183,18637,1,0,0:0:0:0:
247,151,18744,1,0,0:0:0:0:
284,183,18851,1,8,0:0:0:0:
284,183,19065,1,0,0:0:0:0:
284,183,19279,1,8,0:0:0:0:
200,203,19494,1,8,0:0:0:0:
200,203,19708,1,8,0:0:0:0:
200,203,19922,1,0,0:0:0:0:
200,203,20029,1,0,0:0:0:0:
200,203,20137,1,8,0:0:0:0:
200,203,20244,1,8,0:0:0:0:
200,203,20351,1,0,0:0:0:0:
200,203,20458,1,0,0:0:0:0:
200,203,20565,1,8,0:0:0:0:
200,203,20994,1,8,0:0:0:0:
309,129,21208,1,0,0:0:0:0:
257,106,21422,1,8,0:0:0:0:
200,203,21637,1,0,0:0:0:0:
200,203,21851,1,8,0:0:0:0:
200,203,21958,1,0,0:0:0:0:
200,203,22065,1,0,0:0:0:0:
200,203,22172,1,0,0:0:0:0:
200,203,22279,1,8,0:0:0:0:
200,203,22708,1,8,0:0:0:0:
309,129,22922,1,0,0:0:0:0:
257,106,23137,1,8,0:0:0:0:
412,272,23351,1,8,0:0:0:0:
412,272,23565,1,8,0:0:0:0:
412,272,23672,1,8,0:0:0:0:
412,272,23779,1,0,0:0:0:0:
412,272,23994,1,0,0:0:0:0:
412,272,24208,1,8,0:0:0:0:
412,272,24422,1,8,0:0:0:0:
412,272,24529,1,0,0:0:0:0:
412,272,24637,1,0,0:0:0:0:
412,272,24851,1,8,0:0:0:0:
412,272,25065,1,0,0:0:0:0:
412,272,25172,1,0,0:0:0:0:
412,272,25279,1,8,0:0:0:0:
412,272,25494,1,8,0:0:0:0:
412,272,25601,1,0,0:0:0:0:
235,102,25815,1,0,0:0:0:0:
287,192,25922,1,8,0:0:0:0:
293,186,26137,1,8,0:0:0:0:
293,186,26351,1,8,0:0:0:0:
293,186,26565,1,0,0:0:0:0:
339,166,26779,1,0,0:0:0:0:
339,166,26994,1,8,0:0:0:0:
339,166,27208,1,0,0:0:0:0:
245,114,27422,1,8,0:0:0:0:
339,166,27637,1,0,0:0:0:0:
192,171,27851,1,8,0:0:0:0:
192,171,27958,1,0,0:0:0:0:
192,171,28172,1,0,0:0:0:0:
211,112,28386,1,8,0:0:0:0:
192,171,28494,1,0,0:0:0:0:
192,171,28708,1,8,0:0:0:0:
192,171,28922,1,0,0:0:0:0:
396,168,29137,1,8,0:0:0:0:
192,171,29565,1,8,0:0:0:0:
192,171,29779,1,0,0:0:0:0:
192,171,29994,1,8,0:0:0:0:
192,171,30315,1,8,0:0:0:0:
253,186,30529,1,0,0:0:0:0:
253,186,30636,1,8,0:0:0:0:
253,186,30743,1,8,0:0:0:0:
192,171,30850,1,0,0:0:0:0:
253,186,31065,1,0,0:0:0:0:
253,186,31172,1,0,0:0:0:0:
253,186,31279,1,8,0:0:0:0:
253,186,31494,1,8,0:0:0:0:
253,186,31601,1,8,0:0:0:0:
253,186,31815,1,0,0:0:0:0:
253,186,31922,1,8,0:0:0:0:
253,186,32137,1,8,0:0:0:0:
253,186,32351,1,0,0:0:0:0:
210,161,32565,1,8,0:0:0:0:
281,175,32994,1,8,0:0:0:0:
281,175,33208,1,0,0:0:0:0:
281,175,33422,1,8,0:0:0:0:
281,175,33637,1,8,0:0:0:0:
232,124,33744,1,0,0:0:0:0:
281,175,33851,1,8,0:0:0:0:
308,167,34065,1,8,0:0:0:0:
232,124,34279,1,0,0:0:0:0:
308,167,34708,1,8,0:0:0:0:
308,167,34922,1,0,0:0:0:0:
308,167,35137,1,0,0:0:0:0:
218,162,35351,1,8,0:0:0:0:
206,126,35458,1,0,0:0:0:0:
218,162,35565,1,8,0:0:0:0:
218,162,35779,1,0,0:0:0:0:
237,166,35994,1,8,0:0:0:0:
268,163,36422,1,8,0:0:0:0:
268,163,36637,1,0,0:0:0:0:
268,163,36851,1,0,0:0:0:0:
271,166,37065,1,8,0:0:0:0:
206,126,37172,1,0,0:0:0:0:
271,166,37279,1,8,0:0:0:0:
271,166,37494,1,0,0:0:0:0:
206,126,37708,1,0,0:0:0:0:
256,174,38137,1,8,0:0:0:0:
256,174,38351,1,8,0:0:0:0:
256,174,38458,1,0,0:0:0:0:
256,174,38672,1,0,0:0:0:0:
256,174,38779,1,8,0:0:0:0:
256,174,38994,1,8,0:0:0:0:
256,174,39208,1,0,0:0:0:0:
237,166,39422,1,8,0:0:0:0:
289,174,39851,1,8,0:0:0:0:
289,174,40065,1,0,0:0:0:0:
249,206,40172,1,8,0:0:0:0:
289,174,40601,1,0,0:0:0:0:
289,174,40708,1,8,0:0:0:0:
262,201,40922,1,8,0:0:0:0:
289,174,41029,1,8,0:0:0:0:
237,156,41137,1,0,0:0:0:0:
289,174,41351,1,0,0:0:0:0:
289,174,41565,1,8,0:0:0:0:
262,201,41779,1,8,0:0:0:0:
277,162,41887,1,0,0:0:0:0:
201,168,41994,1,0,0:0:0:0:
304,176,42422,1,8,0:0:0:0:
304,176,42637,1,0,0:0:0:0:
304,176,42744,1,0,0:0:0:0:
260,201,42851,1,8,0:0:0:0:
304,176,43279,1,8,0:0:0:0:
248,192,43494,1,8,0:0:0:0:
304,176,43601,1,0,0:0:0:0:
233,157,43922,1,0,0:0:0:0:
304,176,44137,1,8,0:0:0:0:
248,192,44351,1,0,0:0:0:0:
304,176,44458,1,8,0:0:0:0:
233,157,44565,1,0,0:0:0:0:
265,148,44994,1,8,0:0:0:0:
248,192,45208,1,8,0:0:0:0:
269,144,45315,1,0,0:0:0:0:
262,140,45422,1,0,0:0:0:0:
269,144,45851,1,8,0:0:0:0:
248,192,46065,1,0,0:0:0:0:
269,144,46172,1,0,0:0:0:0:
248,192,46279,1,8,0:0:0:0:
269,144,46708,1,8,0:0:0:0:
269,144,46922,1,8,0:0:0:0:
269,144,47137,1,0,0:0:0:0:
269,144,47351,1,0,0:0:0:0:
269,144,47458,1,0,0:0:0:0:
269,144,47565,1,8,0:0:0:0:
248,192,47779,1,8,0:0:0:0:
271,140,47887,1,8,0:0:0:0:
262,139,47994,1,0,0:0:0:0:
259,149,48422,1,8,0:0:0:0:
248,192,48637,1,8,0:0:0:0:
259,149,48744,1,0,0:0:0:0:
259,149,48958,1,0,0:0:0:0:
259,149,49065,1,8,0:0:0:0:
253,148,49279,1,8,0:0:0:0:
248,192,49494,1,0,0:0:0:0:
253,148,49708,1,8,0:0:0:0:
253,148,50137,1,8,0:0:0:0:
253,148,50351,1,8,0:0:0:0:
253,148,50458,1,0,0:0:0:0:
287,162,50779,1,0,0:0:0:0:
287,162,50994,1,8,0:0:0:0:
287,162,51208,1,8,0:0:0:0:
253,148,51315,1,0,0:0:0:0:
287,162,51422,1,8,0:0:0:0:
207,163,51851,1,8,0:0:0:0:
154,189,51958,1,8,0:0:0:0:
207,163,52065,1,0,0:0:0:0:
207,163,52172,1,8,0:0:0:0:
207,163,52387,1,8,0:0:0:0:
184,189,52601,1,0,0:0:0:0:
184,189,52708,1,8,0:0:0:0:
138,159,52922,1,0,0:0:0:0:
184,189,53029,1,8,0:0:0:0:
138,159,53137,1,0,0:0:0:0:
184,189,53351,1,8,0:0:0:0:
184,189,53565,1,8,0:0:0:0:
184,189,53779,1,0,0:0:0:0:
182,144,53887,1,0,0:0:0:0:
184,189,53994,1,8,0:0:0:0:
184,189,54208,1,8,0:0:0:0:
184,189,54422,1,8,0:0:0:0:
138,159,54637,1,0,0:0:0:0:
184,189,54851,1,8,0:0:0:0:
275,205,55279,1,8,0:0:0:0:
275,205,55494,1,8,0:0:0:0:
275,205,55601,1,0,0:0:0:0:
275,205,55815,1,0,0:0:0:0:
275,205,55922,1,8,0:0:0:0:
275,205,56137,1,8,0:0:0:0:
275,205,56351,1,0,0:0:0:0:
275,205,56565,1,8,0:0:0:0:
275,205,56994,1,8,0:0:0:0:
275,205,57208,1,8,0:0:0:0:
275,205,57315,1,0,0:0:0:0:
240,168,57637,1,0,0:0:0:0:
240,168,57851,1,8,0:0:0:0:
240,168,58065,1,8,0:0:0:0:
240,168,58172,1,8,0:0:0:0:
182,144,58279,1,0,0:0:0:0:
240,168,58708,1,8,0:0:0:0:
240,168,58815,1,8,0:0:0:0:
240,168,58922,1,0,0:0:0:0:
240,168,59029,1,0,0:0:0:0:
240,168,59137,1,8,0:0:0:0:
240,168,59351,1,0,0:0:0:0:
240,158,59565,1,8,0:0:0:0:
240,158,59779,1,0,0:0:0:0:
138,158,59994,1,8,0:0:0:0:
240,158,60208,1,8,0:0:0:0:
240,158,60422,1,8,0:0:0:0:
169,155,60637,1,0,0:0:0:0:
283,173,60851,1,8,0:0:0:0:
283,173,61065,1,8,0:0:0:0:
265,132,61172,1,0,0:0:0:0:
283,173,61279,1,8,0:0:0:0:
283,173,61494,1,0,0:0:0:0:
230,108,61708,1,8,0:0:0:0:
283,173,62137,1,8,0:0:0:0:
283,173,62351,1,8,0:0:0:0:
283,173,62458,1,8,0:0:0:0:
283,173,62672,1,0,0:0:0:0:
283,173,62779,1,8,0:0:0:0:
296,164,62994,1,0,0:0:0:0:
296,164,63208,1,0,0:0:0:0:
138,158,63422,1,8,0:0:0:0:
296,164,63851,1,8,0:0:0:0:
138,158,64065,1,8,0:0:0:0:
296,164,64172,1,0,0:0:0:0:
191,117,64279,1,8,0:0:0:0:
296,164,64387,1,0,0:0:0:0:
296,164,64708,1,8,0:0:0:0:
138,158,64922,1,8,0:0:0:0:
296,164,65029,1,8,0:0:0:0:
206,148,65137,1,0,0:0:0:0:
296,164,65244,1,0,0:0:0:0:
296,164,65565,1,8,0:0:0:0:
249,157,65779,1,8,0:0:0:0:
249,157,65887,1,0,0:0:0:0:
249,157,66101,1,0,0:0:0:0:
249,157,66208,1,0,0:0:0:0:
249,157,66422,1,8,0:0:0:0:
249,157,66637,1,0,0:0:0:0:
138,158,66851,1,8,0:0:0:0:
262,164,67065,1,8,0:0:0:0:
220,153,67172,1,0,0:0:0:0:
262,164,67279,1,8,0:0:0:0:
262,158,67494,1,0,0:0:0:0:
262,158,67708,1,8,0:0:0:0:
262,158,67922,1,8,0:0:0:0:
262,158,68137,1,8,0:0:0:0:
262,158,68351,1,0,0:0:0:0:
234,151,68458,1,0,0:0:0:0:
234,151,68565,1,8,0:0:0:0:
246,163,68994,1,8,0:0:0:0:
138,158,69208,1,8,0:0:0:0:
326,164,69315,1,0,0:0:0:0:
138,158,69529,1,0,0:0:0:0:
277,149,69637,1,8,0:0:0:0:
270,131,69851,1,8,0:0:0:0:
270,131,70065,1,0,0:0:0:0:
138,158,70279,1,8,0:0:0:0:
268,156,70708,1,8,0:0:0:0:
138,158,70922,1,8,0:0:0:0:
265,155,71029,1,0,0:0:0:0:
196,125,71137,1,8,0:0:0:0:
268,156,71565,1,8,0:0:0:0:
138,158,71779,1,0,0:0:0:0:
265,155,71887,1,0,0:0:0:0:
250,163,71994,1,8,0:0:0:0:
268,156,72422,1,8,0:0:0:0:
263,154,72529,1,0,0:0:0:0:
265,155,72637,1,0,0:0:0:0:
265,155,72744,1,8,0:0:0:0:
246,158,72851,1,8,0:0:0:0:
209,167,73279,1,8,0:0:0:0:
138,158,73494,1,0,0:0:0:0:
224,160,73601,1,0,0:0:0:0:
138,158,73708,1,8,0:0:0:0:
284,183,74137,1,8,0:0:0:0:
200,203,74350,1,8,0:0:0:0:
200,203,74566,1,8,0:0:0:0:
200,203,74780,1,0,0:0:0:0:
200,203,74887,1,0,0:0:0:0:
200,203,74993,1,8,0:0:0:0:
200,203,75100,1,8,0:0:0:0:
200,203,75207,1,0,0:0:0:0:
200,203,75316,1,0,0:0:0:0:
200,203,75423,1,8,0:0:0:0:
200,203,75850,1,8,0:0:0:0:
309,129,76066,1,8,0:0:0:0:
200,89,76279,1,0,0:0:0:0:
200,203,76493,1,0,0:0:0:0:
200,203,76707,1,8,0:0:0:0:
200,203,76923,1,0,0:0:0:0:
222,119,77029,1,0,0:0:0:0:
200,203,77137,1,8,0:0:0:0:
200,203,77566,1,8,0:0:0:0:
309,129,77780,1,0,0:0:0:0:
412,272,78207,1,8,0:0:0:0:
412,272,78423,1,8,0:0:0:0:
412,272,78637,1,0,0:0:0:0:
222,119,78744,1,8,0:0:0:0:
412,272,78850,1,0,0:0:0:0:
412,272,79280,1,8,0:0:0:0:
412,272,79493,1,8,0:0:0:0:
209,112,79708,1,0,0:0:0:0:
412,272,80137,1,8,0:0:0:0:
412,272,80351,1,0,0:0:0:0:
209,167,80565,1,8,0:0:0:0:
220,114,80672,1,0,0:0:0:0:
287,192,80780,1,8,0:0:0:0:
293,186,80993,1,8,0:0:0:0:
293,186,81207,1,0,0:0:0:0:
293,186,81423,1,8,0:0:0:0:
339,166,81637,1,0,0:0:0:0:
205,162,81744,1,8,0:0:0:0:
339,166,81850,1,8,0:0:0:0:
205,162,81958,1,0,0:0:0:0:
339,166,82066,1,8,0:0:0:0:
188,171,82172,1,8,0:0:0:0:
188,171,82279,1,0,0:0:0:0:
192,171,82707,1,8,0:0:0:0:
192,171,82922,1,0,0:0:0:0:
206,118,83137,1,0,0:0:0:0:
192,171,83350,1,8,0:0:0:0:
192,171,83566,1,8,0:0:0:0:
192,171,83780,1,0,0:0:0:0:
230,125,83887,1,0,0:0:0:0:
396,168,83993,1,8,0:0:0:0:
192,171,84423,1,8,0:0:0:0:
192,171,84637,1,0,0:0:0:0:
285,182,85065,1,0,0:0:0:0:
219,182,85279,1,8,0:0:0:0:
219,182,85494,1,0,0:0:0:0:
230,125,85601,1,8,0:0:0:0:
230,125,85708,1,0,0:0:0:0:
243,154,86137,1,8,0:0:0:0:
243,154,86351,1,0,0:0:0:0:
225,116,86565,1,0,0:0:0:0:
281,167,86994,1,8,0:0:0:0:
281,167,87208,1,0,0:0:0:0:
281,167,87422,1,8,0:0:0:0:
275,164,87851,1,8,0:0:0:0:
264,173,88065,1,0,0:0:0:0:
264,173,88279,1,0,0:0:0:0:
257,160,88708,1,8,0:0:0:0:
257,160,88922,1,8,0:0:0:0:
257,160,89137,1,0,0:0:0:0:
257,160,89351,1,8,0:0:0:0:
194,138,89458,1,0,0:0:0:0:
257,160,89565,1,8,0:0:0:0:
257,160,89779,1,0,0:0:0:0:
257,160,89994,1,8,0:0:0:0:
242,161,90208,1,0,0:0:0:0:
236,160,90422,2,0,L|287:160,6,35
249,189,91279,1,8,0:0:0:0:
222,187,91494,1,0,0:0:0:0:
222,187,91708,1,0,0:0:0:0:
222,187,91922,1,8,0:0:0:0:
222,187,92137,1,8,0:0:0:0:
222,187,92351,1,0,0:0:0:0:
201,114,92458,1,0,0:0:0:0:
222,187,92565,1,0,0:0:0:0:
222,187,92779,1,0,0:0:0:0:
222,187,92994,1,8,0:0:0:0:
222,187,93422,1,8,0:0:0:0:
226,167,93637,1,0,0:0:0:0:
171,172,93851,2,0,L|207:177,6,35
236,161,94708,1,8,0:0:0:0:
236,161,94922,1,8,0:0:0:0:
236,161,95137,1,0,0:0:0:0:
236,161,95351,1,0,0:0:0:0:
236,161,95565,1,8,0:0:0:0:
236,161,95779,1,8,0:0:0:0:
201,114,95887,1,0,0:0:0:0:
236,161,95994,1,0,0:0:0:0:
236,161,96208,1,0,0:0:0:0:
236,161,96422,1,8,0:0:0:0:
62,193,96637,1,0,0:0:0:0:
236,161,96851,1,8,0:0:0:0:
145,163,97279,2,0,L|202:166,6,35
240,174,98137,1,8,0:0:0:0:
240,174,98351,1,0,0:0:0:0:
240,174,98565,1,0,0:0:0:0:
240,174,98994,1,8,0:0:0:0:
240,174,99208,1,8,0:0:0:0:
240,174,99422,1,0,0:0:0:0:
240,174,99637,1,0,0:0:0:0:
240,174,99851,1,8,0:0:0:0:
240,174,100065,1,0,0:0:0:0:
246,136,100172,1,0,0:0:0:0:
240,174,100279,1,0,0:0:0:0:
240,174,100494,1,8,0:0:0:0:
173,168,100708,2,0,L|217:166,6,35
217,175,101565,1,8,0:0:0:0:
217,175,101779,1,0,0:0:0:0:
217,175,101994,1,8,0:0:0:0:
217,175,102422,1,8,0:0:0:0:
217,175,102637,1,0,0:0:0:0:
217,175,102851,1,0,0:0:0:0:
217,175,103279,1,8,0:0:0:0:
217,175,103494,1,0,0:0:0:0:
337,113,103708,1,0,0:0:0:0:
337,113,104137,1,8,0:0:0:0:
337,113,104351,1,0,0:0:0:0:
337,113,104565,1,8,0:0:0:0:
337,113,104779,1,8,0:0:0:0:
246,136,104887,1,0,0:0:0:0:
337,113,104994,1,8,0:0:0:0:
337,113,105208,1,0,0:0:0:0:
337,113,105422,1,8,0:0:0:0:
337,113,105851,1,8,0:0:0:0:
337,113,106065,1,0,0:0:0:0:
337,113,106279,1,0,0:0:0:0:
337,113,106708,1,8,0:0:0:0:
337,113,106922,1,0,0:0:0:0:
337,113,107137,1,0,0:0:0:0:
337,113,107565,1,8,0:0:0:0:
337,113,107779,1,0,0:0:0:0:
337,113,107994,1,8,0:0:0:0:
191,133,108208,1,8,0:0:0:0:
246,136,108315,1,0,0:0:0:0:
191,133,108422,1,8,0:0:0:0:
191,133,108637,1,0,0:0:0:0:
191,133,108851,1,8,0:0:0:0:
191,133,109065,1,0,0:0:0:0:
191,133,109279,1,8,0:0:0:0:
191,133,109494,1,8,0:0:0:0:
191,133,109708,1,0,0:0:0:0:
191,133,110137,1,8,0:0:0:0:
191,133,110351,1,8,0:0:0:0:
191,133,110565,1,0,0:0:0:0:
191,133,110994,1,8,0:0:0:0:
191,133,111208,1,0,0:0:0:0:
191,133,111422,1,0,0:0:0:0:
191,133,111850,1,8,0:0:0:0:
191,133,112065,1,0,0:0:0:0:
191,133,112279,1,8,0:0:0:0:
191,133,112708,1,8,0:0:0:0:
191,133,112922,1,8,0:0:0:0:
191,133,113029,1,0,0:0:0:0:
191,133,113137,1,8,0:0:0:0:
191,133,113244,1,8,0:0:0:0:
191,133,113351,1,0,0:0:0:0:
191,133,113458,1,0,0:0:0:0:
191,133,113565,1,8,0:0:0:0:
191,133,113779,1,0,0:0:0:0:
191,133,113887,1,8,0:0:0:0:
191,133,113994,1,0,0:0:0:0:
191,133,114101,1,0,0:0:0:0:
191,133,114208,1,8,0:0:0:0:
191,133,114422,1,8,0:0:0:0:
204,151,114637,1,0,0:0:0:0:
204,151,114851,1,8,0:0:0:0:
204,151,115279,1,4,0:0:0:0:
206,166,115494,1,8,0:0:0:0:
208,165,115708,1,0,0:0:0:0:
209,165,116137,1,8,0:0:0:0:
206,166,116351,1,8,0:0:0:0:
246,136,116458,1,8,0:0:0:0:
208,165,116565,1,4,0:0:0:0:
209,165,116994,1,8,0:0:0:0:
229,168,117208,1,8,0:0:0:0:
229,168,117422,1,4,0:0:0:0:
234,153,117637,1,8,0:0:0:0:
234,153,117744,1,0,0:0:0:0:
234,153,117851,1,8,0:0:0:0:
233,153,118065,1,0,0:0:0:0:
233,153,118279,1,8,0:0:0:0:
234,153,118708,1,4,0:0:0:0:
233,153,118922,1,8,0:0:0:0:
233,153,119137,1,0,0:0:0:0:
286,154,119350,1,4,0:0:0:0:
304,157,119565,1,8,0:0:0:0:
304,157,119779,1,8,0:0:0:0:
304,157,119994,1,4,0:0:0:0:
304,157,120422,1,8,0:0:0:0:
304,157,120637,1,0,0:0:0:0:
246,124,120744,1,8,0:0:0:0:
212,157,120851,1,4,0:0:0:0:
304,157,121279,1,8,0:0:0:0:
304,157,121494,1,0,0:0:0:0:
304,157,121708,1,8,0:0:0:0:
277,160,122137,1,4,0:0:0:0:
277,160,122351,1,8,0:0:0:0:
265,158,122779,1,0,0:0:0:0:
265,158,122994,1,8,0:0:0:0:
262,157,123208,1,8,0:0:0:0:
265,158,123422,1,4,0:0:0:0:
265,158,123637,1,8,0:0:0:0:
265,158,123851,1,8,0:0:0:0:
262,157,124065,1,0,0:0:0:0:
219,120,124172,1,8,0:0:0:0:
260,155,124279,1,4,0:0:0:0:
260,155,124494,1,8,0:0:0:0:
260,155,124708,1,8,0:0:0:0:
262,157,124922,1,0,0:0:0:0:
260,155,125137,1,8,0:0:0:0:
260,155,125565,1,4,0:0:0:0:
262,157,125779,1,8,0:0:0:0:
260,155,125994,1,8,0:0:0:0:
260,155,126208,1,4,0:0:0:0:
260,155,126422,1,8,0:0:0:0:
260,155,126637,1,8,0:0:0:0:
236,136,126744,1,8,0:0:0:0:
260,155,126851,1,4,0:0:0:0:
260,155,127065,1,8,0:0:0:0:
260,155,127279,1,0,0:0:0:0:
123,185,128779,1,8,0:0:0:0:
260,155,128994,1,0,0:0:0:0:
209,155,129208,1,8,0:0:0:0:
201,123,129315,1,0,0:0:0:0:
209,155,129422,1,8,0:0:0:0:
209,155,129637,1,0,0:0:0:0:
209,155,129851,1,8,0:0:0:0:
209,155,130494,1,0,0:0:0:0:
209,155,130708,1,8,0:0:0:0:
209,155,130922,1,8,0:0:0:0:
201,123,131029,1,0,0:0:0:0:
209,155,131137,1,0,0:0:0:0:
209,155,131351,1,0,0:0:0:0:
209,155,131565,1,8,0:0:0:0:
245,145,132208,1,8,0:0:0:0:
209,155,132422,1,0,0:0:0:0:
245,145,132851,1,0,0:0:0:0:
245,145,133065,1,8,0:0:0:0:
195,164,133279,1,8,0:0:0:0:
195,164,133708,1,0,0:0:0:0:
188,153,133922,1,8,0:0:0:0:
188,153,134137,1,8,0:0:0:0:
188,153,134351,1,8,0:0:0:0:
222,123,134458,1,0,0:0:0:0:
188,153,134565,1,0,0:0:0:0:
188,153,134779,1,0,0:0:0:0:
188,153,134994,1,8,0:0:0:0:
188,153,135422,1,0,0:0:0:0:
188,153,135637,1,8,0:0:0:0:
188,153,135851,1,8,0:0:0:0:
188,153,136065,1,0,0:0:0:0:
222,123,136172,1,0,0:0:0:0:
188,153,136279,1,8,0:0:0:0:
188,153,136494,1,8,0:0:0:0:
188,153,136708,1,0,0:0:0:0:
220,160,137137,1,0,0:0:0:0:
220,160,137351,1,0,0:0:0:0:
220,160,137565,1,8,0:0:0:0:
220,160,137779,1,8,0:0:0:0:
200,151,137887,1,8,0:0:0:0:
220,160,137994,1,0,0:0:0:0:
220,160,138208,1,0,0:0:0:0:
220,160,138422,1,8,0:0:0:0:
220,160,138851,1,0,0:0:0:0:
223,180,139065,1,8,0:0:0:0:
222,180,139279,1,8,0:0:0:0:
247,119,139494,1,0,0:0:0:0:
244,114,139601,1,8,0:0:0:0:
222,180,139708,1,0,0:0:0:0:
223,180,139922,1,8,0:0:0:0:
222,180,140137,1,0,0:0:0:0:
218,174,140565,1,0,0:0:0:0:
218,174,140779,1,0,0:0:0:0:
218,174,140994,1,8,0:0:0:0:
218,174,141208,1,0,0:0:0:0:
236,123,141315,1,0,0:0:0:0:
218,174,141422,1,0,0:0:0:0:
162,182,141637,1,8,0:0:0:0:
166,211,141851,1,8,0:0:0:0:
223,194,142065,1,0,0:0:0:0:
182,177,142279,1,8,0:0:0:0:
238,166,149565,5,8,0:0:0:0:
139,158,149779,1,0,0:0:0:0:
139,158,149994,1,8,0:0:0:0:
139,158,150208,1,0,0:0:0:0:
139,158,150315,1,0,0:0:0:0:
139,158,150422,1,8,0:0:0:0:
139,158,150529,1,8,0:0:0:0:
139,158,150637,1,0,0:0:0:0:
139,158,150744,1,0,0:0:0:0:
139,158,150851,1,8,0:0:0:0:
139,158,151279,1,8,0:0:0:0:
139,158,151494,1,0,0:0:0:0:
139,175,152137,1,8,0:0:0:0:
139,175,152351,1,0,0:0:0:0:
236,123,152458,1,0,0:0:0:0:
139,175,152565,1,8,0:0:0:0:
139,175,152994,1,8,0:0:0:0:
139,175,153208,1,0,0:0:0:0:
139,175,153851,1,8,0:0:0:0:
139,175,154065,1,0,0:0:0:0:
139,175,154708,1,8,0:0:0:0:
139,175,154922,1,0,0:0:0:0:
139,175,155565,1,8,0:0:0:0:
139,175,155779,1,0,0:0:0:0:
236,123,155887,1,0,0:0:0:0:
139,175,155994,1,8,0:0:0:0:
167,142,156208,1,8,0:0:0:0:
167,142,156422,1,8,0:0:0:0:
167,142,156637,1,0,0:0:0:0:
167,142,156851,1,8,0:0:0:0:
167,142,157065,1,0,0:0:0:0:
167,142,157172,1,8,0:0:0:0:
167,142,157279,1,8,0:0:0:0:
167,142,157387,1,0,0:0:0:0:
167,142,157494,1,0,0:0:0:0:
167,142,157601,1,0,0:0:0:0:
167,142,157708,1,8,0:0:0:0:
167,142,158137,1,8,0:0:0:0:
167,142,158351,1,0,0:0:0:0:
167,142,158994,1,8,0:0:0:0:
167,142,159208,1,0,0:0:0:0:
236,123,159315,1,0,0:0:0:0:
167,142,159422,1,8,0:0:0:0:
167,142,159851,1,8,0:0:0:0:
167,142,160065,1,0,0:0:0:0:
167,142,160708,1,8,0:0:0:0:
167,142,160922,1,0,0:0:0:0:
167,142,161565,1,8,0:0:0:0:
167,142,161779,1,0,0:0:0:0:
167,142,162422,1,8,0:0:0:0:
167,142,162637,1,0,0:0:0:0:
236,123,162744,1,0,0:0:0:0:
167,142,162851,1,8,0:0:0:0:
171,163,163279,1,4,0:0:0:0:
60,130,164137,2,4,L|151:130,1,87.5
167,142,164565,1,4,0:0:0:0:
151,139,165422,1,4,0:0:0:0:
111,143,165851,2,4,L|388:146,1,262.5
217,157,166708,1,4,0:0:0:0:
164,161,167351,1,4,0:0:0:0:
81,175,167565,2,4,L|194:175,1,87.5
177,170,167994,1,4,0:0:0:0:
177,170,168851,1,4,0:0:0:0:
75,169,169279,2,4,L|347:166,1,262.5
177,170,170137,1,4,0:0:0:0:
148,174,170994,2,4,L|256:182,1,87.5
177,170,171422,1,4,0:0:0:0:
177,170,172279,1,4,0:0:0:0:
89,144,172708,2,4,L|367:154,1,262.5
177,170,173565,1,4,0:0:0:0:
177,170,174208,1,4,0:0:0:0:
108,162,174422,2,4,L|207:173,1,87.5
177,170,174851,1,4,0:0:0:0:
177,170,175708,5,4,0:0:0:0:
114,153,176137,2,4,L|217:159,1,87.5
297,250,176565,5,0,0:0:0:0:
297,250,176779,1,0,0:0:0:0:
297,250,176993,1,8,0:0:0:0:
322,215,177315,1,0,0:0:0:0:
322,215,177529,1,8,0:0:0:0:
274,180,177637,1,0,0:0:0:0:
162,155,177851,2,4,L|202:155,6,35
296,209,178494,1,0,0:0:0:0:
286,205,178708,1,8,0:0:0:0:
286,205,178922,1,0,0:0:0:0:
286,205,179029,1,8,0:0:0:0:
286,205,179244,1,8,0:0:0:0:
286,205,179351,1,0,0:0:0:0:
173,192,179565,2,4,L|218:194,6,35
250,183,180208,1,0,0:0:0:0:
250,183,180422,1,8,0:0:0:0:
250,183,180637,1,0,0:0:0:0:
250,183,180744,1,8,0:0:0:0:
250,183,180958,1,8,0:0:0:0:
250,183,181065,1,0,0:0:0:0:
177,125,181279,2,4,L|232:127,6,35
239,174,181922,1,0,0:0:0:0:
254,184,182137,1,8,0:0:0:0:
254,184,182351,1,0,0:0:0:0:
290,175,182458,1,8,0:0:0:0:
290,175,182672,1,8,0:0:0:0:
290,175,182779,1,0,0:0:0:0:
136,168,182994,2,4,L|188:167,6,35
249,176,183637,1,0,0:0:0:0:
249,176,183851,1,8,0:0:0:0:
249,176,184065,1,0,0:0:0:0:
249,176,184172,1,8,0:0:0:0:
249,176,184387,1,0,0:0:0:0:
249,176,184494,1,8,0:0:0:0:
165,124,184708,2,4,L|201:125,6,35
296,209,185351,1,0,0:0:0:0:
178,174,185458,1,0,0:0:0:0:
286,205,185565,1,8,0:0:0:0:
286,205,185779,1,0,0:0:0:0:
286,205,185886,1,8,0:0:0:0:
286,205,186101,1,8,0:0:0:0:
286,205,186208,1,0,0:0:0:0:
173,192,186422,2,4,L|218:194,3,35
288,166,186851,1,0,0:0:0:0:
296,209,187065,1,8,0:0:0:0:
286,205,187279,1,0,0:0:0:0:
286,205,187600,1,8,0:0:0:0:
286,205,187815,1,8,0:0:0:0:
286,205,187922,1,0,0:0:0:0:
173,192,188137,2,4,L|218:194,3,35
226,193,188565,1,0,0:0:0:0:
296,209,188779,1,0,0:0:0:0:
286,205,188993,1,8,0:0:0:0:
286,205,189314,1,8,0:0:0:0:
286,205,189529,1,8,0:0:0:0:
286,205,189636,1,0,0:0:0:0:
173,192,189851,2,4,L|218:194,6,35
296,209,190494,1,0,0:0:0:0:
286,205,190708,1,8,0:0:0:0:
286,205,190922,1,0,0:0:0:0:
286,205,191029,1,8,0:0:0:0:
286,205,191244,1,8,0:0:0:0:
286,205,191351,1,0,0:0:0:0:
173,192,191565,2,4,L|218:194,6,35
296,209,192208,1,0,0:0:0:0:
286,205,192422,1,8,0:0:0:0:
286,205,192636,1,0,0:0:0:0:
286,205,192743,1,8,0:0:0:0:
286,205,192958,1,8,0:0:0:0:
286,205,193065,1,0,0:0:0:0:
173,192,193279,2,4,L|218:194,6,35
296,209,193922,1,0,0:0:0:0:
286,205,194136,1,8,0:0:0:0:
286,205,194350,1,0,0:0:0:0:
286,205,194457,1,8,0:0:0:0:
286,205,194672,1,8,0:0:0:0:
286,205,194779,1,0,0:0:0:0:
173,192,194994,2,4,L|218:194,6,35
296,209,195637,1,0,0:0:0:0:
286,205,195851,1,8,0:0:0:0:
286,205,196065,1,0,0:0:0:0:
286,205,196172,1,8,0:0:0:0:
286,205,196387,1,8,0:0:0:0:
286,205,196494,1,0,0:0:0:0:
173,192,196708,2,4,L|218:194,6,35
296,209,197351,1,0,0:0:0:0:
286,205,197565,1,8,0:0:0:0:
286,205,197779,1,8,0:0:0:0:
236,123,197887,1,0,0:0:0:0:
286,205,197994,1,8,0:0:0:0:
286,205,198208,1,0,0:0:0:0:
173,192,198422,2,4,L|218:194,6,35
296,209,199065,1,0,0:0:0:0:
286,205,199279,1,8,0:0:0:0:
199,205,199494,1,0,0:0:0:0:
236,123,199601,1,0,0:0:0:0:
286,205,199708,1,8,0:0:0:0:
286,205,199922,1,0,0:0:0:0:
173,192,200137,2,4,L|218:194,6,35
296,209,200779,1,0,0:0:0:0:
286,205,200993,1,8,0:0:0:0:
286,205,201207,1,8,0:0:0:0:
236,123,201315,1,0,0:0:0:0:
286,205,201422,1,8,0:0:0:0:
286,205,201636,1,0,0:0:0:0:
173,192,201851,2,4,L|218:194,6,35
296,209,202494,1,0,0:0:0:0:
143,160,202601,1,0,0:0:0:0:
286,205,202708,1,8,0:0:0:0:
286,205,202922,1,0,0:0:0:0:
286,205,203137,1,8,0:0:0:0:
236,123,203244,1,0,0:0:0:0:
286,205,203351,1,8,0:0:0:0:
173,192,203565,2,4,L|218:194,6,35
296,209,204208,1,0,0:0:0:0:
286,205,204422,1,8,0:0:0:0:
286,205,204743,1,8,0:0:0:0:
286,205,204958,1,8,0:0:0:0:
286,205,205065,1,0,0:0:0:0:
173,192,205279,2,4,L|218:194,6,35
296,209,205922,1,0,0:0:0:0:
286,205,206136,1,8,0:0:0:0:
286,205,206350,1,0,0:0:0:0:
286,205,206457,1,8,0:0:0:0:
286,205,206672,1,8,0:0:0:0:
286,205,206779,1,0,0:0:0:0:
173,192,206994,2,4,L|218:194,6,35
296,209,207637,1,0,0:0:0:0:
286,205,207851,1,8,0:0:0:0:
286,205,208065,1,0,0:0:0:0:
286,205,208172,1,8,0:0:0:0:
286,205,208387,1,8,0:0:0:0:
286,205,208494,1,0,0:0:0:0:
173,192,208708,2,4,L|218:194,6,35
296,209,209351,1,0,0:0:0:0:
286,205,209565,1,8,0:0:0:0:
117,169,209672,1,8,0:0:0:0:
286,205,209779,1,0,0:0:0:0:
286,205,209886,1,0,0:0:0:0:
286,205,209994,1,8,0:0:0:0:
286,205,210208,1,0,0:0:0:0:
173,192,210422,2,4,L|218:194,6,35
296,209,211065,1,0,0:0:0:0:
286,205,211279,1,8,0:0:0:0:
286,205,211708,1,8,0:0:0:0:
286,205,211922,1,0,0:0:0:0:
173,192,212137,2,4,L|218:194,6,35
296,209,212779,1,0,0:0:0:0:
286,205,212993,1,8,0:0:0:0:
286,205,213422,1,8,0:0:0:0:
286,205,213636,1,0,0:0:0:0:
173,192,213851,2,4,L|218:194,6,35
296,209,214494,1,0,0:0:0:0:
286,205,214708,1,8,0:0:0:0:
286,205,215137,1,8,0:0:0:0:
286,205,215351,1,0,0:0:0:0:
173,192,215565,2,4,L|218:194,6,35
296,209,216208,1,0,0:0:0:0:
286,205,216422,1,8,0:0:0:0:
286,205,216851,1,8,0:0:0:0:
286,205,217065,1,0,0:0:0:0:
173,192,217279,2,4,L|218:194,6,35
