osu file format v14

[General]
AudioFilename: audio.mp3
AudioLeadIn: 0
PreviewTime: 176565
Countdown: 0
SampleSet: Normal
StackLeniency: 0.7
Mode: 1
LetterboxInBreaks: 0
WidescreenStoryboard: 1

[Editor]
DistanceSpacing: 1.5
BeatDivisor: 4
GridSize: 8
TimelineZoom: 1.7

[Metadata]
Title:Ni**as In Paris
TitleUnicode:Ni**as In Paris
Artist:Jay-Z & Kanye West
ArtistUnicode:Jay-Z & Kanye West
Creator:Boaz
Version:F*tsuu
Source:
Tags:fellas no equal and watch the throne jayz yeezy hip hop hiphop hip-hop mike dean anthony kilhoffer hit-boy rap english clockbite ye niggas
BeatmapID:3437119
BeatmapSetID:1678969

[Difficulty]
HPDrainRate:7
CircleSize:5
OverallDifficulty:4
ApproachRate:5
SliderMultiplier:1.4
SliderTickRate:3

[Events]
//Background and Video events
0,0,"bg.jpg",0,0
//Break Periods
2,142708,148365
//Storyboard Layer 0 (Background)
//Storyboard Layer 1 (Fail)
//Storyboard Layer 2 (Pass)
//Storyboard Layer 3 (Foreground)
//Storyboard Layer 4 (Overlay)
//Storyboard Sound Samples

[TimingPoints]
5565,428.571428571429,4,1,0,50,1,0
5565,-100,4,1,0,65,0,0
142708,-100,4,1,0,5,0,0
149350,-100,4,1,0,65,0,0
163279,-100,4,1,0,50,0,0
176565,-100,4,1,0,65,0,0
176993,-100,4,1,0,65,0,1
211065,-100,4,1,0,65,0,0

[HitObjects]
274,190,5565,5,8,0:0:0:0:
221,175,5779,1,8,0:0:0:0:
221,175,6422,5,8,0:0:0:0:
221,175,6637,1,0,0:0:0:0:
221,175,7279,5,8,0:0:0:0:
221,175,7494,1,8,0:0:0:0:
221,175,8137,5,8,0:0:0:0:
221,175,8351,1,0,0:0:0:0:
221,175,8565,1,8,0:0:0:0:
221,175,8994,1,8,0:0:0:0:
221,175,9208,1,0,0:0:0:0:
221,175,9851,5,8,0:0:0:0:
221,175,10065,1,0,0:0:0:0:
221,175,10708,5,8,0:0:0:0:
221,175,10922,1,8,0:0:0:0:
221,175,11565,5,8,0:0:0:0:
221,175,11779,1,0,0:0:0:0:
221,175,11994,1,8,0:0:0:0:
221,175,12422,1,8,0:0:0:0:
221,175,12637,1,0,0:0:0:0:
221,175,13279,5,8,0:0:0:0:
221,175,13494,1,8,0:0:0:0:
221,175,14137,5,8,0:0:0:0:
221,175,14351,1,0,0:0:0:0:
284,183,14994,5,8,0:0:0:0:
284,183,15208,1,0,0:0:0:0:
284,183,15422,1,8,0:0:0:0:
284,183,15851,1,8,0:0:0:0:
284,183,16065,1,8,0:0:0:0:
284,183,16708,5,8,0:0:0:0:
284,183,16922,1,0,0:0:0:0:
284,183,17565,5,8,0:0:0:0:
284,183,17779,1,8,0:0:0:0:
284,183,18422,5,8,0:0:0:0:
284,183,18637,1,0,0:0:0:0:
284,183,18851,1,8,0:0:0:0:
284,183,19279,1,8,0:0:0:0:
200,203,19494,1,0,0:0:0:0:
200,203,20137,5,8,0:0:0:0:
200,203,20351,1,8,0:0:0:0:
200,203,20994,5,8,0:0:0:0:
309,129,21208,1,0,0:0:0:0:
200,203,21851,1,8,0:0:0:0:
200,203,22065,1,0,0:0:0:0:
200,203,22279,1,8,0:0:0:0:
200,203,22708,1,8,0:0:0:0:
309,129,22922,1,0,0:0:0:0:
412,272,23565,5,8,0:0:0:0:
412,272,23779,1,0,0:0:0:0:
412,272,23994,1,0,0:0:0:0:
412,272,24422,1,8,0:0:0:0:
412,272,24637,1,8,0:0:0:0:
412,272,25279,5,8,0:0:0:0:
326,157,25494,1,0,0:0:0:0:
326,157,25708,1,8,0:0:0:0:
293,186,26137,1,8,0:0:0:0:
293,186,26351,1,0,0:0:0:0:
339,166,26994,1,8,0:0:0:0:
339,166,27208,1,0,0:0:0:0:
192,171,27851,5,8,0:0:0:0:
339,166,28065,1,8,0:0:0:0:
192,171,28708,5,8,0:0:0:0:
192,171,28922,1,0,0:0:0:0:
396,168,29137,1,8,0:0:0:0:
192,171,29565,1,8,0:0:0:0:
192,171,29779,1,0,0:0:0:0:
192,171,29994,1,0,0:0:0:0:
192,171,30422,1,8,0:0:0:0:
253,186,30637,1,0,0:0:0:0:
253,186,30851,1,8,0:0:0:0:
253,186,31279,1,8,0:0:0:0:
253,186,31494,1,0,0:0:0:0:
197,156,32137,1,8,0:0:0:0:
253,186,32351,1,0,0:0:0:0:
253,186,32565,1,8,0:0:0:0:
281,175,32994,5,8,0:0:0:0:
281,175,33208,1,0,0:0:0:0:
185,178,33422,1,0,0:0:0:0:
281,175,33851,1,8,0:0:0:0:
308,167,34065,1,8,0:0:0:0:
308,167,34708,5,8,0:0:0:0:
308,167,34922,1,0,0:0:0:0:
242,196,35351,1,0,0:0:0:0:
218,162,35565,1,8,0:0:0:0:
218,162,35779,1,0,0:0:0:0:
268,163,36422,5,8,0:0:0:0:
268,163,36637,1,0,0:0:0:0:
237,159,36851,1,0,0:0:0:0:
271,166,37279,1,8,0:0:0:0:
271,166,37494,1,0,0:0:0:0:
256,174,38137,5,8,0:0:0:0:
256,174,38351,1,0,0:0:0:0:
237,166,38565,1,0,0:0:0:0:
256,174,38994,1,8,0:0:0:0:
256,174,39208,1,0,0:0:0:0:
289,174,39851,1,8,0:0:0:0:
289,174,40172,1,0,0:0:0:0:
289,174,40708,1,8,0:0:0:0:
289,174,41029,1,0,0:0:0:0:
226,161,41351,1,0,0:0:0:0:
289,174,41565,1,8,0:0:0:0:
277,162,41887,1,0,0:0:0:0:
304,176,42422,1,8,0:0:0:0:
260,201,42744,1,8,0:0:0:0:
304,176,43279,1,8,0:0:0:0:
304,176,43601,1,0,0:0:0:0:
304,176,44137,1,8,0:0:0:0:
304,176,44458,1,0,0:0:0:0:
265,148,44994,1,8,0:0:0:0:
269,144,45315,1,0,0:0:0:0:
269,144,45851,1,8,0:0:0:0:
269,144,46708,5,8,0:0:0:0:
269,144,46922,1,8,0:0:0:0:
269,144,47351,1,0,0:0:0:0:
269,144,47565,1,8,0:0:0:0:
197,168,47779,1,0,0:0:0:0:
259,149,48422,1,8,0:0:0:0:
212,154,48744,1,0,0:0:0:0:
259,149,49279,1,8,0:0:0:0:
259,149,49494,1,0,0:0:0:0:
253,148,49708,1,8,0:0:0:0:
253,148,50137,1,8,0:0:0:0:
253,148,50351,1,0,0:0:0:0:
287,162,50994,1,8,0:0:0:0:
287,162,51208,1,0,0:0:0:0:
287,162,51422,1,8,0:0:0:0:
207,163,51851,1,8,0:0:0:0:
207,163,52065,1,0,0:0:0:0:
184,189,52708,1,8,0:0:0:0:
138,159,52922,1,0,0:0:0:0:
184,189,53137,1,8,0:0:0:0:
184,189,53565,1,8,0:0:0:0:
184,189,53994,1,8,0:0:0:0:
184,189,54422,1,8,0:0:0:0:
138,159,54744,1,0,0:0:0:0:
275,205,55279,1,8,0:0:0:0:
275,205,55494,1,0,0:0:0:0:
275,205,56137,1,8,0:0:0:0:
275,205,56351,1,0,0:0:0:0:
275,205,56565,1,8,0:0:0:0:
275,205,56994,1,8,0:0:0:0:
275,205,57208,1,0,0:0:0:0:
240,168,57637,1,0,0:0:0:0:
240,168,57851,1,8,0:0:0:0:
240,168,58065,1,0,0:0:0:0:
240,168,58708,1,8,0:0:0:0:
240,168,58922,1,0,0:0:0:0:
240,168,59137,1,0,0:0:0:0:
240,158,59565,1,8,0:0:0:0:
138,158,59994,1,8,0:0:0:0:
240,158,60422,1,8,0:0:0:0:
169,155,60637,1,0,0:0:0:0:
283,173,60851,1,8,0:0:0:0:
283,173,61279,1,8,0:0:0:0:
283,173,61494,1,0,0:0:0:0:
283,173,62137,1,8,0:0:0:0:
283,173,62351,1,0,0:0:0:0:
283,173,62779,1,0,0:0:0:0:
296,164,62994,1,8,0:0:0:0:
296,164,63208,1,0,0:0:0:0:
138,158,63422,1,8,0:0:0:0:
296,164,63851,1,8,0:0:0:0:
296,164,64172,1,0,0:0:0:0:
296,164,64708,1,8,0:0:0:0:
296,164,65029,1,0,0:0:0:0:
296,164,65565,1,8,0:0:0:0:
249,157,65887,1,0,0:0:0:0:
249,157,66422,1,8,0:0:0:0:
249,157,66637,1,0,0:0:0:0:
138,158,66851,1,8,0:0:0:0:
262,164,67279,1,8,0:0:0:0:
262,158,67494,1,0,0:0:0:0:
262,158,68137,1,8,0:0:0:0:
262,158,68351,1,0,0:0:0:0:
246,163,68994,1,8,0:0:0:0:
138,158,69208,1,0,0:0:0:0:
270,131,69851,1,8,0:0:0:0:
270,131,70065,1,0,0:0:0:0:
138,158,70279,1,8,0:0:0:0:
268,156,70708,1,8,0:0:0:0:
265,155,71029,1,0,0:0:0:0:
268,156,71565,1,8,0:0:0:0:
265,155,71887,1,0,0:0:0:0:
268,156,72422,1,8,0:0:0:0:
209,167,73279,5,8,0:0:0:0:
138,158,73494,1,0,0:0:0:0:
138,158,73708,1,8,0:0:0:0:
284,183,74137,1,8,0:0:0:0:
200,203,74566,1,8,0:0:0:0:
200,203,74780,1,0,0:0:0:0:
200,203,74993,1,8,0:0:0:0:
200,203,75423,1,8,0:0:0:0:
200,203,75850,1,8,0:0:0:0:
309,129,76066,1,0,0:0:0:0:
200,203,76493,1,0,0:0:0:0:
200,203,76707,1,8,0:0:0:0:
200,203,76923,1,0,0:0:0:0:
200,203,77137,1,8,0:0:0:0:
200,203,77566,1,8,0:0:0:0:
309,129,77780,1,0,0:0:0:0:
412,272,78207,1,8,0:0:0:0:
412,272,78423,1,8,0:0:0:0:
412,272,78637,1,0,0:0:0:0:
412,272,78850,1,0,0:0:0:0:
412,272,79280,1,8,0:0:0:0:
412,272,79493,1,0,0:0:0:0:
412,272,80137,1,8,0:0:0:0:
412,272,80351,1,0,0:0:0:0:
209,167,80565,1,8,0:0:0:0:
293,186,80993,1,8,0:0:0:0:
293,186,81423,1,8,0:0:0:0:
339,166,81637,1,0,0:0:0:0:
339,166,81850,1,8,0:0:0:0:
188,171,82279,1,0,0:0:0:0:
192,171,82707,1,8,0:0:0:0:
192,171,82922,1,0,0:0:0:0:
192,171,83350,1,8,0:0:0:0:
192,171,83566,1,8,0:0:0:0:
192,171,83780,1,0,0:0:0:0:
396,168,83993,1,8,0:0:0:0:
192,171,84423,1,8,0:0:0:0:
192,171,84637,1,0,0:0:0:0:
285,182,85065,1,0,0:0:0:0:
219,182,85279,1,8,0:0:0:0:
219,182,85494,1,0,0:0:0:0:
243,154,86137,1,8,0:0:0:0:
243,154,86351,1,0,0:0:0:0:
281,167,86994,1,8,0:0:0:0:
281,167,87208,1,0,0:0:0:0:
281,167,87422,1,8,0:0:0:0:
275,164,87851,1,8,0:0:0:0:
264,173,88065,1,0,0:0:0:0:
264,173,88279,1,0,0:0:0:0:
257,160,88708,1,8,0:0:0:0:
257,160,88922,1,8,0:0:0:0:
257,160,89137,1,0,0:0:0:0:
257,160,89565,1,8,0:0:0:0:
257,160,89994,1,8,0:0:0:0:
249,189,91279,1,8,0:0:0:0:
222,187,91494,1,0,0:0:0:0:
222,187,92137,1,8,0:0:0:0:
222,187,92351,1,8,0:0:0:0:
222,187,92994,1,8,0:0:0:0:
222,187,93208,1,0,0:0:0:0:
236,161,94708,1,8,0:0:0:0:
236,161,94922,1,0,0:0:0:0:
236,161,95565,1,8,0:0:0:0:
236,161,95779,1,0,0:0:0:0:
236,161,96422,1,8,0:0:0:0:
236,161,96637,1,0,0:0:0:0:
240,174,98137,1,8,0:0:0:0:
240,174,98351,1,0,0:0:0:0:
240,174,98994,1,8,0:0:0:0:
240,174,99208,1,8,0:0:0:0:
240,174,99851,1,8,0:0:0:0:
240,174,100065,1,0,0:0:0:0:
217,175,101565,1,8,0:0:0:0:
217,175,101779,1,0,0:0:0:0:
217,175,101994,1,8,0:0:0:0:
217,175,102422,1,8,0:0:0:0:
217,175,102637,1,0,0:0:0:0:
217,175,102851,1,0,0:0:0:0:
337,113,104137,1,8,0:0:0:0:
337,113,104351,1,0,0:0:0:0:
337,113,104565,1,8,0:0:0:0:
337,113,104994,1,8,0:0:0:0:
337,113,105208,1,0,0:0:0:0:
337,113,105422,1,8,0:0:0:0:
337,113,105851,1,8,0:0:0:0:
337,113,106065,1,0,0:0:0:0:
337,113,106279,1,0,0:0:0:0:
337,113,107565,1,8,0:0:0:0:
337,113,107779,1,0,0:0:0:0:
337,113,107994,1,8,0:0:0:0:
191,133,108422,1,8,0:0:0:0:
191,133,108637,1,0,0:0:0:0:
191,133,108851,1,8,0:0:0:0:
191,133,109279,1,8,0:0:0:0:
191,133,109494,1,8,0:0:0:0:
191,133,109708,1,0,0:0:0:0:
191,133,110994,1,8,0:0:0:0:
191,133,111208,1,8,0:0:0:0:
191,133,111422,1,0,0:0:0:0:
191,133,111851,1,8,0:0:0:0:
191,133,112065,1,0,0:0:0:0:
191,133,112279,1,8,0:0:0:0:
191,133,112708,1,8,0:0:0:0:
236,167,112922,1,0,0:0:0:0:
191,133,113565,1,8,0:0:0:0:
191,133,113779,1,0,0:0:0:0:
191,133,114422,1,8,0:0:0:0:
204,151,114637,1,0,0:0:0:0:
204,151,114851,1,8,0:0:0:0:
204,151,115279,1,0,0:0:0:0:
206,166,115494,1,8,0:0:0:0:
209,165,116137,1,8,0:0:0:0:
206,166,116351,1,8,0:0:0:0:
209,165,116994,1,8,0:0:0:0:
229,168,117208,1,8,0:0:0:0:
234,153,117851,1,8,0:0:0:0:
233,153,118065,1,0,0:0:0:0:
233,153,118279,1,8,0:0:0:0:
234,153,118708,1,0,0:0:0:0:
233,153,118922,1,8,0:0:0:0:
304,157,119565,1,0,0:0:0:0:
304,157,119779,1,8,0:0:0:0:
304,157,120422,1,8,0:0:0:0:
304,157,120637,1,0,0:0:0:0:
304,157,121279,1,8,0:0:0:0:
304,157,121494,1,0,0:0:0:0:
304,157,121708,1,8,0:0:0:0:
277,160,122137,1,0,0:0:0:0:
277,160,122351,1,8,0:0:0:0:
265,158,122994,1,8,0:0:0:0:
262,157,123208,1,8,0:0:0:0:
265,158,123422,1,0,0:0:0:0:
265,158,123851,1,8,0:0:0:0:
262,157,124065,1,0,0:0:0:0:
260,155,124279,1,0,0:0:0:0:
260,155,124708,1,8,0:0:0:0:
262,157,124922,1,0,0:0:0:0:
260,155,125137,1,8,0:0:0:0:
260,155,125565,1,0,0:0:0:0:
262,157,125779,1,8,0:0:0:0:
260,155,126422,1,0,0:0:0:0:
260,155,126637,1,8,0:0:0:0:
260,155,126851,1,0,0:0:0:0:
260,155,127065,1,8,0:0:0:0:
123,185,128779,1,8,0:0:0:0:
260,155,128994,1,0,0:0:0:0:
209,155,129208,1,8,0:0:0:0:
209,155,129851,1,8,0:0:0:0:
209,155,130065,1,0,0:0:0:0:
209,155,130708,1,8,0:0:0:0:
209,155,130922,1,8,0:0:0:0:
209,155,131565,1,8,0:0:0:0:
296,186,131779,1,0,0:0:0:0:
296,186,131994,1,0,0:0:0:0:
209,155,132422,1,0,0:0:0:0:
245,145,132637,1,0,0:0:0:0:
195,164,133279,1,8,0:0:0:0:
245,145,133494,1,8,0:0:0:0:
188,153,134137,1,8,0:0:0:0:
188,153,134351,1,8,0:0:0:0:
188,153,134994,1,8,0:0:0:0:
188,153,135208,1,0,0:0:0:0:
188,153,135422,1,0,0:0:0:0:
188,153,135851,1,8,0:0:0:0:
188,153,136065,1,0,0:0:0:0:
188,153,136708,1,0,0:0:0:0:
188,153,136922,1,8,0:0:0:0:
220,160,137565,1,8,0:0:0:0:
220,160,137779,1,8,0:0:0:0:
220,160,138422,1,8,0:0:0:0:
220,160,138637,1,0,0:0:0:0:
220,160,138851,1,0,0:0:0:0:
222,180,139279,1,8,0:0:0:0:
222,180,139494,1,8,0:0:0:0:
222,180,140137,1,0,0:0:0:0:
223,180,140351,1,8,0:0:0:0:
218,174,140994,1,8,0:0:0:0:
218,174,141208,1,0,0:0:0:0:
218,174,141422,1,0,0:0:0:0:
166,211,141851,1,8,0:0:0:0:
223,170,142065,1,0,0:0:0:0:
182,177,142279,1,8,0:0:0:0:
238,166,149565,5,8,0:0:0:0:
139,158,149779,1,0,0:0:0:0:
245,166,149994,1,0,0:0:0:0:
139,158,150422,1,8,0:0:0:0:
139,158,150637,1,0,0:0:0:0:
139,158,151279,1,8,0:0:0:0:
139,158,151494,1,8,0:0:0:0:
139,175,152137,1,8,0:0:0:0:
139,175,152351,1,0,0:0:0:0:
139,175,152565,1,8,0:0:0:0:
139,175,152994,1,8,0:0:0:0:
139,175,153208,1,0,0:0:0:0:
139,175,153851,1,8,0:0:0:0:
139,175,154065,1,8,0:0:0:0:
139,175,154708,1,8,0:0:0:0:
139,175,154922,1,0,0:0:0:0:
139,175,155565,1,8,0:0:0:0:
139,175,155779,1,0,0:0:0:0:
139,175,155994,1,8,0:0:0:0:
167,142,156422,1,8,0:0:0:0:
167,142,156637,1,0,0:0:0:0:
167,142,156851,1,8,0:0:0:0:
167,142,157279,1,8,0:0:0:0:
167,142,157494,1,0,0:0:0:0:
167,142,158137,1,8,0:0:0:0:
167,142,158351,1,8,0:0:0:0:
167,142,158994,1,8,0:0:0:0:
167,142,159208,1,0,0:0:0:0:
167,142,159422,1,8,0:0:0:0:
167,142,159851,1,8,0:0:0:0:
167,142,160065,1,0,0:0:0:0:
167,142,160708,1,8,0:0:0:0:
167,142,160922,1,8,0:0:0:0:
167,142,161565,1,8,0:0:0:0:
167,142,161779,1,0,0:0:0:0:
167,142,162422,1,8,0:0:0:0:
167,142,162637,1,0,0:0:0:0:
167,142,162851,1,8,0:0:0:0:
171,163,163279,1,4,0:0:0:0:
167,142,164565,1,4,0:0:0:0:
151,139,165422,1,4,0:0:0:0:
217,157,166708,1,4,0:0:0:0:
164,161,167351,1,4,0:0:0:0:
177,170,167994,1,4,0:0:0:0:
177,170,168851,1,4,0:0:0:0:
177,170,170137,1,4,0:0:0:0:
177,170,171422,1,4,0:0:0:0:
177,170,172279,1,4,0:0:0:0:
177,170,173565,1,4,0:0:0:0:
177,170,174208,1,4,0:0:0:0:
177,170,174851,1,4,0:0:0:0:
177,170,175708,5,4,0:0:0:0:
297,250,176565,5,0,0:0:0:0:
297,250,176779,1,0,0:0:0:0:
297,250,176993,1,8,0:0:0:0:
322,215,177315,1,0,0:0:0:0:
322,215,177637,1,8,0:0:0:0:
296,209,178494,1,0,0:0:0:0:
286,205,178708,1,8,0:0:0:0:
286,205,179029,1,8,0:0:0:0:
286,205,179351,1,0,0:0:0:0:
250,183,180208,1,0,0:0:0:0:
250,183,180422,1,8,0:0:0:0:
250,183,180744,1,8,0:0:0:0:
250,183,181065,1,0,0:0:0:0:
239,174,181922,1,0,0:0:0:0:
254,184,182137,1,8,0:0:0:0:
290,175,182458,1,8,0:0:0:0:
290,175,182779,1,0,0:0:0:0:
249,176,183637,1,0,0:0:0:0:
249,176,183851,1,8,0:0:0:0:
249,176,184172,1,8,0:0:0:0:
249,176,184494,1,8,0:0:0:0:
296,209,185351,1,0,0:0:0:0:
286,205,185565,1,8,0:0:0:0:
286,205,185886,1,8,0:0:0:0:
286,205,186208,1,0,0:0:0:0:
288,166,186851,1,0,0:0:0:0:
296,209,187065,1,8,0:0:0:0:
286,205,187279,1,0,0:0:0:0:
286,205,187600,1,8,0:0:0:0:
286,205,187922,1,0,0:0:0:0:
226,193,188565,1,8,0:0:0:0:
296,209,188779,1,0,0:0:0:0:
286,205,188993,1,8,0:0:0:0:
286,205,189314,1,8,0:0:0:0:
286,205,189636,1,0,0:0:0:0:
296,209,190494,1,0,0:0:0:0:
286,205,190708,1,8,0:0:0:0:
286,205,191029,1,8,0:0:0:0:
286,205,191351,1,0,0:0:0:0:
296,209,192208,1,0,0:0:0:0:
286,205,192422,1,8,0:0:0:0:
286,205,192743,1,8,0:0:0:0:
286,205,193065,1,0,0:0:0:0:
296,209,193922,1,0,0:0:0:0:
286,205,194136,1,8,0:0:0:0:
286,205,194457,1,8,0:0:0:0:
286,205,194779,1,0,0:0:0:0:
296,209,195637,1,0,0:0:0:0:
286,205,195851,1,8,0:0:0:0:
286,205,196172,1,8,0:0:0:0:
286,205,196494,1,0,0:0:0:0:
296,209,197351,1,0,0:0:0:0:
286,205,197565,1,8,0:0:0:0:
286,205,197994,1,8,0:0:0:0:
286,205,198208,1,0,0:0:0:0:
296,209,199065,1,0,0:0:0:0:
286,205,199279,1,8,0:0:0:0:
286,205,199708,1,8,0:0:0:0:
286,205,199922,1,0,0:0:0:0:
296,209,200779,1,0,0:0:0:0:
286,205,200993,1,8,0:0:0:0:
286,205,201422,1,8,0:0:0:0:
286,205,201636,1,0,0:0:0:0:
296,209,202494,1,8,0:0:0:0:
286,205,202708,1,8,0:0:0:0:
286,205,203137,1,8,0:0:0:0:
286,205,203351,1,8,0:0:0:0:
296,209,204208,1,0,0:0:0:0:
286,205,204422,1,8,0:0:0:0:
286,205,204744,1,8,0:0:0:0:
286,205,205065,1,0,0:0:0:0:
296,209,205922,1,0,0:0:0:0:
286,205,206136,1,8,0:0:0:0:
286,205,206457,1,8,0:0:0:0:
286,205,206779,1,0,0:0:0:0:
296,209,207637,1,0,0:0:0:0:
286,205,207851,1,8,0:0:0:0:
286,205,208172,1,8,0:0:0:0:
286,205,208494,1,0,0:0:0:0:
296,209,209351,1,0,0:0:0:0:
286,205,209565,1,8,0:0:0:0:
286,205,209994,1,8,0:0:0:0:
286,205,210208,1,0,0:0:0:0:
296,209,211065,1,0,0:0:0:0:
286,205,211279,1,8,0:0:0:0:
286,205,211708,1,8,0:0:0:0:
286,205,211922,1,0,0:0:0:0:
296,209,212779,1,0,0:0:0:0:
286,205,212993,1,8,0:0:0:0:
286,205,213422,1,8,0:0:0:0:
286,205,213636,1,0,0:0:0:0:
296,209,214494,1,0,0:0:0:0:
286,205,214708,1,8,0:0:0:0:
286,205,215137,1,8,0:0:0:0:
286,205,215351,1,0,0:0:0:0:
296,209,216208,1,0,0:0:0:0:
286,205,216422,1,8,0:0:0:0:
286,205,216851,1,8,0:0:0:0:
286,205,217065,1,0,0:0:0:0:
