osu file format v14

[General]
AudioFilename: audio.mp3
AudioLeadIn: 0
PreviewTime: 103459
Countdown: 0
SampleSet: Soft
StackLeniency: 0.7
Mode: 0
LetterboxInBreaks: 0
WidescreenStoryboard: 0

[Editor]
Bookmarks: 7887,13018,20076,34194,55370,83606,97723,104782,133017,142124,179689,213080,246440,251143,257292,281217
DistanceSpacing: 0.6
BeatDivisor: 4
GridSize: 4
TimelineZoom: 1.600006

[Metadata]
Title:Millennium Anthem (2000 New Years Eve)
TitleUnicode:Millennium Anthem (2000 New Years Eve)
Artist:Jay Tholen
ArtistUnicode:Jay Tholen
Creator:Mismagius
Version:Y2K
Source:Hypnospace Outlaw
Tags:ost vol. 1 half-handed cloud nativity costume English Electronic Dance EDM Jazz Avant-Pop Pop Video Game VideoGame VGM Tendershoot No More Robots
BeatmapID:2002995
BeatmapSetID:956765

[Difficulty]
HPDrainRate:5
CircleSize:5.3
OverallDifficulty:7.3
ApproachRate:8.3
SliderMultiplier:1.6
SliderTickRate:1

[Events]
//Background and Video events
0,0,"hypnospace.png",0,0
//Break Periods
2,9804,12314
//Storyboard Layer 0 (Background)
//Storyboard Layer 1 (Fail)
//Storyboard Layer 2 (Pass)
//Storyboard Layer 3 (Foreground)
//Storyboard Layer 4 (Overlay)
//Storyboard Sound Samples

[TimingPoints]
79,441.176470588235,4,3,0,30,1,0
741,441.176470588235,4,2,0,60,1,0
741,-83.3333333333333,4,2,0,60,0,0
6917,472.44094488189,4,2,0,60,1,0
7153,454.545454545455,4,2,0,60,1,0
7380,496.195831955012,4,2,0,60,1,0
7898,640,4,2,0,60,1,0
9604,-100,4,2,0,30,0,0
13018,441.176470588235,4,2,0,40,1,0
23054,-100,4,2,0,20,0,0
23165,-100,4,2,0,40,0,0
23275,-100,4,2,0,20,0,0
23385,-100,4,2,0,40,0,0
23495,-100,4,2,0,20,0,0
23606,-100,4,2,0,40,0,0
24047,-35.7142857142857,4,2,0,40,0,0
24488,-100,4,2,0,40,0,0
30113,-100,4,2,0,20,0,0
30223,-100,4,2,0,40,0,0
30334,-100,4,2,0,20,0,0
30444,-100,4,2,0,40,0,0
30554,-100,4,2,0,20,0,0
30665,-100,4,2,0,40,0,0
31106,-35.7142857142857,4,2,0,40,0,0
31547,-100,4,2,0,40,0,0
32429,-100,4,2,0,30,0,0
32503,-100,4,2,0,20,0,0
32870,-100,4,2,0,40,0,0
32944,-100,4,2,0,20,0,0
33753,-76.9230769230769,4,2,0,40,0,0
34194,-142.857142857143,4,2,0,40,0,0
37172,-142.857142857143,4,2,0,20,0,0
37282,-142.857142857143,4,2,0,40,0,0
37392,-142.857142857143,4,2,0,20,0,0
37503,-142.857142857143,4,2,0,40,0,0
37613,-142.857142857143,4,2,0,20,0,0
37723,-142.857142857143,4,2,0,40,0,0
44231,-142.857142857143,4,2,0,20,0,0
44341,-142.857142857143,4,2,0,40,0,0
44451,-142.857142857143,4,2,0,20,0,0
44562,-142.857142857143,4,2,0,40,0,0
44672,-142.857142857143,4,2,0,20,0,0
44782,-142.857142857143,4,2,0,40,0,0
47870,-142.857142857143,4,2,0,30,0,0
48312,-142.857142857143,4,2,0,40,0,0
55370,-500.000000000003,4,2,0,40,0,0
55591,-500.000000000003,4,2,0,10,0,0
57576,-500.000000000003,4,2,0,40,0,0
58900,-500.000000000003,4,2,0,10,0,0
59782,-500.000000000003,4,2,0,40,0,0
60003,-500.000000000003,4,2,0,10,0,0
60885,-500.000000000003,4,2,0,40,0,0
62429,-500.000000000003,4,2,0,10,0,0
62650,-500.000000000003,4,2,0,40,0,0
62870,-500.000000000003,4,2,0,10,0,0
63091,-500.000000000003,4,2,0,40,0,0
63312,-500.000000000003,4,2,0,10,0,0
63532,-500.000000000003,4,2,0,40,0,0
63753,-500.000000000003,4,2,0,10,0,0
63973,-500.000000000003,4,2,0,40,0,0
64194,-500.000000000003,4,2,0,10,0,0
64415,-500.000000000003,4,2,0,40,0,0
64635,-500.000000000003,4,2,0,10,0,0
64856,-500.000000000003,4,2,0,40,0,0
65076,-500.000000000003,4,2,0,10,0,0
65297,-500.000000000003,4,2,0,40,0,0
65517,-500.000000000003,4,2,0,10,0,0
65738,-500.000000000003,4,2,0,40,0,0
65959,-500.000000000003,4,2,0,10,0,0
67723,-500.000000000003,4,2,0,25,0,0
68385,-500.000000000003,4,2,0,40,0,0
70370,-350.877192982456,4,2,0,40,0,0
70591,-350.877192982456,4,2,0,10,0,0
71032,-350.877192982456,4,2,0,40,0,0
73017,-350.877192982456,4,2,0,10,0,0
73679,-350.877192982456,4,2,0,40,0,0
76547,-350.877192982456,4,2,0,10,0,0
76767,-350.877192982456,4,2,0,40,0,0
76988,-350.877192982456,4,2,0,10,0,0
77209,-350.877192982456,4,2,0,40,0,0
77429,-350.877192982456,4,2,0,10,0,0
77650,-350.877192982456,4,2,0,40,0,0
77870,-350.877192982456,4,2,0,10,0,0
78091,-350.877192982456,4,2,0,40,0,0
78312,-350.877192982456,4,2,0,10,0,0
78532,-350.877192982456,4,2,0,40,0,0
78753,-350.877192982456,4,2,0,10,0,0
78973,-350.877192982456,4,2,0,40,0,0
79194,-350.877192982456,4,2,0,10,0,0
79415,-350.877192982456,4,2,0,40,0,0
79635,-350.877192982456,4,2,0,10,0,0
79856,-350.877192982456,4,2,0,40,0,0
81841,-333.333333333333,4,2,0,10,0,0
82282,-166.666666666667,4,2,0,25,0,0
82723,422.535211267606,4,2,0,40,1,0
82723,-83.3333333333333,4,2,0,40,0,0
83145,461.538461538462,4,2,0,50,1,0
83606,441.176470588235,4,2,0,40,1,0
83606,-83.3333333333333,4,2,0,40,0,0
97723,-71.4285714285714,4,2,0,40,0,0
99488,434.782608695652,4,2,0,40,1,0
99488,-71.4285714285714,4,2,0,40,0,0
100357,451.127819548872,4,2,0,40,1,0
100357,-71.4285714285714,4,2,0,40,0,0
101259,434.782608695652,4,2,0,40,1,0
101259,-71.4285714285714,4,2,0,40,0,0
101693,441.176470588235,4,2,0,40,1,0
101693,-71.4285714285714,4,2,0,40,0,0
102575,431.654676258993,4,2,0,40,1,0
102575,-71.4285714285714,4,2,0,40,0,0
103006,454.545454545455,4,2,0,30,1,0
103006,-71.4285714285714,4,2,0,30,0,0
103460,437.956204379562,4,2,0,30,1,0
104335,451.127819548872,4,2,0,40,1,0
104786,441.176470588235,4,2,0,40,1,0
106991,434.782608695652,4,2,0,40,1,0
107860,451.127819548872,4,2,0,40,1,0
108311,437.956204379562,4,2,0,40,1,0
109186,441.176470588235,4,2,0,40,1,0
110068,441.176470588235,4,2,0,40,1,0
111391,472.44094488189,4,2,0,40,1,0
112099,348.837209302326,4,2,0,40,1,0
112273,441.176470588235,4,2,0,40,1,0
114920,468.75,4,2,0,40,1,0
115388,416.666666666667,4,2,0,40,1,0
115804,441.176470588235,4,2,0,40,1,0
117127,441.176470588235,4,2,0,40,1,0
131685,-100,4,2,0,20,0,0
131906,-100,4,2,0,25,0,0
132127,-100,4,2,0,30,0,0
132347,-100,4,2,0,35,0,0
132568,-100,4,2,0,40,0,0
133009,-166.666666666667,4,2,0,40,0,0
138303,458.015267175573,4,2,0,40,1,0
138761,444.444444444444,4,2,0,40,1,0
139205,-166.666666666667,4,2,0,40,0,0
139649,495.867768595041,4,2,0,40,1,0
140130,560.747663551402,4,2,0,40,1,0
140410,410.958904109589,4,2,0,40,1,0
140820,550.45871559633,4,2,0,40,1,0
141095,508.474576271186,4,2,0,40,1,0
141095,-166.666666666667,4,2,0,40,0,0
141603,521.739130434783,4,2,0,30,1,0
141603,-166.666666666667,4,2,0,30,0,0
142124,521.739130434783,4,2,0,40,1,0
155689,480,4,2,0,40,1,0
155929,571.428571428571,4,2,0,40,1,0
156214,530.973451327434,4,2,0,40,1,0
156744,451.127819548872,4,2,0,40,1,0
156969,545.454545454546,4,2,0,40,1,0
157241,480,4,2,0,40,1,0
157481,566.037735849057,4,2,0,40,1,0
157764,521.739130434783,4,2,0,40,1,0
158807,521.739130434783,4,2,0,40,1,0
177067,441.176470588235,4,2,0,40,1,0
177177,540.540540540541,4,2,0,40,1,0
177312,552.995391705069,4,2,0,40,1,0
177588,521.739130434783,4,2,0,40,1,0
183066,-100,4,2,0,25,0,0
183848,-100,4,2,0,40,0,0
192198,480,4,2,0,40,1,0
192438,537.15308863026,4,2,0,40,1,0
192706,521.739130434783,4,2,0,40,1,0
192966,521.739130434783,4,2,0,40,1,0
193748,508.474576271186,4,2,0,40,1,0
194002,579.710144927536,4,2,0,40,1,0
194291,508.474576271186,4,2,0,40,1,0
194799,521.739130434783,4,2,0,40,1,0
195059,581.395348837209,4,2,0,40,1,0
195349,495.867768595041,4,2,0,40,1,0
195844,530.973451327434,4,2,0,40,1,0
196374,521.739130434783,4,2,0,40,1,0
199765,-100,4,2,0,25,0,0
200287,-100,4,2,0,40,0,0
200417,-100,4,2,0,25,0,0
200547,-100,4,2,0,40,0,0
209678,-100,4,2,0,30,0,0
209939,-100,4,2,0,40,0,0
210200,-100,4,2,0,35,0,0
210460,526.315789473684,4,2,0,40,1,0
210986,545.454545454546,4,2,0,40,1,0
210986,-100,4,2,0,40,0,0
211531,495.867768595041,4,2,0,40,1,0
211778,521.739130434783,4,2,0,40,1,0
212038,568.720379146919,4,2,0,40,1,0
212322,506.329113924051,4,2,0,40,1,0
213081,521.739130434783,4,2,0,40,1,0
216472,-100,4,2,0,25,0,0
216994,-100,4,2,0,40,0,0
217124,-100,4,2,0,25,0,0
217254,-100,4,2,0,40,0,0
227689,480,4,2,0,40,1,0
227929,521.739130434783,4,2,0,40,1,0
228450,545.454545454546,4,2,0,40,1,0
228995,533.333333333333,4,2,0,40,1,0
229261,500,4,2,0,40,1,0
229511,550.45871559633,4,2,0,40,1,0
229786,480,4,2,0,40,1,0
230026,521.739130434783,4,2,0,40,1,0
230286,521.739130434783,4,2,0,40,1,0
231590,521.739130434783,4,2,0,30,1,0
233155,-100,4,2,0,25,0,0
233676,-100,4,2,0,40,0,0
233807,-100,4,2,0,25,0,0
233937,-100,4,2,0,40,0,0
237329,-100,4,2,0,30,0,0
238111,-100,4,2,0,40,0,0
242024,535.714285714286,4,2,0,40,1,0
242827,461.538461538462,4,2,0,40,1,0
242980,535.714285714286,4,2,0,40,1,0
243158,441.176470588235,4,2,0,40,1,0
243378,451.127819548872,4,2,0,40,1,0
243603,533.333333333333,4,2,0,40,1,0
244136,491.803278688525,4,2,0,40,1,0
244381,521.739130434783,4,2,0,40,1,0
244641,530.973451327434,4,2,0,40,1,0
244906,506.329113924051,4,2,0,40,1,0
245159,521.739130434783,4,2,0,40,1,0
245941,480,4,2,0,40,1,0
246181,519.480519480519,4,2,0,40,1,0
246440,508.474576271186,4,2,0,40,1,0
246948,545.454545454546,4,2,0,40,1,0
248038,480,4,2,0,40,1,0
248278,558.139534883721,4,2,0,40,1,0
248558,521.739130434783,4,2,0,40,1,0
248818,674.157303370787,4,2,0,40,1,0
249158,600,4,2,0,40,1,0
249458,674.157303370787,4,2,0,40,1,0
250132,612.244897959184,4,2,0,40,1,0
250744,400,4,2,0,40,1,0
251143,683.137879995446,4,2,0,40,1,0
256949,-100,4,2,0,5,0,0
257292,923.076923076923,4,2,0,40,1,0
259138,888.888888888889,4,2,0,40,1,0
260915,827.586206896552,4,2,0,40,1,0
262570,800,4,2,0,40,1,0
264170,764.331210191083,4,2,0,40,1,0
265698,705.882352941176,4,2,0,40,1,0
267109,638.297872340426,4,2,0,40,1,0
268385,600,4,2,0,40,1,0
269585,545.454545454546,4,2,0,40,1,0
270130,533.333333333333,4,2,0,40,1,0
270663,500,4,2,0,40,1,0
271163,470.588235294118,4,2,0,40,1,0
271633,461.538461538462,4,2,0,40,1,0
272094,431.654676258993,4,2,0,40,1,0
272525,410.958904109589,4,2,0,40,1,0
272935,375,4,2,0,40,1,0
273310,352.941176470588,4,2,0,40,1,0
273662,342.857142857143,4,2,0,40,1,0
274004,315.789473684211,4,2,0,40,1,0
274319,296.296296296296,4,2,0,40,1,0
274615,279.06976744186,4,2,0,40,1,0
274894,266.666666666667,4,2,0,40,1,0
275160,255.31914893617,4,2,0,40,1,0
275415,244.897959183673,4,2,0,40,1,0
275659,240,4,2,0,40,1,0
275899,230.769230769231,4,2,0,40,1,0
276360,226.415094339623,4,2,0,40,1,0
276812,222.222222222222,4,2,0,40,1,0
277589,238.095238095238,4,2,0,40,1,0
277708,214.285714285714,4,2,0,40,1,0
278136,222.222222222222,4,2,0,40,1,0
278580,222.222222222222,4,2,0,40,1,0
279247,218.181818181818,4,2,0,40,1,0
279683,222.222222222222,4,2,0,30,1,0
279683,-133.333333333333,4,2,0,30,0,0
280127,218.181818181818,4,2,0,20,1,0
280127,-200,4,2,0,20,0,0
280563,-400,4,2,0,20,0,0
280999,-1000,4,2,0,20,0,0

[Colours]
Combo1 : 255,219,170
Combo2 : 206,170,255
Combo3 : 170,200,255
Combo4 : 193,220,192

[HitObjects]
96,39,79,5,8,0:0:0:0:
105,104,189,1,8,0:0:0:0:
97,129,299,5,12,0:0:0:0:
97,129,741,6,0,P|169:115|220:157,1,143.999995605469,2|0,1:2|0:0,0:0:0:0:
231,178,1182,2,0,P|225:208|229:234,1,47.9999985351563,2|0,1:2|0:0,0:0:0:0:
305,297,1402,1,2,0:0:0:0:
305,297,1513,1,0,0:0:0:0:
305,297,1623,2,0,P|311:267|307:241,1,47.9999985351563,4|0,3:0|0:0,0:0:0:0:
292,124,1843,5,2,1:2:0:0:
402,308,2064,1,0,1:2:0:0:
206,242,2285,1,2,0:0:0:0:
206,242,2395,1,0,0:0:0:0:
206,242,2505,6,0,L|149:244,1,47.9999985351563,4|0,0:3|0:0,0:0:0:0:
37,172,2726,2,0,L|94:174,1,47.9999985351563,2|0,0:0|0:0,0:0:0:0:
124,63,2946,2,0,P|185:71|238:36,1,95.9999970703126,0|2,1:0|0:0,0:0:0:0:
230,38,3277,1,0,0:0:0:0:
279,79,3388,2,0,L|292:140,1,47.9999985351563,4|0,0:3|0:0,0:0:0:0:
312,240,3608,5,2,1:2:0:0:
385,17,3829,1,0,1:0:0:0:
173,116,4049,1,2,1:2:0:0:
475,161,4270,6,0,L|460:270,1,95.9999970703126,2|0,1:2|0:0,0:0:0:0:
310,350,4711,1,2,1:2:0:0:
330,207,4932,1,2,0:0:0:0:
350,64,5152,2,0,L|354:113,1,47.9999985351563,2|0,1:2|0:0,0:0:0:0:
278,31,5373,1,0,0:0:0:0:
278,31,5483,1,0,0:0:0:0:
278,31,5593,2,0,P|225:18|176:37,1,95.9999970703126,0|2,1:0|0:0,0:0:0:0:
171,48,5924,1,0,0:0:0:0:
127,108,6035,6,0,L|19:95,1,95.9999970703126,4|2,0:0|0:0,0:0:0:0:
224,272,6476,2,0,L|332:259,1,95.9999970703126,2|2,0:0|0:0,0:0:0:0:
438,68,6917,5,0,3:3:0:0:
411,182,7153,1,0,3:3:0:0:
297,136,7380,6,0,L|252:131,1,40,0|0,3:3|3:3,3:3:0:0:
318,18,7628,2,0,L|363:13,1,40,0|0,3:3|3:3,3:3:0:0:
162,40,7898,5,2,3:3:0:0:
256,192,8058,12,2,9604,0:0:0:0:
83,149,13018,6,0,L|94:243,1,80,2|0,0:0|0:0,0:0:0:0:
187,185,13459,5,8,0:0:0:0:
176,288,13679,1,0,0:0:0:0:
270,244,13900,6,0,P|325:243|363:263,1,80,2|0,0:1|0:0,0:0:0:0:
404,339,14341,6,0,B|443:342|443:342|481:330,1,80,4|0,2:0|0:0,0:0:0:0:
347,252,14782,5,2,0:0:0:0:
375,151,15003,1,0,0:0:0:0:
302,76,15223,6,0,L|205:82,1,80,8|0,0:1|0:0,0:0:0:0:
392,20,15665,6,0,B|431:30|428:2|471:15,1,80,2|0,0:1|0:0,0:0:0:0:
375,151,16106,5,2,0:0:0:0:
411,176,16216,1,0,0:0:0:0:
454,182,16326,1,2,0:0:0:0:
497,176,16437,1,0,0:0:0:0:
505,162,16547,6,0,L|494:244,1,80,2|0,0:0|0:0,0:0:0:0:
403,279,16988,6,0,B|383:313|383:313|392:361,1,80,8|0,0:1|0:0,0:0:0:0:
312,223,17429,6,0,P|332:189|323:141,1,80,2|0,0:3|0:0,0:0:0:0:
236,79,17870,6,0,B|232:105|232:105|224:114|224:114|229:126|229:126|224:154,1,80,8|0,0:3|0:0,0:0:0:0:
172,249,18312,6,0,P|126:253|94:238,1,80,2|0,0:0|0:0,0:0:0:0:
28,115,18753,5,8,0:0:0:0:
8,180,18973,1,0,0:0:0:0:
103,57,19194,6,0,B|115:49|115:49|190:61,1,80,4|0,0:3|0:0,0:0:0:0:
319,80,19635,5,2,0:0:0:0:
362,86,19745,1,0,0:0:0:0:
405,80,19856,1,2,0:0:0:0:
440,54,19966,1,0,0:0:0:0:
448,40,20076,5,2,0:0:0:0:
468,155,20297,1,2,0:0:0:0:
468,155,20738,1,0,0:0:0:0:
325,215,20959,1,8,0:0:0:0:
468,155,21179,1,0,0:0:0:0:
434,302,21400,2,0,B|437:287|455:284|468:301|466:324|448:342|424:341|410:322|386:311|358:319|343:340,1,160,2|0,0:0|0:0,0:0:0:0:
272,366,22062,6,0,P|230:372|185:357,1,80,2|0,0:3|0:0,0:0:0:0:
65,272,22503,2,0,P|107:278|152:263,1,80,2|2,0:3|0:2,0:0:0:0:
154,256,22834,1,0,0:0:0:0:
161,242,22944,6,0,L|161:186,1,40,2|0,0:0|0:0,0:0:0:0:
228,197,23165,2,0,L|228:141,1,40,2|0,0:0|0:0,0:0:0:0:
295,152,23385,2,0,L|295:96,1,40,2|0,0:0|0:0,0:0:0:0:
344,234,23606,5,2,0:0:0:0:
344,234,24047,6,0,B|350:259|350:259|375:269|375:269|353:283|353:283|351:309|351:309|331:293|331:293|304:300|304:300|315:275|315:275|301:253|301:253|327:254|327:254|344:234|344:234,1,223.999993164063,2|0,0:2|0:0,0:0:0:0:
450,185,24488,5,8,0:0:0:0:
442,276,24709,1,0,0:0:0:0:
455,119,24929,1,0,0:0:0:0:
436,341,25150,2,0,L|346:351,1,80,2|0,0:0|0:0,0:0:0:0:
266,297,25591,2,0,L|175:306,1,80,2|0,0:0|0:0,0:0:0:0:
107,374,26032,2,0,L|16:383,1,80,2|2,0:0|0:0,0:0:0:0:
23,366,26363,1,2,0:0:0:0:
19,351,26473,1,0,0:0:0:0:
66,220,26694,5,2,0:0:0:0:
76,207,26804,1,2,0:0:0:0:
75,162,26915,1,0,0:0:0:0:
85,149,27025,1,0,0:0:0:0:
74,98,27135,5,2,0:0:0:0:
186,141,27356,1,2,0:0:0:0:
186,141,27797,2,0,L|224:158,1,40,2|0,3:3|3:3,3:3:0:0:
205,10,28017,1,2,3:3:0:0:
186,141,28238,1,0,0:0:0:0:
167,272,28459,2,0,B|164:257|146:254|133:271|135:294|153:312|177:311|191:292|215:281|243:289|254:305,1,160,2|0,0:0|0:0,0:0:0:0:
349,377,29120,6,0,P|370:334|368:300,1,80,2|0,0:3|0:0,0:0:0:0:
404,165,29562,2,0,P|403:204|384:239,1,80,2|2,0:3|0:0,0:0:0:0:
368,242,29892,1,2,0:0:0:0:
352,242,30003,6,0,P|331:235|313:219,1,40,2|0,0:0|0:0,0:0:0:0:
220,214,30223,2,0,P|236:199|259:191,1,40,2|0,0:0|0:0,0:0:0:0:
310,113,30444,2,0,P|314:134|309:158,1,40,2|0,0:0|0:0,0:0:0:0:
220,214,30665,5,2,0:0:0:0:
220,214,31106,6,0,B|213:239|213:239|188:249|188:249|210:263|210:263|212:289|212:289|232:273|232:273|259:280|259:280|248:255|248:255|262:233|262:233|236:234|236:234|220:214|220:214,1,223.999993164063,2|0,0:2|0:0,0:0:0:0:
147,302,31547,5,8,0:0:0:0:
84,199,31767,1,0,0:0:0:0:
95,79,31988,1,2,0:0:0:0:
191,7,32209,1,2,0:0:0:0:
191,7,32429,6,0,L|228:3,5,26.6666666666667,2|2|2|2|2|2,3:1|3:1|3:1|3:1|3:1|3:1,3:0:0:0:
226,71,32870,2,2,L|263:75,2,26.6666666666667,2|2|2,3:1|3:1|3:1,3:1:0:0:
244,146,33091,6,0,L|240:165,2,20,2|0|2,0:0|0:0|0:0,0:0:0:0:
307,168,33312,1,2,0:0:0:0:
228,301,33532,1,0,0:0:0:0:
228,301,33753,6,0,B|202:295|202:295|175:300,1,51.999997619629,0|0,3:3|3:3,3:3:0:0:
302,318,33973,2,0,B|328:324|328:324|355:319,1,51.999997619629,0|0,3:3|3:3,3:3:0:0:
456,229,34194,5,0,0:0:0:0:
491,350,34415,1,0,0:0:0:0:
396,188,34635,1,0,0:0:0:0:
352,319,34856,1,0,0:0:0:0:
508,159,35076,2,0,B|518:108|518:108|497:44,1,111.999996582031,0|0,1:0|0:0,0:0:0:0:
375,14,35738,1,0,0:0:0:0:
290,111,35959,6,0,L|228:100,1,55.9999982910157,0|4,0:0|0:3,0:0:0:0:
277,185,36400,2,0,L|215:174,1,55.9999982910157,0|4,0:0|0:3,0:0:0:0:
264,259,36841,1,2,0:0:0:0:
280,256,36951,1,2,0:0:0:0:
314,285,37062,6,0,L|307:325,1,27.9999991455078,2|0,0:0|0:0,0:0:0:0:
385,267,37282,2,0,L|378:307,1,27.9999991455078,2|0,0:0|0:0,0:0:0:0:
456,249,37503,2,0,L|449:289,1,27.9999991455078,2|0,0:0|0:0,0:0:0:0:
421,190,37723,5,0,0:0:0:0:
485,78,37944,1,0,0:0:0:0:
328,118,38165,2,0,L|264:109,1,55.9999982910157,2|0,0:0|0:0,0:0:0:0:
121,6,38606,2,0,B|139:53|139:53|121:119,1,111.999996582031,0|0,1:0|0:0,0:0:0:0:
87,235,39267,1,0,0:0:0:0:
247,178,39488,6,0,L|185:167,1,55.9999982910157,2|4,0:0|0:3,0:0:0:0:
234,252,39929,2,0,L|296:263,1,55.9999982910157,0|4,0:0|0:3,0:0:0:0:
435,195,40370,1,2,0:0:0:0:
438,211,40481,1,2,0:0:0:0:
441,227,40591,1,0,0:0:0:0:
474,58,40812,5,0,1:0:0:0:
416,48,40922,1,0,1:0:0:0:
358,38,41032,1,2,1:2:0:0:
340,35,41142,1,2,0:0:0:0:
322,32,41253,6,0,L|266:38,1,55.9999982910157
208,153,41694,1,0,0:0:0:0:
152,65,41915,2,0,L|157:35,1,27.9999991455078
14,132,42135,2,0,B|4:172|4:172|28:251,1,111.999996582031,0|0,1:0|0:0,0:0:0:0:
65,362,42797,1,0,0:0:0:0:
201,296,43017,6,0,P|247:294|273:307,1,55.9999982910157,2|4,0:0|3:0,0:0:0:0:
399,345,43459,1,2,0:0:0:0:
305,378,43679,1,4,3:0:0:0:
376,251,43900,1,2,0:0:0:0:
373,234,44010,1,2,0:0:0:0:
370,217,44120,6,0,L|377:171,1,27.9999991455078,2|0,0:0|0:0,0:0:0:0:
308,189,44341,2,0,L|315:143,1,27.9999991455078,2|0,0:0|0:0,0:0:0:0:
246,161,44562,2,0,L|253:115,1,27.9999991455078,2|0,0:0|0:0,0:0:0:0:
198,209,44782,5,0,0:0:0:0:
151,88,45003,1,0,0:0:0:0:
309,19,45223,1,2,0:0:0:0:
250,133,45444,1,0,0:0:0:0:
94,44,45665,2,0,B|79:69|79:69|82:113,1,55.9999982910157,0|0,1:0|0:0,0:0:0:0:
234,44,46106,1,0,0:0:0:0:
340,164,46326,2,0,L|316:284,1,111.999996582031,0|4,0:0|0:3,0:0:0:0:
415,358,46988,1,0,0:0:0:0:
453,234,47209,1,4,0:3:0:0:
245,292,47429,5,2,0:0:0:0:
212,300,47540,1,0,0:0:0:0:
178,295,47650,1,2,0:0:0:0:
148,278,47760,1,0,0:0:0:0:
126,252,47870,5,2,0:0:0:0:
111,243,47981,1,0,0:0:0:0:
94,240,48091,1,2,0:0:0:0:
77,241,48201,1,0,0:0:0:0:
61,248,48312,6,0,P|74:199|66:135,1,111.999996582031,2|0,0:0|0:0,0:0:0:0:
22,32,48973,1,0,0:0:0:0:
22,32,49194,2,0,P|67:49|129:45,1,111.999996582031,2|0,0:0|0:0,0:0:0:0:
319,22,50076,6,0,P|287:10|244:12,1,55.9999982910157,2|0,0:0|0:0,0:0:0:0:
276,98,50517,2,0,P|249:119|230:158,1,55.9999982910157,2|0,0:0|0:0,0:0:0:0:
320,173,50959,2,0,P|325:206|349:242,1,55.9999982910157,2|0,0:0|0:0,0:0:0:0:
406,172,51400,2,0,P|437:183|480:181,1,55.9999982910157,2|0,0:0|0:0,0:0:0:0:
276,98,51841,5,2,0:0:0:0:
195,137,52062,1,0,0:0:0:0:
248,26,52282,1,2,0:0:0:0:
223,209,52503,1,0,0:0:0:0:
177,5,52723,1,2,0:0:0:0:
294,230,53165,1,2,0:0:0:0:
294,230,53385,6,0,P|304:300|281:351,1,111.999996582031,2|0,0:0|0:0,0:0:0:0:
167,305,54047,2,0,P|134:304|106:317,1,55.9999982910157
215,241,54488,2,0,P|186:225|155:223,1,55.9999982910157,2|0,0:0|0:0,0:0:0:0:
288,209,54929,2,0,P|270:180|244:164,1,55.9999982910157
170,120,55370,6,0,P|155:71|176:0,1,128,2|0,0:0|0:0,0:0:0:0:
290,38,57576,5,0,0:0:0:0:
311,24,57797,2,0,L|345:20,1,32,2|0,0:0|0:0,0:0:0:0:
438,93,58679,2,0,L|448:157,1,64,2|0,0:0|0:0,0:0:0:0:
382,148,59782,2,0,L|392:213,1,64,2|0,0:0|0:0,0:0:0:0:
356,273,60885,1,0,0:0:0:0:
349,297,61106,1,0,0:0:0:0:
342,321,61326,6,0,P|317:324|306:322,1,32,2|0,0:0|0:0,0:0:0:0:
83,294,62209,2,0,L|79:315,1,16,2|0,0:0|0:0,0:0:0:0:
173,281,62650,2,0,L|173:302,1,16,2|0,0:0|0:0,0:0:0:0:
258,249,63091,2,0,L|262:269,1,16,2|0,0:0|0:0,0:0:0:0:
172,203,63532,2,0,L|172:224,1,16,2|0,0:0|0:0,0:0:0:0:
86,157,63973,2,0,L|82:178,1,16,2|0,0:0|0:0,0:0:0:0:
172,111,64415,2,0,L|171:132,1,16,2|0,0:0|0:0,0:0:0:0:
258,65,64856,2,0,L|262:86,1,16,2|0,0:0|0:0,0:0:0:0:
171,33,65297,2,0,L|171:54,1,16,2|0,0:0|0:0,0:0:0:0:
84,1,65738,6,0,P|57:67|64:122,1,128,2|0,0:0|0:0,0:0:0:0:
94,181,67723,5,0,0:0:0:0:
113,178,67944,1,0,0:0:0:0:
132,175,68165,1,0,0:0:0:0:
189,216,68385,6,0,P|199:218|210:224,1,16,2|0,0:0|0:0,0:0:0:0:
294,225,68826,2,0,P|287:232|276:239,1,16,2|0,0:0|0:0,0:0:0:0:
233,311,69267,1,2,0:0:0:0:
226,298,69488,5,0,0:0:0:0:
294,304,69709,1,0,0:0:0:0:
362,310,69929,1,0,0:0:0:0:
430,316,70150,1,0,0:0:0:0:
498,322,70370,2,0,L|430:316,1,68.3999991650391
495,179,71473,1,0,0:0:0:0:
474,113,71694,1,0,0:0:0:0:
453,47,71915,6,0,P|424:44|406:48,1,45.5999994433594,2|0,0:0|0:0,0:0:0:0:
346,76,72576,1,0,0:0:0:0:
346,76,72797,2,0,P|303:84|259:64,1,91.1999988867188,2|0,0:0|0:0,0:0:0:0:
222,8,73900,2,0,L|177:21,1,45.5999994433594,2|0,0:0|0:0,0:0:0:0:
20,65,75003,1,0,0:0:0:0:
49,126,75223,1,0,0:0:0:0:
78,187,75444,5,2,0:0:0:0:
201,113,75885,1,2,0:0:0:0:
172,174,76105,1,0,0:0:0:0:
143,235,76326,6,0,L|130:260,1,22.7999997216797,2|0,0:0|0:0,0:0:0:0:
218,276,76767,2,0,L|215:304,1,22.7999997216797,2|0,0:0|0:0,0:0:0:0:
303,284,77209,2,0,L|311:310,1,22.7999997216797,2|0,0:0|0:0,0:0:0:0:
216,298,77650,2,0,L|213:326,1,22.7999997216797,2|0,0:0|0:0,0:0:0:0:
132,255,78091,2,0,L|119:280,1,22.7999997216797,2|0,0:0|0:0,0:0:0:0:
214,321,78532,2,0,L|211:349,1,22.7999997216797,2|0,0:0|0:0,0:0:0:0:
310,305,78973,2,0,L|318:331,1,22.7999997216797,2|0,0:0|0:0,0:0:0:0:
212,344,79415,2,0,L|209:372,1,22.7999997216797,2|0,0:0|0:0,0:0:0:0:
121,275,79856,1,2,0:0:0:0:
121,275,80076,6,0,P|135:235|106:140,1,136.799998330078
60,19,81841,6,0,L|56:26,6,5.99999981689454,0|0|0|0|0|0|0,3:0|3:0|3:0|3:0|3:0|3:0|3:0,3:0:0:0:
121,56,82282,6,0,L|120:68,6,11.9999996337891,0|0|0|0|0|0|0,3:0|3:0|3:0|3:0|3:0|3:0|3:0,3:0:0:0:
191,66,82723,6,0,L|200:87,6,23.9999992675781,0|0|0|0|0|0|0,3:0|3:0|3:0|3:0|3:0|3:0|3:0,3:0:0:0:
259,47,83145,5,0,1:0:0:0:
263,30,83375,1,0,0:0:0:0:
407,88,83606,6,0,P|426:133|416:185,1,95.9999970703126,4|4,0:1|3:0,0:0:0:0:
330,304,84047,1,0,1:0:0:0:
343,144,84267,1,4,3:0:0:0:
490,288,84488,2,0,L|383:299,1,95.9999970703126,4|0,0:3|0:0,0:0:0:0:
248,154,84929,2,0,L|354:142,1,95.9999970703126,0|0,1:0|0:0,0:0:0:0:
474,13,85370,5,4,0:3:0:0:
443,163,85591,1,4,3:0:0:0:
301,32,85811,2,0,L|407:20,1,95.9999970703126,0|4,1:0|3:0,0:0:0:0:
248,154,86253,1,2,0:0:0:0:
229,150,86363,1,2,0:0:0:0:
210,146,86473,6,0,L|153:155,1,47.9999985351563,4|0,0:3|0:0,0:0:0:0:
192,220,86694,2,0,L|135:229,1,47.9999985351563,0|0,1:0|0:0,0:0:0:0:
174,294,86914,2,0,L|117:303,1,47.9999985351563,4|0,0:3|0:0,0:0:0:0:
231,345,87135,6,0,P|283:353|337:328,1,95.9999970703126,4|4,0:3|3:0,0:0:0:0:
375,177,87576,2,0,P|427:169|481:194,1,95.9999970703126,2|4,1:2|3:0,0:0:0:0:
305,256,88017,2,0,P|274:199|288:121,1,143.999995605469,4|0,0:3|0:0,0:0:0:0:
302,111,88458,2,0,L|196:123,1,95.9999970703126,0|4,1:0|3:0,0:0:0:0:
368,23,88900,6,0,L|474:11,1,95.9999970703126,4|4,0:3|3:0,0:0:0:0:
273,34,89341,1,0,1:0:0:0:
178,45,89561,1,4,3:0:0:0:
397,100,89782,1,2,0:0:0:0:
420,97,89892,1,2,0:0:0:0:
444,94,90003,5,0,1:0:0:0:
438,156,90113,1,4,0:3:0:0:
431,217,90223,1,0,1:0:0:0:
249,313,90444,2,0,P|244:335|253:358,1,47.9999985351563,4|0,3:0|3:0,0:0:0:0:
265,293,90664,6,0,L|159:281,1,95.9999970703126,4|4,0:3|3:0,0:0:0:0:
109,139,91106,1,0,1:0:0:0:
63,338,91326,1,4,3:0:0:0:
58,319,91436,1,0,3:0:0:0:
53,300,91547,1,4,3:3:0:0:
195,357,91767,1,4,3:0:0:0:
238,209,91988,2,0,P|246:157|221:103,1,95.9999970703126,0|4,1:0|3:0,0:0:0:0:
28,70,92429,6,0,L|40:176,1,95.9999970703126,4|4,3:0|3:0,0:0:0:0:
231,117,92870,2,0,L|219:11,1,95.9999970703126,0|4,1:0|3:0,0:0:0:0:
145,199,93311,1,2,0:0:0:0:
147,222,93422,1,2,0:0:0:0:
150,246,93532,6,0,L|143:304,1,47.9999985351563,4|0,3:0|0:0,0:0:0:0:
225,243,93753,2,0,L|218:301,1,47.9999985351563,0|0,1:0|0:0,0:0:0:0:
300,240,93973,2,0,L|293:298,1,47.9999985351563,4|0,3:0|0:0,0:0:0:0:
357,187,94194,6,0,P|409:179|463:204,1,95.9999970703126,4|4,3:0|3:0,0:0:0:0:
498,339,94635,2,0,P|446:347|392:322,1,95.9999970703126,2|4,1:2|3:0,0:0:0:0:
474,120,95076,1,4,3:0:0:0:
427,266,95297,1,4,3:0:0:0:
495,47,95517,1,0,1:0:0:0:
449,193,95738,1,4,3:0:0:0:
304,146,95958,6,0,L|198:158,1,95.9999970703126,4|0,0:1|0:0,0:0:0:0:
326,73,96400,1,0,0:0:0:0:
280,219,96620,1,8,3:0:0:0:
449,193,96841,1,2,0:0:0:0:
455,216,96951,1,0,0:0:0:0:
461,239,97061,1,4,3:0:0:0:
467,262,97172,1,0,0:0:0:0:
473,285,97282,5,2,3:2:0:0:
414,264,97392,1,0,0:0:0:0:
353,270,97502,1,4,3:0:0:0:
299,302,97612,1,0,0:0:0:0:
265,353,97723,6,0,P|205:366|127:284,1,167.999994873047,4|0,0:2|0:0,0:0:0:0:
217,277,98164,2,0,P|226:240|221:208,1,55.9999982910157,0|0,1:0|0:0,0:0:0:0:
261,140,98385,1,0,0:0:0:0:
261,140,98495,1,0,0:0:0:0:
261,140,98605,2,0,P|224:131|192:136,1,55.9999982910157,4|0,3:0|0:0,0:0:0:0:
126,174,98826,2,0,P|98:174|71:166,1,55.9999982910157,4|0,0:3|0:0,0:0:0:0:
188,70,99047,2,0,P|248:66|299:84,1,111.999996582031,0|0,1:0|0:0,0:0:0:0:
371,131,99378,1,0,0:0:0:0:
371,131,99488,6,0,L|383:66,1,55.9999982910157,4|0,3:0|0:0,0:0:0:0:
456,123,99705,2,0,L|444:188,1,55.9999982910157,4|0,3:0|0:0,0:0:0:0:
366,221,99922,2,0,L|244:234,1,111.999996582031,0|0,1:0|0:0,0:0:0:0:
219,316,100248,1,0,0:0:0:0:
219,316,100357,2,0,L|290:307,1,55.9999982910157,4|0,3:0|0:0,0:0:0:0:
166,245,100582,1,4,3:0:0:0:
140,182,100695,1,4,3:0:0:0:
151,117,100808,1,0,1:0:0:0:
351,93,101033,1,4,3:0:0:0:
78,34,101259,6,0,L|54:153,1,111.999996582031,4|4,0:0|3:0,0:0:0:0:
246,222,101693,2,0,L|270:103,1,111.999996582031,0|0,1:0|0:0,0:0:0:0:
140,238,102134,1,4,3:0:0:0:
352,206,102354,1,4,3:0:0:0:
162,128,102575,1,0,1:0:0:0:
374,96,102790,1,4,3:0:0:0:
330,316,103006,6,0,L|206:334,1,111.999996582031,0|4,1:0|3:0,0:0:0:0:
97,178,103460,1,0,1:0:0:0:
38,377,103678,1,0,1:0:0:0:
251,179,103897,1,0,1:0:0:0:
68,277,104116,1,0,1:0:0:0:
358,289,104335,1,0,1:0:0:0:
159,228,104560,1,4,3:0:0:0:
415,140,104786,5,4,1:2:0:0:
423,166,105006,1,4,0:3:0:0:
431,192,105227,1,4,0:3:0:0:
439,218,105447,1,4,0:3:0:0:
491,67,105668,6,0,P|442:38|342:62,1,160,4|0,1:2|0:0,0:0:0:0:
298,177,106330,1,0,0:0:0:0:
193,102,106550,2,0,L|100:91,1,80,0|4,0:0|3:0,0:0:0:0:
212,10,106991,1,2,0:0:0:0:
298,177,107208,1,2,0:0:0:0:
298,177,107425,2,0,L|391:166,1,80,0|2,1:0|0:0,0:0:0:0:
337,289,107860,2,0,L|430:278,1,80,0|2,0:0|0:0,0:0:0:0:
174,251,108311,5,12,3:0:0:0:
146,254,108529,1,12,3:0:0:0:
119,257,108748,1,12,3:0:0:0:
91,260,108967,1,12,3:0:0:0:
264,344,109186,6,0,B|305:375|391:350|349:295|435:271|480:301,1,240,4|0,1:2|0:0,0:0:0:0:
304,281,110068,2,0,L|293:178,1,80,0|4,0:0|3:0,0:0:0:0:
355,87,110509,1,2,0:0:0:0:
475,132,110729,2,0,L|485:234,2,80,2|0|2,0:0|1:0|0:0,0:0:0:0:
355,87,111391,1,0,0:0:0:0:
236,134,111627,1,2,0:0:0:0:
146,225,111863,6,0,P|104:234|61:225,1,80,4|0,1:2|0:0,0:0:0:0:
224,272,112273,2,0,P|192:300|150:314,1,80,2|4,0:0|3:0,0:0:0:0:
315,273,112714,2,0,P|301:313|272:346,1,80,0|0,1:0|2:0,2:0:0:0:
394,228,113155,2,0,P|402:269|393:313,1,80,2|4,2:0|3:0,2:0:0:0:
439,150,113596,2,0,P|465:179|479:216,1,80,4|0,3:3|2:0,2:0:0:0:
394,228,114037,2,0,P|401:267|395:306,1,80,2|4,0:0|3:0,2:0:0:0:
315,273,114478,2,0,P|303:310|278:341,1,80,0|0,1:0|0:0,0:0:0:0:
225,274,114920,2,0,P|196:301|159:315,1,80,2|4,0:2|3:0,0:0:0:0:
60,227,115388,6,0,P|115:235|191:159,1,160,4|0,0:0|0:0,0:0:0:0:
237,61,116024,1,4,3:0:0:0:
418,131,116245,2,0,B|438:180|438:180|396:302,1,160,0|4,1:0|3:0,0:0:0:0:
353,377,116906,1,4,3:0:0:0:
510,237,117127,1,4,0:0:0:0:
364,181,117347,1,8,3:0:0:0:
512,104,117568,1,4,3:0:0:0:
335,52,117788,6,0,L|243:71,1,80,0|0,1:0|3:0,0:0:0:0:
57,110,118229,1,8,3:0:0:0:
143,15,118450,1,8,3:0:0:0:
132,142,118671,1,12,3:0:0:0:
335,52,118891,5,4,0:2:0:0:
348,75,119112,1,4,3:0:0:0:
508,167,119332,5,4,0:0:0:0:
512,141,119553,1,4,3:0:0:0:
386,251,119774,6,0,P|331:264|234:208,1,160,4|0,1:2|0:0,0:0:0:0:
337,133,120435,1,0,0:0:0:0:
386,251,120656,2,0,L|374:342,1,80,2|4,0:0|3:0,0:0:0:0:
481,182,121097,1,2,0:0:0:0:
481,182,121318,2,0,L|493:273,2,80,2|0|2,0:0|1:0|0:0,0:0:0:0:
465,54,121979,1,0,0:0:0:0:
362,131,122200,1,2,0:0:0:0:
155,20,122421,5,12,3:0:0:0:
147,46,122641,1,12,3:0:0:0:
147,73,122862,1,12,3:0:0:0:
153,99,123082,1,4,3:0:0:0:
278,245,123303,6,0,P|205:233|130:282,2,160,4|0|2,1:2|0:0|0:0,0:0:0:0:
382,319,124406,1,4,3:0:0:0:
503,277,124627,2,0,P|510:222|504:194,1,80,2|2,0:0|0:0,0:0:0:0:
424,98,125068,2,0,P|418:58|426:19,1,80,0|2,1:0|0:0,0:0:0:0:
505,198,125509,1,0,0:0:0:0:
379,173,125729,1,2,0:0:0:0:
253,148,125950,6,0,L|267:244,1,80,4|0,0:0|0:0,0:0:0:0:
127,123,126391,2,0,L|141:219,1,80,2|0,0:0|0:0,0:0:0:0:
1,98,126832,2,0,L|15:194,1,80,0|0,1:0|0:0,0:0:0:0:
127,123,127274,2,0,L|141:219,1,80,2|4,0:0|3:0,0:0:0:0:
379,173,127715,2,0,L|393:269,1,80,4|0,0:0|0:0,0:0:0:0:
253,148,128156,2,0,L|267:244,1,80,2|4,0:0|3:0,0:0:0:0:
379,173,128597,2,0,L|393:269,1,80,0|0,1:0|0:0,0:0:0:0:
505,198,129038,2,0,L|516:277,1,80,2|4,0:0|3:0,0:0:0:0:
253,148,129479,6,0,L|278:324,1,160,4|0,0:0|0:0,0:0:0:0:
390,252,130141,1,4,3:0:0:0:
162,183,130362,2,0,B|133:165|74:179|103:211|44:225|13:207,1,160,0|4,1:0|3:0,0:0:0:0:
55,86,131024,1,4,3:0:0:0:
138,248,131244,2,0,P|145:292|134:340,1,80,4|0,0:0|0:0,0:0:0:0:
130,344,131685,5,0,1:0:0:0:
205,372,131906,1,0,1:0:0:0:
321,356,132127,1,0,1:0:0:0:
422,280,132347,1,0,1:0:0:0:
454,137,132568,1,0,1:0:0:0:
361,6,132788,1,4,3:0:0:0:
361,6,133009,6,0,L|345:117,1,95.9999970703126,2|0,1:2|0:0,0:0:0:0:
175,164,133671,2,0,L|159:53,1,95.9999970703126
255,112,134332,1,0,0:0:0:0:
75,281,134774,6,0,L|68:238,1,41.1428558872768,2|0,1:2|0:0,0:0:0:0:
141,332,135362,2,0,P|185:338|252:308,1,117.333329752604
494,115,136538,6,0,L|478:226,1,95.9999970703126,2|0,1:2|0:0,0:0:0:0:
308,273,137200,2,0,L|292:162,1,95.9999970703126
388,221,137862,1,0,0:0:0:0:
247,373,138082,5,0,1:0:0:0:
329,178,138303,1,0,1:0:0:0:
134,96,138532,1,4,3:0:0:0:
52,290,138761,1,0,1:0:0:0:
52,290,139205,6,0,L|120:281,2,47.9999985351563,2|0|2,0:0|0:0|0:0,0:0:0:0:
41,312,139896,5,4,3:0:0:0:
179,157,140130,1,0,1:0:0:0:
475,313,140410,5,4,0:3:0:0:
472,328,140512,1,4,0:3:0:0:
470,343,140615,1,4,0:3:0:0:
362,164,140820,5,12,0:3:0:0:
495,65,141095,2,0,P|496:20|488:0,1,47.9999985351563,0|4,1:0|3:0,0:0:0:0:
261,0,141603,2,0,P|260:45|268:65,1,47.9999985351563,0|4,1:0|3:3,0:0:0:0:
397,219,142124,5,4,0:0:0:0:
295,282,142384,1,0,0:0:0:0:
376,370,142645,2,0,L|464:354,1,80,2|4,0:0|3:0,0:0:0:0:
321,224,143167,2,0,B|292:206|233:220|262:252|203:266|172:248,2,160,4|2|2,1:2|0:0|0:0,0:0:0:0:
434,263,144471,5,4,3:0:0:0:
497,161,144732,2,0,P|504:117|488:73,1,80,2|0,0:0|0:0,0:0:0:0:
328,22,145254,2,0,P|321:66|337:110,1,80,0|4,1:0|3:0,0:0:0:0:
414,182,145776,1,2,0:0:0:0:
444,14,146037,1,4,3:0:0:0:
216,42,146297,5,4,0:3:0:0:
192,46,146558,1,4,0:3:0:0:
168,50,146819,1,4,0:3:0:0:
144,55,147080,1,4,0:3:0:0:
279,180,147341,6,0,P|287:257|236:316,2,160,4|2|2,1:2|0:0|0:0,0:0:0:0:
176,118,148645,1,4,3:0:0:0:
93,204,148906,2,0,L|4:194,1,80,2|0,0:0|0:0,0:0:0:0:
155,43,149428,2,0,L|244:53,1,80,0|4,1:0|3:0,0:0:0:0:
364,4,149950,1,12,3:0:0:0:
272,104,150210,1,12,3:0:0:0:
476,171,150471,6,0,P|483:213|467:270,1,80,4|0,0:0|0:0,0:0:0:0:
352,229,150993,2,0,P|345:271|361:328,1,80,2|4,0:0|3:0,0:0:0:0:
482,177,151515,2,0,P|489:219|473:276,1,80,0|0,1:0|0:0,0:0:0:0:
358,235,152037,2,0,P|351:277|367:334,1,80,2|4,0:0|3:0,0:0:0:0:
488,183,152558,2,0,P|495:225|479:282,1,80,4|0,3:0|0:0,0:0:0:0:
364,241,153080,2,0,P|357:283|373:340,1,80,2|0,0:0|0:0,0:0:0:0:
494,189,153602,2,0,P|501:231|485:288,1,80,0|0,1:0|0:0,0:0:0:0:
370,247,154124,2,0,P|363:289|379:346,1,80,2|4,0:0|3:0,0:0:0:0:
476,171,154645,6,0,L|301:144,1,160,4|2,0:0|0:0,0:0:0:0:
235,58,155428,1,4,3:0:0:0:
243,221,155689,2,0,L|330:234,1,80,0|4,1:0|3:0,0:0:0:0:
235,58,156214,1,12,3:0:0:0:
166,156,156479,1,4,3:0:0:0:
343,113,156744,6,0,P|355:68|350:27,1,80,4|8,0:0|3:0,0:0:0:0:
416,179,157241,1,4,3:0:0:0:
224,98,157481,2,0,P|212:136|214:175,1,80,4|8,1:2|3:0,0:0:0:0:
151,31,158024,1,0,1:0:0:0:
317,102,158285,1,8,3:0:0:0:
135,25,158546,1,4,0:0:0:0:
193,265,158807,5,4,0:0:0:0:
216,259,159067,1,4,3:0:0:0:
239,253,159328,1,4,3:0:0:0:
262,247,159589,1,4,3:0:0:0:
66,197,159850,6,0,P|50:153|89:36,1,160,4|2,1:2|0:0,0:0:0:0:
179,112,160633,1,0,3:0:0:0:
179,112,160893,6,0,P|232:113|277:93,1,80,2|4,0:0|3:0,0:0:0:0:
366,53,161415,1,2,0:0:0:0:
436,149,161676,1,0,0:0:0:0:
477,1,161937,1,0,1:0:0:0:
436,149,162198,1,4,3:0:0:0:
366,53,162459,2,0,L|340:140,1,80,2|4,0:0|3:0,0:0:0:0:
295,310,162980,5,4,0:0:0:0:
176,282,163241,1,4,3:0:0:0:
197,270,163502,1,4,3:0:0:0:
218,258,163763,1,4,3:0:0:0:
28,209,164024,6,0,L|49:369,2,160,4|2|2,1:2|0:0|0:0,0:0:0:0:
123,136,165328,1,4,3:0:0:0:
135,16,165589,6,0,P|89:2|50:8,1,80,2|0,0:0|0:0,0:0:0:0:
235,94,166111,2,0,P|281:108|320:102,1,80,0|4,1:0|3:0,0:0:0:0:
428,73,166633,1,2,0:0:0:0:
326,8,166893,1,4,3:0:0:0:
408,180,167154,6,0,L|395:275,1,80,4|0,0:0|0:0,0:0:0:0:
261,238,167676,2,0,L|248:333,1,80,2|4,0:0|3:0,0:0:0:0:
136,143,168198,2,0,L|125:222,1,80,4|0,1:2|0:0,0:0:0:0:
261,238,168720,2,0,L|248:333,1,80,2|4,0:0|3:0,0:0:0:0:
408,180,169241,2,0,L|395:275,1,80,4|0,0:0|0:0,0:0:0:0:
261,238,169763,2,0,L|248:333,1,80,2|4,0:0|3:0,0:0:0:0:
414,186,170285,2,0,L|401:281,1,80,0|0,1:0|0:0,0:0:0:0:
267,244,170807,2,0,L|254:339,1,80,2|4,0:0|3:0,0:0:0:0:
194,96,171328,5,4,0:0:0:0:
194,96,171850,2,0,P|247:97|276:84,1,80,2|4,1:3|3:0,0:0:0:0:
460,19,172372,2,0,P|407:18|378:31,1,80,2|4,1:3|3:0,0:0:0:0:
392,185,172893,1,4,3:0:0:0:
271,86,173154,1,12,3:0:0:0:
409,204,173415,2,0,L|390:295,1,80,2|4,0:0|3:0,0:0:0:0:
238,348,173937,1,12,3:0:0:0:
438,384,174198,1,4,0:0:0:0:
270,171,174459,5,0,1:0:0:0:
247,178,174720,1,0,1:0:0:0:
224,185,174980,1,4,3:0:0:0:
201,192,175241,1,0,3:0:0:0:
387,247,175502,6,0,P|407:194|391:124,1,120,4|0,0:0|0:0,0:0:0:0:
383,112,176024,1,6,1:3:0:0:
486,283,176285,1,0,0:0:0:0:
475,323,176415,1,0,1:0:0:0:
471,336,176546,1,0,1:0:0:0:
303,339,176807,1,8,3:0:0:0:
486,283,177067,1,0,0:0:0:0:
475,323,177177,2,0,P|480:345|490:362,1,40,0|0,1:0|1:0,0:0:0:0:
303,339,177588,6,0,L|242:344,2,53.3333333333333,2|0|2,0:0|0:0|0:0,0:0:0:0:
322,313,178109,5,2,0:0:0:0:
329,282,178283,5,2,0:0:0:0:
321,250,178457,5,2,0:0:0:0:
306,221,178631,5,12,3:0:0:0:
298,189,178805,5,12,3:0:0:0:
303,157,178979,5,12,3:0:0:0:
316,128,179153,6,0,L|370:120,2,53.3333333333333,12|4|4,3:0|3:0|3:0,0:0:0:0:
230,66,179674,5,4,1:2:0:0:
206,69,179935,1,4,3:0:0:0:
182,73,180196,1,4,3:0:0:0:
158,77,180457,1,4,3:0:0:0:
316,128,180718,6,0,P|395:136|472:92,1,160,4|2,1:2|0:0,0:0:0:0:
503,266,181761,5,2,0:0:0:0:
499,277,181892,1,0,0:0:0:0:
506,313,182022,1,4,3:0:0:0:
371,242,182283,2,0,L|279:251,1,80,2|0,3:2|0:0,0:0:0:0:
464,99,182805,1,0,1:0:0:0:
371,242,183066,6,0,L|361:295,1,40,2|0,0:0|0:0,0:0:0:0:
292,250,183327,2,0,L|282:303,1,40,2|0,0:0|0:0,0:0:0:0:
213,258,183588,2,0,L|203:311,1,40,2|0,0:0|0:0,0:0:0:0:
155,137,183848,5,4,0:0:0:0:
339,89,184109,1,8,3:0:0:0:
201,51,184370,1,4,3:0:0:0:
256,142,184631,1,0,3:0:0:0:
434,53,184892,2,0,L|410:218,1,160,4|2,1:2|0:0,0:0:0:0:
411,211,185935,6,0,P|365:207|331:217,1,80,2|4,0:0|3:0,0:0:0:0:
415,368,186457,2,0,P|461:372|495:362,1,80,2|4,0:0|3:0,0:0:0:0:
278,309,186979,1,12,3:0:0:0:
485,217,187240,1,0,3:0:0:0:
503,160,187370,1,4,3:0:0:0:
478,105,187501,1,12,3:0:0:0:
400,286,187761,1,0,3:0:0:0:
219,198,188022,6,0,L|200:288,1,80,4|0,0:0|0:0,0:0:0:0:
400,286,188544,2,0,L|381:376,1,80,2|4,0:0|3:0,0:0:0:0:
144,198,189066,2,0,L|125:288,1,80,0|0,1:0|0:0,0:0:0:0:
325,286,189588,2,0,L|306:376,1,80,2|4,0:0|3:0,0:0:0:0:
69,198,190109,6,0,L|59:242,1,40,2|0,0:0|0:0,0:0:0:0:
40,318,190370,1,8,3:0:0:0:
250,286,190631,2,0,L|240:331,1,40,2|0,0:0|0:0,0:0:0:0:
236,349,190892,1,0,0:0:0:0:
144,198,191153,2,0,L|134:243,1,40,8|0,3:0|0:0,0:0:0:0:
130,261,191414,1,0,0:0:0:0:
325,286,191674,2,0,L|315:331,1,40,2|0,0:0|0:0,0:0:0:0:
311,349,191935,1,4,3:0:0:0:
241,167,192198,5,2,0:0:0:0:
436,198,192438,1,0,1:0:0:0:
338,226,192706,1,2,0:0:0:0:
390,357,192966,1,4,3:0:0:0:
442,180,193226,2,0,P|448:136|439:97,1,80,0|4,1:0|3:0,0:0:0:0:
245,53,193748,1,4,1:2:0:0:
425,16,194002,1,0,1:0:0:0:
217,60,194291,5,4,1:0:0:0:
352,100,194545,1,4,0:3:0:0:
148,155,194799,1,0,1:0:0:0:
227,37,195059,1,4,0:3:0:0:
271,242,195349,1,0,1:0:0:0:
165,165,195596,1,4,3:3:0:0:
202,298,195844,1,4,3:0:0:0:
243,98,196109,1,4,0:0:0:0:
435,222,196374,5,4,0:0:0:0:
266,171,196634,1,4,0:0:0:0:
317,2,196895,1,4,3:0:0:0:
486,53,197156,1,4,3:0:0:0:
266,171,197417,6,0,P|208:175|180:165,1,80,4|0,1:2|0:0,0:0:0:0:
86,54,197939,1,0,3:0:0:0:
234,84,198200,1,0,3:0:0:0:
34,187,198460,5,2,0:0:0:0:
30,198,198590,1,0,0:0:0:0:
37,234,198721,1,4,3:0:0:0:
188,169,198982,1,2,3:2:0:0:
133,310,199243,1,0,0:0:0:0:
90,137,199504,1,0,1:0:0:0:
267,238,199765,6,0,L|314:265,1,40,2|0,0:0|0:0,0:0:0:0:
297,174,200026,2,0,L|350:180,1,40,2|0,0:0|0:0,0:0:0:0:
215,286,200287,2,0,L|247:329,1,40,2|0,1:2|0:0,0:0:0:0:
135,206,200547,5,4,3:0:0:0:
130,182,200808,1,4,3:0:0:0:
130,158,201069,1,4,3:0:0:0:
134,134,201330,1,0,3:0:0:0:
215,286,201591,6,0,P|160:319|59:299,1,160,4|2,1:2|0:0,0:0:0:0:
242,384,202374,1,0,0:0:0:0:
147,212,202634,6,0,P|134:167|136:125,1,80,2|4,0:0|3:0,0:0:0:0:
301,229,203156,2,0,P|314:274|312:316,1,80,2|0,0:0|0:0,0:0:0:0:
147,212,203678,1,2,1:2:0:0:
297,88,203939,1,2,0:0:0:0:
308,85,204069,1,0,0:0:0:0:
341,98,204200,1,0,1:0:0:0:
468,50,204460,1,4,3:0:0:0:
410,246,204721,6,0,L|399:350,1,80,4|0,0:0|0:0,0:0:0:0:
256,180,205243,2,0,L|256:264,1,80,2|4,0:0|3:0,0:0:0:0:
102,246,205765,2,0,L|113:350,1,80,0|0,1:0|0:0,0:0:0:0:
256,180,206287,2,0,L|256:264,1,80,2|4,0:0|3:0,0:0:0:0:
407,280,206808,2,0,L|396:384,1,80,4|0,0:0|0:0,0:0:0:0:
256,214,207330,2,0,L|256:298,1,80,2|0,0:0|0:0,0:0:0:0:
105,280,207852,6,0,L|110:332,1,40,4|0,1:3|0:0,0:0:0:0:
112,343,208113,1,4,3:0:0:0:
407,280,208374,2,0,L|402:319,1,40,2|0,0:0|0:0,0:0:0:0:
400,343,208635,1,0,0:0:0:0:
256,214,208895,5,4,3:0:0:0:
250,190,209026,1,0,3:0:0:0:
252,166,209156,1,0,3:0:0:0:
261,144,209287,1,0,3:0:0:0:
293,120,209417,5,0,1:0:0:0:
253,123,209547,1,0,1:0:0:0:
214,112,209678,1,4,3:0:0:0:
184,84,209808,1,4,3:0:0:0:
138,45,209939,5,0,1:0:0:0:
77,40,210069,1,0,1:0:0:0:
22,65,210200,1,4,3:0:0:0:
1,121,210330,1,4,3:0:0:0:
10,138,210460,5,4,3:0:0:0:
29,135,210591,1,4,3:0:0:0:
48,138,210723,1,4,3:0:0:0:
66,146,210854,1,4,3:0:0:0:
101,200,210986,6,0,P|112:240|104:287,1,80,4|4,1:2|3:0,0:0:0:0:
5,381,211531,1,4,3:0:0:0:
213,335,211778,1,6,3:0:0:0:
38,272,212038,1,6,3:0:0:0:
246,226,212322,1,6,3:0:0:0:
123,305,212575,6,0,L|108:253,1,40,2|0,0:0|0:0,0:0:0:0:
300,342,212828,2,0,L|285:394,1,40,4|0,0:0|0:0,0:0:0:0:
234,198,213081,5,4,0:0:0:0:
425,264,213341,1,2,0:0:0:0:
348,109,213602,1,2,0:0:0:0:
352,98,213733,1,0,0:0:0:0:
345,62,213863,1,2,0:0:0:0:
349,51,213993,1,0,0:0:0:0:
290,14,214124,6,0,L|188:23,1,80,4|0,1:2|0:0,0:0:0:0:
32,131,214646,1,2,0:0:0:0:
82,12,214907,1,0,0:0:0:0:
126,175,215167,1,2,0:0:0:0:
127,186,215297,1,0,0:0:0:0:
113,220,215428,1,4,3:0:0:0:
280,287,215689,6,0,L|373:277,1,80,2|0,0:0|0:0,0:0:0:0:
151,361,216211,1,2,1:2:0:0:
140,366,216341,1,0,0:0:0:0:
107,349,216472,6,0,L|58:342,1,40,2|0,0:0|0:0,0:0:0:0:
120,277,216733,2,0,L|71:270,1,40,2|0,0:0|0:0,0:0:0:0:
133,205,216994,2,0,L|84:198,1,40,2|0,0:0|0:0,0:0:0:0:
270,282,217254,5,4,3:0:0:0:
293,285,217515,1,4,3:0:0:0:
316,283,217776,1,4,3:0:0:0:
339,276,218037,1,4,3:0:0:0:
209,168,218298,6,0,P|198:125|203:75,1,80,4|0,1:2|0:0,0:0:0:0:
377,38,218820,1,2,0:0:0:0:
251,0,219081,1,0,0:0:0:0:
338,145,219341,2,0,P|339:184|328:223,1,80,2|4,0:0|3:0,0:0:0:0:
204,308,219863,1,2,3:2:0:0:
372,348,220124,1,0,0:0:0:0:
226,218,220385,5,2,1:2:0:0:
215,222,220515,1,0,0:0:0:0:
179,215,220646,1,2,0:0:0:0:
168,219,220776,1,0,0:0:0:0:
132,212,220907,1,2,0:0:0:0:
121,216,221037,1,0,0:0:0:0:
85,209,221168,1,2,0:0:0:0:
74,213,221298,1,0,0:0:0:0:
20,234,221428,6,0,L|32:316,1,80,4|0,0:0|0:0,0:0:0:0:
203,142,221950,2,0,L|215:224,1,80,2|4,0:0|3:0,0:0:0:0:
76,213,222472,2,0,L|88:295,1,80,0|0,1:0|0:0,0:0:0:0:
259,121,222994,2,0,L|271:203,1,80,2|4,0:0|3:0,0:0:0:0:
132,192,223515,6,0,L|138:233,1,40,2|0,3:2|0:0,0:0:0:0:
141,255,223776,1,0,0:0:0:0:
315,100,224037,2,0,L|321:141,1,40,2|0,0:0|0:0,0:0:0:0:
324,163,224298,1,0,0:0:0:0:
188,171,224559,2,0,L|194:212,1,40,2|0,1:2|0:0,0:0:0:0:
197,234,224820,1,0,0:0:0:0:
371,79,225081,2,0,L|377:120,1,40,2|0,0:0|0:0,0:0:0:0:
380,142,225341,1,4,3:0:0:0:
224,33,225602,6,0,P|172:24|76:77,1,160,4|2,0:0|0:0,0:0:0:0:
36,224,226385,1,4,3:0:0:0:
226,164,226646,1,0,1:0:0:0:
73,149,226907,1,0,3:3:0:0:
151,250,227167,1,4,3:0:0:0:
187,67,227428,1,0,1:0:0:0:
212,308,227689,5,4,0:0:0:0:
36,224,227929,1,2,3:0:0:0:
265,175,228189,1,0,1:0:0:0:
99,211,228450,1,2,3:0:0:0:
310,282,228722,5,4,3:0:0:0:
352,296,228859,1,4,3:0:0:0:
396,288,228995,5,0,1:0:0:0:
419,277,229128,1,0,0:0:0:0:
447,234,229261,5,0,1:0:0:0:
452,211,229386,1,4,3:0:0:0:
450,188,229511,1,12,3:0:0:0:
443,165,229648,1,4,3:0:0:0:
398,118,229786,6,0,P|386:78|388:36,1,80,4|8,0:0|3:0,0:0:0:0:
283,153,230286,1,2,0:0:0:0:
251,157,230416,1,0,0:0:0:0:
285,171,230546,1,2,0:0:0:0:
253,175,230677,1,0,0:0:0:0:
191,183,230807,6,0,L|105:166,1,80,6|0,1:2|0:0,0:0:0:0:
183,23,231329,1,2,0:0:0:0:
311,48,231590,1,0,0:0:0:0:
116,76,231850,1,2,0:0:0:0:
84,80,231981,1,0,0:0:0:0:
118,94,232111,1,2,0:0:0:0:
86,98,232242,1,0,0:0:0:0:
24,106,232372,6,0,L|10:200,1,80,2|0,0:0|0:0,0:0:0:0:
127,301,232894,1,0,1:0:0:0:
128,312,233024,1,0,0:0:0:0:
114,346,233155,2,0,L|66:355,1,40,2|0,0:0|0:0,0:0:0:0:
96,232,233416,2,0,L|112:185,1,40,2|0,0:0|0:0,0:0:0:0:
203,273,233676,2,0,L|234:310,1,40,2|0,0:0|0:0,0:0:0:0:
228,107,233937,5,12,3:0:0:0:
208,93,234198,1,4,3:0:0:0:
184,87,234459,1,4,3:0:0:0:
159,87,234720,1,4,3:0:0:0:
336,184,234981,6,0,P|377:184|425:171,1,80,4|2,1:2|3:0,0:0:0:0:
477,35,235503,1,2,0:0:0:0:
355,71,235763,1,2,0:0:0:0:
495,240,236024,1,2,0:0:0:0:
498,272,236155,1,0,0:0:0:0:
477,242,236285,1,2,1:2:0:0:
480,274,236416,1,0,0:0:0:0:
414,267,236546,1,2,0:0:0:0:
417,299,236676,1,0,0:0:0:0:
396,269,236807,1,12,3:0:0:0:
399,301,236937,1,0,0:0:0:0:
336,296,237068,5,2,1:2:0:0:
326,302,237198,1,0,0:0:0:0:
289,302,237329,1,6,0:0:0:0:
279,309,237459,1,0,0:0:0:0:
242,309,237590,1,2,0:0:0:0:
232,315,237720,1,0,0:0:0:0:
196,316,237850,1,4,0:0:0:0:
186,322,237981,1,0,0:0:0:0:
127,307,238111,6,0,L|107:386,1,80,4|0,0:0|0:0,0:0:0:0:
147,229,238633,2,0,L|127:308,1,80,2|4,0:0|3:0,0:0:0:0:
341,258,239155,2,0,L|361:337,1,80,0|0,1:0|0:0,0:0:0:0:
321,180,239676,2,0,L|341:259,1,80,2|4,0:0|3:0,0:0:0:0:
87,151,240198,6,0,L|67:230,1,80,4|0,0:0|0:0,0:0:0:0:
107,73,240720,2,0,L|87:152,1,80,2|4,0:0|3:0,0:0:0:0:
301,102,241242,2,0,L|315:159,1,40,0|0,1:0|0:0,0:0:0:0:
321,180,241503,1,4,3:0:0:0:
281,24,241763,2,0,L|297:87,1,40,0|0,1:0|0:0,0:0:0:0:
301,102,242024,1,4,3:0:0:0:
49,42,242291,5,4,0:0:0:0:
36,71,242470,5,0,1:0:0:0:
36,103,242649,5,0,1:0:0:0:
49,137,242827,5,4,1:3:0:0:
49,164,242980,5,4,3:3:0:0:
36,193,243158,5,4,0:3:0:0:
2,243,243378,6,0,L|16:338,1,80,12|0,0:3|0:0,0:0:0:0:
132,267,243869,2,0,L|146:362,1,80,12|0,0:3|0:0,0:0:0:0:
363,280,244381,5,4,3:2:0:0:
235,325,244641,1,0,0:0:0:0:
393,361,244906,1,12,0:3:0:0:
235,235,245159,5,4,0:0:0:0:
363,280,245419,1,0,0:0:0:0:
205,316,245680,6,0,L|156:300,1,40,12|0,0:3|0:0,0:0:0:0:
235,235,245941,2,0,L|186:219,1,40,2|0,0:0|0:0,0:0:0:0:
265,154,246181,2,0,L|216:138,1,40,4|0,3:0|0:0,0:0:0:0:
350,125,246440,5,4,0:0:0:0:
168,61,246694,1,0,1:0:0:0:
351,11,246948,1,0,1:0:0:0:
255,91,247220,1,4,3:0:0:0:
437,155,247493,5,12,3:0:0:0:
373,337,247766,1,8,3:0:0:0:
191,273,248038,1,4,3:0:0:0:
233,149,248278,1,4,3:0:0:0:
54,200,248558,6,0,P|39:247|50:302,1,80,2|4,1:2|3:0,0:0:0:0:
258,340,249158,1,12,3:0:0:0:
162,71,249458,5,4,1:2:0:0:
434,184,250132,5,4,0:0:0:0:
41,277,250744,5,4,0:0:0:0:
256,123,251143,5,6,0:0:0:0:
256,192,251313,12,0,256949,0:0:0:0:
254,148,257292,6,0,P|252:100|262:63,1,80,2|0,0:0|0:0,0:0:0:0:
300,190,258215,2,0,P|348:188|385:198,1,80,2|0,0:0|0:0,0:0:0:0:
258,236,259138,2,0,P|260:284|250:321,1,80,2|0,0:0|0:0,0:0:0:0:
212,194,260026,2,0,P|164:196|127:186,1,80,2|0,0:0|0:0,0:0:0:0:
261,148,260915,6,0,P|268:100|284:66,1,80,0|2,0:0|0:0,0:0:0:0:
299,197,261742,2,0,P|347:204|381:220,1,80,2|0,0:0|0:0,0:0:0:0:
250,235,262570,2,0,P|243:283|227:317,1,80,0|2,0:0|0:0,0:0:0:0:
212,186,263370,2,0,P|164:179|130:163,1,80,2|0,0:0|0:0,0:0:0:0:
269,149,264170,6,0,P|283:104|305:72,1,80,2|0,0:0|0:0,0:0:0:0:
298,205,264934,2,0,P|343:219|375:241,1,80,2|0,0:0|0:0,0:0:0:0:
242,234,265698,2,0,P|228:279|206:311,1,80,2|0,0:0|0:0,0:0:0:0:
213,178,266403,2,0,P|168:164|136:142,1,80,2|0,0:0|0:0,0:0:0:0:
269,149,267109,2,0,P|283:104|305:72,1,80,2|0,0:0|0:0,0:0:0:0:
295,212,267747,6,0,P|337:234|364:261,1,80,0|2,0:0|0:0,0:0:0:0:
235,231,268385,2,0,P|213:273|186:300,1,80,2|0,0:0|0:0,0:0:0:0:
216,171,268985,2,0,P|174:149|147:122,1,80,2|0,0:0|0:0,0:0:0:0:
276,152,269585,2,0,P|298:110|325:83,1,80,2|0,0:0|0:0,0:0:0:0:
290,218,270130,6,0,P|329:248|350:279,1,80,2|0,0:0|0:0,0:0:0:0:
229,226,270663,2,0,P|199:265|168:286,1,80,2|0,0:0|0:0,0:0:0:0:
221,165,271163,2,0,P|182:135|161:104,1,80,2|0,0:0|0:0,0:0:0:0:
288,162,271633,6,0,P|323:129|358:113,1,80,0|2,0:0|0:0,0:0:0:0:
285,224,272094,2,0,P|318:259|334:294,1,80,2|0,0:0|0:0,0:0:0:0:
223,221,272525,2,0,P|188:254|153:270,1,80,2|0,0:0|0:0,0:0:0:0:
232,154,272935,6,0,P|206:114|196:77,1,80,2|0,0:0|0:0,0:0:0:0:
293,168,273310,2,0,P|333:142|370:132,1,80,2|0,0:0|0:0,0:0:0:0:
279,229,273662,2,0,P|305:269|315:306,1,80,2|0,0:0|0:0,0:0:0:0:
218,215,274004,2,0,P|178:241|141:251,1,80,2|0,0:0|0:0,0:0:0:0:
239,151,274319,6,0,P|220:106|217:68,1,80,0|2,0:0|0:0,0:0:0:0:
296,175,274615,2,0,P|341:156|379:153,1,80,2|0,0:0|0:0,0:0:0:0:
272,232,274894,2,0,P|291:277|294:315,1,80,2|0,0:0|0:0,0:0:0:0:
215,208,275160,2,0,P|170:227|132:230,1,80,2|0,0:0|0:0,0:0:0:0:
246,149,275415,6,0,P|236:102|239:63,1,80,2|0,0:0|0:0,0:0:0:0:
298,182,275659,2,0,P|345:172|384:175,1,80,2|0,0:0|0:0,0:0:0:0:
258,236,275899,6,0,P|259:284|250:321,1,80,2|0,0:0|0:0,0:0:0:0:
212,194,276129,2,0,P|163:195|127:185,1,80,2|0,0:0|0:0,0:0:0:0:
254,148,276360,2,0,P|252:100|262:63,1,80,2|0,0:0|0:0,0:0:0:0:
300,190,276586,2,0,P|348:188|385:198,1,80,2|0,0:0|0:0,0:0:0:0:
250,235,276812,6,0,P|243:283|227:317,1,80,2|0,0:0|0:0,0:0:0:0:
212,186,277034,2,0,P|164:179|130:163,1,80,2|0,0:0|0:0,0:0:0:0:
261,148,277256,2,0,P|268:100|284:66,1,80,2|0,0:0|0:0,0:0:0:0:
299,197,277478,2,0,P|347:204|381:220,1,80,2|0,0:0|0:0,0:0:0:0:
242,234,277708,6,0,P|228:279|206:311,1,80,2|0,0:0|0:0,0:0:0:0:
213,178,277922,2,0,P|168:164|136:142,1,80,2|0,0:0|0:0,0:0:0:0:
276,152,278136,6,0,P|298:110|325:83,1,80,0|2,0:0|0:0,0:0:0:0:
295,212,278358,2,0,P|337:234|364:261,1,80,2|0,0:0|0:0,0:0:0:0:
235,231,278580,2,0,P|213:273|186:300,1,80,2|0,0:0|0:0,0:0:0:0:
216,171,278802,2,0,P|174:149|147:122,1,80,2|0,0:0|0:0,0:0:0:0:
276,152,279024,2,0,P|298:110|325:83,1,80,2|0,0:0|0:0,0:0:0:0:
290,218,279247,6,0,P|329:248|350:279,3,80,2|0|2|0,0:0|0:0|0:0|0:0,0:0:0:0:
229,226,279683,6,0,P|206:256|182:272,3,60.0000022888184,2|0|2|0,0:0|0:0|0:0|0:0,0:0:0:0:
221,165,280127,6,0,P|202:151|192:136,3,40,2|0|2|0,0:0|0:0|0:0|0:0,0:0:0:0:
282,157,280563,6,0,P|290:146|298:140,3,20
290,218,280999,6,0,P|295:222|297:225,2,8
