osu file format v14

[General]
AudioFilename: JOAAAAAAAAAAH.mp3
AudioLeadIn: 0
PreviewTime: 53620
Countdown: 0
SampleSet: Soft
StackLeniency: 0.7
Mode: 0
LetterboxInBreaks: 0
WidescreenStoryboard: 0

[Editor]
DistanceSpacing: 2
BeatDivisor: 4
GridSize: 4
TimelineZoom: 0.9999999

[Metadata]
Title:JOAH
TitleUnicode:좋아 (JOAH)
Artist:Jay Park
ArtistUnicode:박재범
Creator:WORSTPOLACKEU
Version:Joah..
Source:
Tags:Kpop k-pop pop Irreversible Xinely
BeatmapID:926583
BeatmapSetID:429435

[Difficulty]
HPDrainRate:5
CircleSize:4
OverallDifficulty:7
ApproachRate:8.5
SliderMultiplier:1.7
SliderTickRate:2

[Events]
//Background and Video events
0,0,"jahajah.jpg",0,0
//Break Periods
//Storyboard Layer 0 (Background)
//Storyboard Layer 1 (Fail)
//Storyboard Layer 2 (Pass)
//Storyboard Layer 3 (Foreground)
//Storyboard Sound Samples

[TimingPoints]
597.350173136115,697.674418604651,4,2,0,45,1,0
22748,-100,4,2,0,5,0,0
22922,-100,4,2,0,45,0,0
53620,-80,4,2,0,45,0,0
56411,-66.6666666666667,4,2,0,45,0,1
57108,-80,4,2,0,45,0,1
81527,-80,4,2,0,45,0,1
81614,-80,4,2,0,5,0,1
81702,-50,4,2,0,45,0,1
82050,-80,4,2,0,45,0,1
86411,-66.6666666666667,4,2,0,45,0,1
87108,-133.333333333333,4,2,0,45,0,0

[Colours]
Combo1 : 255,128,0
Combo2 : 255,0,0
Combo3 : 128,128,255
Combo4 : 255,255,0

[HitObjects]
376,328,22225,5,8,0:0:0:0:
432,276,22399,2,0,L|420:188,1,85
432,276,22922,6,0,P|384:248|336:260,1,85,4|0,1:2|0:0,0:0:0:0:
196,308,23620,1,8,0:0:0:0:
104,128,23969,1,0,0:0:0:0:
168,72,24143,1,0,1:2:0:0:
248,104,24318,2,0,L|312:96,1,42.5
399,39,24666,2,0,L|356:44,1,42.5,0|0,1:2|0:0,0:0:0:0:
304,176,25015,5,8,0:0:0:0:
368,124,25189,1,0,0:0:0:0:
290,98,25364,1,2,0:0:0:0:
384,208,25539,1,0,0:0:0:0:
220,180,25713,2,0,B|283:171|283:171|319:179,1,85,2|0,1:2|0:0,0:0:0:0:
472,152,26411,1,8,0:0:0:0:
256,276,26760,5,0,0:0:0:0:
112,316,26934,1,0,0:0:0:0:
176,256,27108,1,0,1:2:0:0:
196,336,27282,1,0,0:0:0:0:
96,236,27457,2,0,L|92:194,1,42.5,0|0,1:2|0:0,0:0:0:0:
112,112,27806,1,8,0:0:0:0:
172,172,27981,1,0,0:0:0:0:
32,136,28155,1,0,0:0:0:0:
224,112,28329,6,0,P|224:76|196:100,2,85,2|0|0,0:0|0:0|0:0,0:0:0:0:
352,256,29202,1,8,0:0:0:0:
252,216,29376,1,0,0:0:0:0:
332,152,29550,1,2,0:0:0:0:
283,327,29725,6,0,P|257:351|250:317,2,85,2|0|0,0:0|0:0|0:0,0:0:0:0:
332,152,30597,1,8,0:0:0:0:
352,256,30771,1,0,0:0:0:0:
252,216,30946,1,0,0:0:0:0:
468,214,31120,6,0,P|470:179|440:197,1,85,2|0,0:0|0:0,0:0:0:0:
353,354,31818,5,2,0:0:0:0:
102,70,32167,5,2,0:0:0:0:
132,300,32515,5,2,0:0:0:0:
410,70,32864,5,2,0:0:0:0:
272,320,33213,6,0,L|357:310,1,85,2|0,0:0|0:0,0:0:0:0:
160,284,33736,1,0,0:0:0:0:
276,68,34085,6,0,B|256:8|256:8|236:128,1,170,4|8,0:0|0:0,0:0:0:0:
264,280,35132,1,0,0:0:0:0:
200,336,35306,1,0,1:2:0:0:
120,304,35481,2,0,L|56:312,1,42.5
44,232,35829,2,0,L|1:237,1,42.5,2|0,0:0|1:2,0:0:0:0:
184,252,36178,5,8,0:0:0:0:
120,304,36352,1,0,0:0:0:0:
200,336,36527,1,0,0:0:0:0:
120,304,36702,1,2,0:0:0:0:
264,280,36876,2,0,B|327:271|327:271|363:279,1,85,0|0,1:2|0:0,0:0:0:0:
320,108,37574,5,8,0:0:0:0:
320,108,37922,1,0,0:0:0:0:
320,193,38097,1,0,0:0:0:0:
247,151,38271,1,0,0:0:0:0:
396,152,38446,1,0,0:0:0:0:
248,233,38620,2,0,L|256:274,1,42.5,0|0,1:2|0:0,0:0:0:0:
248,69,38969,2,0,L|256:27,1,42.5,8|0,0:0|0:0,0:0:0:0:
248,233,39318,1,2,0:0:0:0:
248,69,39492,1,0,0:0:0:0:
148,292,39667,6,0,P|92:272|36:280,1,85,0|0,1:2|0:0,0:0:0:0:
66,93,40364,1,8,0:0:0:0:
122,29,40538,1,0,0:0:0:0:
148,110,40713,2,0,L|190:99,1,42.5,2|0,0:0|1:2,1:2:0:0:
140,280,41062,1,2,0:0:0:0:
68,232,41236,1,0,0:0:0:0:
146,195,41411,2,0,P|167:197|186:207,1,42.5,2|0,1:2|0:0,0:0:0:0:
256,308,41760,6,0,L|215:319,1,42.5,8|0,0:0|0:0,0:0:0:0:
364,240,42108,2,0,L|323:230,1,42.5,2|0,0:0|0:0,0:0:0:0:
500,176,42457,2,0,L|396:148,1,85,2|0,1:2|0:0,0:0:0:0:
256,76,43155,6,0,L|297:65,1,42.5,8|0,0:0|0:0,0:0:0:0:
148,144,43503,2,0,L|189:154,1,42.5,2|0,0:0|1:2,0:0:0:0:
12,208,43852,2,0,L|116:236,2,85,2|0|8,1:2|0:0|0:0,0:0:0:0:
216,360,44899,2,0,L|226:318,1,42.5
300,355,45248,6,0,P|266:329|225:318,1,85,4|0,0:0|0:0,0:0:0:0:
300,52,45946,1,8,0:0:0:0:
276,132,46120,1,0,0:0:0:0:
360,156,46295,2,0,P|364:135|360:114,1,42.5,0|0,0:0|1:2,0:0:0:0:
216,72,46643,2,0,B|156:64|156:64|112:80,2,85,2|0|8,0:0|1:2|0:0,0:0:0:0:
56,248,47690,1,0,0:0:0:0:
72,332,47864,1,0,0:0:0:0:
156,352,48039,6,0,B|225:359|269:322|269:322,1,85,4|0,1:2|0:0,0:0:0:0:
376,80,48736,1,8,0:0:0:0:
292,56,48911,1,0,0:0:0:0:
316,136,49085,2,0,P|312:172|300:192,1,42.5,0|0,0:0|1:2,0:0:0:0:
240,272,49434,2,0,P|288:256|348:264,1,85,2|0,0:0|1:2,0:0:0:0:
412,282,49957,1,0,0:0:0:0:
336,338,50132,2,0,P|321:299|321:257,1,85,8|0,0:0|0:0,0:0:0:0:
473,62,50829,6,0,B|432:56|384:80|384:80|336:64|336:16,1,170,4|8,1:2|0:0,0:0:0:0:
400,240,51876,1,0,0:0:0:0:
460,180,52050,2,0,P|484:216|484:264,1,85,2|2,1:2|0:0,0:0:0:0:
428,320,52574,2,0,P|392:328|368:296,1,42.5,2|0,0:0|1:2,1:2:0:0:
256,175,52922,2,0,B|233:158|233:158|241:234,1,85,8|0,0:0|0:0,0:0:0:0:
240,304,53446,1,0,0:0:0:0:
56,280,53620,5,6,1:2:0:0:
151,369,53795,1,0,0:0:0:0:
256,175,53969,2,0,P|264:207|256:249,1,53.125,2|0,0:0|0:0,0:0:0:0:
56,178,54318,2,0,P|46:144|56:102,1,53.125,10|0,1:2|0:0,0:0:0:0:
159,252,54667,1,2,0:0:0:0:
272,104,54841,2,0,P|266:43|250:-14,2,106.25,2|2|2,1:2|0:0|0:0,0:0:0:0:
159,252,55713,1,4,1:2:0:0:
356,111,56411,6,0,B|389:125|424:110|424:110|412:176|388:204|478:229|392:276|324:216,1,255.000009727478,4|8,0:0|0:0,0:0:0:0:
184,184,57457,2,0,P|156:176|124:176,1,53.125,0|0,0:0|1:2,0:0:0:0:
136,276,57806,2,0,L|264:268,1,106.25,2|0,0:0|0:2,0:0:0:0:
368,228,58329,2,0,P|383:205|424:188,2,53.125,0|8|0,1:2|0:0|0:0,0:0:0:0:
320,292,58853,1,0,0:0:0:0:
242,269,59027,6,0,P|216:208|214:157,1,106.25,2|0,0:0|0:0,0:0:0:0:
284,86,59550,1,2,0:0:0:0:
80,144,59899,1,8,0:0:0:0:
284,86,60248,2,0,L|364:78,1,53.125,0|0,0:0|1:2,0:0:0:0:
472,144,60597,2,0,P|405:154|376:196,1,106.25,2|0,0:0|0:0,0:0:0:0:
459,279,61120,2,0,L|453:226,2,53.125,2|8|0,0:0|0:0|0:0,0:0:0:0:
412,344,61643,1,0,0:0:0:0:
228,348,61818,6,0,B|255:348|255:348|283:332|283:332|335:332,1,106.25,2|0,0:0|0:0,0:0:0:0:
304,256,62341,2,0,L|240:256,1,53.125,0|0,1:2|0:0,0:0:0:0:
176,284,62690,2,0,L|112:284,1,53.125,8|0,0:0|0:0,0:0:0:0:
32,204,63039,1,0,0:0:0:0:
68,38,63213,2,0,P|72:88|84:143,2,106.25,0|2|2,1:2|0:0|0:0,0:0:0:0:
184,128,64085,2,0,L|192:180,1,53.125,8|0,0:0|0:0,0:0:0:0:
108,240,64434,2,0,L|100:292,1,53.125
296,260,64783,6,0,P|348:240|432:244,1,106.25,0|0,1:2|0:0,0:0:0:0:
302,125,65306,2,0,P|276:120|256:104,2,53.125,0|8|2,0:0|0:0|0:0,0:0:0:0:
328,24,65829,1,0,0:0:0:0:
80,28,66004,6,0,P|64:56|56:88,1,53.125,2|0,0:0|0:0,0:0:0:0:
120,208,66353,2,0,P|120:240|129:271,1,53.125,2|0,0:0|0:0,0:0:0:0:
248,300,66702,2,0,P|264:327|287:350,1,53.125,2|8,0:0|0:0,0:0:0:0:
380,320,67050,2,0,P|408:335|439:344,2,53.125,2|0|0,0:0|0:0|0:0,0:0:0:0:
408,160,67574,6,0,P|459:149|509:165,2,106.25,4|0|8,1:2|0:0|0:0,0:0:0:0:
188,128,68620,2,0,P|180:152|152:180,1,53.125,0|0,0:0|1:2,0:0:0:0:
104,6,68969,2,0,L|112:112,1,106.25,2|0,0:0|0:0,0:0:0:0:
80,184,69492,2,0,P|59:167|34:159,2,53.125,0|8|0,1:2|0:0|0:0,0:0:0:0:
132,244,70016,1,0,0:0:0:0:
304,192,70190,6,0,P|260:232|260:288,1,106.25,2|0,0:0|0:0,0:0:0:0:
336,268,70713,1,0,0:0:0:0:
292,33,71062,2,0,L|304:205,1,159.375,8|0,0:0|1:2,0:0:0:0:
501,243,71760,2,0,P|449:275|397:271,1,106.25,2|0,0:0|0:0,0:0:0:0:
303,191,72283,2,0,L|288:242,2,53.125,0|8|2,1:2|0:0|0:0,0:0:0:0:
324,316,72807,1,0,0:0:0:0:
184,324,72981,6,0,P|128:308|48:312,1,106.25,2|0,0:0|0:0,0:0:0:0:
151,145,73504,2,0,L|160:198,1,53.125,2|0,0:0|0:0,0:0:0:0:
80,306,73853,2,0,L|88:253,1,53.125,8|0,0:0|0:0,0:0:0:0:
72,162,74203,1,0,0:0:0:0:
172,284,74376,2,0,P|232:268|296:276,2,106.25,2|2|2,1:2|0:0|0:0,0:0:0:0:
332,204,75248,2,0,P|368:212|392:208,2,53.125,8|0|0,0:0|0:0|0:0,0:0:0:0:
372,96,75771,1,0,0:0:0:0:
460,16,75946,6,0,B|460:104|476:184,1,159.375,0|0,1:2|0:0,0:0:0:0:
328,81,76643,2,0,P|354:79|380:72,2,53.125,10|0|0,0:0|0:0|0:0,0:0:0:0:
168,24,77167,2,0,L|181:129,1,106.25,0|0,1:2|0:0,0:0:0:0:
239,186,77690,2,0,P|256:166|260:140,1,53.125,0|0,1:2|0:0,0:0:0:0:
100,136,78039,2,0,P|67:214|162:167,1,212.5,10|4,0:0|1:2,0:0:0:0:
308,60,79085,1,0,0:0:0:0:
324,244,79434,6,0,P|356:228|412:232,1,53.125,8|0,0:0|0:0,0:0:0:0:
408,344,79783,1,0,1:2:0:0:
452,268,79957,1,2,0:0:0:0:
228,328,80132,2,0,P|176:312|112:312,1,106.25,2|0,1:2|0:0,1:2:0:0:
32,364,80655,1,0,0:0:0:0:
228,328,80829,1,8,0:0:0:0:
64,136,81178,1,0,0:0:0:0:
138,87,81353,1,0,0:0:0:0:
108,312,81527,5,4,1:2:0:0:
232,196,81702,1,0,0:0:0:0:
232,196,82050,2,0,L|235:254,1,53.125,0|8,0:0|0:0,0:0:0:0:
316,320,82400,1,0,0:0:0:0:
412,276,82574,2,0,L|409:218,1,53.125,0|0,0:0|1:2,0:0:0:0:
316,156,82922,2,0,P|363:135|385:89,1,106.25,2|0,0:0|1:2,0:0:0:0:
456,4,83446,1,0,0:0:0:0:
409,222,83620,1,8,0:0:0:0:
72,184,83969,37,0,0:0:0:0:
72,184,84318,2,0,P|103:181|126:169,1,53.125,2|0,1:2|0:0,0:0:0:0:
239,127,84667,5,2,0:0:0:0:
212,230,84841,1,0,0:0:0:0:
272,128,85015,5,8,0:0:0:0:
264,237,85190,1,0,0:0:0:0:
304,120,85364,5,0,0:0:0:0:
314,255,85539,1,2,1:2:0:0:
332,104,85713,5,0,0:0:0:0:
360,282,85887,1,0,0:0:0:0:
352,80,86062,5,2,1:2:0:0:
385,326,86236,1,0,0:0:0:0:
373,52,86411,6,0,P|392:40|460:67,1,63.7500024318696,10|0,0:0|0:0,0:0:0:0:
385,326,86760,2,0,P|344:332|296:300,1,63.7500024318696,2|0,0:0|0:0,0:0:0:0:
414,117,87108,6,0,B|417:142|440:172|431:191|426:210|401:286|354:214|296:304|280:154|341:115|341:115|358:172|358:172|213:128|231:177,1,510.000019454957,4|4,0:0|0:0,0:0:0:0:
