osu file format v14

[General]
AudioFilename: audio.mp3
AudioLeadIn: 0
PreviewTime: 75449
Countdown: 0
SampleSet: Normal
StackLeniency: 0.7
Mode: 3
LetterboxInBreaks: 0
SpecialStyle: 0
WidescreenStoryboard: 1

[Editor]
DistanceSpacing: 0.8
BeatDivisor: 4
GridSize: 32
TimelineZoom: 1

[Metadata]
Title:Won't Cry
TitleUnicode:說好不哭
Artist:Jay Chou
ArtistUnicode:周杰倫
Creator:Madoka2574
Version:Easy
Source:
Tags:Chinese pop Zhou Jielun Shuo Hao Bu Ku 方文山 Vincent_Fang 五月天 Mayday 阿信 Ashin
BeatmapID:2202429
BeatmapSetID:1054019

[Difficulty]
HPDrainRate:6.4
CircleSize:4
OverallDifficulty:6.4
ApproachRate:5
SliderMultiplier:1.4
SliderTickRate:1

[Events]
//Background and Video events
0,0,"BG.png",0,0
//Break Periods
//Storyboard Layer 0 (Background)
//Storyboard Layer 1 (Fail)
//Storyboard Layer 2 (Pass)
//Storyboard Layer 3 (Foreground)
//Storyboard Layer 4 (Overlay)
//Storyboard Sound Samples
Sample,137028,0,"LR4_DrumCSNHS.wav",100
Sample,137423,0,"LR4_DrumCSNHS.wav",100
Sample,137818,0,"LR4_DrumCSNHS.wav",100
Sample,139397,0,"kick 1 v8 rr1.wav",80
Sample,152028,0,"kick 1 v8 rr1.wav",80
Sample,184397,0,"LR4_DrumCSNHS.wav",100
Sample,184792,0,"LR4_DrumCSNHS.wav",100
Sample,186765,0,"kick 1 v8 rr1.wav",80
Sample,189923,0,"kick 1 v8 rr1.wav",80
Sample,192292,0,"LR4_DrumCSNHS.wav",100
Sample,194660,0,"kick 1 v8 rr1.wav",80

[TimingPoints]
450,789.473684210526,4,1,1,20,1,0
139397,-100,4,1,1,20,0,1
161502,-100,4,1,1,20,0,0
186765,-100,4,1,1,20,0,1
194660,-100,4,1,1,20,0,0
204528,857.142857142857,4,1,1,20,1,0
204528,-91.743119266055,4,1,1,20,0,0
205385,923.076923076923,4,1,1,20,1,0
205385,-85.4700854700855,4,1,1,20,0,0
205846,952.380952380952,4,1,1,20,1,0
205846,-82.6446280991736,4,1,1,20,0,0
206798,1500,4,1,1,20,1,0
206798,-52.6315789473684,4,1,1,20,0,0
208298,1132.07547169811,4,1,1,20,1,0
208298,-69.9300699300699,4,1,1,20,0,0
209430,1500,4,1,1,20,1,0
209430,-52.6315789473684,4,1,1,20,0,0
210180,1363.63636363636,4,1,1,20,1,0
210180,-57.8034682080925,4,1,1,20,0,0

[HitObjects]
64,192,252,5,0,0:0:0:0:
320,192,450,1,0,0:0:0:0:
192,192,1634,1,0,0:0:0:0:
448,192,1831,1,0,0:0:0:0:
448,192,3213,1,0,0:0:0:0:
64,192,3410,1,0,0:0:0:0:
320,192,6371,1,0,0:0:0:0:
64,192,6765,1,0,0:0:0:0:
192,192,7160,1,0,0:0:0:0:
448,192,7555,1,0,0:0:0:0:
192,192,7949,1,0,0:0:0:0:
448,192,8739,1,0,0:0:0:0:
448,192,9528,1,0,0:0:0:0:
64,192,12292,1,0,0:0:0:0:
448,192,13081,128,0,14265:0:0:0:0:
192,192,14265,1,0,0:0:0:0:
64,192,14660,128,0,15844:0:0:0:0:
320,192,15844,1,0,0:0:0:0:
320,192,16239,128,0,17818:0:0:0:0:
448,192,18607,1,0,0:0:0:0:
320,192,19002,1,0,0:0:0:0:
64,192,19397,1,0,0:0:0:0:
192,192,19792,1,0,0:0:0:0:
448,192,20186,1,0,0:0:0:0:
320,192,20581,128,0,21371:0:0:0:0:
192,192,21371,128,0,22160:0:0:0:0:
64,192,22160,128,0,24134:0:0:0:0:
448,192,25713,1,0,0:0:0:0:
64,192,26502,1,0,0:0:0:0:
320,192,27292,1,0,0:0:0:0:
448,192,28081,1,0,0:0:0:0:
192,192,28871,1,0,0:0:0:0:
320,192,29660,1,0,0:0:0:0:
64,192,30449,1,0,0:0:0:0:
320,192,31239,1,0,0:0:0:0:
192,192,32028,1,0,0:0:0:0:
448,192,32818,1,0,0:0:0:0:
320,192,33607,1,0,0:0:0:0:
448,192,34397,1,0,0:0:0:0:
64,192,35186,1,0,0:0:0:0:
320,192,35976,1,0,0:0:0:0:
64,192,36765,1,0,0:0:0:0:
448,192,37555,1,0,0:0:0:0:
192,192,38344,1,0,0:0:0:0:
320,192,39134,1,0,0:0:0:0:
192,192,39923,1,0,0:0:0:0:
320,192,40713,1,0,0:0:0:0:
64,192,41502,1,0,0:0:0:0:
448,192,42292,1,0,0:0:0:0:
192,192,43081,1,0,0:0:0:0:
320,192,43871,1,0,0:0:0:0:
64,192,44660,1,0,0:0:0:0:
192,192,45449,1,0,0:0:0:0:
448,192,46239,1,0,0:0:0:0:
192,192,47028,1,0,0:0:0:0:
320,192,47818,1,0,0:0:0:0:
64,192,48607,1,0,0:0:0:0:
320,192,49397,1,0,0:0:0:0:
192,192,50186,1,0,0:0:0:0:
448,192,50976,1,0,0:0:0:0:
64,192,51765,1,0,0:0:0:0:
320,192,52555,1,0,0:0:0:0:
448,192,53344,1,0,0:0:0:0:
64,192,54134,1,0,0:0:0:0:
320,192,54923,1,0,0:0:0:0:
192,192,55713,1,0,0:0:0:0:
448,192,56502,1,0,0:0:0:0:
320,192,57292,1,0,0:0:0:0:
192,192,58081,1,0,0:0:0:0:
64,192,58871,1,0,0:0:0:0:
448,192,59660,1,0,0:0:0:0:
192,192,60449,1,0,0:0:0:0:
64,192,61239,1,0,0:0:0:0:
320,192,62028,1,0,0:0:0:0:
448,192,62818,1,0,0:0:0:0:
64,192,63607,1,0,0:0:0:0:
192,192,64397,1,0,0:0:0:0:
320,192,65186,1,0,0:0:0:0:
64,192,65581,1,0,0:0:0:0:
448,192,65976,1,0,0:0:0:0:
192,192,66371,1,0,0:0:0:0:
64,192,66765,1,0,0:0:0:0:
320,192,67555,1,0,0:0:0:0:
448,192,68344,1,0,0:0:0:0:
64,192,69134,1,0,0:0:0:0:
448,192,69528,1,0,0:0:0:0:
192,192,69923,1,0,0:0:0:0:
320,192,70713,1,0,0:0:0:0:
192,192,71502,1,0,0:0:0:0:
448,192,72292,1,0,0:0:0:0:
64,192,73081,1,0,0:0:0:0:
192,192,73476,1,0,0:0:0:0:
320,192,73871,1,0,0:0:0:0:
448,192,74660,1,0,0:0:0:0:
320,192,75055,1,0,0:0:0:0:
192,192,75449,1,0,0:0:0:0:
448,192,76239,128,0,77028:0:0:0:0:
64,192,77028,1,0,0:0:0:0:
192,192,77818,128,0,79002:0:0:0:0:
448,192,78607,1,0,0:0:0:0:
320,192,79397,128,0,80976:0:0:0:0:
64,192,80186,1,0,0:0:0:0:
192,192,80976,1,0,0:0:0:0:
448,192,81765,1,0,0:0:0:0:
64,192,82160,1,0,0:0:0:0:
320,192,82555,1,0,0:0:0:0:
192,192,83344,1,0,0:0:0:0:
64,192,84134,128,0,84923:0:0:0:0:
320,192,84923,1,0,0:0:0:0:
448,192,85713,128,0,87292:0:0:0:0:
192,192,86502,1,0,0:0:0:0:
64,192,87292,1,0,0:0:0:0:
320,192,88081,1,0,0:0:0:0:
64,192,88871,128,0,89660:0:0:0:0:
448,192,89660,1,0,0:0:0:0:
192,192,90449,128,0,91239:0:0:0:0:
448,192,91239,128,0,92028:0:0:0:0:
320,192,92028,128,0,92818:0:0:0:0:
64,192,92818,1,0,0:0:0:0:
192,192,93607,1,0,0:0:0:0:
448,192,94397,128,0,95186:0:0:0:0:
64,192,95186,128,0,95976:0:0:0:0:
320,192,95976,1,0,0:0:0:0:
192,192,96765,128,0,97555:0:0:0:0:
448,192,97555,1,0,0:0:0:0:
64,192,98344,128,0,99923:0:0:0:0:
320,192,99134,1,0,0:0:0:0:
192,192,99923,1,0,0:0:0:0:
448,192,100713,1,0,0:0:0:0:
64,192,101502,1,0,0:0:0:0:
448,192,102292,1,0,0:0:0:0:
192,192,103081,1,0,0:0:0:0:
320,192,104265,1,0,0:0:0:0:
192,192,104660,1,0,0:0:0:0:
448,192,105449,1,0,0:0:0:0:
64,192,106239,1,0,0:0:0:0:
192,192,107028,1,0,0:0:0:0:
320,192,107423,1,0,0:0:0:0:
448,192,107818,128,0,108607:0:0:0:0:
192,192,108607,128,0,109397:0:0:0:0:
320,192,109397,128,0,110186:0:0:0:0:
192,192,110186,1,0,0:0:0:0:
448,192,110581,1,0,0:0:0:0:
64,192,110976,128,0,111765:0:0:0:0:
448,192,111765,128,0,112555:0:0:0:0:
192,192,112555,128,0,113344:0:0:0:0:
64,192,114134,5,0,0:0:0:40:LR_Drum Finish.wav
448,192,114134,1,0,0:0:0:80:kick 1 v8 rr1.wav
320,192,114923,1,0,0:0:0:100:LR4_DrumCSNHS.wav
192,192,115515,1,0,0:0:0:80:kick 1 v8 rr1.wav
192,192,116107,1,0,0:0:0:80:kick 1 v8 rr1.wav
448,192,116502,1,0,0:0:0:100:LR4_DrumCSNHS.wav
320,192,117292,1,0,0:0:0:80:kick 1 v8 rr1.wav
64,192,118081,1,0,0:0:0:100:LR4_DrumCSNHS.wav
320,192,118673,1,0,0:0:0:80:kick 1 v8 rr1.wav
320,192,119265,1,0,0:0:0:80:kick 1 v8 rr1.wav
192,192,119660,1,0,0:0:0:100:LR4_DrumCSNHS.wav
448,192,120449,1,0,0:0:0:80:kick 1 v8 rr1.wav
320,192,121239,1,0,0:0:0:100:LR4_DrumCSNHS.wav
64,192,121831,1,0,0:0:0:80:kick 1 v8 rr1.wav
64,192,122423,1,0,0:0:0:80:kick 1 v8 rr1.wav
448,192,122818,1,0,0:0:0:100:LR4_DrumCSNHS.wav
192,192,123607,1,0,0:0:0:80:kick 1 v8 rr1.wav
64,192,124397,1,0,0:0:0:100:LR4_DrumCSNHS.wav
448,192,124989,1,0,0:0:0:80:kick 1 v8 rr1.wav
448,192,125581,1,0,0:0:0:80:kick 1 v8 rr1.wav
64,192,125976,1,0,0:0:0:100:LR4_DrumCSNHS.wav
192,192,126371,1,0,0:0:0:50:LR4_DrumCSNHS.wav
320,192,126765,1,0,0:0:0:40:LR_Drum Finish.wav
448,192,126765,1,0,0:0:0:80:kick 1 v8 rr1.wav
64,192,127555,1,0,0:0:0:100:LR4_DrumCSNHS.wav
192,192,128147,1,0,0:0:0:80:kick 1 v8 rr1.wav
192,192,128739,1,0,0:0:0:80:kick 1 v8 rr1.wav
320,192,129134,1,0,0:0:0:100:LR4_DrumCSNHS.wav
448,192,129923,1,0,0:0:0:80:kick 1 v8 rr1.wav
192,192,130713,1,0,0:0:0:100:LR4_DrumCSNHS.wav
64,192,131305,1,0,0:0:0:80:kick 1 v8 rr1.wav
64,192,131897,1,0,0:0:0:80:kick 1 v8 rr1.wav
320,192,132292,1,0,0:0:0:100:LR4_DrumCSNHS.wav
448,192,133081,1,0,0:0:0:80:kick 1 v8 rr1.wav
64,192,133871,1,0,0:0:0:100:LR4_DrumCSNHS.wav
448,192,134463,1,0,0:0:0:80:kick 1 v8 rr1.wav
448,192,135055,1,0,0:0:0:80:kick 1 v8 rr1.wav
192,192,135449,1,0,0:0:0:100:LR4_DrumCSNHS.wav
64,192,136239,1,0,0:0:0:80:kick 1 v8 rr1.wav
192,192,136634,1,0,0:0:0:80:kick 1 v8 rr1.wav
320,192,137028,1,0,0:0:0:80:kick 1 v8 rr1.wav
448,192,137423,1,0,0:0:0:80:kick 1 v8 rr1.wav
64,192,137818,1,0,0:0:0:80:kick 1 v8 rr1.wav
320,192,138213,1,0,0:0:0:80:kick 1 v8 rr1.wav
192,192,138607,1,0,0:0:0:100:LR4_DrumCSNHS.wav
320,192,139002,128,0,139792:0:0:0:80:kick 1 v8 rr1.wav
64,192,139397,1,0,0:0:0:40:LR_Drum Finish.wav
192,192,140186,1,0,0:0:0:100:LR4_DrumCSNHS.wav
448,192,140581,128,0,141371:0:0:0:80:kick 1 v8 rr1.wav
192,192,141765,1,0,0:0:0:100:LR4_DrumCSNHS.wav
192,192,142357,128,0,143344:0:0:0:0:
448,192,143344,1,0,0:0:0:100:LR4_DrumCSNHS.wav
192,192,144134,1,0,0:0:0:80:kick 1 v8 rr1.wav
320,192,144923,1,0,0:0:0:100:LR4_DrumCSNHS.wav
64,192,145318,1,0,0:0:0:0:
192,192,145713,1,0,0:0:0:80:kick 1 v8 rr1.wav
320,192,146107,1,0,0:0:0:0:
448,192,146502,1,0,0:0:0:100:LR4_DrumCSNHS.wav
64,192,146897,128,0,147686:0:0:0:80:kick 1 v8 rr1.wav
192,192,147686,1,0,0:0:0:0:
448,192,148081,1,0,0:0:0:100:LR4_DrumCSNHS.wav
448,192,148673,128,0,149660:0:0:0:0:
64,192,149660,1,0,0:0:0:100:LR4_DrumCSNHS.wav
192,192,150449,1,0,0:0:0:80:kick 1 v8 rr1.wav
448,192,151239,1,0,0:0:0:100:LR4_DrumCSNHS.wav
64,192,151634,128,0,152423:0:0:0:100:LR4_DrumCSNHS.wav
320,192,152028,1,0,0:0:0:40:LR_Drum Finish.wav
448,192,152818,1,0,0:0:0:100:LR4_DrumCSNHS.wav
320,192,153213,128,0,154002:0:0:0:80:kick 1 v8 rr1.wav
64,192,154397,1,0,0:0:0:100:LR4_DrumCSNHS.wav
192,192,154792,128,0,155581:0:0:0:0:
320,192,155976,1,0,0:0:0:100:LR4_DrumCSNHS.wav
192,192,156765,1,0,0:0:0:80:kick 1 v8 rr1.wav
448,192,157555,1,0,0:0:0:100:LR4_DrumCSNHS.wav
320,192,157949,1,0,0:0:0:0:
64,192,158344,1,0,0:0:0:40:LR_Drum Finish.wav
192,192,158344,1,0,0:0:0:80:kick 1 v8 rr1.wav
320,192,158739,1,0,0:0:0:0:
448,192,159134,1,0,0:0:0:100:LR4_DrumCSNHS.wav
64,192,159528,128,0,160318:0:0:0:0:
192,192,160713,1,0,0:0:0:100:LR4_DrumCSNHS.wav
448,192,161107,1,0,0:0:0:80:kick 1 v8 rr1.wav
64,192,161502,128,0,162292:0:0:0:40:LR_Drum Finish.wav
320,192,161502,1,0,0:0:0:80:kick 1 v8 rr1.wav
192,192,162292,128,0,163081:0:0:0:100:LR4_DrumCSNHS.wav
448,192,163081,128,0,163871:0:0:0:80:kick 1 v8 rr1.wav
64,192,163871,128,0,164660:0:0:0:100:LR4_DrumCSNHS.wav
320,192,164660,128,0,165449:0:0:0:80:kick 1 v8 rr1.wav
192,192,165449,128,0,166239:0:0:0:100:LR4_DrumCSNHS.wav
448,192,166239,1,0,0:0:0:80:kick 1 v8 rr1.wav
192,192,167028,1,0,0:0:0:40:LR_Drum Finish.wav
320,192,167028,1,0,0:0:0:100:LR4_DrumCSNHS.wav
64,192,167818,1,0,0:0:0:40:LR_Drum Finish.wav
448,192,167818,1,0,0:0:0:80:kick 1 v8 rr1.wav
320,192,168213,1,0,0:0:0:80:kick 1 v8 rr1.wav
192,192,168607,1,0,0:0:0:100:LR4_DrumCSNHS.wav
64,192,169002,1,0,0:0:0:100:LR4_DrumCSNHS.wav
320,192,169397,1,0,0:0:0:0:
448,192,169792,1,0,0:0:0:80:kick 1 v8 rr1.wav
192,192,170186,1,0,0:0:0:100:LR4_DrumCSNHS.wav
320,192,170581,1,0,0:0:0:0:
64,192,170976,128,0,172555:0:0:0:40:LR_Drum Finish.wav
448,192,170976,1,0,0:0:0:80:kick 1 v8 rr1.wav
448,192,172555,128,0,173344:0:0:0:100:LR4_DrumCSNHS.wav
192,192,173344,1,0,0:0:0:80:kick 1 v8 rr1.wav
320,192,174134,1,0,0:0:0:0:
192,192,174923,1,0,0:0:0:0:
64,192,175713,1,0,0:0:0:0:
320,192,176502,1,0,0:0:0:0:
448,192,177292,1,0,0:0:0:0:
192,192,178081,1,0,0:0:0:0:
64,192,178871,1,0,0:0:0:0:
448,192,179660,1,0,0:0:0:0:
192,192,180449,1,0,0:0:0:0:
64,192,181239,1,0,0:0:0:0:
448,192,182028,1,0,0:0:0:0:
320,192,182818,1,0,0:0:0:0:
64,192,183607,1,0,0:0:0:80:kick 1 v8 rr1.wav
192,192,184002,1,0,0:0:0:80:kick 1 v8 rr1.wav
448,192,184397,1,0,0:0:0:80:kick 1 v8 rr1.wav
320,192,184792,1,0,0:0:0:80:kick 1 v8 rr1.wav
64,192,185186,1,0,0:0:0:100:LR4_DrumCSNHS.wav
448,192,185581,1,0,0:0:0:40:LR5_Kick Wet DC.wav
192,192,185976,1,0,0:0:0:100:LR4_DrumCSNHS.wav
448,192,186371,128,0,187160:0:0:0:40:LR5_Kick Wet DC.wav
64,192,186765,1,0,0:0:0:40:LR_Drum Finish.wav
320,192,187555,1,0,0:0:0:100:LR4_DrumCSNHS.wav
64,192,187949,128,0,189134:0:0:0:80:kick 1 v8 rr1.wav
448,192,189134,1,0,0:0:0:100:LR4_DrumCSNHS.wav
320,192,189528,128,0,190713:0:0:0:0:
192,192,189923,1,0,0:0:0:40:LR_Drum Finish.wav
64,192,190713,1,0,0:0:0:100:LR4_DrumCSNHS.wav
448,192,191502,1,0,0:0:0:80:kick 1 v8 rr1.wav
192,192,192292,1,0,0:0:0:40:LR_Drum Finish.wav
320,192,192686,1,0,0:0:0:0:
64,192,193081,1,0,0:0:0:40:LR_Drum Finish.wav
448,192,193081,1,0,0:0:0:80:kick 1 v8 rr1.wav
192,192,193476,1,0,0:0:0:0:
320,192,193871,1,0,0:0:0:100:LR4_DrumCSNHS.wav
64,192,194265,128,0,196436:0:0:0:40:LR5_Kick Wet DC.wav
448,192,194660,1,0,0:0:0:40:LR_Drum Finish.wav
448,192,197028,1,0,0:0:0:0:
192,192,197423,1,0,0:0:0:0:
64,192,198607,1,0,0:0:0:0:
448,192,199002,1,0,0:0:0:0:
320,192,200186,1,0,0:0:0:0:
320,192,200581,1,0,0:0:0:0:
64,192,203739,1,0,0:0:0:0:
192,192,204134,1,0,0:0:0:0:
320,192,204528,1,0,0:0:0:0:
448,192,204956,1,0,0:0:0:0:
320,192,205385,1,0,0:0:0:0:
192,192,206798,1,0,0:0:0:0:
192,192,208298,1,0,0:0:0:0:
64,192,208864,1,0,0:0:0:0:
448,192,209430,1,0,0:0:0:0:
320,192,210180,1,0,0:0:0:0:
64,192,211202,128,0,211543:0:0:0:0:
448,192,211543,128,0,215634:0:0:0:0:
