osu file format v14

[General]
AudioFilename: audio.mp3
AudioLeadIn: 0
PreviewTime: 54068
Countdown: 0
SampleSet: Soft
StackLeniency: 0.8
Mode: 0
LetterboxInBreaks: 0
WidescreenStoryboard: 1

[Editor]
DistanceSpacing: 1.4
BeatDivisor: 4
GridSize: 32
TimelineZoom: 2.1

[Metadata]
Title:Rice Field
TitleUnicode:稻香
Artist:Jay Chou
ArtistUnicode:周杰倫
Creator:Jiezi
Version:Hard
Source:
Tags:dao xiang zhou jielun 方文山 vincent fang wenshan 魔杰座 Capricorn Muziyami Chinese cpop c-pop c pop
BeatmapID:3437512
BeatmapSetID:1682452

[Difficulty]
HPDrainRate:4
CircleSize:3.6
OverallDifficulty:6
ApproachRate:7
SliderMultiplier:2.40000000596046
SliderTickRate:1

[Events]
//Background and Video events
0,0,"Field.jpg",0,0
//Break Periods
2,78414,88656
//Storyboard Layer 0 (Background)
//Storyboard Layer 1 (Fail)
//Storyboard Layer 2 (Pass)
//Storyboard Layer 3 (Foreground)
//Storyboard Layer 4 (Overlay)
//Storyboard Sound Samples

[TimingPoints]
5044,731.707317073171,4,2,2,60,1,0
18946,-125,4,2,2,60,0,0
19678,-125,4,2,2,50,0,0
29922,-125,4,2,2,60,0,0
30653,-100,4,2,2,60,0,0
32117,-100,4,1,1,60,0,0
32299,-100,4,2,2,60,0,0
33580,-100,4,1,1,60,0,0
33763,-100,4,2,2,60,0,0
35044,-100,4,1,1,60,0,0
35226,-100,4,2,2,60,0,0
36507,-100,4,1,1,60,0,0
36690,-100,4,2,2,60,0,0
37970,-100,4,1,1,60,0,0
38152,-100,4,2,2,60,0,0
39434,-100,4,1,1,60,0,0
39799,-100,4,2,2,60,0,0
40896,-100,4,1,1,60,0,0
41446,-100,4,2,2,60,0,0
42361,-100,4,1,1,60,0,0
42543,-100,4,2,2,60,0,0
43824,-100,4,1,1,60,0,0
44006,-100,4,2,2,60,0,0
45287,-100,4,1,1,60,0,0
45470,-100,4,2,2,60,0,0
46751,-100,4,1,1,60,0,0
46933,-100,4,2,2,60,0,0
48214,-100,4,1,1,60,0,0
48397,-100,4,2,2,60,0,0
48946,-100,4,2,2,40,0,0
49495,-100,4,2,2,60,0,0
49678,-100,4,1,1,60,0,0
49861,-100,4,2,2,60,0,0
51141,-100,4,1,1,60,0,0
51323,-100,4,2,2,60,0,0
51690,-100,4,2,2,30,0,0
51873,-125,4,2,2,80,0,0
53336,-100,4,2,2,80,0,0
54800,-83.3333333333333,4,2,2,80,0,1
55530,-83.3333333333333,4,1,1,80,0,1
55714,-83.3333333333333,4,2,2,80,0,1
56995,-83.3333333333333,4,1,1,80,0,1
57178,-83.3333333333333,4,2,2,40,0,1
57361,-83.3333333333333,4,2,2,80,0,1
57544,-83.3333333333333,4,2,2,40,0,1
57726,-83.3333333333333,4,2,2,80,0,1
58457,-83.3333333333333,4,1,1,80,0,1
58641,-83.3333333333333,4,2,2,80,0,1
59922,-83.3333333333333,4,1,1,80,0,1
60104,-83.3333333333333,4,2,2,40,0,1
60287,-83.3333333333333,4,2,2,80,0,1
60470,-83.3333333333333,4,2,2,40,0,1
60653,-83.3333333333333,4,2,2,80,0,1
62848,-83.3333333333333,4,1,1,80,0,1
63031,-83.3333333333333,4,2,2,40,0,1
63214,-83.3333333333333,4,2,2,80,0,1
63397,-83.3333333333333,4,2,2,40,0,1
63580,-100,4,2,2,80,0,1
64129,-83.3333333333333,4,2,2,80,0,1
64312,-83.3333333333333,4,1,1,80,0,1
64494,-83.3333333333333,4,2,2,80,0,1
65775,-83.3333333333333,4,1,1,80,0,1
65958,-83.3333333333333,4,2,2,40,0,1
66141,-83.3333333333333,4,2,2,80,0,1
66324,-83.3333333333333,4,2,2,40,0,1
66507,-83.3333333333333,4,2,2,80,0,1
67238,-83.3333333333333,4,1,1,80,0,1
67422,-83.3333333333333,4,2,2,80,0,1
68702,-83.3333333333333,4,1,1,80,0,1
68885,-83.3333333333333,4,2,2,40,0,1
69068,-83.3333333333333,4,2,2,80,0,1
69251,-83.3333333333333,4,2,2,40,0,1
69434,-83.3333333333333,4,2,2,80,0,1
70165,-83.3333333333333,4,1,1,80,0,1
70348,-83.3333333333333,4,2,2,80,0,1
71629,-83.3333333333333,4,1,1,80,0,1
71812,-83.3333333333333,4,2,2,40,0,1
71995,-83.3333333333333,4,2,2,80,0,1
72178,-83.3333333333333,4,2,2,40,0,1
72361,-83.3333333333333,4,2,2,80,0,1
78214,-83.3333333333333,4,2,2,80,0,0
89556,-100,4,2,2,80,0,0
90653,-100,4,1,1,80,0,0
91384,-100,4,2,2,80,0,0
92117,-100,4,1,1,80,0,0
92483,-100,4,2,2,80,0,0
93580,-100,4,1,1,80,0,0
94311,-100,4,2,2,80,0,0
95044,-100,4,1,1,80,0,0
95409,-100,4,2,2,80,0,0
96506,-100,4,1,1,80,0,0
96873,-100,4,2,2,80,0,0
97970,-100,4,1,1,80,0,0
98336,-100,4,2,2,80,0,0
100897,-83.3333333333333,4,2,2,80,0,0
102361,-83.3333333333333,4,1,1,80,0,0
102543,-83.3333333333333,4,2,2,80,0,0
103824,-83.3333333333333,4,1,1,80,0,0
104189,-83.3333333333333,4,2,2,80,0,0
105287,-83.3333333333333,4,1,1,80,0,0
105469,-83.3333333333333,4,2,2,80,0,0
106751,-83.3333333333333,4,1,1,80,0,0
107116,-83.3333333333333,4,2,2,80,0,0
108214,-83.3333333333333,4,1,1,80,0,0
108396,-83.3333333333333,4,2,2,80,0,0
109677,-83.3333333333333,4,1,1,80,0,0
109861,-83.3333333333333,4,2,2,90,0,0
111141,-83.3333333333333,4,1,1,80,0,0
111323,-83.3333333333333,4,2,2,90,0,0
112604,-83.3333333333333,4,2,2,5,0,0
112787,-100,4,2,2,80,0,0
113336,-83.3333333333333,4,2,2,80,0,0
114068,-83.3333333333333,4,1,1,80,0,0
114250,-83.3333333333333,4,2,2,80,0,0
115531,-83.3333333333333,4,1,1,80,0,0
115714,-83.3333333333333,4,2,2,80,0,0
116995,-83.3333333333333,4,1,1,80,0,0
117177,-83.3333333333333,4,2,2,80,0,0
118457,-83.3333333333333,4,1,1,80,0,0
118641,-83.3333333333333,4,2,2,80,0,0
121385,-83.3333333333333,4,1,1,80,0,0
121568,-83.3333333333333,4,2,1,40,0,0
121751,-83.3333333333333,4,2,2,80,0,0
121934,-83.3333333333333,4,2,2,40,0,0
122117,-100,4,2,2,80,0,0
122848,-83.3333333333333,4,1,1,80,0,0
123030,-83.3333333333333,4,2,1,80,0,0
123214,-83.3333333333333,4,2,2,80,0,0
124312,-83.3333333333333,4,1,1,80,0,0
124495,-83.3333333333333,4,2,2,80,0,0
125044,-83.3333333333333,4,2,2,80,0,1
125226,-83.3333333333333,4,2,2,80,0,0
125775,-83.3333333333333,4,1,1,80,0,0
125958,-83.3333333333333,4,2,2,80,0,0
127239,-83.3333333333333,4,1,1,80,0,0
127421,-83.3333333333333,4,2,2,80,0,0
128702,-83.3333333333333,4,1,1,80,0,0
128885,-83.3333333333333,4,2,2,80,0,0
130165,-83.3333333333333,4,1,1,80,0,0
130347,-83.3333333333333,4,2,2,80,0,0
131628,-83.3333333333333,4,1,1,80,0,0
131812,-83.3333333333333,4,2,2,80,0,0
133092,-83.3333333333333,4,1,1,80,0,0
133275,-83.3333333333333,4,2,2,80,0,0
134556,-83.3333333333333,4,1,1,80,0,0
134738,-83.3333333333333,4,2,2,80,0,0
136019,-83.3333333333333,4,1,1,80,0,0
136201,-83.3333333333333,4,2,2,80,0,0
137482,-83.3333333333333,4,1,1,80,0,0
137665,-83.3333333333333,4,2,2,80,0,0
138946,-83.3333333333333,4,1,1,80,0,0
139128,-83.3333333333333,4,2,2,80,0,0
140409,-83.3333333333333,4,1,1,80,0,0
140592,-83.3333333333333,4,2,2,80,0,0
141873,-83.3333333333333,4,1,1,80,0,0
142055,-83.3333333333333,4,2,2,80,0,0
143336,-83.3333333333333,4,1,1,80,0,0
143519,-83.3333333333333,4,2,2,80,0,0
144800,-83.3333333333333,4,1,1,80,0,0
144982,-83.3333333333333,4,2,2,80,0,0
145531,-100,4,2,2,80,0,0
146629,-83.3333333333333,4,2,2,80,0,0
147544,-83.3333333333333,4,2,2,80,0,0
147726,-83.3333333333333,4,2,2,80,0,0
147909,-83.3333333333333,4,2,2,40,0,0
148092,-83.3333333333333,4,2,2,80,0,0
148275,-83.3333333333333,4,2,2,40,0,0
148458,-83.3333333333333,4,2,2,80,0,1
149189,-83.3333333333333,4,1,1,80,0,1
149373,-83.3333333333333,4,2,2,80,0,1
150653,-83.3333333333333,4,1,1,80,0,1
150836,-83.3333333333333,4,2,2,40,0,1
151019,-83.3333333333333,4,2,2,80,0,1
151202,-83.3333333333333,4,2,2,40,0,1
151385,-83.3333333333333,4,2,2,80,0,1
152116,-83.3333333333333,4,1,1,80,0,1
152300,-83.3333333333333,4,2,2,80,0,1
153580,-83.3333333333333,4,1,1,80,0,1
153763,-83.3333333333333,4,2,2,40,0,1
153946,-83.3333333333333,4,2,2,80,0,1
154129,-83.3333333333333,4,2,2,40,0,1
154312,-83.3333333333333,4,2,2,80,0,1
156507,-83.3333333333333,4,1,1,80,0,1
156690,-83.3333333333333,4,2,2,40,0,1
156873,-83.3333333333333,4,2,2,80,0,1
157056,-83.3333333333333,4,2,2,40,0,1
157239,-100,4,2,2,80,0,1
157970,-83.3333333333333,4,1,1,80,0,1
158152,-83.3333333333333,4,2,2,80,0,1
159434,-83.3333333333333,4,1,1,80,0,1
159616,-83.3333333333333,4,2,2,40,0,1
159800,-83.3333333333333,4,2,2,80,0,1
159982,-83.3333333333333,4,2,2,40,0,1
160165,-83.3333333333333,4,2,2,80,0,1
160896,-83.3333333333333,4,1,1,80,0,1
161080,-83.3333333333333,4,2,2,80,0,1
162361,-83.3333333333333,4,1,1,80,0,1
162544,-83.3333333333333,4,2,2,40,0,1
162726,-83.3333333333333,4,2,2,80,0,1
162909,-83.3333333333333,4,2,2,40,0,1
163092,-83.3333333333333,4,2,2,80,0,1
163823,-83.3333333333333,4,1,1,80,0,1
164007,-83.3333333333333,4,2,2,80,0,1
165287,-83.3333333333333,4,1,1,80,0,1
165470,-83.3333333333333,4,2,2,40,0,1
165653,-83.3333333333333,4,2,2,80,0,1
165836,-83.3333333333333,4,2,2,40,0,1
166019,-83.3333333333333,4,2,2,80,0,1
171873,-125,4,2,2,70,0,0
180653,-125,4,2,2,70,0,0
182116,-125,4,2,2,80,0,0
182848,-83.3333333333333,4,2,2,80,0,0
183031,-83.3333333333333,4,2,2,40,0,0
183214,-83.3333333333333,4,2,2,80,0,0
183397,-83.3333333333333,4,2,2,40,0,0
183580,-83.3333333333333,4,2,2,80,0,1
184311,-83.3333333333333,4,1,1,80,0,1
184495,-83.3333333333333,4,2,2,80,0,1
185775,-83.3333333333333,4,1,1,80,0,1
185958,-83.3333333333333,4,2,2,40,0,1
186141,-83.3333333333333,4,2,2,80,0,1
186324,-83.3333333333333,4,2,2,40,0,1
186507,-83.3333333333333,4,2,2,80,0,1
187238,-83.3333333333333,4,1,1,80,0,1
187422,-83.3333333333333,4,2,2,80,0,1
188702,-83.3333333333333,4,1,1,80,0,1
188885,-83.3333333333333,4,2,2,40,0,1
189068,-83.3333333333333,4,2,2,80,0,1
189251,-83.3333333333333,4,2,2,40,0,1
189434,-83.3333333333333,4,2,2,80,0,1
195287,-83.3333333333333,4,2,2,80,0,0

[Colours]
Combo1 : 132,251,180
Combo2 : 222,252,131
Combo3 : 255,128,128
Combo4 : 252,146,67

[HitObjects]
97,131,19678,37,2,0:0:0:0:
174,188,20044,1,2,0:0:0:0:
247,126,20409,2,0,P|337:97|432:131,1,192.000000476837,2|0,0:0|0:0,0:0:0:0:
486,202,21507,5,2,0:0:0:0:
397,239,21873,1,2,0:0:0:0:
425,330,22239,1,0,0:0:0:0:
332,307,22604,2,0,P|278:302|222:309,1,96.0000002384184,2|2,0:0|0:0,0:0:0:0:
142,327,23336,6,0,P|169:232|151:136,1,192.000000476837,2|0,0:0|0:0,0:0:0:0:
89,70,24434,1,2,0:0:0:0:
166,13,24800,2,0,P|218:29|275:30,1,96.0000002384184,2|0,0:0|0:0,0:0:0:0:
354,40,25531,6,0,B|316:127|407:144|369:244,1,192.000000476837,2|2,0:0|0:0,0:0:0:0:
330,311,26629,1,0,0:0:0:0:
330,311,26995,2,0,B|239:263|225:350|115:278,1,192.000000476837,2|2,0:0|0:0,0:0:0:0:
63,242,28092,1,0,0:0:0:0:
256,192,28458,12,2,29922,0:0:0:0:
124,44,30836,6,0,P|84:64|48:64,2,60.0000001490115
192,96,31385,2,0,P|260:112|324:88,1,120.000000298023,8|0,0:0|0:0,0:0:0:0:
398,80,31934,2,0,P|383:140|406:196,1,120.000000298023,2|0,0:0|0:0,0:0:0:0:
477,239,32483,1,0,0:0:0:0:
448,320,32665,1,0,0:0:0:0:
364,324,32848,2,0,L|300:324,1,60.0000001490115,2|2,0:0|0:0,0:0:0:0:
220,304,33214,2,0,L|152:304,1,60.0000001490115,2|2,0:0|0:0,0:0:0:0:
72,304,33580,2,0,P|88:236|72:180,1,120.000000298023,2|2,2:0|0:0,0:0:0:0:
176,44,34312,6,0,P|228:72|292:60,1,120.000000298023,8|0,0:0|0:0,0:0:0:0:
369,42,34861,2,0,P|369:98|441:154,1,120.000000298023,2|0,0:0|0:0,0:0:0:0:
486,184,35409,1,0,0:0:0:0:
456,264,35592,1,0,0:0:0:0:
480,344,35775,2,0,P|444:352|412:348,1,60.0000001490115,2|2,0:0|0:0,0:0:0:0:
344,316,36141,2,0,P|312:312|280:312,1,60.0000001490115,2|2,0:0|0:0,0:0:0:0:
199,311,36507,2,0,P|175:247|115:227,1,120.000000298023,2|2,2:0|0:0,0:0:0:0:
184,52,37239,6,0,P|204:120|164:164,1,120.000000298023,8|0,0:0|0:0,0:0:0:0:
131,227,37787,2,0,P|180:243|213:300,1,120.000000298023,2|0,0:0|0:0,0:0:0:0:
284,352,38336,1,0,0:0:0:0:
368,319,38519,1,0,0:0:0:0:
452,344,38702,2,0,L|456:276,1,60.0000001490115,2|2,0:0|0:0,0:0:0:0:
414,205,39068,2,0,L|428:138,1,60.0000001490115,2|2,0:0|0:0,0:0:0:0:
451,57,39434,2,0,P|388:70|315:45,1,120.000000298023,0|0,2:0|0:0,0:0:0:0:
190,56,40165,2,0,P|194:124|62:208,1,240.000000596046,8|0,0:0|2:0,0:0:0:0:
63,208,41446,6,0,P|130:236|142:300,1,120.000000298023
208,340,41995,2,0,P|240:320|272:320,1,60.0000001490115,2|0,0:0|0:0,0:0:0:0:
340,212,42361,2,0,P|341:249|325:277,1,60.0000001490115,2|0,2:0|0:0,0:0:0:0:
388,384,42726,2,0,P|354:366|338:338,1,60.0000001490115,2|2,0:0|0:0,0:0:0:0:
261,318,43092,6,0,P|232:256|264:196,1,120.000000298023,8|0,0:0|0:0,0:0:0:0:
289,133,43641,2,0,P|223:116|200:70,1,120.000000298023,2|0,0:0|0:0,0:0:0:0:
144,4,44190,1,2,0:0:0:0:
57,26,44373,1,0,0:0:0:0:
24,108,44556,2,0,L|32:176,1,60.0000001490115,2|2,0:0|0:0,0:0:0:0:
112,208,44922,2,0,L|100:276,1,60.0000001490115,2|2,0:0|0:0,0:0:0:0:
93,361,45287,2,0,P|161:346|222:372,1,120.000000298023,2|2,2:0|0:0,0:0:0:0:
304,356,45836,5,0,0:0:0:0:
304,356,46019,2,0,P|292:292|324:240,1,120.000000298023,8|0,0:0|0:0,0:0:0:0:
390,191,46568,2,0,P|338:155|331:91,1,120.000000298023,2|0,0:0|0:0,0:0:0:0:
268,32,47117,1,2,0:0:0:0:
184,56,47300,1,0,0:0:0:0:
92,40,47483,2,0,P|92:80|108:128,1,60.0000001490115,2|0,0:0|0:0,0:0:0:0:
176,144,47848,2,0,P|172:192|164:208,1,60.0000001490115,2|0,0:0|0:0,0:0:0:0:
128,284,48214,2,0,P|196:280|272:288,1,120.000000298023,2|2,2:0|0:0,0:0:0:0:
436,300,48946,1,8,0:0:0:0:
348,136,49495,5,0,0:0:0:0:
348,136,49678,2,0,P|264:144|220:124,1,120.000000298023,2|0,2:0|0:0,0:0:0:0:
156,88,50226,2,0,L|128:216,1,120.000000298023,2|0,0:0|0:0,0:0:0:0:
72,272,50775,1,2,0:0:0:0:
112,348,50958,1,2,0:0:0:0:
200,352,51141,6,0,P|248:336|276:328,1,60.0000001490115,2|2,2:0|0:0,0:0:0:0:
340,300,51507,2,0,P|328:260|324:232,1,60.0000001490115,2|0,0:0|0:0,0:0:0:0:
304,156,51873,2,0,B|228:184|176:176|124:144|124:144|188:112|244:140,1,288.000000715255,8|2,0:0|0:0,0:0:0:0:
381,80,53336,1,8,1:0:0:0:
376,272,53885,1,8,1:0:0:0:
311,326,54068,2,0,L|235:313,1,60.0000001490115,8|0,1:0|0:0,0:0:0:0:
172,287,54434,2,0,L|93:298,1,60.0000001490115,8|0,1:0|0:0,0:0:0:0:
36,332,54800,6,0,P|66:266|27:182,1,143.999995963096,12|0,0:0|1:0,0:0:0:0:
79,109,55348,2,0,P|93:134|146:145,1,71.9999979815482,2|0,1:0|1:0,0:0:0:0:
198,55,55714,2,0,P|190:82|219:127,1,71.9999979815482,2|0,1:0|1:0,0:0:0:0:
300,158,56080,2,0,P|240:205|243:269,1,143.999995963096,2|8,1:0|1:0,0:0:0:0:
328,320,56629,1,2,0:0:0:0:
368,228,56812,1,2,0:0:0:0:
300,158,56995,2,0,L|225:135,1,71.9999979815482,0|0,0:0|1:0,0:0:0:0:
152,80,57361,2,0,L|83:110,1,71.9999979815482,2|0,0:0|1:0,0:0:0:0:
132,196,57726,6,0,P|164:264|136:324,1,143.999995963096,12|0,0:0|1:0,0:0:0:0:
232,364,58275,2,0,L|307:349,1,71.9999979815482,2|0,1:0|0:0,0:0:0:0:
364,283,58641,2,0,L|437:293,1,71.9999979815482,2|0,1:0|1:0,0:0:0:0:
284,271,59007,2,0,P|260:199|320:135,1,143.999995963096,2|8,1:0|1:0,0:0:0:0:
359,80,59556,1,2,0:0:0:0:
416,152,59739,1,2,0:0:0:0:
408,240,59922,2,0,P|412:288|404:320,1,71.9999979815482,0|0,0:0|1:0,0:0:0:0:
310,340,60287,2,0,P|306:292|314:260,1,71.9999979815482,2|0,0:0|1:0,0:0:0:0:
328,176,60653,38,0,P|256:148|236:80,1,143.999995963096,12|2,0:0|0:0,0:0:0:0:
339,81,61202,1,2,0:0:0:0:
81,214,61751,22,0,L|97:290,1,71.9999979815482,10|2,0:0|0:0,0:0:0:0:
180,336,62117,2,0,P|252:324|336:336,1,143.999995963096,10|2,0:0|0:0,0:0:0:0:
429,314,62665,1,2,0:0:0:0:
429,314,62848,2,0,P|435:260|429:222,1,71.9999979815482,0|0,0:0|1:0,0:0:0:0:
360,169,63214,2,0,P|352:197|352:249,1,71.9999979815482,2|0,0:0|1:0,0:0:0:0:
322,332,63580,2,0,B|284:320|268:304|268:304|208:320|144:320,1,180.000000447034,12|0,0:0|1:0,0:0:0:0:
56,336,64312,22,0,P|44:360|8:388,2,71.9999979815482,0|2|10,0:0|0:0|0:0,0:0:0:0:
92,248,64861,1,2,0:0:0:0:
92,248,65044,2,0,P|150:206|235:221,1,143.999995963096,10|2,0:0|0:0,0:0:0:0:
183,121,65592,1,2,0:0:0:0:
183,121,65775,2,0,P|180:69|193:37,1,71.9999979815482,8|8,1:0|1:0,0:0:0:0:
279,24,66141,2,0,P|291:57|284:99,1,71.9999979815482,8|0,1:0|0:0,0:0:0:0:
324,184,66507,38,0,P|241:193|200:255,1,143.999995963096,12|0,0:0|1:0,0:0:0:0:
284,336,67056,2,0,P|296:280|284:252,1,71.9999979815482,2|0,1:0|0:0,0:0:0:0:
384,252,67422,2,0,P|400:288|436:308,1,71.9999979815482,2|0,1:0|1:0,0:0:0:0:
508,368,67787,2,0,P|532:296|488:224,1,143.999995963096,2|8,1:0|1:0,0:0:0:0:
431,167,68336,1,2,0:0:0:0:
464,76,68519,1,2,0:0:0:0:
360,92,68702,2,0,P|336:132|300:152,1,71.9999979815482,0|0,0:0|1:0,0:0:0:0:
216,108,69068,2,0,P|235:79|273:56,1,71.9999979815482,2|0,0:0|1:0,0:0:0:0:
232,208,69434,6,0,P|156:248|144:320,1,143.999995963096,12|0,0:0|1:0,0:0:0:0:
88,384,69983,2,0,P|72:348|44:324,1,71.9999979815482,2|0,1:0|0:0,0:0:0:0:
49,221,70348,2,0,P|69:193|77:157,1,71.9999979815482,2|0,1:0|1:0,0:0:0:0:
148,80,70714,2,0,P|224:120|280:104,1,143.999995963096,2|8,1:0|1:0,0:0:0:0:
360,56,71263,1,2,0:0:0:0:
452,84,71446,1,2,0:0:0:0:
380,156,71629,2,0,P|376:188|384:232,1,71.9999979815482,0|0,0:0|1:0,0:0:0:0:
283,219,71995,2,0,P|299:255|351:291,1,71.9999979815482,2|0,0:0|1:0,0:0:0:0:
402,337,72361,6,0,B|338:337|302:417|218:369,1,143.999995963096,12|2,0:0|0:0,0:0:0:0:
174,376,72909,2,0,P|182:296|170:232,1,143.999995963096,2|0,0:0|1:0,0:0:0:0:
104,166,73458,1,10,0:0:0:0:
115,73,73641,1,2,0:0:0:0:
188,128,73824,2,0,P|264:152|332:116,1,143.999995963096,10|2,0:0|0:0,0:0:0:0:
396,68,74373,2,0,P|372:136|420:188,1,143.999995963096,2|0,0:0|1:0,0:0:0:0:
496,240,74922,5,2,0:0:0:0:
292,264,75287,1,12,0:0:0:0:
256,192,75653,12,2,78214,0:0:0:0:
92,96,89556,5,0,0:0:0:0:
24,172,89922,1,8,0:0:0:0:
104,236,90287,1,2,0:0:0:0:
36,320,90653,2,0,B|116:372|208:260|296:328,1,240.000000596046,0|8,0:0|0:0,0:0:0:0:
368,360,91751,37,2,0:0:0:0:
440,288,92117,1,0,0:0:0:0:
380,200,92483,1,2,0:0:0:0:
440,108,92848,2,0,P|380:96|312:108,1,120.000000298023,8|2,0:0|0:0,0:0:0:0:
208,80,93580,2,0,P|252:164|208:296,1,240.000000596046,0|8,0:0|0:0,0:0:0:0:
112,352,94678,21,2,0:0:0:0:
32,272,95044,1,0,0:0:0:0:
96,176,95409,1,2,0:0:0:0:
36,80,95775,2,0,B|124:32|192:136|292:64,1,240.000000596046,8|0,0:0|0:0,0:0:0:0:
364,24,96873,1,10,0:0:0:0:
456,84,97239,2,0,B|496:192|408:224|464:324,1,240.000000596046,8|0,0:0|0:0,0:0:0:0:
360,359,98336,1,2,0:0:0:0:
256,192,98702,12,2,100165,0:0:0:0:
48,160,101080,6,0,P|40:196|16:224,2,71.9999979815482
108,80,101629,2,0,P|184:108|256:76,1,143.999995963096,12|2,0:0|0:0,0:0:0:0:
332,44,102178,1,2,0:0:0:0:
332,44,102361,2,0,P|344:92|332:132,1,71.9999979815482,0|0,0:0|1:0,0:0:0:0:
264,180,102726,2,0,P|256:212|272:264,1,71.9999979815482,10|0,0:0|1:0,0:0:0:0:
316,324,103092,5,8,0:0:0:0:
384,268,103275,1,8,1:0:0:0:
336,196,103458,1,2,0:0:0:0:
263,249,103641,1,2,0:0:0:0:
192,304,103824,2,0,P|161:233|102:212,1,143.999995963096,2|2,1:0|1:0,0:0:0:0:
208,48,104556,5,8,0:0:0:0:
268,120,104739,2,0,P|300:88|340:80,2,71.9999979815482,2|2|2,0:0|0:0|0:0,0:0:0:0:
200,200,105287,2,0,P|268:224|308:216,1,71.9999979815482,0|0,0:0|1:0,0:0:0:0:
350,182,105653,2,0,P|360:222|350:263,1,71.9999979815482,10|0,0:0|1:0,0:0:0:0:
282,322,106019,2,0,L|356:338,2,71.9999979815482,8|8|2,0:0|1:0|0:0,0:0:0:0:
189,305,106568,1,2,0:0:0:0:
101,339,106751,2,0,P|133:275|81:195,1,143.999995963096,2|2,1:0|1:0,0:0:0:0:
260,76,107483,5,12,0:0:0:0:
260,76,107848,2,0,P|304:104|316:128,1,71.9999979815482,0|0,1:0|1:0,0:0:0:0:
164,164,108214,2,0,P|166:111|181:89,1,71.9999979815482,0|0,0:0|1:0,0:0:0:0:
292,200,108580,2,0,P|245:224|218:222,1,71.9999979815482,10|2,0:0|0:0,0:0:0:0:
136,264,108946,2,0,P|112:248|84:196,2,71.9999979815482,8|8|0,0:0|1:0|1:0,0:0:0:0:
216,324,109495,2,0,L|312:324,1,71.9999979815482,2|0,0:0|0:0,0:0:0:0:
400,324,109861,1,0,1:0:0:0:
400,324,110044,2,0,P|404:280|388:232,1,71.9999979815482,2|0,0:0|1:0,0:0:0:0:
364,156,110409,22,0,P|408:136|428:96,1,71.9999979815482,10|0,0:0|1:0,0:0:0:0:
344,4,110775,2,0,P|339:52|363:89,1,71.9999979815482,2|0,0:0|1:0,0:0:0:0:
488,68,111141,2,0,P|448:39|404:42,1,71.9999979815482,0|0,0:0|1:0,0:0:0:0:
348,72,111507,2,0,B|302:58|236:75|236:75|189:57|136:72|136:72|116:124|140:180|140:180|116:224|138:290,1,431.999987889289,10|0,0:0|1:0,0:0:0:0:
216,338,112787,2,0,B|235:368|262:375|262:375|293:365|308:326,1,120.000000298023,2|0,0:0|0:0,0:0:0:0:
336,248,113336,6,0,P|324:212|336:172,1,71.9999979815482,12|0,0:0|1:0,0:0:0:0:
284,88,113702,2,0,P|320:76|360:87,1,71.9999979815482,0|0,1:0|1:0,0:0:0:0:
444,44,114068,2,0,P|456:80|444:120,1,71.9999979815482,0|2,0:0|0:0,0:0:0:0:
496,204,114434,2,0,P|460:216|420:204,1,71.9999979815482,10|2,0:0|0:0,0:0:0:0:
331,179,114800,2,0,P|235:183|175:195,2,143.999995963096,10|2|0,0:0|0:0|0:0,0:0:0:0:
356,272,115714,5,2,0:0:0:0:
284,340,115897,2,0,P|256:332|180:332,1,71.9999979815482,2|0,0:0|1:0,0:0:0:0:
112,320,116263,2,0,L|112:244,1,71.9999979815482,12|0,0:0|1:0,0:0:0:0:
112,152,116629,2,0,L|112:80,1,71.9999979815482,0|0,1:0|1:0,0:0:0:0:
196,24,116995,2,0,P|224:48|232:88,1,71.9999979815482,0|2,0:0|0:0,0:0:0:0:
332,96,117361,2,0,P|325:132|294:159,1,71.9999979815482,10|2,0:0|0:0,0:0:0:0:
208,168,117726,2,0,P|184:240|212:308,2,143.999995963096,10|2|0,0:0|0:0|0:0,0:0:0:0:
272,240,118641,6,0,L|368:228,1,71.9999979815482,2|0,0:0|1:0,0:0:0:0:
444,216,119007,1,0,1:0:0:0:
444,216,119190,2,0,P|456:136|412:68,1,143.999995963096,12|2,0:0|0:0,0:0:0:0:
344,36,119739,1,2,0:0:0:0:
160,88,120104,6,0,P|140:168|168:228,1,143.999995963096,2|0,0:0|1:0,0:0:0:0:
280,200,120653,2,0,P|248:164|196:148,1,71.9999979815482,10|8,0:0|1:0,0:0:0:0:
244,296,121019,2,0,P|276:328|324:340,1,71.9999979815482,2|2,0:0|0:0,0:0:0:0:
396,356,121385,2,0,L|396:276,1,71.9999979815482
396,192,121751,2,0,L|396:116,1,71.9999979815482,2|0,0:0|1:0,0:0:0:0:
324,56,122117,2,0,P|256:72|144:48,1,180.000000447034,12|0,0:0|0:0,0:0:0:0:
84,120,122848,6,0,P|100:152|108:196,1,71.9999979815482
132,278,123214,1,10,0:0:0:0:
216,144,123580,6,0,P|224:188|224:220,1,71.9999979815482,8|0,0:0|1:0,0:0:0:0:
233,307,123946,1,2,0:0:0:0:
412,296,124312,5,8,0:0:0:0:
412,296,124495,2,0,P|408:244|428:208,1,71.9999979815482,8|8,1:0|1:0,0:0:0:0:
456,140,124861,1,8,1:0:0:0:
456,140,125044,2,0,L|276:140,1,143.999995963096,12|2,0:0|0:0,0:0:0:0:
144,68,125775,1,0,0:0:0:0:
200,148,125958,2,0,P|212:180|212:224,1,71.9999979815482,2|0,0:0|1:0,0:0:0:0:
180,304,126324,2,0,L|344:304,1,143.999995963096,2|8,0:0|1:0,0:0:0:0:
412,256,126873,6,0,P|420:224|416:184,1,71.9999979815482,0|2,1:0|0:0,0:0:0:0:
276,172,127239,2,0,P|299:194|336:211,1,71.9999979815482,0|2,0:0|0:0,0:0:0:0:
420,100,127604,2,0,P|388:109|355:132,1,71.9999979815482,2|0,0:0|0:0,0:0:0:0:
280,88,127970,2,0,P|196:72|128:92,1,143.999995963096,12|2,0:0|0:0,0:0:0:0:
8,204,128702,5,0,0:0:0:0:
100,180,128885,2,0,P|108:224|100:252,1,71.9999979815482,2|0,0:0|1:0,0:0:0:0:
92,340,129251,2,0,P|172:308|232:316,1,143.999995963096,2|8,0:0|1:0,0:0:0:0:
312,344,129800,2,0,L|328:272,1,71.9999979815482,0|2,1:0|0:0,0:0:0:0:
412,224,130165,2,0,L|388:156,1,71.9999979815482,0|2,0:0|0:0,0:0:0:0:
300,112,130531,2,0,L|256:188,1,71.9999979815482,2|0,0:0|0:0,0:0:0:0:
184,224,130897,22,0,P|168:144|128:88,2,143.999995963096,12|2|0,0:0|0:0|0:0,0:0:0:0:
120,292,131812,1,0,1:0:0:0:
212,328,131995,2,0,L|308:316,1,71.9999979815482,8|0,0:0|1:0,0:0:0:0:
352,248,132361,2,0,P|428:232|512:232,2,143.999995963096,12|2|0,0:0|0:0|0:0,0:0:0:0:
256,224,133275,5,2,0:0:0:0:
320,152,133458,2,0,P|324:104|316:80,1,71.9999979815482,2|0,0:0|0:0,0:0:0:0:
228,52,133824,2,0,P|252:16|280:0,2,71.9999979815482,10|2|2,0:0|0:0|0:0,0:0:0:0:
120,176,134556,2,0,P|84:152|68:124,2,71.9999979815482,0|2|10,0:0|0:0|0:0,0:0:0:0:
240,284,135287,22,0,P|216:320|188:336,2,71.9999979815482,10|2|2,0:0|0:0|0:0,0:0:0:0:
348,156,136019,2,0,P|384:180|400:208,2,71.9999979815482,0|2|2,0:0|0:0|0:0,0:0:0:0:
228,52,136751,6,0,P|216:84|188:116,1,71.9999979815482,12|0,0:0|1:0,0:0:0:0:
112,168,137117,2,0,P|180:220|180:272,1,143.999995963096,2|0,0:0|0:0,0:0:0:0:
128,356,137665,1,0,1:0:0:0:
224,360,137848,2,0,L|304:360,1,71.9999979815482,8|0,0:0|1:0,0:0:0:0:
376,300,138214,2,0,P|384:260|372:220,1,71.9999979815482,8|8,0:0|1:0,0:0:0:0:
244,224,138580,2,0,P|274:250|315:260,1,71.9999979815482,0|0,0:0|1:0,0:0:0:0:
376,148,138946,2,0,P|337:161|308:191,2,71.9999979815482,0|2|2,0:0|0:0|0:0,0:0:0:0:
200,96,139678,22,0,P|166:100|120:87,1,71.9999979815482,12|0,0:0|0:0,0:0:0:0:
36,104,140044,2,0,P|72:176|44:236,1,143.999995963096,2|0,0:0|0:0,0:0:0:0:
16,324,140592,1,2,0:0:0:0:
16,324,140775,2,0,P|68:324|100:312,1,71.9999979815482,8|2,0:0|0:0,0:0:0:0:
176,272,141141,1,8,0:0:0:0:
176,272,141324,2,0,P|224:268|264:280,1,71.9999979815482,8|0,1:0|0:0,0:0:0:0:
332,328,141690,1,0,1:0:0:0:
340,236,141873,6,0,L|340:156,1,71.9999979815482,0|2,0:0|0:0,0:0:0:0:
344,76,142239,1,2,0:0:0:0:
344,76,142604,2,0,P|234:106|124:80,1,215.999993944645,8|0,0:0|1:0,0:0:0:0:
43,80,143336,2,0,L|59:224,1,143.999995963096
88,312,143885,2,0,P|168:324|248:308,1,143.999995963096,2|8,0:0|1:0,0:0:0:0:
320,284,144434,2,0,P|356:280|396:284,1,71.9999979815482,2|2,0:0|0:0,0:0:0:0:
388,184,144800,2,0,P|352:188|312:184,1,71.9999979815482,0|2,0:0|0:0,0:0:0:0:
236,240,145165,1,2,0:0:0:0:
236,240,145531,22,0,B|168:232|184:176|84:128|24:176|24:176|80:228|188:200,1,360.000000894069,12|10,0:0|0:0,0:0:0:0:
161,304,146812,1,8,1:0:0:0:
161,304,146995,1,8,1:0:0:0:
339,379,147361,2,0,P|383:359|418:356,1,71.9999979815482,0|0,1:0|1:0,0:0:0:0:
467,285,147726,2,0,P|479:249|471:217,1,71.9999979815482,8|8,1:0|1:0,0:0:0:0:
386,174,148092,2,0,P|374:134|390:102,1,71.9999979815482,8|0,1:0|1:0,0:0:0:0:
428,20,148458,6,0,P|340:32|268:28,1,143.999995963096,12|0,0:0|1:0,0:0:0:0:
188,40,149007,2,0,P|196:76|188:112,1,71.9999979815482,2|0,1:0|0:0,0:0:0:0:
94,103,149373,2,0,P|90:135|110:175,1,71.9999979815482,2|0,1:0|1:0,0:0:0:0:
188,220,149739,2,0,P|124:284|136:336,1,143.999995963096,2|8,1:0|1:0,0:0:0:0:
216,300,150287,1,2,0:0:0:0:
288,356,150470,1,2,0:0:0:0:
368,316,150653,2,0,P|400:308|452:308,1,71.9999979815482,0|0,0:0|1:0,0:0:0:0:
488,228,151019,2,0,P|484:196|486:152,1,71.9999979815482,2|0,0:0|1:0,0:0:0:0:
464,64,151385,38,0,P|400:104|336:64,1,143.999995963096,12|0,0:0|1:0,0:0:0:0:
260,32,151934,2,0,L|244:104,1,71.9999979815482,2|0,1:0|0:0,0:0:0:0:
144,96,152300,2,0,L|172:172,1,71.9999979815482,2|0,1:0|1:0,0:0:0:0:
264,200,152665,2,0,P|216:252|116:256,1,143.999995963096,2|8,1:0|1:0,0:0:0:0:
48,272,153214,1,2,0:0:0:0:
104,348,153397,1,2,0:0:0:0:
200,352,153580,2,0,P|248:344|276:344,1,71.9999979815482,0|0,0:0|1:0,0:0:0:0:
364,336,153946,2,0,L|360:256,1,71.9999979815482,2|0,0:0|1:0,0:0:0:0:
408,180,154312,22,0,P|360:144|356:64,1,143.999995963096,12|2,0:0|0:0,0:0:0:0:
448,92,154861,1,2,0:0:0:0:
132,80,155409,38,0,L|112:152,1,71.9999979815482,10|2,0:0|0:0,0:0:0:0:
60,232,155775,2,0,B|128:228|152:280|216:272,1,143.999995963096,10|2,0:0|0:0,0:0:0:0:
296,268,156324,1,2,0:0:0:0:
296,268,156507,2,0,P|300:212|312:180,1,71.9999979815482,0|0,0:0|1:0,0:0:0:0:
408,196,156873,2,0,P|420:228|424:276,1,71.9999979815482,2|0,0:0|1:0,0:0:0:0:
434,364,157239,2,0,B|384:355|358:326|358:326|325:364|247:351,1,180.000000447034,12|0,0:0|0:0,0:0:0:0:
174,336,157970,22,0,P|135:329|100:295,2,71.9999979815482,0|2|10,0:0|0:0|0:0,0:0:0:0:
181,238,158519,1,2,0:0:0:0:
181,238,158702,2,0,P|207:172|167:101,1,143.999995963096,10|2,0:0|0:0,0:0:0:0:
258,40,159251,1,2,0:0:0:0:
258,40,159434,2,0,P|262:84|290:108,1,71.9999979815482,8|8,0:0|1:0,0:0:0:0:
384,76,159800,2,0,P|377:39|354:12,1,71.9999979815482,8|0,1:0|0:0,0:0:0:0:
351,160,160165,38,0,B|348:219|415:230|411:301,1,143.999995963096,12|0,0:0|1:0,0:0:0:0:
436,381,160714,2,0,L|347:365,1,71.9999979815482,2|0,1:0|0:0,0:0:0:0:
315,290,161080,2,0,L|229:304,1,71.9999979815482,2|0,1:0|1:0,0:0:0:0:
154,324,161446,2,0,P|130:256|66:240,1,143.999995963096,2|8,1:0|1:0,0:0:0:0:
17,158,161995,1,2,0:0:0:0:
68,78,162178,1,2,0:0:0:0:
144,136,162361,2,0,P|200:136|224:128,1,71.9999979815482,0|0,0:0|1:0,0:0:0:0:
284,64,162726,2,0,P|336:56|364:56,1,71.9999979815482,2|0,0:0|1:0,0:0:0:0:
316,148,163092,6,0,P|280:224|308:272,1,143.999995963096,12|0,0:0|1:0,0:0:0:0:
388,324,163641,2,0,L|400:248,1,71.9999979815482,2|0,1:0|0:0,0:0:0:0:
472,188,164007,2,0,L|460:112,1,71.9999979815482,2|0,1:0|1:0,0:0:0:0:
392,48,164373,2,0,P|356:84|264:72,1,143.999995963096,2|8,1:0|1:0,0:0:0:0:
184,32,164922,1,2,0:0:0:0:
124,104,165104,1,2,0:0:0:0:
172,184,165287,2,0,P|176:216|164:256,1,71.9999979815482,0|0,0:0|1:0,0:0:0:0:
69,256,165653,2,0,P|77:296|97:328,1,71.9999979815482,2|0,0:0|1:0,0:0:0:0:
184,344,166019,38,0,P|244:306|309:326,1,143.999995963096,12|2,0:0|0:0,0:0:0:0:
400,328,166568,2,0,P|392:248|436:196,1,143.999995963096,2|0,0:0|1:0,0:0:0:0:
512,152,167117,1,10,0:0:0:0:
468,64,167300,1,2,0:0:0:0:
368,56,167483,38,0,P|312:88|224:60,1,143.999995963096,10|2,0:0|0:0,0:0:0:0:
144,52,168031,2,0,P|164:116|104:192,1,143.999995963096,2|0,0:0|1:0,0:0:0:0:
52,240,168580,1,2,0:0:0:0:
264,268,168946,1,12,0:0:0:0:
256,192,169312,12,2,171141,0:0:0:0:
124,116,171873,6,0,P|192:140|220:136,1,96.0000002384184,8|0,0:0|0:0,0:0:0:0:
260,128,172422,2,0,P|316:120|356:120,1,96.0000002384184,2|2,0:0|0:0,0:0:0:0:
412,196,173153,2,0,B|400:248|396:296,1,96.0000002384184,2|0,0:0|0:0,0:0:0:0:
360,324,173702,2,0,P|320:328|296:328,1,48.0000001192092,2|0,0:0|0:0,0:0:0:0:
264,316,174068,2,0,P|200:308|156:312,1,96.0000002384184,2|2,0:0|0:0,0:0:0:0:
72,304,174800,22,0,P|84:248|76:200,1,96.0000002384184,8|0,0:0|0:0,0:0:0:0:
48,168,175348,2,0,P|44:112|56:64,1,96.0000002384184,2|2,0:0|0:0,0:0:0:0:
152,68,176080,2,0,P|212:84|248:76,1,96.0000002384184,2|0,0:0|0:0,0:0:0:0:
292,68,176629,2,0,L|312:120,1,48.0000001192092,2|0,0:0|0:0,0:0:0:0:
340,148,176995,2,0,P|336:208|344:252,1,96.0000002384184,2|2,0:0|0:0,0:0:0:0:
392,324,177726,6,0,P|320:336|292:332,1,96.0000002384184,8|0,0:0|0:0,0:0:0:0:
256,312,178275,2,0,P|192:308|144:312,1,96.0000002384184,2|0,0:0|0:0,0:0:0:0:
112,304,178824,2,0,P|112:256|108:240,1,48.0000001192092,2|2,0:0|0:0,0:0:0:0:
92,212,179190,2,0,P|88:160|92:112,1,96.0000002384184,2|0,0:0|0:0,0:0:0:0:
116,76,179739,1,0,0:0:0:0:
116,76,179922,2,0,P|184:80|220:68,1,96.0000002384184,2|2,0:0|0:0,0:0:0:0:
304,48,180653,22,0,B|312:128|232:172|268:264|340:284|424:248|444:168|364:164|392:84,1,384.000000953674,2|0,0:0|0:0,0:0:0:0:
96,52,182848,38,0,P|80:80|100:116,1,71.9999979815482,2|0,0:0|0:0,0:0:0:0:
160,180,183214,2,0,P|172:208|152:248,1,71.9999979815482,2|0,0:0|0:0,0:0:0:0:
111,332,183580,22,0,P|187:324|271:336,1,143.999995963096,12|0,0:0|1:0,0:0:0:0:
348,348,184129,2,0,L|360:264,1,71.9999979815482,2|0,1:0|0:0,0:0:0:0:
416,204,184495,2,0,L|388:132,1,71.9999979815482,2|0,1:0|1:0,0:0:0:0:
328,68,184861,2,0,P|276:120|208:116,1,143.999995963096,2|8,1:0|1:0,0:0:0:0:
120,80,185409,1,2,0:0:0:0:
80,164,185592,1,2,0:0:0:0:
37,250,185775,2,0,L|117:269,1,71.9999979815482,0|0,0:0|1:0,0:0:0:0:
197,314,186141,2,0,L|279:297,1,71.9999979815482,2|0,0:0|1:0,0:0:0:0:
344,244,186507,6,0,P|284:200|284:136,1,143.999995963096,12|0,0:0|1:0,0:0:0:0:
332,52,187056,2,0,P|360:72|380:112,1,71.9999979815482,2|0,1:0|0:0,0:0:0:0:
464,80,187422,2,0,P|469:113|455:156,1,71.9999979815482,2|0,1:0|1:0,0:0:0:0:
376,196,187787,2,0,P|424:256|392:328,1,143.999995963096,2|8,1:0|1:0,0:0:0:0:
320,352,188336,1,2,0:0:0:0:
236,312,188519,1,2,0:0:0:0:
144,344,188702,2,0,P|136:308|148:272,1,71.9999979815482,0|0,0:0|1:0,0:0:0:0:
192,192,189068,2,0,P|204:148|196:112,1,71.9999979815482,2|0,0:0|1:0,0:0:0:0:
188,28,189434,6,0,P|265:51|324:20,1,143.999995963096,12|2,0:0|0:0,0:0:0:0:
392,84,189983,2,0,P|360:152|396:224,1,143.999995963096,2|0,0:0|1:0,0:0:0:0:
456,272,190531,1,10,0:0:0:0:
392,344,190714,1,2,0:0:0:0:
296,324,190897,6,0,P|264:264|176:252,1,143.999995963096,10|2,0:0|0:0,0:0:0:0:
100,252,191446,2,0,P|116:164|60:116,1,143.999995963096,2|0,0:0|1:0,0:0:0:0:
12,68,191995,1,2,0:0:0:0:
240,80,192361,1,12,0:0:0:0:
256,192,192726,12,2,195287,0:0:0:0:
