osu file format v14

[General]
AudioFilename: Rhythm of the Rain.mp3
AudioLeadIn: 0
PreviewTime: 81265
Countdown: 0
SampleSet: Soft
StackLeniency: 0.7
Mode: 0
LetterboxInBreaks: 0
WidescreenStoryboard: 0

[Editor]
DistanceSpacing: 1.2
BeatDivisor: 4
GridSize: 4
TimelineZoom: 1

[Metadata]
Title:Rhythm of the Rain
TitleUnicode:聽見下雨的聲音
Artist:Jay Chou
ArtistUnicode:周杰倫
Creator:bossandy
Version:Hard
Source:聽見下雨的聲音
Tags:哎呦,不錯哦 方文山 Vincent Fang 黃雨勳 Ting Jian Xia Yu De Sheng Yin kittyadventure gokugohan12468
BeatmapID:796687
BeatmapSetID:362752

[Difficulty]
HPDrainRate:6
CircleSize:4
OverallDifficulty:6
ApproachRate:7.5
SliderMultiplier:1.8
SliderTickRate:2

[Events]
//Background and Video events
Video,-5295,"video.avi"
0,0,"rain.jpg",0,0
//Break Periods
2,128209,143928
//Storyboard Layer 0 (Background)
//Storyboard Layer 1 (Fail)
//Storyboard Layer 2 (Pass)
//Storyboard Layer 3 (Foreground)
//Storyboard Sound Samples

[TimingPoints]
2428,697.674418604651,4,2,1,30,1,0
35917,-100,4,2,2,50,0,0
67312,-100,4,2,3,40,0,0
67486,-100,4,2,2,50,0,0
68707,-100,4,2,2,40,0,0
69055,-100,4,2,2,50,0,0
81614,-100,4,2,2,45,0,0
81962,-100,4,2,2,50,0,0
82311,-100,4,2,2,55,0,0
82660,-100,4,2,2,60,0,0
83009,-100,4,2,2,65,0,0
83358,-100,4,2,2,70,0,1
102893,-100,4,2,2,70,0,1
103590,-100,4,2,2,70,0,1
110567,-100,4,2,2,60,0,1
110916,-100,4,2,2,70,0,1
116148,-100,4,2,2,60,0,1
116497,-100,4,2,2,70,0,1
126265,-100,4,2,2,50,0,1
128009,-100,4,2,2,70,0,0
144753,-100,4,2,1,30,0,0
149637,-100,4,2,1,20,0,0
150334,-100,4,2,1,30,0,0
160800,-100,4,2,2,50,0,0
181730,-100,4,2,3,50,0,0
182079,-100,4,2,2,50,0,0
183125,-100,4,2,2,40,0,0
183474,-100,4,2,2,50,0,0
195334,-100,4,2,2,35,0,0
195683,-100,4,2,2,40,0,0
196032,-100,4,2,2,45,0,0
196381,-100,4,2,2,50,0,0
196730,-100,4,2,2,55,0,0
197079,-100,4,2,2,60,0,0
197427,-100,4,2,2,65,0,0
197776,-100,4,2,2,70,0,1
208241,-100,4,2,2,60,0,1
208590,-100,4,2,2,70,0,1
219404,-100,4,2,2,70,0,0
221498,697.674418604651,4,2,2,70,1,1
221498,-100,4,2,2,70,0,1
226381,-100,4,2,2,60,0,1
226730,-100,4,2,2,70,0,1
231963,-100,4,2,2,60,0,1
232137,-100,4,2,2,70,0,1
243823,-100,4,2,2,70,0,0
248707,-100,4,2,2,60,0,0
249056,-100,4,2,2,70,0,0
263358,-100,4,2,2,70,0,0
264753,-100,4,2,2,55,0,0
265451,-100,4,2,2,50,0,0
266149,-100,4,2,2,45,0,0
266846,-100,4,2,2,40,0,0
267544,-100,4,2,2,35,0,0
268242,-100,4,2,2,30,0,0
268939,-100,4,2,2,25,0,0
269637,-100,4,2,2,20,0,0
270335,-100,4,2,2,15,0,0
271032,-100,4,2,2,10,0,0
271730,-100,4,2,2,5,0,0

[Colours]
Combo1 : 255,228,149
Combo2 : 128,255,128
Combo3 : 113,176,255
Combo4 : 248,129,147

[HitObjects]
224,132,2428,6,0,L|136:112,1,90,0|2,0:0|0:0,0:0:0:0:
60,140,3125,1,0,0:0:0:0:
288,252,3823,2,0,L|376:272,1,90,0|2,0:0|0:0,0:0:0:0:
452,244,4521,1,0,0:0:0:0:
328,136,5218,5,0,0:0:0:0:
256,96,5567,1,2,0:0:0:0:
184,56,5916,1,0,0:0:0:0:
184,248,6614,1,0,0:0:0:0:
256,288,6962,1,2,0:0:0:0:
328,328,7311,1,0,0:0:0:0:
184,132,8009,6,0,P|136:144|105:174,1,90,0|2,0:0|0:0,0:0:0:0:
84,248,8707,1,0,0:0:0:0:
328,252,9404,2,0,P|376:240|407:210,1,90,0|2,0:0|0:0,0:0:0:0:
428,136,10102,1,0,0:0:0:0:
248,236,10800,5,0,0:0:0:0:
276,312,11148,1,2,0:0:0:0:
356,332,11497,1,0,0:0:0:0:
264,148,12195,1,0,0:0:0:0:
236,72,12543,1,2,0:0:0:0:
156,52,12892,1,0,0:0:0:0:
92,100,13241,1,0,0:0:0:0:
149,212,13590,6,0,P|191:225|245:228,1,90
448,192,14288,2,0,P|405:178|352:176,1,90,2|0,0:0|0:0,0:0:0:0:
312,240,14986,1,0,0:0:0:0:
256,124,15334,2,0,L|284:24,2,90,0|2|0,0:0|0:0|0:0,0:0:0:0:
164,216,16381,6,0,P|91:213|8:140,1,180,0|2,0:0|0:0,0:0:0:0:
44,72,17427,1,0,0:0:0:0:
84,0,17776,2,0,P|156:2|240:76,1,180,0|2,0:0|0:0,0:0:0:0:
200,140,18823,1,0,0:0:0:0:
164,212,19172,6,0,B|160:260|160:260|176:328,1,90,0|0,0:0|0:0,0:0:0:0:
328,340,19869,2,0,L|220:360,1,90,2|0,0:0|0:0,0:0:0:0:
312,256,20567,1,0,0:0:0:0:
412,328,20916,1,0,0:0:0:0:
312,256,21265,2,0,P|298:205|304:160,1,90,2|0,0:0|0:0,0:0:0:0:
360,28,21962,6,0,B|348:76|376:112|376:112|400:152|384:204,1,180,0|2,0:0|0:0,0:0:0:0:
301,168,23009,1,0,0:0:0:0:
244,304,23358,2,0,B|256:256|228:220|228:220|204:180|220:128,1,180,0|2,0:0|0:0,0:0:0:0:
301,168,24404,1,0,0:0:0:0:
160,272,24753,5,0,0:0:0:0:
100,328,25102,1,0,0:0:0:0:
76,252,25451,2,0,L|52:164,1,90,2|0,0:0|0:0,0:0:0:0:
72,88,26148,2,0,P|110:65|154:63,1,90,0|0,0:0|0:0,0:0:0:0:
220,172,26846,2,0,P|175:170|137:147,1,90,2|0,0:0|0:0,0:0:0:0:
288,124,27544,5,0,0:0:0:0:
328,196,27893,1,0,0:0:0:0:
408,216,28241,2,0,P|444:192|464:148,1,90,2|0,0:0|0:0,0:0:0:0:
328,196,28939,1,0,0:0:0:0:
380,136,29288,1,0,0:0:0:0:
352,276,29637,2,0,P|304:278|267:255,1,90,2|0,0:0|0:0,0:0:0:0:
216,196,30334,6,0,B|168:184|132:216|132:216|96:244|32:224,2,180,0|2|0,0:0|0:0|0:0,0:0:0:0:
192,276,32079,1,0,0:0:0:0:
256,324,32427,1,2,0:0:0:0:
320,276,32776,1,0,0:0:0:0:
296,196,33125,6,0,B|344:184|380:216|380:216|416:244|480:224,2,180,0|2|0,0:0|0:0|0:0,0:0:0:0:
432,148,34869,2,0,P|456:142|482:143,2,45,0|0|4,0:0|0:0|0:3,0:0:0:0:
320,280,35567,1,0,0:0:0:0:
216,196,35916,6,0,P|204:156|208:108,1,90,6|0,0:0|0:0,0:0:0:0:
112,56,36614,1,8,0:0:0:0:
60,152,36962,2,0,L|40:192,1,45,0|2,0:0|0:0,0:0:0:0:
104,248,37311,2,0,P|94:296|72:332,1,90,0|2,0:0|0:0,0:0:0:0:
180,176,38009,2,0,P|202:220|204:264,1,90,8|0,0:0|0:0,0:0:0:0:
76,144,38707,5,2,0:0:0:0:
192,72,39055,1,0,0:0:0:0:
56,48,39404,1,8,0:0:0:0:
192,72,39753,2,0,L|248:40,2,45,0|2|0,0:0|0:0|0:0,0:0:0:0:
76,144,40451,1,2,0:0:0:0:
216,160,40800,2,0,L|294:115,1,90,8|0,0:0|0:0,0:0:0:0:
464,60,41497,6,0,L|448:168,1,90,2|0,0:0|0:0,0:0:0:0:
436,256,42195,1,8,0:0:0:0:
294,115,42544,1,0,0:0:0:0:
294,115,42718,1,2,0:0:0:0:
294,115,42893,1,0,0:0:0:0:
436,256,43241,1,2,0:0:0:0:
368,132,43590,1,8,0:0:0:0:
248,208,43939,1,0,0:0:0:0:
316,332,44288,6,0,L|408:344,2,90,2|0|8,0:0|0:0|0:0,0:0:0:0:
248,208,45334,2,0,L|196:200,1,45,0|2,0:0|0:0,0:0:0:0:
168,196,45683,2,0,L|152:104,1,90,0|2,0:0|0:0,0:0:0:0:
144,280,46381,2,0,L|160:372,1,90,8|2,0:0|0:3,0:0:0:0:
80,216,47079,6,0,L|49:38,1,180,6|8,0:0|0:0,0:0:0:0:
160,100,48125,1,0,0:0:0:0:
176,88,48300,1,2,0:0:0:0:
192,76,48474,1,0,0:0:0:0:
296,104,48823,1,2,0:0:0:0:
372,28,49172,2,0,P|418:11|461:12,1,90,8|2,0:0|0:3,0:0:0:0:
436,124,49869,6,0,L|452:220,1,90,2|0,0:0|0:0,0:0:0:0:
316,340,50567,2,0,L|330:251,1,90,8|0,0:0|0:0,0:0:0:0:
336,228,51090,1,2,0:0:0:0:
340,204,51265,1,0,0:0:0:0:
268,120,51614,2,0,L|172:108,2,90,2|8|2,0:0|0:0|0:3,0:0:0:0:
228,24,52660,6,0,B|164:16|164:16|116:32|116:32|52:24,1,180,2|8,0:0|0:0,0:0:0:0:
44,132,53707,2,0,L|40:188,2,45,0|2|0,0:0|0:0|0:0,0:0:0:0:
96,260,54404,1,2,0:0:0:0:
188,212,54753,2,0,P|232:212|280:232,1,90,8|2,0:0|0:3,0:0:0:0:
348,308,55451,6,0,P|392:304|444:264,1,90,2|0,0:0|0:0,0:0:0:0:
483,96,56148,2,0,P|439:100|387:140,1,90,8|0,0:0|0:0,0:0:0:0:
344,176,56672,1,2,0:0:0:0:
416,200,56846,2,0,P|438:195|460:180,2,45,0|8|2,0:0|0:0|0:3,0:0:0:0:
380,40,57544,2,0,P|358:45|336:60,2,45,8|8|8,0:0|0:0|0:3,0:0:0:0:
256,124,58241,6,0,P|150:130|112:72,1,180,6|8,0:0|0:0,0:0:0:0:
40,236,59288,1,0,0:0:0:0:
40,236,59462,1,2,0:0:0:0:
40,236,59637,2,0,B|52:252|60:272|60:272|68:292|88:312,1,90,0|2,0:0|0:0,0:0:0:0:
271,351,60334,2,0,P|238:322|194:312,1,90,8|0,0:0|0:0,0:0:0:0:
380,348,61032,6,0,B|420:296|384:240|384:240|408:260|452:252,1,180,2|8,0:0|0:0,0:0:0:0:
324,180,62079,2,0,L|252:184,2,45,0|2|0,0:0|0:0|0:0,0:0:0:0:
432,176,62776,1,2,0:0:0:0:
376,84,63125,1,8,0:0:0:0:
432,176,63474,1,0,0:0:0:0:
256,64,63823,6,0,P|132:48|64:84,1,180,2|8,0:0|0:0,0:0:0:0:
32,164,64869,1,0,0:0:0:0:
32,164,65044,1,2,0:0:0:0:
32,164,65218,1,0,0:0:0:0:
72,260,65567,1,2,0:0:0:0:
140,176,65916,1,8,0:0:0:0:
180,352,66265,1,0,0:0:0:0:
308,252,66614,6,0,P|428:260|328:332,1,315,2|2,0:0|0:0,0:0:0:0:
300,328,68009,1,2,0:0:0:0:
272,328,68183,1,8,0:0:0:0:
240,336,68358,2,0,P|188:340|136:308,1,90,2|12,0:0|0:0,0:0:0:0:
48,184,69055,2,0,L|56:128,1,45,8|8,0:0|0:0,0:0:0:0:
144,80,69404,6,0,L|124:264,1,180,6|8,0:0|0:0,0:0:0:0:
48,332,70451,2,0,L|-8:324,2,45,0|2|0,0:0|0:0|0:0,0:0:0:0:
156,344,71148,1,2,0:0:0:0:
256,299,71497,2,0,P|271:258|272:213,1,90,8|0,0:0|0:0,0:0:0:0:
336,352,72195,6,0,P|364:276|356:176,1,180,2|8,0:0|0:0,0:0:0:0:
448,44,73241,1,0,0:0:0:0:
448,44,73416,1,2,0:0:0:0:
448,44,73590,1,0,0:0:0:0:
472,152,73939,1,2,0:0:0:0:
332,72,74288,2,0,L|240:88,1,90,8|0,0:0|0:0,0:0:0:0:
56,100,74986,6,0,P|96:174|180:165,1,180,6|8,0:0|0:0,0:0:0:0:
328,232,76032,1,0,0:0:0:0:
328,232,76207,1,2,0:0:0:0:
328,232,76381,2,0,L|392:228,2,45,2|8|2,0:0|0:0|0:0,0:0:0:0:
172,304,77079,2,0,L|80:312,1,90,8|0,0:0|0:0,0:0:0:0:
288,340,77776,5,6,0:0:0:0:
256,192,77951,12,4,80567,0:0:0:0:
444,140,81614,5,0,1:0:0:0:
342,99,81962,1,0,1:0:0:0:
364,205,82311,1,0,1:0:0:0:
464,248,82660,1,0,1:0:0:0:
421,34,83009,1,0,1:0:0:0:
256,176,83358,6,0,L|296:364,1,180,6|8,0:0|0:0,0:0:0:0:
152,280,84404,1,0,0:0:0:0:
156,268,84579,1,2,0:0:0:0:
160,256,84753,2,0,L|144:156,1,90,2|2,0:0|0:0,0:0:0:0:
44,160,85451,2,0,L|60:260,1,90,8|0,0:0|0:0,0:0:0:0:
136,100,86148,5,2,0:0:0:0:
236,144,86497,1,0,0:0:0:0:
224,36,86846,1,8,0:0:0:0:
48,56,87195,1,0,0:0:0:0:
48,56,87369,1,2,0:0:0:0:
48,56,87544,2,0,L|-4:44,2,45,2|8|2,0:0|0:0|0:0,0:0:0:0:
145,167,88241,2,0,L|249:139,1,90,8|0,0:0|0:0,0:0:0:0:
488,100,88939,6,0,B|424:113|424:113|375:101|375:101|312:115,1,180,2|8,0:0|0:0,0:0:0:0:
176,76,89986,2,0,L|184:32,2,45,0|2|2,0:0|0:0|0:0,0:0:0:0:
40,120,90683,1,2,0:0:0:0:
80,244,91032,2,0,L|64:344,1,90,8|0,0:0|0:0,0:0:0:0:
124,160,91730,5,2,0:0:0:0:
0,204,92079,1,0,0:0:0:0:
124,160,92427,1,8,0:0:0:0:
220,252,92776,2,0,L|244:296,1,45,0|2,0:0|0:0,0:0:0:0:
325,313,93125,2,0,L|348:352,2,45,2|0|2,0:0|0:0|0:0,0:0:0:0:
224,148,93823,1,8,0:0:0:0:
140,244,94172,1,2,0:0:0:0:
325,313,94521,6,0,B|361:280|375:239|375:239|375:137,1,180,6|8,0:0|0:0,0:0:0:0:
232,180,95567,2,0,L|188:188,2,45,0|2|2,0:0|0:0|0:0,0:0:0:0:
156,272,96265,2,0,P|116:244|96:200,2,90,2|8|0,0:0|0:0|0:0,0:0:0:0:
60,312,97311,6,0,P|12:216|16:136,1,180,2|8,0:0|0:0,0:0:0:0:
132,44,98358,1,0,0:0:0:0:
132,44,98532,1,2,0:0:0:0:
132,44,98707,1,2,0:0:0:0:
276,100,99055,2,0,P|320:96|360:72,2,90,2|8|0,0:0|0:0|0:0,0:0:0:0:
232,284,100102,6,0,L|188:104,1,180,6|8,0:0|0:0,0:0:0:0:
268,32,101148,1,0,0:0:0:0:
268,32,101323,1,2,0:0:0:0:
268,32,101497,1,2,0:0:0:0:
428,84,101846,2,0,P|384:104|324:92,2,90,2|8|0,0:0|0:0|0:0,0:0:0:0:
268,32,102893,6,0,P|264:160|312:200,1,180,6|8,0:0|0:0,0:0:0:0:
396,228,103939,1,0,0:0:0:0:
420,256,104114,1,2,0:0:0:0:
424,292,104288,2,0,P|422:314|416:336,1,45,2|8,0:0|0:0,0:0:0:0:
380,344,104637,2,0,P|332:344|284:364,1,90,2|8,0:0|0:0,0:0:0:0:
252,376,105160,2,0,P|221:371|204:364,1,45,2|2,0:0|0:0,0:0:0:0:
108,248,105683,6,0,P|164:200|156:284,1,180,6|8,0:0|0:0,0:0:0:0:
56,308,106730,2,0,P|38:291|28:264,2,45,0|2|2,0:0|0:0|0:0,0:0:0:0:
144,368,107427,1,2,0:0:0:0:
244,328,107776,2,0,L|336:336,1,90,8|0,0:0|0:0,0:0:0:0:
440,320,108474,6,0,P|468:284|472:228,2,90,2|0|8,0:0|0:0|0:0,0:0:0:0:
384,132,109521,1,0,0:0:0:0:
388,156,109695,1,2,0:0:0:0:
392,180,109869,2,0,L|288:208,1,90,2|2,0:0|0:0,0:0:0:0:
372,52,110567,2,0,L|476:24,1,90,12|0,0:2|0:0,0:0:0:0:
305,203,111265,6,0,P|216:168|200:92,1,180,6|8,0:0|0:0,0:0:0:0:
88,152,112311,2,0,P|106:133|116:112,1,45,0|2,0:0|0:0,0:0:0:0:
96,32,112660,1,2,0:0:0:0:
8,112,113009,1,2,0:0:0:0:
96,32,113358,1,8,0:0:0:0:
199,92,113707,1,0,0:0:0:0:
312,52,114055,6,0,P|400:64|456:132,1,180,2|8,0:0|0:0,0:0:0:0:
420,308,115102,2,0,L|416:256,1,45,0|2,0:0|0:0,0:0:0:0:
328,188,115451,2,0,L|332:240,2,45,2|8|2,0:0|0:0|0:0,0:0:0:0:
272,312,116148,2,0,L|180:288,1,90,12|0,0:0|0:0,0:0:0:0:
104,268,116672,1,8,0:0:0:0:
36,316,116846,6,0,B|-2:241|-2:241|8:128,1,180,6|8,0:0|0:0,0:0:0:0:
100,96,117893,2,0,L|92:168,2,45,0|2|2,0:0|0:0|0:0,0:0:0:0:
180,172,118590,2,0,L|192:68,2,90,2|8|0,0:0|0:0|0:0,0:0:0:0:
336,215,119637,6,0,P|293:229|248:225,2,90,2|0|8,0:0|0:0|0:0,0:0:0:0:
368,112,120683,1,0,0:0:0:0:
368,112,120858,1,2,0:0:0:0:
368,112,121032,1,2,0:0:0:0:
440,192,121381,1,2,0:0:0:0:
472,88,121730,1,8,0:0:0:0:
456,272,122079,1,0,0:0:0:0:
368,112,122427,6,0,P|321:80|200:124,1,180,6|8,0:0|0:0,0:0:0:0:
128,184,123474,2,0,L|84:152,2,45,0|2|2,0:0|0:0|0:0,0:0:0:0:
164,288,124172,1,2,0:0:0:0:
68,336,124521,1,8,0:0:0:0:
164,288,124869,1,2,0:0:0:0:
272,308,125218,6,0,P|315:306|360:288,1,90,6|8,0:0|0:0,0:0:0:0:
404,224,125741,1,2,0:0:0:0:
436,148,125916,2,0,L|444:96,1,45,8|4,0:3|0:3,0:0:0:0:
360,92,126265,2,0,L|352:144,1,45,4|4,0:3|0:3,0:0:0:0:
280,172,126614,6,0,L|272:224,2,45,8|4|4,0:3|0:3|0:3,0:0:0:0:
224,112,127137,2,0,L|217:60,2,45,4|4|4,0:3|0:3|0:3,0:0:0:0:
160,164,127660,2,0,L|152:216,1,45,4|4,0:3|0:3,0:0:0:0:
92,264,128009,5,4,0:0:0:0:
256,192,144753,12,8,149637,0:1:0:0:
216,136,150334,5,4,0:0:0:0:
156,96,150683,1,2,0:0:0:0:
96,56,151032,1,0,0:0:0:0:
216,248,151730,1,0,0:0:0:0:
156,288,152079,1,2,0:0:0:0:
96,328,152427,1,0,0:0:0:0:
296,136,153125,5,0,0:0:0:0:
356,96,153474,1,2,0:0:0:0:
416,56,153823,1,0,0:0:0:0:
296,248,154521,1,0,0:0:0:0:
356,288,154869,1,2,0:0:0:0:
416,328,155218,1,0,0:0:0:0:
424,256,155567,1,0,0:0:0:0:
432,184,155916,6,0,L|440:92,2,90,0|2|0,0:0|0:0|0:0,0:0:0:0:
364,216,156962,1,0,0:0:0:0:
296,248,157311,2,0,L|288:340,2,90,0|2|0,0:0|0:0|0:0,0:0:0:0:
228,212,158358,1,0,0:0:0:0:
164,176,158707,6,0,L|76:196,2,90,0|2|0,0:0|0:0|0:0,0:0:0:0:
164,176,160102,2,0,P|181:135|184:80,1,90,0|2,0:0|0:0,0:0:0:0:
280,36,160800,2,0,L|314:64,2,45,8|8|4,0:0|0:0|0:3,0:0:0:0:
384,128,161497,6,0,P|412:216|352:300,1,180,6|8,0:0|0:0,0:0:0:0:
304,200,162544,2,0,L|276:160,2,45,0|2|0,0:0|0:0|0:0,0:0:0:0:
260,300,163241,1,2,0:0:0:0:
152,296,163590,2,0,P|112:267|87:234,1,90,8|0,0:0|0:0,0:0:0:0:
56,132,164288,6,0,P|76:87|81:46,2,90,2|0|8,0:0|0:0|0:0,0:0:0:0:
216,76,165334,1,0,0:0:0:0:
232,84,165509,1,2,0:0:0:0:
248,92,165683,2,0,P|296:88|328:56,1,90,0|2,0:0|0:0,0:0:0:0:
380,224,166381,1,8,0:0:0:0:
452,144,166730,1,2,0:3:0:0:
440,316,167079,6,0,P|360:336|276:260,1,180,2|8,0:0|0:0,0:0:0:0:
260,176,168125,1,0,0:0:0:0:
260,176,168300,1,2,0:0:0:0:
260,176,168474,2,0,L|164:168,1,90,0|2,0:0|0:0,0:0:0:0:
380,224,169172,2,0,L|476:232,1,90,8|2,0:0|0:3,0:0:0:0:
352,124,169869,5,2,0:0:0:0:
285,282,170218,1,0,0:0:0:0:
380,224,170567,1,8,0:0:0:0:
260,176,170916,2,0,L|192:148,1,45,0|2,0:0|0:0,0:0:0:0:
140,128,171265,1,2,0:0:0:0:
140,128,171439,1,8,0:0:0:0:
140,128,171614,1,2,0:0:0:0:
72,44,171962,1,10,0:1:0:0:
152,240,172311,1,8,0:3:0:0:
280,100,172660,6,0,P|366:71|440:140,1,180,6|8,0:0|0:0,0:0:0:0:
352,192,173707,1,0,0:0:0:0:
352,192,173881,1,2,0:0:0:0:
352,192,174055,1,0,0:0:0:0:
416,276,174404,2,0,L|412:368,1,90,2|8,0:0|0:0,0:0:0:0:
352,192,175102,1,0,0:0:0:0:
276,272,175451,6,0,P|188:296|112:252,1,180,2|8,0:0|0:0,0:0:0:0:
40,332,176497,2,0,L|20:272,1,45,0|2,0:0|0:0,0:0:0:0:
0,212,176846,2,0,P|20:180|24:128,1,90,0|2,0:0|0:0,0:0:0:0:
0,24,177544,1,8,0:0:0:0:
24,128,177893,1,0,0:0:0:0:
128,104,178241,6,0,B|192:96|192:96|240:112|240:112|304:104,1,180,2|8,0:0|0:0,0:0:0:0:
412,80,179288,2,0,L|456:72,2,45,0|2|0,0:0|0:0|0:0,0:0:0:0:
376,184,179986,2,0,L|288:200,2,90,2|8|0,0:0|0:0|0:0,0:0:0:0:
448,264,181032,6,0,P|360:372|224:303,1,315,2|2,0:0|0:0,0:0:0:0:
219,281,182427,1,2,0:0:0:0:
220,258,182602,1,8,0:0:0:0:
227,236,182776,2,0,P|232:188|216:144,1,90,2|12,0:0|0:0,0:0:0:0:
100,200,183474,1,0,0:0:0:0:
16,56,183823,6,0,P|108:92|200:64,1,180,6|8,0:0|0:0,0:0:0:0:
276,16,184869,2,0,L|336:12,1,45,0|2,0:0|0:0,0:0:0:0:
344,88,185218,2,0,P|376:120|420:132,1,90,0|2,0:0|0:0,0:0:0:0:
496,216,185916,2,0,L|512:120,1,90,8|0,0:0|0:0,0:0:0:0:
428,284,186614,6,0,P|330:297|260:256,1,180,2|8,0:0|0:0,0:0:0:0:
212,164,187660,1,0,0:0:0:0:
212,164,187834,1,2,0:0:0:0:
212,164,188009,1,0,0:0:0:0:
332,168,188358,1,2,0:0:0:0:
152,276,188707,2,0,L|56:252,1,90,8|0,0:0|0:0,0:0:0:0:
236,368,189404,6,0,P|336:372|368:300,1,180,6|8,0:0|0:0,0:0:0:0:
464,264,190451,1,0,0:0:0:0:
464,264,190625,1,2,0:0:0:0:
464,264,190800,2,0,L|508:268,2,45,2|8|2,0:0|0:0|0:0,0:0:0:0:
380,196,191497,1,8,0:0:0:0:
284,248,191846,1,0,0:0:0:0:
212,104,192195,5,4,0:0:0:0:
256,192,192544,12,4,194986,0:0:0:0:
460,208,195683,5,0,1:0:0:0:
408,112,196032,1,0,1:0:0:0:
344,256,196381,5,0,1:0:0:0:
408,112,196730,1,0,1:0:0:0:
256,68,197079,2,0,L|240:112,1,45,8|8,1:2|1:2,0:0:0:0:
196,216,197427,2,0,L|240:236,1,45,8|8,1:2|1:2,0:0:0:0:
428,312,197776,6,0,P|352:356|264:320,1,180,6|8,0:0|0:0,0:0:0:0:
228,228,198823,2,0,L|215:180,1,45,0|2,0:0|0:0,0:0:0:0:
135,179,199172,2,0,L|158:267,1,90,2|2,0:0|0:0,0:0:0:0:
56,176,199869,1,8,0:0:0:0:
84,304,200218,1,0,0:0:0:0:
180,352,200567,6,0,L|280:336,2,90,2|0|8,0:0|0:0|0:0,0:0:0:0:
92,196,201614,1,0,0:0:0:0:
92,196,201788,1,2,0:0:0:0:
92,196,201962,2,0,P|52:224|32:264,1,90,2|2,0:0|0:0,0:0:0:0:
200,208,202660,1,8,0:0:0:0:
156,108,203009,1,0,0:0:0:0:
316,244,203358,6,0,P|412:252|456:184,1,180,2|8,0:0|0:0,0:0:0:0:
288,144,204404,1,0,0:0:0:0:
288,144,204579,1,2,0:0:0:0:
288,144,204753,2,0,L|308:36,1,90,2|2,0:0|0:0,0:0:0:0:
316,244,205451,2,0,L|399:315,1,90,8|0,0:0|0:0,0:0:0:0:
220,224,206148,6,0,L|116:260,2,90,2|0|8,0:0|0:0|0:0,0:0:0:0:
164,96,207195,1,0,0:0:0:0:
153,73,207369,1,2,0:0:0:0:
143,50,207544,2,0,L|120:4,2,45,2|8|2,0:0|0:0|0:0,0:0:0:0:
244,88,208241,1,12,0:0:0:0:
96,164,208590,1,2,0:0:0:0:
224,256,208939,6,0,P|316:256|376:192,1,180,6|8,0:0|0:0,0:0:0:0:
408,92,209986,2,0,L|412:44,2,45,0|2|2,0:0|0:0|0:0,0:0:0:0:
304,120,210683,2,0,L|312:28,2,90,2|8|0,0:0|0:0|0:0,0:0:0:0:
220,188,211730,6,0,B|172:200|136:168|136:168|100:140|48:152,1,180,2|8,0:0|0:0,0:0:0:0:
76,256,212776,1,0,0:0:0:0:
76,256,212951,1,2,0:0:0:0:
76,256,213125,1,2,0:0:0:0:
12,344,213474,1,2,0:0:0:0:
184,272,213823,2,0,L|276:284,1,90,8|0,0:0|0:0,0:0:0:0:
352,360,214521,6,0,P|452:348|492:284,1,180,6|8,0:0|0:0,0:0:0:0:
460,184,215567,2,0,L|472:140,2,45,0|2|2,0:0|0:0|0:0,0:0:0:0:
392,268,216265,1,2,0:0:0:0:
340,172,216614,2,0,L|368:64,1,90,8|0,0:0|0:0,0:0:0:0:
468,72,217311,5,6,0:0:0:0:
380,8,217660,1,0,0:0:0:0:
276,32,218009,1,8,0:0:0:0:
252,136,218358,5,4,0:3:0:0:
364,252,218707,1,4,0:3:0:0:
216,320,219055,1,4,0:3:0:0:
108,200,219404,1,4,0:3:0:0:
88,220,221498,6,0,P|82:109|160:60,1,180,6|8,0:0|0:0,0:0:0:0:
300,180,222544,1,0,0:0:0:0:
300,180,222718,1,2,0:0:0:0:
300,180,222893,2,0,P|254:175|208:140,1,90,2|2,0:0|0:0,0:0:0:0:
372,116,223591,2,0,P|390:157|383:215,1,90,8|0,0:0|0:0,0:0:0:0:
328,36,224288,6,0,B|412:12|476:84|468:148,1,180,2|8,0:0|0:0,0:0:0:0:
336,260,225335,1,0,0:0:0:0:
304,252,225509,1,2,0:0:0:0:
272,260,225684,2,0,L|220:268,1,45,2|8,0:0|0:0,0:0:0:0:
196,260,226032,2,0,B|168:256|168:256|136:268|136:268|108:260,2,90,2|12|0,0:0|0:0|0:0,0:0:0:0:
112,352,227079,6,0,B|104:288|104:288|120:240|120:240|112:176,1,180,6|8,0:0|0:0,0:0:0:0:
4,112,228125,2,0,L|-3:52,1,45,0|2,0:0|0:0,0:0:0:0:
0,67,228474,2,0,L|112:96,1,90,2|2,0:0|0:0,0:0:0:0:
256,84,229172,2,0,P|210:106|148:108,1,90,8|0,0:0|0:0,0:0:0:0:
336,32,229870,6,0,L|320:216,1,180,2|8,0:0|0:0,0:0:0:0:
432,124,230916,1,0,0:0:0:0:
432,124,231091,1,2,0:0:0:0:
432,124,231265,2,0,L|436:76,2,45,2|10|2,0:0|0:0|0:0,0:0:0:0:
420,248,231963,2,0,L|412:316,1,45,12|2,0:0|0:0,0:0:0:0:
336,308,232311,2,0,L|300:336,1,45,2|8,0:0|0:0,0:0:0:0:
232,288,232660,6,0,B|144:304|144:304|64:256,1,180,6|8,0:0|0:0,0:0:0:0:
140,156,233707,2,0,P|142:107|140:92,2,45,0|2|2,0:0|0:0|0:0,0:0:0:0:
232,288,234404,2,0,P|229:336|240:380,2,90,2|8|0,0:0|0:0|0:0,0:0:0:0:
392,244,235451,6,0,P|448:180|436:72,1,180,2|8,0:0|0:0,0:0:0:0:
324,56,236498,2,0,L|260:36,1,45,0|2,0:0|0:0,0:0:0:0:
252,124,236846,2,0,L|152:160,1,90,2|2,0:0|0:0,0:0:0:0:
40,292,237544,2,0,P|12:246|8:188,1,90,8|0,0:0|0:0,0:0:0:0:
144,272,238242,6,0,P|256:284|304:352,1,180,6|8,0:0|0:0,0:0:0:0:
420,320,239288,1,0,0:0:0:0:
420,320,239463,1,2,0:0:0:0:
420,320,239637,1,2,0:0:0:0:
464,200,239986,1,2,0:0:0:0:
360,132,240335,2,0,P|318:146|271:143,1,90,8|0,0:0|0:0,0:0:0:0:
172,48,241032,6,0,P|146:39|127:37,1,45,4|8,0:0|0:0,0:0:0:0:
92,36,241381,1,0,0:0:0:0:
56,44,241556,1,0,0:0:0:0:
28,68,241730,2,0,P|16:112|24:160,1,90,8|8,0:0|0:0,0:0:0:0:
40,188,242253,1,8,0:0:0:0:
68,212,242428,6,0,L|80:264,2,45,0|8|8,0:0|0:0|0:0,0:0:0:0:
144,204,242951,2,0,L|154:161,2,45,8|8|4,0:0|0:0|0:3,0:0:0:0:
196,260,243474,2,0,L|208:312,1,45,4|4,0:3|0:3,0:0:0:0:
280,288,243823,6,0,P|325:289|376:316,2,90,6|2|8,0:0|0:0|0:0,0:0:0:0:
244,184,244870,1,2,0:0:0:0:
344,144,245218,2,0,L|428:104,1,90,2|2,0:0|0:0,0:0:0:0:
256,84,245916,2,0,L|264:-12,1,90,8|2,0:0|0:0,0:0:0:0:
244,184,246614,5,2,0:0:0:0:
156,120,246963,1,2,0:0:0:0:
140,228,247311,1,8,0:0:0:0:
52,164,247660,1,0,0:0:0:0:
52,164,247835,1,2,0:0:0:0:
52,164,248009,1,2,0:0:0:0:
140,228,248358,1,2,0:0:0:0:
220,84,248707,1,12,0:0:0:0:
296,232,249056,1,2,0:0:0:0:
392,192,249404,6,0,L|480:208,2,90,6|2|8,0:0|0:0|0:0,0:0:0:0:
296,232,250451,1,2,0:0:0:0:
196,268,250800,2,0,L|108:252,2,90,2|2|8,0:0|0:0|0:0,0:0:0:0:
284,328,251846,1,2,0:0:0:0:
380,280,252195,6,0,P|396:232|396:192,1,90,2|2,0:0|0:0,0:0:0:0:
328,108,252893,1,8,0:0:0:0:
424,60,253242,2,0,L|468:66,2,45,0|2|2,0:0|0:0|0:0,0:0:0:0:
328,108,253939,1,2,0:0:0:0:
232,156,254288,2,0,L|188:160,2,45,8|2|2,0:0|0:0|0:0,0:0:0:0:
188,256,254986,6,0,L|96:268,1,90,6|2,0:0|0:0,0:0:0:0:
152,364,255684,2,0,L|60:376,1,90,8|2,0:0|0:0,0:0:0:0:
268,348,256381,1,2,0:0:0:0:
376,328,256730,1,2,0:0:0:0:
304,248,257079,1,8,0:0:0:0:
376,328,257428,1,2,0:0:0:0:
416,228,257777,6,0,P|396:180|360:152,1,90,2|2,0:0|0:0,0:0:0:0:
211,71,258474,2,0,P|231:119|267:147,1,90,8|2,0:0|0:0,0:0:0:0:
320,56,259172,1,2,0:0:0:0:
416,100,259521,1,2,0:0:0:0:
412,208,259870,1,8,0:0:0:0:
308,232,260218,1,2,0:0:0:0:
204,204,260567,6,0,L|112:176,1,90,6|2,0:0|0:0,0:0:0:0:
60,272,261265,2,0,L|152:300,1,90,8|2,0:0|0:0,0:0:0:0:
308,232,261963,2,0,L|345:207,1,45,2|8,0:0|0:0,0:0:0:0:
403,250,262311,2,0,L|440:225,1,45,2|2,0:0|0:0,0:0:0:0:
421,154,262660,2,0,L|458:129,2,45,8|8|4,0:0|0:3|0:3,0:0:0:0:
344,304,263358,5,4,0:0:0:0:
256,192,263532,12,0,271730,0:0:0:0:
