osu file format v14

[General]
AudioFilename: Rhythm of the Rain.mp3
AudioLeadIn: 0
PreviewTime: 81265
Countdown: 0
SampleSet: Soft
StackLeniency: 0.7
Mode: 0
LetterboxInBreaks: 0
WidescreenStoryboard: 0

[Editor]
DistanceSpacing: 1.3
BeatDivisor: 4
GridSize: 4
TimelineZoom: 0.9000001

[Metadata]
Title:Rhythm of the Rain
TitleUnicode:聽見下雨的聲音
Artist:Jay Chou
ArtistUnicode:周杰倫
Creator:bossandy
Version:Collab Normal
Source:聽見下雨的聲音
Tags:哎呦,不錯哦 方文山 Vincent Fang 黃雨勳 Ting Jian Xia Yu De Sheng Yin kittyadventure gokugohan12468
BeatmapID:1698981
BeatmapSetID:362752

[Difficulty]
HPDrainRate:4
CircleSize:3
OverallDifficulty:4
ApproachRate:5
SliderMultiplier:1.4
SliderTickRate:2

[Events]
//Background and Video events
Video,-5295,"video.avi"
0,0,"rain.jpg",0,0
//Break Periods
2,128209,137972
//Storyboard Layer 0 (Background)
//Storyboard Layer 1 (Fail)
//Storyboard Layer 2 (Pass)
//Storyboard Layer 3 (Foreground)
//Storyboard Sound Samples

[TimingPoints]
2428,697.674418604651,4,2,1,30,1,0
35917,-100,4,2,2,50,0,0
38009,-100,4,2,3,50,0,0
38358,-100,4,2,2,50,0,0
43590,-100,4,2,3,50,0,0
43939,-100,4,2,2,50,0,0
68707,-100,4,2,2,40,0,0
69055,-100,4,2,2,50,0,0
83358,-100,4,2,2,70,0,1
85451,-100,4,2,3,70,0,1
85800,-100,4,2,2,70,0,1
107776,-100,4,2,3,70,0,1
108125,-100,4,2,2,70,0,1
110567,-100,4,2,2,60,0,1
110916,-100,4,2,2,70,0,1
113358,-100,4,2,3,70,0,1
113707,-100,4,2,2,70,0,1
116148,-100,4,2,2,60,0,1
116497,-100,4,2,2,70,0,1
126265,-100,4,2,2,50,0,1
128009,-100,4,2,2,70,0,0
144055,-100,4,2,2,60,0,0
144753,-100,4,2,2,70,0,0
149637,-100,4,2,1,20,0,0
149986,-100,4,2,2,50,0,0
150335,-100,4,2,1,30,0,0
160800,-100,4,2,2,50,0,0
197776,-100,4,2,2,70,0,1
197951,-100,4,2,2,70,0,1
199869,-100,4,2,3,70,0,1
200218,-100,4,2,2,70,0,1
208241,-100,4,2,2,60,0,1
208590,-100,4,2,2,70,0,1
219404,-100,4,2,1,70,0,0
221498,697.674418604651,4,2,2,70,1,1
221498,-100,4,2,2,70,0,1
223591,-100,4,2,3,70,0,1
223939,-100,4,2,2,70,0,1
226381,-100,4,2,2,60,0,1
226730,-100,4,2,2,70,0,1
229172,-100,4,2,3,70,0,1
229521,-100,4,2,2,70,0,1
231963,-100,4,2,2,60,0,1
232311,-100,4,2,2,70,0,1
243823,-100,4,2,2,70,0,0
248707,-100,4,2,2,60,0,0
249056,-100,4,2,2,70,0,0
264753,-100,4,2,2,55,0,0
265451,-100,4,2,2,50,0,0
266149,-100,4,2,2,45,0,0
266846,-100,4,2,2,40,0,0
267544,-100,4,2,2,35,0,0
268242,-100,4,2,2,30,0,0
268939,-100,4,2,2,25,0,0
269637,-100,4,2,2,20,0,0
270335,-100,4,2,2,15,0,0
271032,-100,4,2,2,10,0,0
271730,-100,4,2,2,5,0,0

[Colours]
Combo1 : 255,228,149
Combo2 : 128,255,128
Combo3 : 113,176,255
Combo4 : 248,129,147

[HitObjects]
400,72,2428,6,0,L|316:64,1,70,0|2,0:0|0:0,0:0:0:0:
252,112,3125,2,0,P|196:132|124:104,1,140,0|0,0:0|0:0,0:0:0:0:
52,52,4172,1,2,0:0:0:0:
36,140,4521,2,0,L|76:284,1,140,0|0,0:0|0:0,0:0:0:0:
104,360,5567,5,2,0:0:0:0:
188,328,5916,2,0,B|256:312|256:312|324:328,1,140,0|0,0:0|0:0,0:0:0:0:
408,360,6962,1,2,0:0:0:0:
492,328,7311,1,0,0:0:0:0:
388,180,8009,6,0,L|404:96,1,70,0|2,0:0|0:0,0:0:0:0:
492,100,8707,2,0,L|465:237,1,140,0|0,0:0|0:0,0:0:0:0:
380,272,9753,1,2,0:0:0:0:
292,300,10102,2,0,B|216:304|216:304|176:292|160:252,1,140,0|0,0:0|0:0,0:0:0:0:
228,196,11148,5,2,0:0:0:0:
140,168,11497,2,0,P|72:172|20:124,1,140,0|0,0:0|0:0,0:0:0:0:
104,84,12544,1,2,0:0:0:0:
196,96,12893,2,0,P|232:100|280:88,1,70,0|0,0:0|0:0,0:0:0:0:
344,48,13590,6,0,L|351:188,1,140,0|2,0:0|0:0,0:0:0:0:
356,280,14637,1,0,0:0:0:0:
272,244,14986,1,0,0:0:0:0:
204,304,15335,2,0,P|126:318|74:289,1,140,0|0,0:0|0:0,0:0:0:0:
148,232,16381,6,0,P|172:168|144:106,1,140,0|2,0:0|0:0,0:0:0:0:
60,76,17428,1,0,0:0:0:0:
128,16,17777,1,0,0:0:0:0:
212,44,18125,2,0,L|292:41,2,70,0|2|0,0:0|0:0|0:0,0:0:0:0:
144,106,19172,6,0,L|0:100,1,140,0|2,0:0|0:0,0:0:0:0:
36,184,20218,1,0,0:0:0:0:
4,268,20567,1,0,0:0:0:0:
36,352,20916,2,0,L|182:357,1,140,0|0,0:0|0:0,0:0:0:0:
244,296,21963,6,0,B|303:258|303:258|375:274,1,140,0|2,0:0|0:0,0:0:0:0:
416,96,23358,2,0,L|342:79,1,70,0|0,0:0|0:0,0:0:0:0:
320,168,24056,2,0,L|387:182,1,70,2|0,0:0|0:0,0:0:0:0:
476,164,24753,6,0,P|456:248|400:272,1,140,0|2,0:0|0:0,0:0:0:0:
388,182,25800,1,0,0:0:0:0:
360,96,26148,2,0,P|336:68|296:52,1,70
216,48,26846,1,2,0:0:0:0:
252,132,27195,6,0,B|204:148|167:122|167:122|120:140,1,140
32,168,28241,1,2,0:0:0:0:
100,228,28590,2,0,P|98:296|37:346,1,140
16,256,29637,1,2,0:0:0:0:
36,168,29986,1,0,0:0:0:0:
56,80,30334,6,0,L|48:-4,1,70
140,8,31032,2,0,B|236:4|236:4|284:36,1,140,2|0,0:0|0:0,0:0:0:0:
344,84,32079,1,0,0:0:0:0:
416,136,32427,2,0,L|404:204,1,70,2|0,0:0|0:0,0:0:0:0:
476,263,33125,6,0,P|452:288|416:300,1,70,0|0,0:0|0:0,0:0:0:0:
332,268,33823,2,0,B|280:264|280:264|244:296|196:288,1,140,2|0,0:0|0:0,0:0:0:0:
216,200,34869,1,0,0:0:0:0:
192,112,35218,2,0,L|208:40,1,70,4|0,0:3|0:0,0:0:0:0:
124,8,35916,6,0,P|81:11|44:28,1,70,6|0,0:0|0:0,0:0:0:0:
16,104,36614,2,0,L|20:173,1,70,8|0,0:0|0:0,0:0:0:0:
28,264,37311,1,0,0:0:0:0:
4,352,37660,2,0,B|37:360|71:343|71:343|105:360|139:352,1,140,2|0,0:0|0:0,0:0:0:0:
120,264,38707,6,0,B|153:255|187:272|187:272|221:255|255:264,1,140,2|8,0:0|0:0,0:0:0:0:
236,352,39753,1,0,0:0:0:0:
324,328,40102,2,0,L|400:332,1,70,0|2,0:0|0:0,0:0:0:0:
476,372,40800,2,0,P|485:338|479:302,1,70,8|0,0:0|0:0,0:0:0:0:
412,244,41497,6,0,L|424:168,1,70,2|0,0:0|0:0,0:0:0:0:
332,184,42195,2,0,L|320:108,1,70,8|0,0:0|0:0,0:0:0:0:
320,24,42893,1,0,0:0:0:0:
240,68,43241,2,0,P|172:80|104:52,1,140,2|0,0:0|0:0,0:0:0:0:
32,108,44288,6,0,B|32:204|32:204|72:240,1,140,2|8,0:0|0:0,0:0:0:0:
140,284,45334,1,0,0:0:0:0:
216,236,45683,2,0,L|228:148,1,70,0|2,0:0|0:0,0:0:0:0:
316,160,46381,2,0,L|304:248,1,70,8|2,0:0|0:3,0:0:0:0:
340,316,47079,6,0,P|426:312|463:264,1,140,6|8,0:0|0:0,0:0:0:0:
480,188,48126,1,0,0:0:0:0:
448,104,48475,2,0,L|378:95,1,70,0|2,0:0|0:0,0:0:0:0:
316,160,49172,2,0,L|246:151,1,70,8|2,0:0|0:3,0:0:0:0:
208,232,49870,6,0,B|184:256|144:260|144:260|72:255,1,140,2|8,0:0|0:0,0:0:0:0:
16,184,50916,1,0,0:0:0:0:
76,116,51265,2,0,L|150:121,1,70,0|2,0:0|0:0,0:0:0:0:
176,36,51963,2,0,P|212:53|231:95,1,70,8|2,0:0|0:3,0:0:0:0:
224,168,52661,6,0,B|292:192|292:192|359:175,1,140,2|8,0:0|0:0,0:0:0:0:
440,136,53707,1,0,0:0:0:0:
500,204,54056,2,0,P|508:276|468:328,1,140,0|8,0:0|0:0,0:0:0:0:
420,248,55103,1,2,0:3:0:0:
328,256,55451,6,0,L|253:261,2,70,2|0|8,0:0|0:0|0:0,0:0:0:0:
380,332,56498,1,0,0:0:0:0:
420,248,56847,2,0,L|416:178,1,70,0|2,0:0|0:3,0:0:0:0:
508,176,57544,2,0,L|511:248,1,70,8|8,0:0|0:3,0:0:0:0:
469,327,58242,6,0,P|406:355|341:334,1,140,6|8,0:0|0:0,0:0:0:0:
296,256,59289,1,0,0:0:0:0:
252,176,59637,2,0,L|174:170,2,70,0|2|8,0:0|0:0|0:0,0:0:0:0:
336,144,60684,6,0,B|320:100|272:88|272:88|216:84,1,140,0|0,0:0|0:0,0:0:0:0:
132,100,61730,2,0,P|68:96|20:40,1,140,8|0,0:0|0:0,0:0:0:0:
107,14,62777,1,2,0:0:0:0:
132,100,63126,2,0,L|124:189,1,70,8|0,0:0|0:0,0:0:0:0:
192,232,63823,6,0,P|260:220|320:268,1,140,2|8,0:0|0:0,0:0:0:0:
240,312,64870,1,0,0:0:0:0:
160,352,65218,2,0,B|126:360|92:343|92:343|58:360|24:352,1,140,0|8,0:0|0:0,0:0:0:0:
48,264,66265,1,0,0:0:0:0:
76,176,66614,6,0,P|150:200|209:169,1,140,2|8,0:0|0:0,0:0:0:0:
252,100,67661,1,0,0:0:0:0:
296,20,68009,2,0,P|326:45|339:82,1,70,2|2,0:0|0:0,0:0:0:0:
428,52,68707,2,0,P|432:87|420:119,1,70,12|8,0:0|0:0,0:0:0:0:
504,160,69404,6,0,P|448:208|380:204,1,140,6|8,0:0|0:0,0:0:0:0:
328,136,70451,1,0,0:0:0:0:
292,220,70800,2,0,B|300:260|324:280|324:280|312:352,1,140,0|8,0:0|0:0,0:0:0:0:
228,316,71847,1,0,0:0:0:0:
200,228,72196,6,0,P|156:176|76:172,1,140,2|8,0:0|0:0,0:0:0:0:
112,256,73242,1,0,0:0:0:0:
28,288,73591,2,0,L|32:368,2,70,0|2|8,0:0|0:0|0:0,0:0:0:0:
112,256,74637,1,0,0:0:0:0:
200,228,74986,6,0,L|192:83,1,140,6|8,0:0|0:0,0:0:0:0:
280,64,76033,1,0,0:0:0:0:
288,156,76382,2,0,P|362:201|415:192,1,140,2|8,0:0|0:0,0:0:0:0:
256,192,77776,12,4,80567,0:0:0:0:
296,188,83358,6,0,P|323:125|396:98,1,140,6|8,0:0|0:0,0:0:0:0:
460,148,84405,2,0,L|452:233,1,70,0|2,0:0|0:0,0:0:0:0:
444,308,85103,2,0,P|375:360|311:347,1,140,2|0,0:0|0:0,0:0:0:0:
256,296,86149,6,0,L|110:288,1,140,2|8,0:0|0:0,0:0:0:0:
24,284,87196,2,0,L|16:356,2,70,0|2|2,0:0|0:0|0:0,0:0:0:0:
80,212,88242,2,0,L|88:140,1,70,8|0,0:0|0:0,0:0:0:0:
96,52,88940,6,0,B|128:31|161:49|161:49|198:69|230:52,1,140,2|8,0:0|0:0,0:0:0:0:
316,20,89986,2,0,P|383:29|421:85,1,140,0|2,0:0|0:0,0:0:0:0:
408,176,91033,2,0,L|398:268,1,70,8|0,0:0|0:0,0:0:0:0:
388,336,91730,6,0,B|316:344|316:344|251:304,1,140,2|8,0:0|0:0,0:0:0:0:
180,260,92777,2,0,L|112:272,2,70,0|2|2,0:0|0:0|0:0,0:0:0:0:
260,220,93823,2,0,L|332:208,1,70,8|2,0:0|0:0,0:0:0:0:
420,192,94521,6,0,B|460:180|460:180|492:88,1,140,6|8,0:0|0:0,0:0:0:0:
424,28,95568,2,0,P|385:37|346:82,1,70,0|2,0:0|0:0,0:0:0:0:
327,138,96265,2,0,L|329:217,2,70,2|8|0,0:0|0:0|0:0,0:0:0:0:
268,68,97312,6,0,P|199:56|140:96,1,140,2|8,0:0|0:0,0:0:0:0:
152,184,98358,2,0,P|138:215|112:238,2,70,0|2|2,0:0|0:0|0:0,0:0:0:0:
144,92,99404,2,0,P|157:60|183:37,1,70,8|0,0:0|0:0,0:0:0:0:
236,112,100103,6,0,B|292:147|292:147|387:127,1,140,6|8,0:0|0:0,0:0:0:0:
456,116,101149,2,0,B|471:189|471:189|436:245,1,140,0|2,0:0|0:0,0:0:0:0:
388,320,102196,2,0,L|317:300,1,70,8|0,0:0|0:0,0:0:0:0:
232,276,102893,6,0,L|90:316,1,140,6|8,0:0|0:0,0:0:0:0:
40,244,103940,1,0,0:0:0:0:
96,172,104289,2,0,L|92:85,1,70,2|2,0:0|0:0,0:0:0:0:
184,96,104986,2,0,L|188:183,1,70,8|2,0:0|0:0,0:0:0:0:
276,144,105683,6,0,P|348:176|408:160,1,140,6|8,0:0|0:0,0:0:0:0:
448,240,106730,2,0,L|440:364,1,70,0|2,0:0|0:0,0:0:0:0:
356,280,107427,2,0,P|284:312|224:296,1,140,2|0,0:0|0:0,0:0:0:0:
184,216,108474,6,0,B|161:151|161:151|186:84,1,140,2|8,0:0|0:0,0:0:0:0:
264,136,109521,2,0,B|287:158|327:159|327:159|357:133|360:100,1,140,0|2,0:0|0:0,0:0:0:0:
344,12,110567,2,0,P|384:12|416:28,1,70,12|0,0:2|0:0,0:0:0:0:
456,104,111265,6,0,L|432:248,1,140,6|8,0:0|0:0,0:0:0:0:
356,292,112311,2,0,L|288:280,1,70,0|2,0:0|0:0,0:0:0:0:
204,316,113009,2,0,P|152:268|152:200,1,140,2|0,0:0|0:0,0:0:0:0:
200,128,114056,6,0,B|232:107|265:125|265:125|302:145|334:128,1,140,2|8,0:0|0:0,0:0:0:0:
412,80,115102,1,0,0:0:0:0:
468,152,115451,2,0,L|460:240,1,70,2|2,0:0|0:0,0:0:0:0:
372,204,116149,2,0,L|378:273,1,70,12|0,0:0|0:0,0:0:0:0:
288,288,116846,6,0,P|220:280|176:220,1,140,6|8,0:0|0:0,0:0:0:0:
148,140,117893,1,0,0:0:0:0:
224,92,118242,1,2,0:0:0:0:
152,40,118590,2,0,P|117:45|87:63,2,70,2|8|0,0:0|0:0|0:0,0:0:0:0:
224,92,119637,6,0,P|280:120|344:88,1,140,2|8,0:0|0:0,0:0:0:0:
388,4,120684,2,0,L|476:16,1,70,0|2,0:0|0:0,0:0:0:0:
440,104,121381,2,0,L|510:94,2,70,2|8|0,0:0|0:0|0:0,0:0:0:0:
396,184,122428,6,0,P|424:252|396:316,1,140,6|8,0:0|0:0,0:0:0:0:
332,252,123474,1,0,0:0:0:0:
264,312,123823,2,0,P|242:247|270:185,1,140,2|8,0:0|0:0,0:0:0:0:
328,116,124870,1,2,0:0:0:0:
252,68,125218,6,0,L|100:80,1,140,6|8,0:0|0:3,0:0:0:0:
56,152,126265,2,0,P|52:192|68:228,1,70,4|8,0:3|0:3,0:0:0:0:
132,276,126962,2,0,B|165:292|198:276|198:276|232:259|265:276,1,140,4|4,0:3|0:3,0:0:0:0:
336,336,128009,5,4,0:0:0:0:
47,151,139172,6,0,P|94:199|188:193,1,140,6|8,0:0|0:0,0:0:0:0:
232,144,140218,1,0,0:0:0:0:
296,209,140567,2,0,L|290:278,1,70,2|2,0:0|0:0,0:0:0:0:
380,289,141265,2,0,L|386:220,1,70,8|0,0:0|0:0,0:0:0:0:
471,186,141962,6,0,P|497:125|470:58,1,140,2|8,0:0|0:0,0:0:0:0:
388,20,143009,1,0,0:0:0:0:
323,83,143358,2,0,L|251:79,1,70,2|2,0:0|0:0,0:0:0:0:
232,167,144055,2,0,L|162:170,1,70,12|0,0:0|0:0,0:0:0:0:
95,108,144753,6,0,P|70:177|100:239,1,140,6|8,0:0|0:0,0:0:0:0:
175,279,145800,1,0,0:0:0:0:
263,258,146148,2,0,L|266:327,1,70,2|2,0:0|0:0,0:0:0:0:
349,367,146846,2,0,P|376:341|391:297,1,70,8|0,0:0|0:0,0:0:0:0:
353,227,147544,6,0,P|421:266|486:248,1,140,6|8,0:0|0:0,0:0:0:0:
432,174,148590,1,0,0:0:0:0:
351,131,148939,2,0,L|281:138,1,70,8|4,0:3|0:3,0:0:0:0:
190,145,149637,2,0,L|120:152,1,70,8|2,0:1|0:0,0:0:0:0:
29,162,150334,6,0,L|36:302,1,140,4|0,0:0|0:0,0:0:0:0:
115,346,151381,1,0,0:0:0:0:
188,292,151730,1,0,0:0:0:0:
253,355,152079,2,0,P|331:369|383:340,1,140,2|0,0:0|0:0,0:0:0:0:
313,280,153125,6,0,P|285:218|312:152,1,140,0|0,0:0|0:0,0:0:0:0:
340,68,154172,1,0,0:0:0:0:
255,35,154521,1,0,0:0:0:0:
218,118,154869,2,0,L|138:115,2,70,2|0|0,0:0|0:0|0:0,0:0:0:0:
255,35,155916,6,0,L|109:30,1,140,0|0,0:0|0:0,0:0:0:0:
24,27,156962,1,0,0:0:0:0:
61,110,157311,1,0,0:0:0:0:
19,191,157660,2,0,L|14:337,1,140,2|0,0:0|0:0,0:0:0:0:
100,359,158707,6,0,P|159:321|231:337,1,140,0|0,0:0|0:0,0:0:0:0:
379,237,160102,2,0,L|373:162,1,70,0|2,0:0|0:0,0:0:0:0:
282,174,160800,2,0,L|287:243,1,70,8|4,0:0|0:3,0:0:0:0:
340,317,161497,6,0,P|426:313|463:265,1,140,6|8,0:0|0:0,0:0:0:0:
498,193,162544,1,0,0:0:0:0:
425,137,162893,2,0,L|434:67,1,70,0|2,0:0|0:0,0:0:0:0:
344,52,163590,2,0,L|335:122,1,70,8|0,0:0|0:0,0:0:0:0:
263,178,164288,6,0,B|221:153|221:153|127:155,1,140,2|8,0:0|0:0,0:0:0:0:
69,223,165334,1,0,0:0:0:0:
155,250,165683,2,0,L|150:324,1,70,0|2,0:0|0:0,0:0:0:0:
229,365,166381,2,0,P|265:348|284:306,1,70,8|2,0:0|0:3,0:0:0:0:
369,303,167079,6,0,P|442:335|504:310,1,140,2|8,0:0|0:0,0:0:0:0:
442,242,168125,1,0,0:0:0:0:
369,186,168474,2,0,L|219:196,1,140,0|8,0:0|0:0,0:0:0:0:
159,136,169521,1,2,0:3:0:0:
93,198,169869,6,0,L|98:273,2,70,2|0|8,0:0|0:0|0:0,0:0:0:0:
22,139,170916,1,0,0:0:0:0:
84,72,171265,2,0,L|165:68,1,70,2|2,0:0|0:0,0:0:0:0:
244,64,171962,2,0,L|247:136,1,70,10|8,0:1|0:3,0:0:0:0:
259,224,172660,6,0,P|321:245|389:214,1,140,6|8,0:0|0:0,0:0:0:0:
457,159,173707,1,0,0:0:0:0:
494,241,174055,2,0,L|488:319,2,70,0|2|8,0:0|0:0|0:0,0:0:0:0:
457,159,175102,6,0,P|406:101|406:36,1,140,0|0,0:0|0:0,0:0:0:0:
313,37,176148,2,0,B|248:61|248:61|173:35,1,140,8|0,0:0|0:0,0:0:0:0:
94,67,177195,1,2,0:0:0:0:
148,139,177544,2,0,L|140:228,1,70,8|0,0:0|0:0,0:0:0:0:
73,268,178241,6,0,P|172:255|209:296,1,140,2|8,0:0|0:0,0:0:0:0:
255,346,179288,1,0,0:0:0:0:
317,280,179637,2,0,B|351:258|383:276|383:276|420:296|455:272,1,140,0|8,0:0|0:0,0:0:0:0:
417,190,180683,1,0,0:0:0:0:
329,165,181032,6,0,P|305:91|336:32,1,140,2|8,0:0|0:0,0:0:0:0:
395,100,182079,1,0,0:0:0:0:
442,22,182427,2,0,P|472:47|485:84,1,70,2|2,0:0|0:0,0:0:0:0:
436,152,183125,2,0,P|408:130|394:99,1,70,12|0,0:0|0:0,0:0:0:0:
329,37,183823,6,0,L|188:52,1,140,6|8,0:0|0:0,0:0:0:0:
99,64,184869,1,0,0:0:0:0:
8,76,185218,2,0,L|26:238,1,140,0|8,0:0|0:0,0:0:0:0:
42,304,186265,1,0,0:0:0:0:
115,250,186614,6,0,P|187:236|247:280,1,140,2|8,0:0|0:0,0:0:0:0:
308,330,187660,1,0,0:0:0:0:
356,253,188009,2,0,L|352:183,2,70,0|2|8,0:0|0:0|0:0,0:0:0:0:
420,316,189055,1,0,0:0:0:0:
452,230,189404,6,0,L|444:85,1,140,6|8,0:0|0:0,0:0:0:0:
366,43,190451,1,0,0:0:0:0:
283,82,190800,2,0,P|209:127|156:118,1,140,2|8,0:0|0:0,0:0:0:0:
256,192,192195,12,4,194986,0:0:0:0:
179,93,197776,6,0,P|152:156|79:183,1,140,6|8,0:0|0:0,0:0:0:0:
18,240,198823,2,0,L|26:325,1,70,0|2,0:0|0:0,0:0:0:0:
103,356,199521,2,0,P|172:304|236:317,1,140,2|0,0:0|0:0,0:0:0:0:
310,326,200567,6,0,L|302:180,1,140,2|8,0:0|0:0,0:0:0:0:
388,156,201614,2,0,P|409:141|432:93,2,70,0|2|2,0:0|0:0|0:0,0:0:0:0:
345,75,202660,2,0,P|326:38|292:18,1,70,8|0,0:0|0:0,0:0:0:0:
256,100,203358,6,0,B|224:79|191:97|191:97|154:117|122:100,1,140,2|8,0:0|0:0,0:0:0:0:
32,86,204404,2,0,P|90:127|88:213,1,140,0|2,0:0|0:0,0:0:0:0:
16,233,205451,2,0,L|26:325,1,70,8|0,0:0|0:0,0:0:0:0:
97,355,206148,6,0,B|155:349|155:349|178:328|178:328|234:323,1,140,2|8,0:0|0:0,0:0:0:0:
296,262,207195,2,0,P|321:298|360:312,2,70,0|2|2,0:0|0:0|0:0,0:0:0:0:
379,225,208241,2,0,P|404:210|430:156,1,70,12|2,0:0|0:0,0:0:0:0:
341,141,208939,6,0,B|322:42|322:42|305:67|283:77,1,140,6|8,0:0|0:0,0:0:0:0:
206,92,209986,2,0,P|167:83|128:38,1,70,0|2,0:0|0:0,0:0:0:0:
55,41,210683,2,0,L|53:120,2,70,2|8|0,0:0|0:0|0:0,0:0:0:0:
143,64,211730,6,0,L|139:211,1,140,2|8,0:0|0:0,0:0:0:0:
212,257,212776,2,0,P|237:229|279:216,2,70,0|2|2,0:0|0:0|0:0,0:0:0:0:
290,304,213823,2,0,L|360:297,1,70,8|0,0:0|0:0,0:0:0:0:
436,346,214521,6,0,B|401:290|401:290|421:195,1,140,6|8,0:0|0:0,0:0:0:0:
481,153,215567,2,0,B|496:80|496:80|461:24,1,140,0|2,0:0|0:0,0:0:0:0:
370,28,216614,2,0,L|350:99,1,70,8|0,0:0|0:0,0:0:0:0:
269,136,217311,6,0,P|229:77|158:67,1,140,6|8,0:0|0:0,0:0:0:0:
83,107,218358,1,4,0:3:0:0:
138,179,218707,2,0,L|134:266,1,70,4|4,0:3|0:3,0:0:0:0:
130,340,219404,1,4,0:3:0:0:
356,149,221497,6,0,P|298:86|241:82,1,140,6|8,0:0|0:0,0:0:0:0:
168,124,222544,2,0,L|176:248,1,70,0|2,0:0|0:0,0:0:0:0:
132,276,223242,2,0,P|72:324|8:316,1,140,2|0,0:0|0:0,0:0:0:0:
52,236,224288,6,0,P|24:168|48:108,1,140,2|8,0:0|0:0,0:0:0:0:
116,48,225335,2,0,B|148:72|148:72|212:64|212:64|232:32,1,140,0|2,0:0|0:0,0:0:0:0:
320,56,226381,2,0,L|280:132,1,70,12|0,0:0|0:0,0:0:0:0:
276,208,227079,6,0,L|300:352,1,140,6|8,0:0|0:0,0:0:0:0:
388,332,228125,2,0,L|376:264,1,70,0|2,0:0|0:0,0:0:0:0:
448,208,228823,2,0,P|500:160|500:92,1,140,2|0,0:0|0:0,0:0:0:0:
412,120,229870,6,0,B|380:99|347:117|347:117|310:137|278:120,1,140,2|8,0:0|0:0,0:0:0:0:
200,72,230916,1,0,0:0:0:0:
132,132,231265,2,0,L|140:220,1,70,2|2,0:0|0:0,0:0:0:0:
48,204,231963,2,0,L|56:292,1,70,12|2,0:0|0:0,0:0:0:0:
72,364,232660,6,0,B|136:336|136:336|208:352,1,140,6|8,0:0|0:0,0:0:0:0:
256,276,233707,1,0,0:0:0:0:
320,340,234056,1,2,0:0:0:0:
388,280,234404,2,0,P|424:260|472:260,2,70,2|8|0,0:0|0:0|0:0,0:0:0:0:
328,212,235451,6,0,P|304:144|328:84,1,140,2|8,0:0|0:0,0:0:0:0:
247,40,236498,2,0,L|159:52,1,70,0|2,0:0|0:0,0:0:0:0:
120,120,237195,2,0,L|50:110,2,70,2|8|0,0:0|0:0|0:0,0:0:0:0:
160,200,238242,6,0,P|132:268|160:332,1,140,6|8,0:0|0:0,0:0:0:0:
224,268,239288,1,0,0:0:0:0:
292,328,239637,2,0,P|314:263|286:201,1,140,2|8,0:0|0:0,0:0:0:0:
224,132,240684,1,0,0:0:0:0:
292,72,241032,6,0,L|444:84,1,140,4|8,0:0|0:0,0:0:0:0:
492,152,242079,2,0,P|496:192|480:228,1,70,8|0,0:0|0:0,0:0:0:0:
464,308,242777,2,0,P|428:292|408:264,1,70,8|8,0:0|0:0,0:0:0:0:
332,220,243474,1,4,0:3:0:0:
280,296,243823,6,0,L|136:288,1,140,6|8,0:0|0:0,0:0:0:0:
72,228,244870,1,2,0:0:0:0:
148,180,245218,2,0,P|172:116|140:36,1,140,2|8,0:0|0:0,0:0:0:0:
64,20,246265,1,2,0:0:0:0:
151,49,246614,6,0,L|239:45,2,70,2|2|8,0:0|0:0|0:0,0:0:0:0:
84,112,247660,1,0,0:0:0:0:
172,140,248009,2,0,L|260:136,1,70,2|2,0:0|0:0,0:0:0:0:
308,72,248707,2,0,L|396:68,1,70,12|2,0:0|0:0,0:0:0:0:
468,56,249404,6,0,P|408:92|408:180,1,140,6|8,0:0|0:0,0:0:0:0:
456,228,250451,1,2,0:0:0:0:
388,288,250800,2,0,B|336:260|336:260|252:264,1,140,2|8,0:0|0:0,0:0:0:0:
184,320,251846,1,2,0:0:0:0:
92,320,252195,6,0,P|156:272|156:192,1,140,2|8,0:0|0:0,0:0:0:0:
132,132,253242,2,0,B|164:111|197:129|197:129|234:149|266:132,1,140,0|2,0:0|0:0,0:0:0:0:
332,68,254288,1,8,0:0:0:0:
400,128,254637,1,2,0:0:0:0:
340,196,254986,6,0,B|320:248|320:248|336:332,1,140,6|8,0:0|0:0,0:0:0:0:
248,360,256032,1,2,0:0:0:0:
192,288,256381,2,0,P|108:244|56:260,1,140,2|8,0:0|0:0,0:0:0:0:
24,172,257428,1,2,0:0:0:0:
84,104,257777,6,0,B|116:83|149:101|149:101|186:121|218:104,1,140,2|8,0:0|0:0,0:0:0:0:
296,60,258823,1,2,0:0:0:0:
308,152,259172,2,0,P|360:184|436:164,1,140,2|8,0:0|0:0,0:0:0:0:
488,92,260218,1,2,0:0:0:0:
433,166,260567,6,0,L|449:310,1,140,6|8,0:0|0:0,0:0:0:0:
372,356,261614,1,2,0:0:0:0:
304,296,261963,2,0,B|248:296|248:296|224:312|224:312|164:312,1,140,2|8,0:0|0:0,0:0:0:0:
96,260,263009,1,4,0:3:0:0:
156,188,263358,5,4,0:0:0:0:
256,192,263707,12,0,271730,0:0:0:0:
