osu file format v14

[General]
AudioFilename: audio.mp3
AudioLeadIn: 0
PreviewTime: 101628
Countdown: 0
SampleSet: Soft
StackLeniency: 0.7
Mode: 0
LetterboxInBreaks: 0
WidescreenStoryboard: 1

[Editor]
Bookmarks: 16040,30158,37216,44275,72511,86628,100746,130746,144864,173099,176628
DistanceSpacing: 1
BeatDivisor: 4
GridSize: 16
TimelineZoom: 1.7

[Metadata]
Title:Qian Shi Qing Ren
TitleUnicode:前世情人
Artist:Jay Chou
ArtistUnicode:周杰倫
Creator:delta_t
Version:Normal
Source:
Tags:Lover From Previous Life 周杰伦 Zhou Jie Lun 周杰倫的床邊故事 Jay Chou's Bedtime Stories Hathaway
BeatmapID:1039695
BeatmapSetID:483922

[Difficulty]
HPDrainRate:4
CircleSize:3
OverallDifficulty:4
ApproachRate:5
SliderMultiplier:1.54
SliderTickRate:1

[Events]
//Background and Video events
0,0,"bg.jpg",0,0
//Break Periods
2,99180,100722
2,130945,142780
//Storyboard Layer 0 (Background)
//Storyboard Layer 1 (Fail)
//Storyboard Layer 2 (Pass)
//Storyboard Layer 3 (Foreground)
//Storyboard Sound Samples

[TimingPoints]
8981,588.235294117647,3,2,1,70,1,0
173098,-133.333333333333,3,2,1,70,0,0
176628,-166.666666666667,3,2,2,35,0,0
187805,685.714285714286,3,2,2,35,1,0
187805,-133.333333333333,3,2,2,35,0,0
188491,815.217391304348,3,2,2,35,1,0
188491,-133.333333333333,3,2,2,35,0,0
189442,931.67701863354,3,2,2,35,1,0
189442,-133.333333333333,3,2,2,35,0,0

[Colours]
Combo1 : 239,235,160
Combo2 : 214,214,214

[HitObjects]
315,132,14275,6,0,P|364:132|405:162,2,77,4|2|4,0:0|0:0|0:0,0:0:0:0:
250,193,15157,2,0,L|201:234,1,38.5,2|2,0:0|0:0,0:0:0:0:
225,256,15451,2,0,L|221:298,1,38.5,2|2,0:0|0:0,0:0:0:0:
251,319,15745,2,0,L|283:358,1,38.5,2|2,0:0|0:0,0:0:0:0:
313,341,16039,6,0,P|371:340|395:326,1,77.0000023498536,4|4,0:0|0:0,0:0:0:0:
398,240,16628,2,0,P|380:193|388:150,1,77.0000023498536,2|0,0:0|0:0,0:0:0:0:
418,83,17216,2,0,L|458:73,1,38.5000011749268,0|0,0:0|0:0,0:0:0:0:
295,91,17804,6,0,P|249:81|193:104,1,77.0000023498536,4|4,0:0|0:0,0:0:0:0:
252,174,18392,2,0,L|250:261,1,77.0000023498536,2|0,0:0|0:0,0:0:0:0:
332,206,18981,2,0,L|376:220,1,38.5000011749268,0|4,0:0|0:0,0:0:0:0:
204,206,19569,6,0,P|148:215|107:201,1,77.0000023498536,4|4,0:0|0:0,0:0:0:0:
122,118,20157,2,0,P|178:109|219:123,1,77.0000023498536,2|0,0:0|0:0,0:0:0:0:
281,151,20745,2,0,L|328:150,1,38.5000011749268,0|0,0:0|0:0,0:0:0:0:
410,219,21333,6,0,P|420:269|401:316,1,77.0000023498536,4|4,0:0|0:0,0:0:0:0:
352,357,21922,2,0,L|259:362,1,77.0000023498536,2|4,0:0|0:0,0:0:0:0:
214,293,22510,1,6,0:0:0:0:
253,218,22804,1,6,0:0:0:0:
210,145,23098,6,0,P|154:140|112:159,1,77.0000023498536,4|4,0:0|0:0,0:0:0:0:
89,226,23686,2,0,P|145:231|187:212,1,77.0000023498536,2|0,0:0|0:0,0:0:0:0:
253,218,24275,1,4,0:0:0:0:
324,264,24569,1,4,0:0:0:0:
300,345,24863,6,0,L|210:391,1,77.0000023498536,4|4,0:0|0:0,0:0:0:0:
231,288,25451,2,0,L|317:244,1,77.0000023498536,2|0,0:0|0:0,0:0:0:0:
385,290,26039,1,4,0:0:0:0:
458,247,26333,1,4,0:0:0:0:
382,207,26628,6,0,P|363:148|376:106,1,77.0000023498536,4|4,0:0|0:0,0:0:0:0:
289,80,27216,2,0,P|305:35|330:13,1,77.0000023498536,2|0,0:0|0:0,0:0:0:0:
405,66,27804,2,0,L|348:95,1,38.5000011749268,4|2,0:0|0:0,0:0:0:0:
284,194,28392,6,0,L|296:305,1,77.0000023498536,4|4,0:0|0:0,0:0:0:0:
203,224,28981,2,0,L|193:126,1,77.0000023498536,2|0,0:0|0:0,0:0:0:0:
121,215,29569,1,6,0:0:0:0:
230,353,30157,6,0,P|306:366|373:325,1,154,4|2,0:0|0:0,0:0:0:0:
437,266,31039,1,0,0:0:0:0:
393,194,31333,2,0,L|391:107,1,77,4|4,0:0|0:0,0:0:0:0:
311,174,31922,6,0,P|241:171|234:70,1,154,4|2,0:0|0:0,0:0:0:0:
294,51,32804,1,0,0:0:0:0:
369,90,33098,2,0,L|367:173,1,77,4|4,0:0|0:0,0:0:0:0:
349,258,33686,6,0,P|259:272|188:239,1,154,4|2,0:0|0:0,0:0:0:0:
146,177,34569,1,0,0:0:0:0:
61,179,34863,2,0,P|36:219|32:264,1,77,4|4,0:0|0:0,0:0:0:0:
70,339,35451,6,0,L|238:339,1,154,4|2,0:0|0:0,0:0:0:0:
300,286,36333,1,0,0:0:0:0:
257,213,36628,2,0,P|245:163|254:132,1,77,4|4,0:0|0:0,0:0:0:0:
323,81,37216,6,0,L|408:79,1,77,4|4,0:0|0:0,0:0:0:0:
408,170,37804,2,0,L|311:172,1,77,2|0,0:0|0:0,0:0:0:0:
276,242,38392,2,0,L|182:238,1,77,4|4,0:0|0:0,0:0:0:0:
116,197,38981,5,4,0:0:0:0:
96,122,39275,1,4,0:0:0:0:
138,58,39569,1,2,0:0:0:0:
212,39,39863,1,0,0:0:0:0:
278,78,40157,2,0,L|323:152,1,77,6|4,0:0|0:0,0:0:0:0:
272,230,40745,6,0,P|261:280|271:318,1,77,4|4,0:0|0:0,0:0:0:0:
334,364,41333,2,0,L|439:368,1,77,2|0,0:0|0:0,0:0:0:0:
427,280,41922,2,0,L|345:277,1,77,4|4,0:0|0:0,0:0:0:0:
259,305,42510,5,4,0:0:0:0:
186,284,42804,1,4,0:0:0:0:
142,222,43098,1,2,0:0:0:0:
147,147,43392,1,2,0:0:0:0:
198,91,43686,2,0,L|230:66,1,38.5,6|6,0:0|0:0,0:0:0:0:
272,79,43980,2,0,L|316:65,1,38.5,6|6,0:0|0:0,0:0:0:0:
346,98,44275,6,0,L|347:227,1,115.5,4|0,0:0|0:0,0:0:0:0:
373,250,44863,2,0,P|425:260|467:238,1,77,2|0,0:0|0:0,0:0:0:0:
495,174,45451,1,0,0:0:0:0:
412,174,45745,1,4,0:0:0:0:
373,250,46039,6,0,P|289:261|239:235,1,115.5,4|0,0:0|0:0,0:0:0:0:
231,212,46628,2,0,L|235:116,1,77,2|0,0:0|0:0,0:0:0:0:
317,98,47216,1,0,0:0:0:0:
313,183,47510,1,4,0:0:0:0:
231,212,47804,6,0,P|182:200|143:215,1,77,4|4,0:0|0:0,0:0:0:0:
65,205,48392,2,0,P|51:166|69:112,1,77,2|0,0:0|0:0,0:0:0:0:
109,56,48980,2,0,L|215:56,1,77,4|4,0:0|0:0,0:0:0:0:
279,65,49569,6,0,P|312:99|325:146,1,77,4|4,0:0|0:0,0:0:0:0:
232,145,50157,2,0,P|254:202|278:221,1,77,2|0,0:0|0:0,0:0:0:0:
357,210,50745,2,0,L|413:208,1,38.5,6|6,0:0|0:0,0:0:0:0:
368,256,51039,2,0,L|424:254,1,38.5,6|6,0:0|0:0,0:0:0:0:
363,302,51333,6,0,P|300:334|248:318,1,115.5,4|0,0:0|0:0,0:0:0:0:
225,291,51922,2,0,P|179:281|143:298,1,77,2|0,0:0|0:0,0:0:0:0:
85,354,52510,1,0,0:0:0:0:
13,310,52804,1,4,0:0:0:0:
16,225,53098,6,0,P|84:178|140:193,1,115.5,4|0,0:0|0:0,0:0:0:0:
155,209,53686,2,0,L|177:295,2,77,2|0|0,0:0|0:0|0:0,0:0:0:0:
205,130,54569,1,4,0:0:0:0:
282,166,54863,6,0,P|337:160|366:135,1,77,4|4,0:0|0:0,0:0:0:0:
371,57,55451,2,0,P|316:63|287:88,1,77,2|0,0:0|0:0,0:0:0:0:
282,166,56039,2,0,L|308:253,1,77,4|4,0:0|0:0,0:0:0:0:
263,326,56628,6,0,P|214:335|165:311,1,77,4|4,0:0|0:0,0:0:0:0:
141,249,57216,2,0,P|149:204|138:163,1,77,2|0,0:0|0:0,0:0:0:0:
57,210,57804,2,0,L|57:255,1,38.5,6|6,0:0|0:0,0:0:0:0:
93,242,58098,2,0,L|122:286,1,38.5,6|6,0:0|0:0,0:0:0:0:
141,249,58392,5,6,0:0:0:0:
213,212,58686,1,4,0:0:0:0:
146,168,58980,1,2,0:0:0:0:
218,132,59275,1,0,0:0:0:0:
152,86,59569,1,6,0:0:0:0:
78,120,59863,1,4,0:0:0:0:
73,200,60157,6,0,P|119:244|159:246,1,77,4|4,0:0|0:0,0:0:0:0:
221,233,60745,2,0,P|275:226|319:247,1,77,2|0,0:0|0:0,0:0:0:0:
259,317,61333,2,0,P|205:324|161:303,1,77,0|4,0:0|0:0,0:0:0:0:
129,246,61922,5,6,0:0:0:0:
139,165,62216,1,4,0:0:0:0:
216,141,62510,1,2,0:0:0:0:
226,60,62804,1,0,0:0:0:0:
305,42,63098,1,6,0:0:0:0:
354,106,63392,1,4,0:0:0:0:
309,173,63686,6,0,P|306:231|329:269,1,77,4|4,0:0|0:0,0:0:0:0:
266,325,64275,2,0,L|177:325,1,77,2|0,0:0|0:0,0:0:0:0:
126,257,64863,2,0,L|91:224,1,38.5,4|6,0:0|0:0,0:0:0:0:
126,203,65157,2,0,L|119:158,1,38.5,4|4,0:0|0:0,0:0:0:0:
159,160,65451,6,0,P|205:151|249:168,1,77,4|4,0:0|0:0,0:0:0:0:
296,91,66039,2,0,P|363:111|385:135,1,77,2|0,0:0|0:0,0:0:0:0:
455,83,66628,2,0,P|493:121|503:159,1,77,4|4,0:0|0:0,0:0:0:0:
456,223,67216,6,0,L|349:220,1,77,4|4,0:0|0:0,0:0:0:0:
298,272,67804,2,0,L|192:275,2,77,2|0|4,0:0|0:0|0:0,0:0:0:0:
379,220,68686,1,4,0:0:0:0:
383,135,68980,6,0,P|357:91|325:73,1,77,4|4,0:0|0:0,0:0:0:0:
245,92,69569,2,0,P|219:147|225:176,1,77,2|0,0:0|0:0,0:0:0:0:
307,194,70157,2,0,L|320:280,1,77,0|4,0:0|0:0,0:0:0:0:
275,352,70745,6,0,P|217:365|175:351,2,77,4|4|2,0:0|0:0|0:0,0:0:0:0:
228,273,71628,1,4,0:0:0:0:
148,300,71922,1,6,0:0:0:0:
83,246,72216,1,6,0:0:0:0:
96,163,72510,6,0,L|24:106,2,77,4|4|2,0:0|0:0|0:0,0:0:0:0:
176,136,73392,1,0,0:0:0:0:
252,171,73686,1,0,0:0:0:0:
330,138,73980,1,4,0:0:0:0:
408,171,74275,6,0,P|422:235|408:275,2,77,4|4|2,0:0|0:0|0:0,0:0:0:0:
332,220,75157,1,0,0:0:0:0:
328,304,75451,1,0,0:0:0:0:
248,331,75745,1,4,0:0:0:0:
195,264,76039,6,0,L|194:180,2,77,0|0|2,0:0|0:0|0:0,0:0:0:0:
126,313,76922,1,0,0:0:0:0:
58,261,77216,1,0,0:0:0:0:
129,216,77510,1,4,0:0:0:0:
66,158,77804,6,0,L|71:69,1,77,4|4,0:0|0:0,0:0:0:0:
163,54,78392,2,0,L|158:153,1,77,2|4,0:0|0:0,0:0:0:0:
225,199,78980,2,0,L|279:207,2,38.5,6|6|6,0:0|0:0|0:0,0:0:0:0:
153,262,79569,6,0,P|143:306|157:355,2,77,4|4|2,0:0|0:0|0:0,0:0:0:0:
225,199,80451,1,0,0:0:0:0:
257,120,80745,1,0,0:0:0:0:
228,40,81039,1,4,0:0:0:0:
161,91,81333,6,0,P|90:95|61:79,2,77,4|4|2,0:0|0:0|0:0,0:0:0:0:
254,101,82216,1,0,0:0:0:0:
328,61,82510,1,0,0:0:0:0:
390,117,82804,1,4,0:0:0:0:
357,195,83098,6,0,L|365:297,2,77,4|4|2,0:0|0:0|0:0,0:0:0:0:
278,162,83980,1,0,0:0:0:0:
214,218,84275,1,0,0:0:0:0:
136,184,84569,1,4,0:0:0:0:
72,239,84863,6,0,P|73:282|91:313,1,77,4|4,0:0|0:0,0:0:0:0:
181,324,85451,2,0,P|180:281|162:250,1,77,2|0,0:0|0:0,0:0:0:0:
72,239,86039,2,0,L|19:224,1,38.5,6|6,0:0|0:0,0:0:0:0:
76,217,86333,2,0,L|29:204,1,38.5,6|6,0:0|0:0,0:0:0:0:
82,197,86628,6,0,P|105:173|154:159,1,77,4|4,0:0|0:0,0:0:0:0:
239,183,87216,2,0,P|305:163|325:135,1,77,2|0,0:0|0:0,0:0:0:0:
290,62,87804,2,0,L|195:59,1,77,0|4,0:0|0:0,0:0:0:0:
125,100,88392,6,0,P|110:135|117:188,1,77,4|4,0:0|0:0,0:0:0:0:
185,238,88980,2,0,P|236:229|275:249,1,77,2|0,0:0|0:0,0:0:0:0:
334,299,89569,2,0,L|332:341,2,38.5,0|4|4,0:0|0:0|0:0,0:0:0:0:
417,248,90157,6,0,P|427:196|414:150,1,77,4|4,0:0|0:0,0:0:0:0:
328,201,90745,2,0,P|257:204|225:188,1,77,2|0,0:0|0:0,0:0:0:0:
289,112,91333,2,0,L|290:35,1,77,0|4,0:0|0:0,0:0:0:0:
192,46,91922,6,0,L|191:147,1,77,4|4,0:0|0:0,0:0:0:0:
133,200,92510,2,0,L|137:302,1,77,2|0,0:0|0:0,0:0:0:0:
231,272,93098,2,0,L|229:224,2,38.5,6|6|6,0:0|0:0|0:0,0:0:0:0:
304,335,93686,6,0,P|355:345|389:336,1,77,4|4,0:0|0:0,0:0:0:0:
464,292,94275,2,0,L|468:208,1,77,2|0,0:0|0:0,0:0:0:0:
370,194,94863,2,0,L|366:100,1,77,0|4,0:0|0:0,0:0:0:0:
269,123,95451,6,0,P|215:109|171:122,1,77,4|4,0:0|0:0,0:0:0:0:
146,197,96039,2,0,P|90:209|51:195,1,77,2|0,0:0|0:0,0:0:0:0:
99,115,96628,2,0,L|96:74,2,38.5,6|6|6,0:0|0:0|0:0,0:0:0:0:
146,197,97216,5,4,0:0:0:0:
157,277,97510,1,4,0:0:0:0:
233,307,97804,1,6,0:0:0:0:
296,257,98098,1,4,0:0:0:0:
286,176,98392,1,6,0:0:0:0:
210,147,98686,1,4,0:0:0:0:
222,226,98980,5,4,0:0:0:0:
226,228,101922,5,0,0:0:0:0:
292,176,102216,1,0,0:0:0:0:
375,192,102510,2,0,P|409:265|389:313,1,115.5,4|0,0:0|0:0,0:0:0:0:
366,325,103098,2,0,L|272:321,1,77,2|0,0:0|0:0,0:0:0:0:
214,269,103686,1,0,0:0:0:0:
129,274,103980,1,4,0:0:0:0:
89,349,104275,6,0,P|52:308|57:229,1,115.5,4|0,0:0|0:0,0:0:0:0:
35,209,104863,2,0,P|39:164|9:131,1,77,2|0,0:0|0:0,0:0:0:0:
114,122,105451,1,0,0:0:0:0:
165,56,105745,1,4,0:0:0:0:
197,134,106039,6,0,P|238:171|289:174,1,77,4|4,0:0|0:0,0:0:0:0:
345,146,106628,2,0,L|352:66,1,77,2|0,0:0|0:0,0:0:0:0:
275,20,107216,2,0,L|267:116,1,77,4|4,0:0|0:0,0:0:0:0:
345,146,107804,6,0,P|399:140|429:115,1,77,4|4,0:0|0:0,0:0:0:0:
435,38,108392,2,0,P|381:44|351:69,1,77,2|0,0:0|0:0,0:0:0:0:
274,78,108980,2,0,L|244:46,1,38.5,6|6,0:0|0:0,0:0:0:0:
218,77,109275,2,0,L|179:59,1,38.5,6|6,0:0|0:0,0:0:0:0:
168,98,109569,6,0,P|140:146|152:210,1,115.5,4|0,0:0|0:0,0:0:0:0:
173,243,110157,2,0,L|262:263,1,77,2|0,0:0|0:0,0:0:0:0:
303,335,110745,1,0,0:0:0:0:
375,291,111039,1,4,0:0:0:0:
372,206,111333,6,0,P|304:159|248:174,1,115.5,4|0,0:0|0:0,0:0:0:0:
233,190,111921,2,0,L|211:276,2,77,2|0|0,0:0|0:0|0:0,0:0:0:0:
183,111,112804,1,4,0:0:0:0:
106,147,113098,6,0,P|51:141|22:116,1,77,4|4,0:0|0:0,0:0:0:0:
17,38,113686,2,0,P|72:44|101:69,1,77,2|0,0:0|0:0,0:0:0:0:
106,147,114274,2,0,L|80:234,1,77,4|4,0:0|0:0,0:0:0:0:
125,307,114863,6,0,P|174:316|223:292,1,77,4|4,0:0|0:0,0:0:0:0:
247,230,115451,2,0,P|286:220|341:242,1,77,2|0,0:0|0:0,0:0:0:0:
387,300,116039,2,0,L|426:265,1,38.5,6|6,0:0|0:0,0:0:0:0:
459,267,116333,2,0,L|472:223,1,38.5,6|6,0:0|0:0,0:0:0:0:
450,189,116628,5,6,0:0:0:0:
393,129,116922,1,4,0:0:0:0:
323,172,117216,1,2,0:0:0:0:
265,115,117510,1,0,0:0:0:0:
196,159,117804,1,6,0:0:0:0:
217,237,118098,1,4,0:0:0:0:
297,248,118392,6,0,P|314:300|294:333,1,77,4|4,0:0|0:0,0:0:0:0:
225,359,118980,2,0,L|128:371,1,77,2|0,0:0|0:0,0:0:0:0:
58,353,119569,2,0,P|44:307|64:269,1,77,0|4,0:0|0:0,0:0:0:0:
125,223,120157,5,6,0:0:0:0:
205,220,120451,1,4,0:0:0:0:
163,150,120745,1,2,0:0:0:0:
244,147,121039,1,0,0:0:0:0:
202,76,121333,1,6,0:0:0:0:
283,74,121628,1,4,0:0:0:0:
323,144,121922,6,0,P|297:206|263:225,1,77,4|4,0:0|0:0,0:0:0:0:
330,297,122510,2,0,P|283:317|242:316,1,77,2|0,0:0|0:0,0:0:0:0:
170,273,123098,2,0,L|118:260,1,38.5,4|6,0:0|0:0,0:0:0:0:
171,245,123392,2,0,L|215:236,1,38.5,4|4,0:0|0:0,0:0:0:0:
172,217,123686,6,0,L|179:128,1,77,4|4,0:0|0:0,0:0:0:0:
265,169,124275,2,0,P|277:130|305:99,1,77,2|0,0:0|0:0,0:0:0:0:
354,173,124863,2,0,P|398:150|428:155,1,77,4|4,0:0|0:0,0:0:0:0:
390,245,125451,2,0,P|346:276|306:267,1,77,4|4,0:0|0:0,0:0:0:0:
256,211,126039,2,0,L|266:118,2,77,2|0|0,0:0|0:0|0:0,0:0:0:0:
171,249,126922,1,4,0:0:0:0:
90,236,127216,6,0,P|61:204|54:160,1,77,4|4,0:0|0:0,0:0:0:0:
79,79,127804,2,0,P|140:59|174:67,1,77,2|0,0:0|0:0,0:0:0:0:
232,111,128392,2,0,P|283:113|325:86,1,77,0|4,0:0|0:0,0:0:0:0:
396,120,128980,5,4,0:0:0:0:
439,186,129274,1,4,0:0:0:0:
433,267,129568,1,2,0:0:0:0:
377,325,129862,1,0,0:0:0:0:
298,337,130156,1,6,0:0:0:0:
228,296,130450,1,6,0:0:0:0:
203,219,130745,5,0,0:0:0:0:
272,185,143980,6,0,L|228:206,1,38.5,6|6,0:0|0:0,0:0:0:0:
267,227,144275,2,0,L|230:258,1,38.5,6|6,0:0|0:0,0:0:0:0:
273,267,144569,2,0,L|263:311,1,38.5,6|6,0:0|0:0,0:0:0:0:
302,296,144863,6,0,P|375:281|423:304,1,115.5,4|0,0:0|0:0,0:0:0:0:
448,322,145451,2,0,L|447:225,1,77,2|0,0:0|0:0,0:0:0:0:
377,184,146039,1,0,0:0:0:0:
375,100,146333,1,4,0:0:0:0:
302,59,146628,6,0,P|233:48|183:68,1,115.5,4|0,0:0|0:0,0:0:0:0:
183,104,147216,2,0,P|192:141|184:184,1,77,2|0,0:0|0:0,0:0:0:0:
104,224,147804,1,0,0:0:0:0:
105,307,148098,1,4,0:0:0:0:
173,356,148392,6,0,P|219:367|253:361,1,77,4|4,0:0|0:0,0:0:0:0:
256,273,148980,2,0,P|299:270|341:255,1,77,2|0,0:0|0:0,0:0:0:0:
348,171,149569,2,0,L|439:161,1,77,4|4,0:0|0:0,0:0:0:0:
447,73,150157,6,0,L|356:83,1,77,4|4,0:0|0:0,0:0:0:0:
282,110,150745,2,0,P|258:158|261:197,1,77,2|0,0:0|0:0,0:0:0:0:
316,252,151333,2,0,L|353:282,1,38.5,6|6,0:0|0:0,0:0:0:0:
307,293,151628,2,0,L|322:341,1,38.5,6|6,0:0|0:0,0:0:0:0:
277,324,151922,6,0,P|218:342|166:326,1,115.5,4|0,0:0|0:0,0:0:0:0:
135,297,152510,2,0,L|133:209,1,77,2|0,0:0|0:0,0:0:0:0:
218,172,153098,1,0,0:0:0:0:
220,254,153392,1,4,0:0:0:0:
292,209,153686,6,0,P|333:195|418:215,1,115.5,4|0,0:0|0:0,0:0:0:0:
442,191,154275,2,0,P|456:144|446:99,1,77,2|0,0:0|0:0,0:0:0:0:
373,69,154863,2,0,L|280:76,1,77,0|4,0:0|0:0,0:0:0:0:
241,148,155451,6,0,P|248:195|281:221,1,77,4|4,0:0|0:0,0:0:0:0:
361,230,156039,2,0,P|399:248|424:300,1,77,2|0,0:0|0:0,0:0:0:0:
378,359,156628,2,0,L|292:367,1,77,4|4,0:0|0:0,0:0:0:0:
226,310,157216,6,0,P|167:302|130:318,1,77,4|4,0:0|0:0,0:0:0:0:
80,247,157804,2,0,P|122:218|169:215,1,77,2|0,0:0|0:0,0:0:0:0:
238,223,158392,2,0,L|282:238,1,38.5,6|6,0:0|0:0,0:0:0:0:
303,268,158686,2,0,L|346:258,1,38.5,6|6,0:0|0:0,0:0:0:0:
367,227,158980,5,6,0:0:0:0:
379,146,159275,1,4,0:0:0:0:
298,131,159569,1,2,0:0:0:0:
312,51,159863,1,0,0:0:0:0:
391,31,160157,1,6,0:0:0:0:
441,93,160451,1,4,0:0:0:0:
379,146,160745,6,0,P|385:197|419:231,1,77,4|4,0:0|0:0,0:0:0:0:
381,306,161333,2,0,P|325:313|294:342,1,77,2|0,0:0|0:0,0:0:0:0:
230,373,161922,2,0,P|177:369|145:342,1,77,0|4,0:0|0:0,0:0:0:0:
136,269,162510,5,6,0:0:0:0:
204,224,162804,1,4,0:0:0:0:
129,191,163098,1,2,0:0:0:0:
197,147,163392,1,0,0:0:0:0:
271,179,163686,1,6,0:0:0:0:
338,133,163980,1,4,0:0:0:0:
412,168,164275,6,0,P|421:220|406:258,1,77,4|4,0:0|0:0,0:0:0:0:
356,312,164863,2,0,L|274:323,2,77,2|0|4,0:0|0:0|0:0,0:0:0:0:
446,326,165745,1,4,0:0:0:0:
501,262,166039,6,0,P|494:208|474:182,1,77,4|4,0:0|0:0,0:0:0:0:
407,244,166628,2,0,P|361:213|321:209,1,77,2|0,0:0|0:0,0:0:0:0:
334,301,167216,2,0,P|285:297|246:310,1,77,4|4,0:0|0:0,0:0:0:0:
193,369,167804,6,0,P|167:325|175:269,1,77,4|4,0:0|0:0,0:0:0:0:
80,270,168392,2,0,P|100:221|93:175,1,77,2|0,0:0|0:0,0:0:0:0:
180,155,168980,2,0,P|166:91|178:52,1,77,4|4,0:0|0:0,0:0:0:0:
252,42,169569,6,0,L|337:46,1,77,4|4,0:0|0:0,0:0:0:0:
323,138,170157,2,0,P|307:175|311:215,2,77,2|0|0,0:0|0:0|0:0,0:0:0:0:
405,97,171039,1,4,0:0:0:0:
471,161,171333,6,0,P|435:184|382:184,1,77,4|4,0:0|0:0,0:0:0:0:
309,210,171922,2,0,P|305:269|321:300,2,77,2|2|6,0:0|0:0|0:0,0:0:0:0:
343,124,172804,1,6,0:0:0:0:
299,52,173098,6,0,P|248:40|181:64,2,115.500004405976,2|0|0,0:0|0:0|0:0,0:0:0:0:
387,144,174863,6,0,B|365:187|365:235|420:268|413:316|343:343|343:343|312:319|320:290|313:267,1,288.750011014939,2|0,0:0|0:0,0:0:0:0:
291,250,176628,6,0,P|243:237|191:252,1,92.3999971801759,2|0,0:0|0:0,0:0:0:0:
131,305,177804,1,2,0:0:0:0:
69,236,178392,6,0,P|60:174|79:135,1,92.3999971801759,2|2,0:0|0:0,0:0:0:0:
131,78,179569,1,2,0:0:0:0:
213,118,180157,6,0,L|313:100,2,92.3999971801759,2|2|2,0:0|0:0|0:0,0:0:0:0:
144,179,181922,6,0,P|213:210|241:204,1,92.3999971801759,2|0,0:0|0:0,0:0:0:0:
319,207,183098,2,0,P|329:237|326:260,1,46.1999985900879,2|0,0:0|0:0,0:0:0:0:
307,292,183686,6,0,L|197:308,1,92.3999971801759,2|0,0:0|0:0,0:0:0:0:
139,252,184863,1,2,0:0:0:0:
183,170,185451,6,0,P|181:121|154:74,2,92.3999971801759,2|2|2,0:0|0:0|0:0,0:0:0:0:
262,217,187216,5,2,0:0:0:0:
339,154,187805,1,2,0:0:0:0:
435,189,188491,2,0,P|442:231|433:263,1,57.7500022029878,2|0,0:0|0:0,0:0:0:0:
366,312,189442,5,2,0:0:0:0:
