osu file format v14

[General]
AudioFilename: audio.ogg
AudioLeadIn: 0
PreviewTime: 92466
Countdown: 0
SampleSet: Soft
StackLeniency: 0.7
Mode: 3
LetterboxInBreaks: 0
SpecialStyle: 0
WidescreenStoryboard: 0

[Editor]
DistanceSpacing: 1
BeatDivisor: 8
GridSize: 8
TimelineZoom: 4.099997

[Metadata]
Title:Mojito
TitleUnicode:Mojito
Artist:Jay Chou
ArtistUnicode:周杰倫
Creator:AWMRone
Version:Wilben_Chan's Sweet Love
Source:
Tags:exneko wilben_chan ln long note coordination osu!mania 7K World Cup 2022 MWC 7K 2022 MWC22 quarterfinals 周杰伦 周董 chinese pop rap cuba bolero latin 最偉大的作品 Greatest Works of Art JVR Music C-pop Cpop Alang Huang mandarin mandopop Zhōu Jiélún Zhou Jie Lun
BeatmapID:3652345
BeatmapSetID:1783418

[Difficulty]
HPDrainRate:7
CircleSize:7
OverallDifficulty:7
ApproachRate:5
SliderMultiplier:1.4
SliderTickRate:1

[Events]
//Background and Video events
0,0,"mojito.jpg",0,0
//Break Periods
//Storyboard Layer 0 (Background)
//Storyboard Layer 1 (Fail)
//Storyboard Layer 2 (Pass)
//Storyboard Layer 3 (Foreground)
//Storyboard Layer 4 (Overlay)
//Storyboard Sound Samples

[TimingPoints]
903,521.739130434783,4,2,1,30,1,0
92729,-100,4,2,1,30,0,1
109424,-100,4,2,1,30,0,0

[HitObjects]
109,192,120,128,0,381:0:0:0:0:
182,192,381,128,0,642:0:0:0:0:
256,192,642,128,0,903:0:0:0:0:
329,192,903,5,0,0:0:0:0:
36,192,903,1,0,0:0:0:0:
475,192,903,128,0,1424:0:0:0:0:
402,192,903,1,0,0:0:0:0:
182,192,903,1,0,0:0:0:0:
329,192,1163,1,0,0:0:0:0:
109,192,1163,128,0,1424:0:0:0:0:
182,192,1229,1,0,0:0:0:0:
329,192,1294,1,0,0:0:0:0:
36,192,1424,1,0,0:0:0:0:
402,192,1424,128,0,1946:0:0:0:0:
256,192,1424,1,0,0:0:0:0:
182,192,1685,128,0,1946:0:0:0:0:
36,192,1946,1,0,0:0:0:0:
109,192,1946,1,0,0:0:0:0:
475,192,1946,1,0,0:0:0:0:
256,192,1946,1,0,0:0:0:0:
329,192,2207,128,0,2598:0:0:0:0:
109,192,2207,128,0,2337:0:0:0:0:
182,192,2207,1,0,0:0:0:0:
475,192,2207,1,0,0:0:0:0:
182,192,2468,128,0,2859:0:0:0:0:
256,192,2468,1,0,0:0:0:0:
36,192,2468,1,0,0:0:0:0:
402,192,2468,1,0,0:0:0:0:
329,192,2729,128,0,2859:0:0:0:0:
475,192,2729,128,0,2989:0:0:0:0:
109,192,2729,1,0,0:0:0:0:
182,192,2989,1,0,0:0:0:0:
402,192,2989,1,0,0:0:0:0:
36,192,2989,1,0,0:0:0:0:
256,192,2989,128,0,3381:0:0:0:0:
109,192,3250,128,0,3642:0:0:0:0:
402,192,3250,128,0,3381:0:0:0:0:
36,192,3250,1,0,0:0:0:0:
329,192,3511,128,0,3642:0:0:0:0:
182,192,3511,128,0,3642:0:0:0:0:
475,192,3511,1,0,0:0:0:0:
475,192,3772,128,0,3903:0:0:0:0:
256,192,3772,128,0,3903:0:0:0:0:
36,192,3772,128,0,3903:0:0:0:0:
109,192,3772,1,0,0:0:0:0:
329,192,4033,1,0,0:0:0:0:
475,192,4033,1,0,0:0:0:0:
182,192,4033,1,0,0:0:0:0:
109,192,4033,1,0,0:0:0:0:
109,192,4294,128,0,5076:0:0:0:0:
402,192,4294,1,0,0:0:0:0:
256,192,4424,1,0,0:0:0:0:
182,192,4555,128,0,5076:0:0:0:0:
329,192,4555,1,0,0:0:0:0:
402,192,4555,1,0,0:0:0:0:
36,192,4555,1,0,0:0:0:0:
256,192,4816,128,0,5076:0:0:0:0:
402,192,4816,1,0,0:0:0:0:
402,192,5076,1,0,0:0:0:0:
36,192,5076,128,0,5337:0:0:0:0:
329,192,5076,128,0,5598:0:0:0:0:
475,192,5076,128,0,5337:0:0:0:0:
109,192,5337,1,0,0:0:0:0:
256,192,5403,1,0,0:0:0:0:
109,192,5468,1,0,0:0:0:0:
182,192,5598,128,0,6120:0:0:0:0:
36,192,5598,1,0,0:0:0:0:
475,192,5598,128,0,5859:0:0:0:0:
402,192,5598,1,0,0:0:0:0:
36,192,5859,128,0,6120:0:0:0:0:
329,192,5859,128,0,6120:0:0:0:0:
475,192,6120,128,0,6250:0:0:0:0:
109,192,6120,1,0,0:0:0:0:
402,192,6120,1,0,0:0:0:0:
256,192,6120,128,0,6250:0:0:0:0:
475,192,6381,128,0,7163:0:0:0:0:
256,192,6381,128,0,6511:0:0:0:0:
329,192,6381,1,0,0:0:0:0:
402,192,6642,128,0,7163:0:0:0:0:
182,192,6642,1,0,0:0:0:0:
36,192,6642,1,0,0:0:0:0:
256,192,6642,1,0,0:0:0:0:
329,192,6903,128,0,7163:0:0:0:0:
109,192,6903,1,0,0:0:0:0:
182,192,7163,128,0,7685:0:0:0:0:
36,192,7163,1,0,0:0:0:0:
256,192,7163,1,0,0:0:0:0:
475,192,7424,128,0,7555:0:0:0:0:
329,192,7424,128,0,7555:0:0:0:0:
36,192,7685,1,0,0:0:0:0:
402,192,7685,1,0,0:0:0:0:
256,192,7685,1,0,0:0:0:0:
475,192,7685,1,0,0:0:0:0:
329,192,7946,128,0,8076:0:0:0:0:
182,192,7946,128,0,8076:0:0:0:0:
475,192,7946,1,0,0:0:0:0:
36,192,7946,1,0,0:0:0:0:
256,192,8207,1,0,0:0:0:0:
109,192,8207,1,0,0:0:0:0:
475,192,8207,1,0,0:0:0:0:
329,192,8207,1,0,0:0:0:0:
182,192,8468,128,0,8598:0:0:0:0:
36,192,8468,128,0,8598:0:0:0:0:
402,192,8468,128,0,8598:0:0:0:0:
329,192,8468,1,0,0:0:0:0:
402,192,8729,128,0,8859:0:0:0:0:
256,192,8729,1,0,0:0:0:0:
182,192,8729,1,0,0:0:0:0:
36,192,8729,1,0,0:0:0:0:
402,192,8989,128,0,9120:0:0:0:0:
109,192,8989,1,0,0:0:0:0:
256,192,8989,1,0,0:0:0:0:
36,192,8989,1,0,0:0:0:0:
36,192,9250,1,0,0:0:0:0:
256,192,9250,1,0,0:0:0:0:
475,192,9250,1,0,0:0:0:0:
402,192,9250,128,0,9772:0:0:0:0:
182,192,9250,1,0,0:0:0:0:
329,192,9511,1,0,0:0:0:0:
36,192,9511,128,0,9772:0:0:0:0:
109,192,9576,1,0,0:0:0:0:
256,192,9642,1,0,0:0:0:0:
329,192,9772,128,0,10294:0:0:0:0:
475,192,9772,1,0,0:0:0:0:
182,192,9772,1,0,0:0:0:0:
475,192,10033,128,0,10294:0:0:0:0:
256,192,10033,1,0,0:0:0:0:
109,192,10163,1,0,0:0:0:0:
36,192,10294,128,0,10816:0:0:0:0:
402,192,10294,1,0,0:0:0:0:
182,192,10294,1,0,0:0:0:0:
256,192,10294,1,0,0:0:0:0:
109,192,10555,128,0,10816:0:0:0:0:
402,192,10555,128,0,11337:0:0:0:0:
256,192,10555,1,0,0:0:0:0:
182,192,10685,1,0,0:0:0:0:
329,192,10816,128,0,11337:0:0:0:0:
256,192,10816,1,0,0:0:0:0:
475,192,10816,1,0,0:0:0:0:
256,192,11076,128,0,11337:0:0:0:0:
182,192,11076,1,0,0:0:0:0:
36,192,11076,1,0,0:0:0:0:
109,192,11337,128,0,11859:0:0:0:0:
36,192,11337,1,0,0:0:0:0:
182,192,11337,1,0,0:0:0:0:
475,192,11337,128,0,12120:0:0:0:0:
329,192,11598,128,0,11859:0:0:0:0:
256,192,11598,1,0,0:0:0:0:
182,192,11729,1,0,0:0:0:0:
256,192,11859,1,0,0:0:0:0:
36,192,11859,1,0,0:0:0:0:
402,192,11859,128,0,12120:0:0:0:0:
109,192,12120,1,0,0:0:0:0:
36,192,12120,128,0,12381:0:0:0:0:
256,192,12120,128,0,12642:0:0:0:0:
182,192,12250,1,0,0:0:0:0:
475,192,12381,128,0,12642:0:0:0:0:
109,192,12381,1,0,0:0:0:0:
109,192,12642,128,0,13424:0:0:0:0:
36,192,12642,1,0,0:0:0:0:
329,192,12642,1,0,0:0:0:0:
402,192,12642,128,0,12903:0:0:0:0:
182,192,12642,1,0,0:0:0:0:
475,192,12903,1,0,0:0:0:0:
182,192,12903,128,0,13163:0:0:0:0:
329,192,12903,128,0,13163:0:0:0:0:
256,192,13163,128,0,13424:0:0:0:0:
402,192,13163,128,0,13685:0:0:0:0:
182,192,13424,128,0,13685:0:0:0:0:
36,192,13424,128,0,13946:0:0:0:0:
475,192,13424,1,0,0:0:0:0:
329,192,13424,128,0,13685:0:0:0:0:
109,192,13685,1,0,0:0:0:0:
475,192,13685,1,0,0:0:0:0:
256,192,13685,128,0,14207:0:0:0:0:
402,192,13816,1,0,0:0:0:0:
182,192,13946,1,0,0:0:0:0:
109,192,13946,128,0,14207:0:0:0:0:
329,192,13946,1,0,0:0:0:0:
475,192,13946,128,0,14207:0:0:0:0:
36,192,14207,128,0,14729:0:0:0:0:
182,192,14207,128,0,14468:0:0:0:0:
329,192,14207,1,0,0:0:0:0:
402,192,14207,128,0,14989:0:0:0:0:
256,192,14468,1,0,0:0:0:0:
109,192,14468,1,0,0:0:0:0:
475,192,14468,1,0,0:0:0:0:
109,192,14729,128,0,15250:0:0:0:0:
329,192,14729,1,0,0:0:0:0:
256,192,14859,1,0,0:0:0:0:
182,192,14989,1,0,0:0:0:0:
329,192,14989,1,0,0:0:0:0:
475,192,14989,128,0,15250:0:0:0:0:
182,192,15250,128,0,16555:0:0:0:0:
36,192,15250,1,0,0:0:0:0:
256,192,15250,1,0,0:0:0:0:
329,192,15250,128,0,15772:0:0:0:0:
402,192,15250,1,0,0:0:0:0:
256,192,15772,1,0,0:0:0:0:
36,192,15772,1,0,0:0:0:0:
475,192,15772,1,0,0:0:0:0:
256,192,16033,1,0,0:0:0:0:
36,192,16033,1,0,0:0:0:0:
475,192,16033,1,0,0:0:0:0:
402,192,16033,1,0,0:0:0:0:
256,192,16294,1,0,0:0:0:0:
36,192,16294,1,0,0:0:0:0:
475,192,16294,1,0,0:0:0:0:
402,192,16294,1,0,0:0:0:0:
256,192,16555,1,0,0:0:0:0:
36,192,16555,1,0,0:0:0:0:
475,192,16555,1,0,0:0:0:0:
329,192,16555,1,0,0:0:0:0:
109,192,16816,128,0,17337:0:0:0:0:
182,192,17076,128,0,17598:0:0:0:0:
256,192,17337,128,0,17859:0:0:0:0:
36,192,17598,128,0,18381:0:0:0:0:
475,192,17598,128,0,18120:0:0:0:0:
402,192,17598,128,0,17859:0:0:0:0:
109,192,17598,128,0,17859:0:0:0:0:
329,192,17598,1,0,0:0:0:0:
182,192,17859,1,0,0:0:0:0:
329,192,17924,1,0,0:0:0:0:
182,192,17989,1,0,0:0:0:0:
402,192,18120,128,0,18642:0:0:0:0:
109,192,18120,128,0,18381:0:0:0:0:
329,192,18120,128,0,18381:0:0:0:0:
256,192,18120,1,0,0:0:0:0:
256,192,18381,128,0,18642:0:0:0:0:
182,192,18381,1,0,0:0:0:0:
36,192,18642,128,0,19163:0:0:0:0:
109,192,18642,1,0,0:0:0:0:
475,192,18642,1,0,0:0:0:0:
329,192,18642,128,0,19163:0:0:0:0:
182,192,18642,128,0,18903:0:0:0:0:
256,192,18903,128,0,19424:0:0:0:0:
475,192,18903,1,0,0:0:0:0:
182,192,19163,128,0,19685:0:0:0:0:
475,192,19163,128,0,19424:0:0:0:0:
109,192,19163,1,0,0:0:0:0:
402,192,19163,1,0,0:0:0:0:
329,192,19424,128,0,19685:0:0:0:0:
36,192,19424,128,0,19685:0:0:0:0:
256,192,19685,128,0,20207:0:0:0:0:
402,192,19685,1,0,0:0:0:0:
475,192,19685,1,0,0:0:0:0:
109,192,19685,1,0,0:0:0:0:
475,192,19946,1,0,0:0:0:0:
182,192,19946,1,0,0:0:0:0:
36,192,19946,128,0,20468:0:0:0:0:
329,192,20011,1,0,0:0:0:0:
109,192,20076,1,0,0:0:0:0:
182,192,20207,1,0,0:0:0:0:
402,192,20207,1,0,0:0:0:0:
475,192,20207,128,0,20729:0:0:0:0:
402,192,20468,128,0,20729:0:0:0:0:
256,192,20468,128,0,20729:0:0:0:0:
109,192,20468,128,0,20989:0:0:0:0:
329,192,20729,128,0,21250:0:0:0:0:
182,192,20729,128,0,20989:0:0:0:0:
36,192,20989,128,0,21250:0:0:0:0:
256,192,20989,128,0,21511:0:0:0:0:
475,192,20989,128,0,21250:0:0:0:0:
402,192,21250,128,0,21511:0:0:0:0:
182,192,21250,128,0,21772:0:0:0:0:
109,192,21250,1,0,0:0:0:0:
36,192,21511,128,0,22033:0:0:0:0:
329,192,21511,128,0,21772:0:0:0:0:
402,192,21772,128,0,22294:0:0:0:0:
475,192,21772,1,0,0:0:0:0:
256,192,21772,1,0,0:0:0:0:
109,192,21772,128,0,22033:0:0:0:0:
256,192,22033,1,0,0:0:0:0:
182,192,22098,1,0,0:0:0:0:
329,192,22163,1,0,0:0:0:0:
475,192,22294,128,0,22555:0:0:0:0:
109,192,22294,1,0,0:0:0:0:
36,192,22294,128,0,23337:0:0:0:0:
256,192,22294,128,0,22816:0:0:0:0:
402,192,22555,128,0,23076:0:0:0:0:
109,192,22555,128,0,23076:0:0:0:0:
475,192,22816,1,0,0:0:0:0:
329,192,22816,1,0,0:0:0:0:
182,192,22816,128,0,23076:0:0:0:0:
329,192,23076,128,0,23598:0:0:0:0:
475,192,23076,1,0,0:0:0:0:
256,192,23076,128,0,23337:0:0:0:0:
475,192,23337,128,0,23859:0:0:0:0:
109,192,23337,128,0,23598:0:0:0:0:
182,192,23337,1,0,0:0:0:0:
182,192,23598,128,0,24120:0:0:0:0:
256,192,23598,128,0,23859:0:0:0:0:
402,192,23598,1,0,0:0:0:0:
36,192,23598,1,0,0:0:0:0:
36,192,23859,128,0,24903:0:0:0:0:
329,192,23859,1,0,0:0:0:0:
109,192,23859,1,0,0:0:0:0:
402,192,23859,128,0,24381:0:0:0:0:
329,192,24120,1,0,0:0:0:0:
109,192,24185,1,0,0:0:0:0:
256,192,24250,1,0,0:0:0:0:
475,192,24381,1,0,0:0:0:0:
329,192,24381,1,0,0:0:0:0:
182,192,24381,128,0,24903:0:0:0:0:
329,192,24642,128,0,25163:0:0:0:0:
475,192,24903,128,0,25685:0:0:0:0:
256,192,24903,1,0,0:0:0:0:
109,192,24903,128,0,25163:0:0:0:0:
402,192,24903,128,0,25424:0:0:0:0:
182,192,25163,128,0,25685:0:0:0:0:
256,192,25163,128,0,25424:0:0:0:0:
36,192,25163,1,0,0:0:0:0:
329,192,25424,128,0,25946:0:0:0:0:
36,192,25424,128,0,26468:0:0:0:0:
256,192,25685,128,0,26207:0:0:0:0:
402,192,25685,128,0,25946:0:0:0:0:
109,192,25685,128,0,26468:0:0:0:0:
182,192,25946,1,0,0:0:0:0:
475,192,25946,128,0,26468:0:0:0:0:
182,192,26207,1,0,0:0:0:0:
402,192,26272,1,0,0:0:0:0:
256,192,26337,1,0,0:0:0:0:
329,192,26337,128,0,26989:0:0:0:0:
182,192,26468,1,0,0:0:0:0:
256,192,26729,128,0,26989:0:0:0:0:
109,192,26729,1,0,0:0:0:0:
182,192,26989,128,0,27772:0:0:0:0:
36,192,26989,1,0,0:0:0:0:
402,192,26989,1,0,0:0:0:0:
475,192,26989,128,0,27511:0:0:0:0:
36,192,27250,128,0,27772:0:0:0:0:
329,192,27250,128,0,27511:0:0:0:0:
256,192,27511,128,0,28033:0:0:0:0:
402,192,27511,128,0,27772:0:0:0:0:
329,192,27772,128,0,28033:0:0:0:0:
475,192,27772,1,0,0:0:0:0:
109,192,27772,128,0,28033:0:0:0:0:
475,192,28033,128,0,28555:0:0:0:0:
182,192,28033,128,0,29076:0:0:0:0:
36,192,28033,1,0,0:0:0:0:
402,192,28033,128,0,28294:0:0:0:0:
109,192,28294,1,0,0:0:0:0:
256,192,28359,1,0,0:0:0:0:
36,192,28424,1,0,0:0:0:0:
402,192,28424,128,0,28816:0:0:0:0:
329,192,28555,128,0,29076:0:0:0:0:
109,192,28555,1,0,0:0:0:0:
36,192,28816,1,0,0:0:0:0:
256,192,28816,128,0,29076:0:0:0:0:
109,192,29076,1,0,0:0:0:0:
475,192,29076,1,0,0:0:0:0:
36,192,29076,128,0,29337:0:0:0:0:
402,192,29076,128,0,29337:0:0:0:0:
182,192,29337,128,0,29859:0:0:0:0:
475,192,29337,128,0,29859:0:0:0:0:
256,192,29337,1,0,0:0:0:0:
256,192,29598,128,0,30120:0:0:0:0:
36,192,29598,128,0,30120:0:0:0:0:
402,192,29598,128,0,29859:0:0:0:0:
109,192,29598,1,0,0:0:0:0:
329,192,29859,128,0,30381:0:0:0:0:
109,192,30120,128,0,30642:0:0:0:0:
182,192,30120,1,0,0:0:0:0:
402,192,30120,1,0,0:0:0:0:
475,192,30120,128,0,30381:0:0:0:0:
256,192,30381,1,0,0:0:0:0:
402,192,30446,1,0,0:0:0:0:
329,192,30511,1,0,0:0:0:0:
256,192,30642,128,0,30903:0:0:0:0:
182,192,30642,1,0,0:0:0:0:
36,192,30642,128,0,31163:0:0:0:0:
402,192,30642,128,0,31163:0:0:0:0:
475,192,30903,128,0,31424:0:0:0:0:
182,192,30903,128,0,31163:0:0:0:0:
329,192,30903,1,0,0:0:0:0:
256,192,31163,1,0,0:0:0:0:
329,192,31163,128,0,31685:0:0:0:0:
109,192,31163,128,0,31424:0:0:0:0:
256,192,31424,128,0,31685:0:0:0:0:
182,192,31424,1,0,0:0:0:0:
36,192,31424,128,0,31946:0:0:0:0:
402,192,31424,128,0,31946:0:0:0:0:
182,192,31685,128,0,31946:0:0:0:0:
109,192,31685,1,0,0:0:0:0:
475,192,31946,1,0,0:0:0:0:
329,192,31946,1,0,0:0:0:0:
256,192,31946,1,0,0:0:0:0:
256,192,32468,1,0,0:0:0:0:
36,192,32468,1,0,0:0:0:0:
475,192,32468,1,0,0:0:0:0:
256,192,32729,1,0,0:0:0:0:
36,192,32729,1,0,0:0:0:0:
475,192,32729,1,0,0:0:0:0:
329,192,32989,1,0,0:0:0:0:
475,192,32989,1,0,0:0:0:0:
36,192,32989,1,0,0:0:0:0:
256,192,33250,1,0,0:0:0:0:
475,192,33250,1,0,0:0:0:0:
36,192,33250,1,0,0:0:0:0:
109,192,33511,128,0,34294:0:0:0:0:
182,192,33772,128,0,34294:0:0:0:0:
256,192,34033,128,0,34294:0:0:0:0:
36,192,34294,128,0,34816:0:0:0:0:
475,192,34294,128,0,35337:0:0:0:0:
402,192,34294,128,0,34555:0:0:0:0:
329,192,34294,1,0,0:0:0:0:
256,192,34555,1,0,0:0:0:0:
109,192,34620,1,0,0:0:0:0:
329,192,34685,1,0,0:0:0:0:
402,192,34816,1,0,0:0:0:0:
256,192,34816,1,0,0:0:0:0:
182,192,34816,128,0,35076:0:0:0:0:
36,192,35076,128,0,35859:0:0:0:0:
329,192,35076,128,0,35337:0:0:0:0:
182,192,35337,128,0,35859:0:0:0:0:
402,192,35337,128,0,35598:0:0:0:0:
256,192,35337,1,0,0:0:0:0:
109,192,35337,1,0,0:0:0:0:
475,192,35598,1,0,0:0:0:0:
329,192,35598,128,0,35859:0:0:0:0:
256,192,35859,128,0,36120:0:0:0:0:
402,192,35859,1,0,0:0:0:0:
109,192,35859,128,0,36381:0:0:0:0:
475,192,36120,128,0,36381:0:0:0:0:
329,192,36120,1,0,0:0:0:0:
402,192,36381,1,0,0:0:0:0:
329,192,36381,128,0,36903:0:0:0:0:
182,192,36381,128,0,36642:0:0:0:0:
36,192,36381,1,0,0:0:0:0:
256,192,36381,1,0,0:0:0:0:
475,192,36642,128,0,36772:0:0:0:0:
256,192,36642,1,0,0:0:0:0:
182,192,36772,1,0,0:0:0:0:
475,192,36903,128,0,37033:0:0:0:0:
256,192,36903,1,0,0:0:0:0:
36,192,36903,1,0,0:0:0:0:
109,192,36903,128,0,37424:0:0:0:0:
402,192,37163,128,0,37294:0:0:0:0:
256,192,37163,128,0,37294:0:0:0:0:
402,192,37424,128,0,37555:0:0:0:0:
256,192,37424,128,0,37685:0:0:0:0:
36,192,37424,128,0,37946:0:0:0:0:
475,192,37424,1,0,0:0:0:0:
329,192,37685,128,0,37816:0:0:0:0:
182,192,37685,128,0,37816:0:0:0:0:
402,192,37685,1,0,0:0:0:0:
329,192,37946,128,0,38076:0:0:0:0:
256,192,37946,1,0,0:0:0:0:
182,192,37946,128,0,38207:0:0:0:0:
475,192,37946,128,0,38468:0:0:0:0:
256,192,38207,128,0,38468:0:0:0:0:
109,192,38207,1,0,0:0:0:0:
36,192,38207,128,0,38468:0:0:0:0:
402,192,38468,128,0,38989:0:0:0:0:
329,192,38468,1,0,0:0:0:0:
109,192,38468,128,0,38989:0:0:0:0:
182,192,38468,1,0,0:0:0:0:
256,192,38729,1,0,0:0:0:0:
329,192,38794,1,0,0:0:0:0:
182,192,38859,1,0,0:0:0:0:
475,192,38989,1,0,0:0:0:0:
36,192,38989,128,0,39250:0:0:0:0:
256,192,38989,128,0,39511:0:0:0:0:
182,192,39250,128,0,39511:0:0:0:0:
475,192,39250,128,0,39772:0:0:0:0:
402,192,39250,1,0,0:0:0:0:
109,192,39250,1,0,0:0:0:0:
109,192,39511,128,0,40033:0:0:0:0:
329,192,39511,128,0,39772:0:0:0:0:
36,192,39511,1,0,0:0:0:0:
182,192,39772,128,0,40294:0:0:0:0:
402,192,39772,128,0,40033:0:0:0:0:
256,192,39772,1,0,0:0:0:0:
36,192,40033,128,0,40555:0:0:0:0:
475,192,40033,128,0,41076:0:0:0:0:
256,192,40033,128,0,40294:0:0:0:0:
329,192,40033,1,0,0:0:0:0:
402,192,40294,128,0,40816:0:0:0:0:
329,192,40294,128,0,40555:0:0:0:0:
109,192,40294,1,0,0:0:0:0:
109,192,40555,128,0,41076:0:0:0:0:
182,192,40555,1,0,0:0:0:0:
256,192,40555,128,0,40816:0:0:0:0:
329,192,40816,1,0,0:0:0:0:
182,192,40946,1,0,0:0:0:0:
36,192,41076,1,0,0:0:0:0:
402,192,41076,128,0,41598:0:0:0:0:
256,192,41076,128,0,41337:0:0:0:0:
109,192,41337,128,0,41598:0:0:0:0:
36,192,41337,128,0,41598:0:0:0:0:
182,192,41337,1,0,0:0:0:0:
329,192,41337,128,0,41598:0:0:0:0:
182,192,41598,128,0,42642:0:0:0:0:
475,192,41598,128,0,42120:0:0:0:0:
256,192,41598,1,0,0:0:0:0:
36,192,41859,128,0,42642:0:0:0:0:
109,192,41859,1,0,0:0:0:0:
329,192,41859,1,0,0:0:0:0:
329,192,42120,128,0,42642:0:0:0:0:
256,192,42120,1,0,0:0:0:0:
475,192,42381,128,0,42642:0:0:0:0:
402,192,42381,1,0,0:0:0:0:
256,192,42642,128,0,43163:0:0:0:0:
109,192,42642,128,0,43685:0:0:0:0:
475,192,42903,1,0,0:0:0:0:
329,192,42968,1,0,0:0:0:0:
475,192,43033,1,0,0:0:0:0:
329,192,43163,1,0,0:0:0:0:
36,192,43163,1,0,0:0:0:0:
182,192,43163,128,0,43424:0:0:0:0:
402,192,43163,128,0,43685:0:0:0:0:
256,192,43424,128,0,43946:0:0:0:0:
329,192,43424,1,0,0:0:0:0:
475,192,43685,128,0,44207:0:0:0:0:
36,192,43685,128,0,44729:0:0:0:0:
329,192,43685,128,0,44207:0:0:0:0:
182,192,43685,1,0,0:0:0:0:
109,192,43946,128,0,44468:0:0:0:0:
402,192,43946,1,0,0:0:0:0:
182,192,43946,128,0,44207:0:0:0:0:
256,192,44207,128,0,44468:0:0:0:0:
402,192,44207,1,0,0:0:0:0:
475,192,44468,128,0,44729:0:0:0:0:
182,192,44468,128,0,44729:0:0:0:0:
329,192,44468,128,0,44729:0:0:0:0:
109,192,44729,128,0,45511:0:0:0:0:
402,192,44729,128,0,45250:0:0:0:0:
256,192,44729,128,0,44989:0:0:0:0:
329,192,44989,1,0,0:0:0:0:
182,192,45120,1,0,0:0:0:0:
329,192,45250,128,0,45772:0:0:0:0:
256,192,45250,1,0,0:0:0:0:
475,192,45250,128,0,45511:0:0:0:0:
36,192,45250,128,0,45511:0:0:0:0:
182,192,45511,128,0,46033:0:0:0:0:
256,192,45511,1,0,0:0:0:0:
402,192,45511,1,0,0:0:0:0:
36,192,45772,1,0,0:0:0:0:
475,192,45772,1,0,0:0:0:0:
256,192,45772,128,0,46294:0:0:0:0:
402,192,45772,1,0,0:0:0:0:
329,192,46033,128,0,46555:0:0:0:0:
36,192,46033,128,0,46555:0:0:0:0:
402,192,46033,1,0,0:0:0:0:
109,192,46294,128,0,46555:0:0:0:0:
182,192,46294,1,0,0:0:0:0:
475,192,46294,128,0,46816:0:0:0:0:
182,192,46555,128,0,47076:0:0:0:0:
402,192,46555,1,0,0:0:0:0:
256,192,46555,1,0,0:0:0:0:
402,192,46816,128,0,47337:0:0:0:0:
329,192,46816,1,0,0:0:0:0:
36,192,46816,128,0,47076:0:0:0:0:
109,192,46816,128,0,47337:0:0:0:0:
329,192,47076,128,0,47598:0:0:0:0:
475,192,47076,1,0,0:0:0:0:
256,192,47076,1,0,0:0:0:0:
182,192,47337,1,0,0:0:0:0:
256,192,47337,128,0,47598:0:0:0:0:
36,192,47337,1,0,0:0:0:0:
402,192,47598,128,0,48120:0:0:0:0:
109,192,47598,1,0,0:0:0:0:
182,192,47598,128,0,47859:0:0:0:0:
475,192,47598,1,0,0:0:0:0:
36,192,47598,128,0,48120:0:0:0:0:
256,192,47859,128,0,48381:0:0:0:0:
329,192,47859,1,0,0:0:0:0:
109,192,48120,128,0,48642:0:0:0:0:
475,192,48120,1,0,0:0:0:0:
182,192,48120,1,0,0:0:0:0:
402,192,48381,128,0,48903:0:0:0:0:
329,192,48381,128,0,48642:0:0:0:0:
475,192,48381,128,0,48642:0:0:0:0:
182,192,48381,1,0,0:0:0:0:
182,192,48642,128,0,48903:0:0:0:0:
36,192,48642,128,0,48903:0:0:0:0:
256,192,48642,1,0,0:0:0:0:
329,192,48903,128,0,49946:0:0:0:0:
256,192,48903,128,0,49163:0:0:0:0:
475,192,48903,1,0,0:0:0:0:
109,192,48903,1,0,0:0:0:0:
475,192,49163,128,0,49685:0:0:0:0:
36,192,49163,128,0,49424:0:0:0:0:
182,192,49163,1,0,0:0:0:0:
402,192,49294,1,0,0:0:0:0:
109,192,49424,128,0,49946:0:0:0:0:
256,192,49424,1,0,0:0:0:0:
402,192,49685,128,0,50468:0:0:0:0:
182,192,49685,1,0,0:0:0:0:
256,192,49946,128,0,50468:0:0:0:0:
36,192,49946,128,0,50468:0:0:0:0:
475,192,49946,1,0,0:0:0:0:
182,192,49946,1,0,0:0:0:0:
182,192,50207,128,0,50729:0:0:0:0:
329,192,50207,1,0,0:0:0:0:
329,192,50468,128,0,50989:0:0:0:0:
109,192,50468,1,0,0:0:0:0:
475,192,50468,128,0,50729:0:0:0:0:
36,192,50729,128,0,51511:0:0:0:0:
402,192,50729,128,0,51250:0:0:0:0:
109,192,50729,128,0,50989:0:0:0:0:
256,192,50729,1,0,0:0:0:0:
256,192,50989,128,0,51511:0:0:0:0:
182,192,50989,1,0,0:0:0:0:
475,192,51250,128,0,51381:0:0:0:0:
109,192,51250,128,0,51511:0:0:0:0:
402,192,51381,128,0,51511:0:0:0:0:
329,192,51511,128,0,51642:0:0:0:0:
182,192,51511,128,0,52033:0:0:0:0:
402,192,51642,128,0,51772:0:0:0:0:
475,192,51772,128,0,53076:0:0:0:0:
329,192,51772,128,0,52294:0:0:0:0:
36,192,51772,128,0,52555:0:0:0:0:
109,192,52033,128,0,52555:0:0:0:0:
256,192,52033,1,0,0:0:0:0:
402,192,52033,1,0,0:0:0:0:
256,192,52294,1,0,0:0:0:0:
182,192,52294,128,0,52816:0:0:0:0:
256,192,52555,128,0,53076:0:0:0:0:
329,192,52555,1,0,0:0:0:0:
402,192,52555,128,0,52816:0:0:0:0:
36,192,52816,128,0,53076:0:0:0:0:
109,192,52816,1,0,0:0:0:0:
329,192,53076,1,0,0:0:0:0:
182,192,53076,128,0,53598:0:0:0:0:
109,192,53076,1,0,0:0:0:0:
402,192,53076,128,0,53337:0:0:0:0:
36,192,53337,128,0,53598:0:0:0:0:
256,192,53337,1,0,0:0:0:0:
475,192,53403,1,0,0:0:0:0:
329,192,53468,1,0,0:0:0:0:
109,192,53598,1,0,0:0:0:0:
475,192,53598,1,0,0:0:0:0:
256,192,53598,128,0,54120:0:0:0:0:
402,192,53598,128,0,53859:0:0:0:0:
329,192,53859,1,0,0:0:0:0:
109,192,53859,1,0,0:0:0:0:
36,192,53989,1,0,0:0:0:0:
109,192,54120,128,0,54642:0:0:0:0:
402,192,54120,128,0,54642:0:0:0:0:
182,192,54120,128,0,54381:0:0:0:0:
475,192,54120,1,0,0:0:0:0:
329,192,54381,128,0,54903:0:0:0:0:
256,192,54381,1,0,0:0:0:0:
256,192,54642,128,0,55163:0:0:0:0:
475,192,54642,128,0,55163:0:0:0:0:
182,192,54642,1,0,0:0:0:0:
36,192,54642,128,0,55685:0:0:0:0:
182,192,54903,128,0,55424:0:0:0:0:
402,192,54903,1,0,0:0:0:0:
329,192,55163,128,0,55685:0:0:0:0:
109,192,55163,1,0,0:0:0:0:
402,192,55163,128,0,55424:0:0:0:0:
475,192,55424,128,0,56729:0:0:0:0:
256,192,55424,1,0,0:0:0:0:
109,192,55555,1,0,0:0:0:0:
402,192,55685,1,0,0:0:0:0:
182,192,55685,1,0,0:0:0:0:
256,192,55685,128,0,56207:0:0:0:0:
402,192,55946,128,0,56207:0:0:0:0:
36,192,55946,128,0,56468:0:0:0:0:
109,192,55946,1,0,0:0:0:0:
329,192,56207,128,0,56729:0:0:0:0:
109,192,56207,128,0,56468:0:0:0:0:
182,192,56207,1,0,0:0:0:0:
182,192,56468,128,0,56729:0:0:0:0:
256,192,56468,1,0,0:0:0:0:
36,192,56729,128,0,57772:0:0:0:0:
109,192,56729,1,0,0:0:0:0:
402,192,56729,128,0,57250:0:0:0:0:
256,192,56729,128,0,56989:0:0:0:0:
182,192,56989,128,0,57250:0:0:0:0:
329,192,56989,1,0,0:0:0:0:
329,192,57250,128,0,57772:0:0:0:0:
109,192,57250,128,0,57772:0:0:0:0:
475,192,57250,1,0,0:0:0:0:
256,192,57250,1,0,0:0:0:0:
182,192,57511,128,0,58033:0:0:0:0:
475,192,57511,128,0,58294:0:0:0:0:
256,192,57772,128,0,58294:0:0:0:0:
402,192,57772,128,0,58033:0:0:0:0:
329,192,58033,128,0,58555:0:0:0:0:
109,192,58033,1,0,0:0:0:0:
402,192,58294,128,0,58555:0:0:0:0:
182,192,58294,1,0,0:0:0:0:
36,192,58294,128,0,59337:0:0:0:0:
475,192,58555,128,0,59337:0:0:0:0:
109,192,58555,128,0,59076:0:0:0:0:
256,192,58555,1,0,0:0:0:0:
402,192,58816,128,0,59337:0:0:0:0:
182,192,58816,128,0,59076:0:0:0:0:
329,192,58816,1,0,0:0:0:0:
329,192,59076,128,0,59337:0:0:0:0:
256,192,59076,1,0,0:0:0:0:
256,192,59337,128,0,60381:0:0:0:0:
182,192,59337,1,0,0:0:0:0:
109,192,59337,128,0,59859:0:0:0:0:
36,192,59598,1,0,0:0:0:0:
475,192,59598,1,0,0:0:0:0:
182,192,59663,1,0,0:0:0:0:
329,192,59729,1,0,0:0:0:0:
402,192,59859,1,0,0:0:0:0:
182,192,59859,1,0,0:0:0:0:
36,192,59859,128,0,60381:0:0:0:0:
475,192,59859,1,0,0:0:0:0:
329,192,60120,128,0,60381:0:0:0:0:
475,192,60120,128,0,60381:0:0:0:0:
182,192,60381,128,0,60903:0:0:0:0:
109,192,60381,1,0,0:0:0:0:
402,192,60381,1,0,0:0:0:0:
329,192,60642,128,0,61163:0:0:0:0:
36,192,60642,1,0,0:0:0:0:
109,192,60772,1,0,0:0:0:0:
36,192,60903,128,0,61424:0:0:0:0:
256,192,60903,1,0,0:0:0:0:
475,192,60903,128,0,61424:0:0:0:0:
402,192,60903,1,0,0:0:0:0:
182,192,61163,128,0,61424:0:0:0:0:
109,192,61163,1,0,0:0:0:0:
256,192,61163,1,0,0:0:0:0:
256,192,61424,1,0,0:0:0:0:
109,192,61424,128,0,61946:0:0:0:0:
329,192,61424,128,0,61685:0:0:0:0:
402,192,61424,1,0,0:0:0:0:
402,192,61685,128,0,61946:0:0:0:0:
256,192,61685,1,0,0:0:0:0:
182,192,61750,1,0,0:0:0:0:
329,192,61816,1,0,0:0:0:0:
36,192,61946,128,0,62468:0:0:0:0:
256,192,61946,1,0,0:0:0:0:
475,192,61946,128,0,62989:0:0:0:0:
182,192,62207,128,0,62989:0:0:0:0:
402,192,62207,128,0,62468:0:0:0:0:
256,192,62337,1,0,0:0:0:0:
329,192,62468,128,0,63511:0:0:0:0:
109,192,62468,1,0,0:0:0:0:
256,192,62729,1,0,0:0:0:0:
36,192,62729,128,0,62989:0:0:0:0:
402,192,62989,1,0,0:0:0:0:
256,192,62989,1,0,0:0:0:0:
109,192,62989,1,0,0:0:0:0:
109,192,63250,1,0,0:0:0:0:
256,192,63250,1,0,0:0:0:0:
475,192,63250,128,0,63511:0:0:0:0:
402,192,63511,1,0,0:0:0:0:
256,192,63511,1,0,0:0:0:0:
36,192,63511,1,0,0:0:0:0:
182,192,63511,128,0,64033:0:0:0:0:
402,192,63772,1,0,0:0:0:0:
109,192,63772,128,0,64033:0:0:0:0:
329,192,63903,1,0,0:0:0:0:
256,192,64033,128,0,64555:0:0:0:0:
36,192,64033,128,0,65076:0:0:0:0:
475,192,64033,1,0,0:0:0:0:
109,192,64294,128,0,64555:0:0:0:0:
475,192,64294,1,0,0:0:0:0:
402,192,64424,1,0,0:0:0:0:
182,192,64555,128,0,64816:0:0:0:0:
475,192,64555,128,0,65337:0:0:0:0:
329,192,64555,1,0,0:0:0:0:
256,192,64816,128,0,65076:0:0:0:0:
109,192,64816,1,0,0:0:0:0:
402,192,64946,1,0,0:0:0:0:
329,192,65076,128,0,65337:0:0:0:0:
109,192,65076,128,0,65598:0:0:0:0:
182,192,65076,1,0,0:0:0:0:
182,192,65337,128,0,65598:0:0:0:0:
402,192,65337,128,0,65598:0:0:0:0:
36,192,65598,128,0,66642:0:0:0:0:
256,192,65598,1,0,0:0:0:0:
475,192,65598,1,0,0:0:0:0:
329,192,65598,128,0,65859:0:0:0:0:
402,192,65859,128,0,65989:0:0:0:0:
109,192,65859,1,0,0:0:0:0:
256,192,65989,128,0,66120:0:0:0:0:
182,192,65989,1,0,0:0:0:0:
329,192,66120,128,0,66250:0:0:0:0:
109,192,66120,1,0,0:0:0:0:
475,192,66120,1,0,0:0:0:0:
182,192,66250,128,0,66381:0:0:0:0:
256,192,66381,128,0,66511:0:0:0:0:
475,192,66381,1,0,0:0:0:0:
109,192,66511,128,0,66642:0:0:0:0:
402,192,66511,1,0,0:0:0:0:
182,192,66642,128,0,66903:0:0:0:0:
329,192,66642,1,0,0:0:0:0:
475,192,66642,1,0,0:0:0:0:
36,192,66903,128,0,67424:0:0:0:0:
256,192,66903,128,0,67163:0:0:0:0:
402,192,66903,1,0,0:0:0:0:
109,192,67163,128,0,67424:0:0:0:0:
329,192,67163,128,0,67424:0:0:0:0:
182,192,67163,1,0,0:0:0:0:
475,192,67163,1,0,0:0:0:0:
182,192,67424,128,0,67685:0:0:0:0:
402,192,67424,128,0,67685:0:0:0:0:
475,192,67424,128,0,67946:0:0:0:0:
256,192,67685,128,0,67946:0:0:0:0:
109,192,67685,1,0,0:0:0:0:
329,192,67685,1,0,0:0:0:0:
36,192,67685,128,0,68729:0:0:0:0:
182,192,67946,128,0,68729:0:0:0:0:
329,192,68207,128,0,68468:0:0:0:0:
402,192,68207,1,0,0:0:0:0:
475,192,68468,128,0,68729:0:0:0:0:
256,192,68468,1,0,0:0:0:0:
109,192,68468,1,0,0:0:0:0:
402,192,68729,128,0,68859:0:0:0:0:
256,192,68729,1,0,0:0:0:0:
109,192,68729,128,0,69250:0:0:0:0:
329,192,68859,128,0,68989:0:0:0:0:
402,192,68989,128,0,69772:0:0:0:0:
256,192,68989,128,0,69250:0:0:0:0:
182,192,69250,128,0,69511:0:0:0:0:
36,192,69250,1,0,0:0:0:0:
475,192,69250,1,0,0:0:0:0:
36,192,69511,128,0,69772:0:0:0:0:
256,192,69511,1,0,0:0:0:0:
329,192,69511,1,0,0:0:0:0:
109,192,69772,128,0,70294:0:0:0:0:
256,192,69772,128,0,70033:0:0:0:0:
475,192,69772,128,0,70555:0:0:0:0:
182,192,69772,1,0,0:0:0:0:
329,192,69772,1,0,0:0:0:0:
182,192,70033,128,0,70294:0:0:0:0:
329,192,70033,1,0,0:0:0:0:
402,192,70163,1,0,0:0:0:0:
329,192,70294,1,0,0:0:0:0:
36,192,70294,128,0,70816:0:0:0:0:
256,192,70294,128,0,70555:0:0:0:0:
329,192,70555,128,0,70816:0:0:0:0:
182,192,70555,1,0,0:0:0:0:
402,192,70555,1,0,0:0:0:0:
109,192,70816,128,0,70946:0:0:0:0:
402,192,70816,128,0,71337:0:0:0:0:
475,192,70816,1,0,0:0:0:0:
256,192,70816,1,0,0:0:0:0:
182,192,70946,128,0,71076:0:0:0:0:
109,192,71076,128,0,71859:0:0:0:0:
256,192,71076,128,0,71337:0:0:0:0:
329,192,71337,128,0,71598:0:0:0:0:
36,192,71337,1,0,0:0:0:0:
182,192,71337,1,0,0:0:0:0:
475,192,71337,1,0,0:0:0:0:
402,192,71598,128,0,71859:0:0:0:0:
182,192,71598,128,0,71859:0:0:0:0:
256,192,71598,1,0,0:0:0:0:
475,192,71598,1,0,0:0:0:0:
256,192,71859,1,0,0:0:0:0:
36,192,71859,1,0,0:0:0:0:
475,192,71859,1,0,0:0:0:0:
329,192,71859,1,0,0:0:0:0:
256,192,72903,1,0,0:0:0:0:
36,192,72903,1,0,0:0:0:0:
182,192,72903,1,0,0:0:0:0:
475,192,72903,1,0,0:0:0:0:
36,192,73946,1,0,0:0:0:0:
329,192,73946,1,0,0:0:0:0:
475,192,73946,1,0,0:0:0:0:
256,192,73946,1,0,0:0:0:0:
475,192,74468,1,0,0:0:0:0:
402,192,74468,1,0,0:0:0:0:
36,192,74468,1,0,0:0:0:0:
109,192,74468,1,0,0:0:0:0:
329,192,74555,1,0,0:0:0:0:
256,192,74642,1,0,0:0:0:0:
36,192,74729,1,0,0:0:0:0:
182,192,74729,1,0,0:0:0:0:
402,192,74729,1,0,0:0:0:0:
475,192,74729,1,0,0:0:0:0:
256,192,74816,1,0,0:0:0:0:
329,192,74903,1,0,0:0:0:0:
36,192,74989,1,0,0:0:0:0:
109,192,74989,1,0,0:0:0:0:
402,192,74989,1,0,0:0:0:0:
475,192,74989,1,0,0:0:0:0:
329,192,75250,1,0,0:0:0:0:
109,192,75294,128,0,75511:0:0:0:0:
182,192,75511,1,0,0:0:0:0:
475,192,75511,1,0,0:0:0:0:
329,192,75598,128,0,75772:0:0:0:0:
402,192,75772,1,0,0:0:0:0:
36,192,75772,1,0,0:0:0:0:
182,192,75837,128,0,76033:0:0:0:0:
475,192,76033,128,0,76555:0:0:0:0:
402,192,76033,1,0,0:0:0:0:
256,192,76033,1,0,0:0:0:0:
36,192,76033,128,0,76294:0:0:0:0:
182,192,76196,1,0,0:0:0:0:
256,192,76261,1,0,0:0:0:0:
329,192,76326,1,0,0:0:0:0:
182,192,76392,1,0,0:0:0:0:
36,192,76555,128,0,77337:0:0:0:0:
109,192,76555,1,0,0:0:0:0:
402,192,76555,1,0,0:0:0:0:
256,192,76555,128,0,76816:0:0:0:0:
475,192,76816,128,0,77076:0:0:0:0:
182,192,76816,1,0,0:0:0:0:
256,192,76946,1,0,0:0:0:0:
182,192,77076,1,0,0:0:0:0:
329,192,77076,1,0,0:0:0:0:
256,192,77337,128,0,77598:0:0:0:0:
402,192,77337,128,0,77598:0:0:0:0:
109,192,77337,1,0,0:0:0:0:
475,192,77337,1,0,0:0:0:0:
329,192,77468,1,0,0:0:0:0:
36,192,77598,128,0,79163:0:0:0:0:
182,192,77598,1,0,0:0:0:0:
475,192,77598,1,0,0:0:0:0:
109,192,77859,128,0,79163:0:0:0:0:
329,192,77859,128,0,78120:0:0:0:0:
256,192,77859,1,0,0:0:0:0:
475,192,77859,1,0,0:0:0:0:
182,192,78120,1,0,0:0:0:0:
475,192,78120,1,0,0:0:0:0:
402,192,78381,128,0,78642:0:0:0:0:
329,192,78381,1,0,0:0:0:0:
256,192,78511,1,0,0:0:0:0:
329,192,78642,1,0,0:0:0:0:
182,192,78642,1,0,0:0:0:0:
475,192,78642,1,0,0:0:0:0:
256,192,78903,128,0,79033:0:0:0:0:
402,192,78903,128,0,79033:0:0:0:0:
475,192,78903,1,0,0:0:0:0:
329,192,79033,1,0,0:0:0:0:
256,192,79163,128,0,79294:0:0:0:0:
402,192,79163,128,0,79294:0:0:0:0:
475,192,79163,1,0,0:0:0:0:
182,192,79424,128,0,79946:0:0:0:0:
256,192,79424,1,0,0:0:0:0:
36,192,79424,1,0,0:0:0:0:
402,192,79424,128,0,79685:0:0:0:0:
329,192,79685,128,0,80207:0:0:0:0:
36,192,79685,128,0,79946:0:0:0:0:
475,192,79685,1,0,0:0:0:0:
475,192,79946,128,0,80468:0:0:0:0:
109,192,79946,1,0,0:0:0:0:
256,192,79946,1,0,0:0:0:0:
109,192,80207,128,0,81250:0:0:0:0:
256,192,80207,128,0,80729:0:0:0:0:
36,192,80207,1,0,0:0:0:0:
182,192,80207,1,0,0:0:0:0:
402,192,80207,1,0,0:0:0:0:
329,192,80468,1,0,0:0:0:0:
182,192,80533,1,0,0:0:0:0:
402,192,80663,1,0,0:0:0:0:
475,192,80729,128,0,81250:0:0:0:0:
329,192,80729,1,0,0:0:0:0:
36,192,80729,128,0,81250:0:0:0:0:
182,192,80729,128,0,80989:0:0:0:0:
329,192,80989,128,0,81250:0:0:0:0:
256,192,80989,1,0,0:0:0:0:
256,192,81250,128,0,81511:0:0:0:0:
182,192,81250,1,0,0:0:0:0:
402,192,81250,1,0,0:0:0:0:
402,192,81511,128,0,81772:0:0:0:0:
109,192,81511,128,0,81772:0:0:0:0:
329,192,81511,1,0,0:0:0:0:
182,192,81772,128,0,82294:0:0:0:0:
475,192,81772,128,0,82033:0:0:0:0:
36,192,81772,1,0,0:0:0:0:
256,192,81772,1,0,0:0:0:0:
329,192,82033,128,0,82294:0:0:0:0:
36,192,82033,128,0,82555:0:0:0:0:
402,192,82033,1,0,0:0:0:0:
402,192,82294,128,0,82424:0:0:0:0:
256,192,82294,1,0,0:0:0:0:
109,192,82294,128,0,82555:0:0:0:0:
475,192,82294,128,0,82424:0:0:0:0:
329,192,82424,128,0,82555:0:0:0:0:
402,192,82555,128,0,83598:0:0:0:0:
182,192,82555,1,0,0:0:0:0:
475,192,82555,1,0,0:0:0:0:
256,192,82555,128,0,83207:0:0:0:0:
36,192,82816,1,0,0:0:0:0:
182,192,82816,1,0,0:0:0:0:
182,192,83076,128,0,83207:0:0:0:0:
36,192,83076,128,0,83207:0:0:0:0:
475,192,83076,1,0,0:0:0:0:
329,192,83207,1,0,0:0:0:0:
36,192,83337,128,0,83598:0:0:0:0:
182,192,83337,128,0,83598:0:0:0:0:
475,192,83337,1,0,0:0:0:0:
329,192,83598,1,0,0:0:0:0:
109,192,83598,1,0,0:0:0:0:
182,192,83663,1,0,0:0:0:0:
256,192,83729,1,0,0:0:0:0:
36,192,83859,128,0,84381:0:0:0:0:
329,192,83859,128,0,84120:0:0:0:0:
475,192,83859,1,0,0:0:0:0:
109,192,83859,128,0,84120:0:0:0:0:
182,192,83859,1,0,0:0:0:0:
256,192,84120,128,0,84381:0:0:0:0:
402,192,84120,128,0,84381:0:0:0:0:
475,192,84120,128,0,84642:0:0:0:0:
182,192,84381,128,0,84642:0:0:0:0:
109,192,84381,128,0,84903:0:0:0:0:
329,192,84381,1,0,0:0:0:0:
329,192,84642,128,0,84903:0:0:0:0:
256,192,84642,1,0,0:0:0:0:
182,192,84772,1,0,0:0:0:0:
256,192,84903,128,0,85163:0:0:0:0:
36,192,84903,128,0,85163:0:0:0:0:
475,192,84903,1,0,0:0:0:0:
402,192,84903,1,0,0:0:0:0:
109,192,85163,128,0,85555:0:0:0:0:
402,192,85163,128,0,85555:0:0:0:0:
182,192,85163,1,0,0:0:0:0:
475,192,85163,1,0,0:0:0:0:
329,192,85294,1,0,0:0:0:0:
256,192,85424,1,0,0:0:0:0:
36,192,85685,128,0,86076:0:0:0:0:
475,192,85685,128,0,86076:0:0:0:0:
402,192,85685,1,0,0:0:0:0:
329,192,85685,1,0,0:0:0:0:
109,192,85685,1,0,0:0:0:0:
182,192,85816,1,0,0:0:0:0:
256,192,85946,1,0,0:0:0:0:
329,192,85946,1,0,0:0:0:0:
182,192,86207,1,0,0:0:0:0:
256,192,86207,1,0,0:0:0:0:
36,192,86207,128,0,86598:0:0:0:0:
475,192,86207,128,0,86598:0:0:0:0:
109,192,86468,1,0,0:0:0:0:
402,192,86468,1,0,0:0:0:0:
256,192,86468,1,0,0:0:0:0:
182,192,86729,128,0,86989:0:0:0:0:
109,192,86729,1,0,0:0:0:0:
329,192,86729,128,0,86989:0:0:0:0:
402,192,86729,1,0,0:0:0:0:
475,192,86859,1,0,0:0:0:0:
256,192,86989,128,0,87250:0:0:0:0:
36,192,86989,1,0,0:0:0:0:
402,192,86989,1,0,0:0:0:0:
109,192,86989,1,0,0:0:0:0:
402,192,87250,128,0,87642:0:0:0:0:
109,192,87250,128,0,87642:0:0:0:0:
182,192,87250,1,0,0:0:0:0:
256,192,87381,1,0,0:0:0:0:
182,192,87511,1,0,0:0:0:0:
329,192,87511,1,0,0:0:0:0:
36,192,87772,128,0,88163:0:0:0:0:
475,192,87772,128,0,88163:0:0:0:0:
109,192,87772,1,0,0:0:0:0:
256,192,87837,1,0,0:0:0:0:
402,192,87903,1,0,0:0:0:0:
329,192,88033,1,0,0:0:0:0:
109,192,88033,1,0,0:0:0:0:
182,192,88098,1,0,0:0:0:0:
256,192,88163,1,0,0:0:0:0:
329,192,88229,1,0,0:0:0:0:
109,192,88294,1,0,0:0:0:0:
402,192,88294,1,0,0:0:0:0:
329,192,88359,1,0,0:0:0:0:
256,192,88424,1,0,0:0:0:0:
182,192,88489,1,0,0:0:0:0:
329,192,88555,1,0,0:0:0:0:
109,192,88555,1,0,0:0:0:0:
36,192,88555,1,0,0:0:0:0:
475,192,88555,1,0,0:0:0:0:
182,192,88816,1,0,0:0:0:0:
329,192,89076,1,0,0:0:0:0:
109,192,89337,1,0,0:0:0:0:
36,192,89598,128,0,89685:0:0:0:0:
256,192,89598,128,0,89685:0:0:0:0:
109,192,89598,128,0,89685:0:0:0:0:
402,192,89598,128,0,89685:0:0:0:0:
109,192,89772,128,0,89859:0:0:0:0:
329,192,89772,128,0,89859:0:0:0:0:
182,192,89772,128,0,89859:0:0:0:0:
475,192,89772,128,0,89859:0:0:0:0:
182,192,89946,128,0,90033:0:0:0:0:
402,192,89946,128,0,90033:0:0:0:0:
256,192,89946,128,0,90033:0:0:0:0:
36,192,89946,128,0,90033:0:0:0:0:
256,192,90120,128,0,90207:0:0:0:0:
475,192,90120,128,0,90207:0:0:0:0:
329,192,90120,128,0,90207:0:0:0:0:
109,192,90120,128,0,90207:0:0:0:0:
329,192,90294,128,0,90381:0:0:0:0:
402,192,90294,128,0,90381:0:0:0:0:
182,192,90294,128,0,90381:0:0:0:0:
36,192,90294,128,0,90381:0:0:0:0:
402,192,90468,128,0,90555:0:0:0:0:
475,192,90468,128,0,90555:0:0:0:0:
109,192,90468,128,0,90555:0:0:0:0:
256,192,90468,128,0,90555:0:0:0:0:
36,192,90642,128,0,90729:0:0:0:0:
182,192,90642,128,0,90729:0:0:0:0:
329,192,90642,128,0,90729:0:0:0:0:
475,192,90642,128,0,90729:0:0:0:0:
329,192,91033,1,0,0:0:0:0:
182,192,91098,1,0,0:0:0:0:
329,192,91163,1,0,0:0:0:0:
402,192,91424,1,0,0:0:0:0:
256,192,91424,1,0,0:0:0:0:
109,192,91555,1,0,0:0:0:0:
182,192,91685,1,0,0:0:0:0:
36,192,91685,1,0,0:0:0:0:
475,192,91685,1,0,0:0:0:0:
329,192,91685,1,0,0:0:0:0:
475,192,91946,1,0,0:0:0:0:
329,192,91946,1,0,0:0:0:0:
182,192,91946,1,0,0:0:0:0:
36,192,91946,1,0,0:0:0:0:
36,192,92207,1,0,0:0:0:0:
182,192,92207,1,0,0:0:0:0:
256,192,92207,1,0,0:0:0:0:
329,192,92207,1,0,0:0:0:0:
475,192,92207,1,0,0:0:0:0:
329,192,92468,128,0,92729:0:0:0:0:
256,192,92598,128,0,92729:0:0:0:0:
182,192,92729,1,0,0:0:0:0:
36,192,92729,1,0,0:0:0:0:
109,192,92729,128,0,92989:0:0:0:0:
402,192,92729,128,0,92989:0:0:0:0:
475,192,92729,128,0,93511:0:0:0:0:
329,192,92989,128,0,93511:0:0:0:0:
256,192,92989,128,0,93120:0:0:0:0:
182,192,93120,128,0,93250:0:0:0:0:
402,192,93250,128,0,93511:0:0:0:0:
256,192,93250,1,0,0:0:0:0:
36,192,93250,128,0,94033:0:0:0:0:
109,192,93250,128,0,93642:0:0:0:0:
256,192,93511,128,0,94033:0:0:0:0:
182,192,93511,128,0,93903:0:0:0:0:
402,192,93642,128,0,93772:0:0:0:0:
475,192,93642,128,0,93772:0:0:0:0:
329,192,93772,128,0,94033:0:0:0:0:
109,192,93772,128,0,93903:0:0:0:0:
475,192,93903,128,0,94294:0:0:0:0:
182,192,94033,128,0,94294:0:0:0:0:
402,192,94033,128,0,94294:0:0:0:0:
109,192,94033,128,0,94816:0:0:0:0:
256,192,94294,1,0,0:0:0:0:
329,192,94294,128,0,94816:0:0:0:0:
36,192,94294,128,0,94555:0:0:0:0:
402,192,94555,1,0,0:0:0:0:
256,192,94685,1,0,0:0:0:0:
182,192,94816,128,0,95337:0:0:0:0:
36,192,94816,128,0,95859:0:0:0:0:
256,192,94816,1,0,0:0:0:0:
475,192,94816,128,0,95207:0:0:0:0:
402,192,95076,128,0,95468:0:0:0:0:
109,192,95076,128,0,95598:0:0:0:0:
256,192,95076,1,0,0:0:0:0:
329,192,95337,1,0,0:0:0:0:
475,192,95337,128,0,95729:0:0:0:0:
256,192,95337,128,0,95859:0:0:0:0:
182,192,95598,128,0,96120:0:0:0:0:
402,192,95598,128,0,95729:0:0:0:0:
329,192,95729,128,0,95859:0:0:0:0:
109,192,95859,128,0,96381:0:0:0:0:
475,192,95859,128,0,96120:0:0:0:0:
402,192,95859,1,0,0:0:0:0:
329,192,95989,128,0,96120:0:0:0:0:
402,192,96120,128,0,96642:0:0:0:0:
256,192,96120,128,0,96381:0:0:0:0:
36,192,96381,128,0,96903:0:0:0:0:
475,192,96381,128,0,96903:0:0:0:0:
329,192,96381,1,0,0:0:0:0:
182,192,96381,128,0,96642:0:0:0:0:
329,192,96642,128,0,96903:0:0:0:0:
182,192,96772,1,0,0:0:0:0:
402,192,96903,128,0,97685:0:0:0:0:
256,192,96903,128,0,97163:0:0:0:0:
109,192,96903,128,0,97424:0:0:0:0:
182,192,97163,128,0,97685:0:0:0:0:
329,192,97424,128,0,97685:0:0:0:0:
475,192,97424,128,0,97946:0:0:0:0:
256,192,97424,1,0,0:0:0:0:
36,192,97424,128,0,97946:0:0:0:0:
109,192,97685,128,0,98207:0:0:0:0:
256,192,97685,128,0,97816:0:0:0:0:
329,192,97816,128,0,97946:0:0:0:0:
182,192,97946,128,0,98076:0:0:0:0:
402,192,97946,128,0,98729:0:0:0:0:
329,192,98076,128,0,98207:0:0:0:0:
36,192,98207,128,0,98729:0:0:0:0:
256,192,98207,128,0,98468:0:0:0:0:
182,192,98468,128,0,98729:0:0:0:0:
109,192,98468,1,0,0:0:0:0:
475,192,98468,128,0,99772:0:0:0:0:
329,192,98468,128,0,98729:0:0:0:0:
109,192,98729,128,0,99120:0:0:0:0:
256,192,98859,128,0,99120:0:0:0:0:
36,192,98989,128,0,99381:0:0:0:0:
182,192,98989,128,0,99120:0:0:0:0:
402,192,99120,128,0,99250:0:0:0:0:
329,192,99120,1,0,0:0:0:0:
256,192,99250,128,0,99381:0:0:0:0:
182,192,99250,1,0,0:0:0:0:
329,192,99381,128,0,99511:0:0:0:0:
109,192,99381,1,0,0:0:0:0:
36,192,99511,128,0,100033:0:0:0:0:
182,192,99511,1,0,0:0:0:0:
402,192,99511,1,0,0:0:0:0:
256,192,99511,128,0,99642:0:0:0:0:
109,192,99642,128,0,100033:0:0:0:0:
329,192,99642,128,0,99772:0:0:0:0:
182,192,99772,128,0,100033:0:0:0:0:
402,192,99772,128,0,99903:0:0:0:0:
256,192,99903,128,0,100033:0:0:0:0:
329,192,100033,1,0,0:0:0:0:
402,192,100033,128,0,100555:0:0:0:0:
475,192,100033,128,0,101076:0:0:0:0:
256,192,100294,128,0,100816:0:0:0:0:
109,192,100294,1,0,0:0:0:0:
36,192,100294,1,0,0:0:0:0:
109,192,100555,128,0,101076:0:0:0:0:
36,192,100555,128,0,101076:0:0:0:0:
182,192,100555,1,0,0:0:0:0:
329,192,100555,1,0,0:0:0:0:
329,192,100816,128,0,101076:0:0:0:0:
182,192,100816,1,0,0:0:0:0:
182,192,101076,1,0,0:0:0:0:
256,192,101076,1,0,0:0:0:0:
402,192,101076,1,0,0:0:0:0:
329,192,101337,128,0,101729:0:0:0:0:
36,192,101337,1,0,0:0:0:0:
256,192,101403,1,0,0:0:0:0:
182,192,101468,1,0,0:0:0:0:
109,192,101598,128,0,101989:0:0:0:0:
256,192,101598,1,0,0:0:0:0:
475,192,101598,1,0,0:0:0:0:
36,192,101598,1,0,0:0:0:0:
402,192,101859,128,0,102250:0:0:0:0:
329,192,101859,1,0,0:0:0:0:
182,192,101859,1,0,0:0:0:0:
182,192,102120,128,0,102511:0:0:0:0:
256,192,102120,1,0,0:0:0:0:
109,192,102120,1,0,0:0:0:0:
475,192,102120,128,0,102250:0:0:0:0:
402,192,102381,128,0,102772:0:0:0:0:
256,192,102381,128,0,102511:0:0:0:0:
36,192,102381,1,0,0:0:0:0:
109,192,102642,128,0,103033:0:0:0:0:
475,192,102642,1,0,0:0:0:0:
329,192,102642,128,0,102772:0:0:0:0:
182,192,102642,1,0,0:0:0:0:
329,192,102903,128,0,103294:0:0:0:0:
182,192,102903,128,0,103033:0:0:0:0:
182,192,103163,1,0,0:0:0:0:
36,192,103163,1,0,0:0:0:0:
475,192,103163,1,0,0:0:0:0:
402,192,103424,128,0,103816:0:0:0:0:
36,192,103424,1,0,0:0:0:0:
329,192,103489,1,0,0:0:0:0:
182,192,103555,1,0,0:0:0:0:
109,192,103685,128,0,104076:0:0:0:0:
475,192,103685,1,0,0:0:0:0:
36,192,103685,1,0,0:0:0:0:
256,192,103685,128,0,103816:0:0:0:0:
329,192,103946,128,0,104337:0:0:0:0:
182,192,103946,1,0,0:0:0:0:
402,192,103946,1,0,0:0:0:0:
182,192,104207,128,0,104598:0:0:0:0:
256,192,104207,1,0,0:0:0:0:
475,192,104207,128,0,104337:0:0:0:0:
36,192,104207,1,0,0:0:0:0:
402,192,104468,128,0,104859:0:0:0:0:
256,192,104468,128,0,104598:0:0:0:0:
36,192,104468,1,0,0:0:0:0:
109,192,104729,128,0,105120:0:0:0:0:
182,192,104729,128,0,104859:0:0:0:0:
36,192,104729,1,0,0:0:0:0:
329,192,104729,1,0,0:0:0:0:
329,192,104989,128,0,105381:0:0:0:0:
256,192,104989,128,0,105120:0:0:0:0:
182,192,105250,1,0,0:0:0:0:
36,192,105250,1,0,0:0:0:0:
475,192,105250,1,0,0:0:0:0:
402,192,105511,1,0,0:0:0:0:
109,192,105511,1,0,0:0:0:0:
329,192,105642,1,0,0:0:0:0:
256,192,105642,1,0,0:0:0:0:
402,192,105772,1,0,0:0:0:0:
182,192,105772,1,0,0:0:0:0:
36,192,105772,1,0,0:0:0:0:
475,192,105772,1,0,0:0:0:0:
109,192,106033,1,0,0:0:0:0:
402,192,106033,1,0,0:0:0:0:
475,192,106033,1,0,0:0:0:0:
182,192,106163,1,0,0:0:0:0:
256,192,106163,1,0,0:0:0:0:
109,192,106294,1,0,0:0:0:0:
329,192,106294,1,0,0:0:0:0:
402,192,106555,1,0,0:0:0:0:
109,192,106555,1,0,0:0:0:0:
36,192,106555,1,0,0:0:0:0:
329,192,106685,1,0,0:0:0:0:
256,192,106685,1,0,0:0:0:0:
402,192,106816,1,0,0:0:0:0:
109,192,106816,1,0,0:0:0:0:
182,192,106816,1,0,0:0:0:0:
475,192,106816,1,0,0:0:0:0:
109,192,107076,128,0,107337:0:0:0:0:
329,192,107337,1,0,0:0:0:0:
36,192,107598,1,0,0:0:0:0:
256,192,107598,1,0,0:0:0:0:
475,192,107598,1,0,0:0:0:0:
182,192,107598,1,0,0:0:0:0:
36,192,107859,1,0,0:0:0:0:
256,192,107859,1,0,0:0:0:0:
182,192,107859,1,0,0:0:0:0:
475,192,107859,1,0,0:0:0:0:
329,192,108120,1,0,0:0:0:0:
256,192,108120,1,0,0:0:0:0:
475,192,108120,1,0,0:0:0:0:
36,192,108120,1,0,0:0:0:0:
36,192,108381,1,0,0:0:0:0:
182,192,108381,1,0,0:0:0:0:
256,192,108381,1,0,0:0:0:0:
475,192,108381,1,0,0:0:0:0:
329,192,108642,1,0,0:0:0:0:
36,192,108642,1,0,0:0:0:0:
402,192,108772,1,0,0:0:0:0:
182,192,108903,1,0,0:0:0:0:
329,192,108903,1,0,0:0:0:0:
109,192,108903,1,0,0:0:0:0:
475,192,108903,1,0,0:0:0:0:
256,192,109163,1,0,0:0:0:0:
475,192,109163,1,0,0:0:0:0:
109,192,109163,1,0,0:0:0:0:
36,192,109163,1,0,0:0:0:0:
36,192,109424,128,0,110207:0:0:0:0:
475,192,109424,128,0,110468:0:0:0:0:
109,192,109424,128,0,109946:0:0:0:0:
329,192,109424,128,0,109685:0:0:0:0:
402,192,109424,1,0,0:0:0:0:
256,192,109685,128,0,109946:0:0:0:0:
182,192,109946,128,0,110207:0:0:0:0:
329,192,109946,1,0,0:0:0:0:
402,192,109946,128,0,110468:0:0:0:0:
256,192,110207,128,0,110468:0:0:0:0:
109,192,110207,1,0,0:0:0:0:
36,192,110468,128,0,110989:0:0:0:0:
109,192,110468,1,0,0:0:0:0:
329,192,110468,128,0,110989:0:0:0:0:
182,192,110468,128,0,110729:0:0:0:0:
256,192,110729,128,0,111250:0:0:0:0:
475,192,110729,1,0,0:0:0:0:
182,192,110989,128,0,111511:0:0:0:0:
475,192,110989,128,0,111250:0:0:0:0:
109,192,110989,1,0,0:0:0:0:
402,192,110989,1,0,0:0:0:0:
36,192,111250,128,0,111511:0:0:0:0:
329,192,111250,128,0,111511:0:0:0:0:
402,192,111511,1,0,0:0:0:0:
475,192,111511,1,0,0:0:0:0:
109,192,111511,1,0,0:0:0:0:
256,192,111511,128,0,111772:0:0:0:0:
36,192,111772,128,0,111903:0:0:0:0:
475,192,111772,128,0,111903:0:0:0:0:
182,192,111837,128,0,111968:0:0:0:0:
329,192,111903,128,0,112033:0:0:0:0:
402,192,112033,1,0,0:0:0:0:
475,192,112033,128,0,112555:0:0:0:0:
36,192,112033,1,0,0:0:0:0:
109,192,112033,128,0,112555:0:0:0:0:
256,192,112033,128,0,112294:0:0:0:0:
402,192,112294,128,0,112555:0:0:0:0:
182,192,112294,128,0,112816:0:0:0:0:
329,192,112555,128,0,113076:0:0:0:0:
36,192,112555,1,0,0:0:0:0:
256,192,112555,1,0,0:0:0:0:
256,192,112816,128,0,113337:0:0:0:0:
475,192,112816,128,0,113076:0:0:0:0:
36,192,112816,128,0,113337:0:0:0:0:
402,192,113076,128,0,113337:0:0:0:0:
182,192,113076,128,0,113598:0:0:0:0:
109,192,113076,1,0,0:0:0:0:
329,192,113337,128,0,113598:0:0:0:0:
109,192,113337,128,0,113859:0:0:0:0:
475,192,113337,1,0,0:0:0:0:
402,192,113598,128,0,114120:0:0:0:0:
475,192,113598,1,0,0:0:0:0:
256,192,113598,1,0,0:0:0:0:
36,192,113598,128,0,114381:0:0:0:0:
256,192,113859,1,0,0:0:0:0:
329,192,113859,128,0,114381:0:0:0:0:
182,192,113859,128,0,114120:0:0:0:0:
475,192,114120,128,0,114381:0:0:0:0:
256,192,114120,128,0,114642:0:0:0:0:
109,192,114120,1,0,0:0:0:0:
109,192,114381,128,0,114642:0:0:0:0:
182,192,114381,128,0,114903:0:0:0:0:
402,192,114381,128,0,114903:0:0:0:0:
329,192,114642,1,0,0:0:0:0:
36,192,114642,128,0,115163:0:0:0:0:
475,192,114642,128,0,114903:0:0:0:0:
329,192,114903,128,0,115424:0:0:0:0:
256,192,114903,128,0,115163:0:0:0:0:
109,192,114903,1,0,0:0:0:0:
475,192,115163,128,0,115685:0:0:0:0:
109,192,115163,128,0,115424:0:0:0:0:
182,192,115163,1,0,0:0:0:0:
402,192,115163,1,0,0:0:0:0:
182,192,115424,128,0,115946:0:0:0:0:
256,192,115424,128,0,115685:0:0:0:0:
402,192,115424,1,0,0:0:0:0:
36,192,115424,1,0,0:0:0:0:
36,192,115685,128,0,116729:0:0:0:0:
329,192,115685,1,0,0:0:0:0:
109,192,115685,1,0,0:0:0:0:
402,192,115685,128,0,116207:0:0:0:0:
329,192,115946,1,0,0:0:0:0:
109,192,116011,1,0,0:0:0:0:
256,192,116076,1,0,0:0:0:0:
329,192,116207,1,0,0:0:0:0:
182,192,116207,128,0,116729:0:0:0:0:
475,192,116207,128,0,116468:0:0:0:0:
329,192,116468,128,0,116989:0:0:0:0:
475,192,116729,128,0,117511:0:0:0:0:
256,192,116729,1,0,0:0:0:0:
109,192,116729,128,0,116989:0:0:0:0:
402,192,116729,128,0,116989:0:0:0:0:
182,192,116989,128,0,117511:0:0:0:0:
256,192,116989,128,0,117250:0:0:0:0:
36,192,116989,1,0,0:0:0:0:
36,192,117250,128,0,118555:0:0:0:0:
329,192,117250,128,0,117511:0:0:0:0:
402,192,117250,1,0,0:0:0:0:
109,192,117250,1,0,0:0:0:0:
256,192,117511,128,0,117772:0:0:0:0:
402,192,117511,128,0,117772:0:0:0:0:
182,192,117772,128,0,118163:0:0:0:0:
475,192,117772,128,0,118555:0:0:0:0:
109,192,117772,1,0,0:0:0:0:
329,192,117772,128,0,118163:0:0:0:0:
256,192,118163,128,0,118555:0:0:0:0:
402,192,118294,128,0,118555:0:0:0:0:
109,192,118294,1,0,0:0:0:0:
329,192,118555,128,0,118816:0:0:0:0:
182,192,118555,1,0,0:0:0:0:
109,192,118555,128,0,118816:0:0:0:0:
36,192,118816,1,0,0:0:0:0:
402,192,118816,1,0,0:0:0:0:
256,192,118816,128,0,119076:0:0:0:0:
182,192,118816,128,0,119337:0:0:0:0:
475,192,118816,128,0,119598:0:0:0:0:
36,192,119076,128,0,119598:0:0:0:0:
329,192,119076,128,0,119337:0:0:0:0:
402,192,119076,1,0,0:0:0:0:
256,192,119337,128,0,119859:0:0:0:0:
402,192,119337,128,0,119598:0:0:0:0:
109,192,119337,1,0,0:0:0:0:
329,192,119598,128,0,119859:0:0:0:0:
109,192,119598,128,0,119859:0:0:0:0:
475,192,119859,128,0,120250:0:0:0:0:
402,192,119859,128,0,120250:0:0:0:0:
182,192,119859,128,0,120642:0:0:0:0:
36,192,119859,128,0,120642:0:0:0:0:
329,192,120250,128,0,120511:0:0:0:0:
475,192,120381,128,0,120903:0:0:0:0:
109,192,120381,1,0,0:0:0:0:
256,192,120642,128,0,120903:0:0:0:0:
329,192,120642,128,0,120903:0:0:0:0:
402,192,120903,128,0,121163:0:0:0:0:
182,192,120903,1,0,0:0:0:0:
109,192,120903,128,0,121163:0:0:0:0:
182,192,121163,128,0,121685:0:0:0:0:
475,192,121163,128,0,121685:0:0:0:0:
329,192,121163,128,0,121424:0:0:0:0:
36,192,121163,1,0,0:0:0:0:
256,192,121424,128,0,121946:0:0:0:0:
36,192,121424,128,0,121946:0:0:0:0:
402,192,121424,128,0,121685:0:0:0:0:
109,192,121424,1,0,0:0:0:0:
329,192,121685,128,0,122207:0:0:0:0:
109,192,121946,128,0,122468:0:0:0:0:
182,192,121946,1,0,0:0:0:0:
402,192,121946,1,0,0:0:0:0:
475,192,121946,128,0,122207:0:0:0:0:
256,192,122207,1,0,0:0:0:0:
402,192,122337,1,0,0:0:0:0:
256,192,122468,128,0,122729:0:0:0:0:
182,192,122468,1,0,0:0:0:0:
36,192,122468,128,0,122989:0:0:0:0:
475,192,122468,128,0,122989:0:0:0:0:
182,192,122729,128,0,122989:0:0:0:0:
329,192,122729,1,0,0:0:0:0:
402,192,122729,128,0,123250:0:0:0:0:
256,192,122989,1,0,0:0:0:0:
329,192,122989,128,0,123511:0:0:0:0:
109,192,122989,128,0,123250:0:0:0:0:
182,192,123250,1,0,0:0:0:0:
36,192,123250,128,0,123772:0:0:0:0:
475,192,123250,128,0,123772:0:0:0:0:
256,192,123250,128,0,123772:0:0:0:0:
109,192,123511,1,0,0:0:0:0:
182,192,123511,128,0,124033:0:0:0:0:
402,192,123511,1,0,0:0:0:0:
329,192,123772,1,0,0:0:0:0:
402,192,123772,128,0,124033:0:0:0:0:
109,192,123772,128,0,124294:0:0:0:0:
256,192,124033,1,0,0:0:0:0:
36,192,124033,1,0,0:0:0:0:
475,192,124033,1,0,0:0:0:0:
329,192,124033,128,0,124555:0:0:0:0:
475,192,124294,128,0,124555:0:0:0:0:
256,192,124294,1,0,0:0:0:0:
182,192,124424,1,0,0:0:0:0:
109,192,124555,128,0,124816:0:0:0:0:
256,192,124555,1,0,0:0:0:0:
36,192,124555,1,0,0:0:0:0:
402,192,124555,1,0,0:0:0:0:
402,192,124816,128,0,124946:0:0:0:0:
182,192,124816,1,0,0:0:0:0:
329,192,124946,1,0,0:0:0:0:
256,192,125076,1,0,0:0:0:0:
36,192,125076,1,0,0:0:0:0:
109,192,125076,128,0,125598:0:0:0:0:
402,192,125076,128,0,125337:0:0:0:0:
329,192,125337,128,0,125598:0:0:0:0:
475,192,125337,128,0,125859:0:0:0:0:
256,192,125598,1,0,0:0:0:0:
402,192,125598,128,0,126120:0:0:0:0:
36,192,125598,1,0,0:0:0:0:
182,192,125598,128,0,125859:0:0:0:0:
256,192,125859,128,0,126381:0:0:0:0:
36,192,125859,1,0,0:0:0:0:
109,192,125989,1,0,0:0:0:0:
182,192,126120,1,0,0:0:0:0:
475,192,126120,1,0,0:0:0:0:
329,192,126120,128,0,126642:0:0:0:0:
36,192,126120,1,0,0:0:0:0:
402,192,126381,128,0,126903:0:0:0:0:
36,192,126381,1,0,0:0:0:0:
109,192,126381,128,0,126511:0:0:0:0:
182,192,126511,128,0,126642:0:0:0:0:
475,192,126642,1,0,0:0:0:0:
36,192,126642,1,0,0:0:0:0:
256,192,126642,128,0,126772:0:0:0:0:
182,192,126772,128,0,126903:0:0:0:0:
475,192,126903,128,0,128207:0:0:0:0:
36,192,126903,128,0,127685:0:0:0:0:
329,192,126903,128,0,127424:0:0:0:0:
109,192,126903,128,0,127424:0:0:0:0:
256,192,126903,1,0,0:0:0:0:
402,192,127163,1,0,0:0:0:0:
256,192,127163,128,0,127685:0:0:0:0:
182,192,127424,128,0,127946:0:0:0:0:
402,192,127424,128,0,127946:0:0:0:0:
329,192,127685,128,0,127946:0:0:0:0:
109,192,127685,128,0,127816:0:0:0:0:
36,192,127946,128,0,128207:0:0:0:0:
256,192,127946,128,0,128076:0:0:0:0:
329,192,128207,1,0,0:0:0:0:
109,192,128207,1,0,0:0:0:0:
402,192,128207,128,0,128468:0:0:0:0:
182,192,128207,128,0,128468:0:0:0:0:
36,192,128468,128,0,128729:0:0:0:0:
256,192,128468,128,0,128729:0:0:0:0:
475,192,128468,1,0,0:0:0:0:
329,192,128598,1,0,0:0:0:0:
109,192,128729,1,0,0:0:0:0:
475,192,128729,1,0,0:0:0:0:
402,192,128729,128,0,128989:0:0:0:0:
182,192,128729,128,0,129250:0:0:0:0:
329,192,128989,1,0,0:0:0:0:
256,192,128989,128,0,129511:0:0:0:0:
475,192,128989,128,0,129511:0:0:0:0:
36,192,128989,128,0,129511:0:0:0:0:
402,192,129250,128,0,129772:0:0:0:0:
109,192,129250,128,0,129511:0:0:0:0:
329,192,129511,128,0,130033:0:0:0:0:
182,192,129511,128,0,129772:0:0:0:0:
256,192,129772,128,0,130294:0:0:0:0:
475,192,129772,128,0,130294:0:0:0:0:
36,192,129772,128,0,130816:0:0:0:0:
109,192,129772,128,0,130033:0:0:0:0:
182,192,130033,128,0,130555:0:0:0:0:
402,192,130033,1,0,0:0:0:0:
329,192,130294,128,0,130816:0:0:0:0:
109,192,130294,1,0,0:0:0:0:
402,192,130294,128,0,130555:0:0:0:0:
475,192,130555,128,0,131859:0:0:0:0:
256,192,130555,1,0,0:0:0:0:
109,192,130685,1,0,0:0:0:0:
402,192,130816,1,0,0:0:0:0:
182,192,130816,1,0,0:0:0:0:
256,192,130816,128,0,131337:0:0:0:0:
402,192,131076,128,0,131337:0:0:0:0:
36,192,131076,128,0,131598:0:0:0:0:
109,192,131076,1,0,0:0:0:0:
329,192,131337,128,0,131859:0:0:0:0:
109,192,131337,128,0,131598:0:0:0:0:
182,192,131337,1,0,0:0:0:0:
182,192,131598,128,0,131859:0:0:0:0:
256,192,131598,1,0,0:0:0:0:
109,192,131859,1,0,0:0:0:0:
402,192,131859,128,0,132381:0:0:0:0:
256,192,131859,128,0,132120:0:0:0:0:
36,192,131859,128,0,132642:0:0:0:0:
182,192,132120,128,0,132381:0:0:0:0:
329,192,132120,1,0,0:0:0:0:
329,192,132381,128,0,132903:0:0:0:0:
109,192,132381,128,0,132903:0:0:0:0:
475,192,132381,1,0,0:0:0:0:
256,192,132381,1,0,0:0:0:0:
182,192,132642,128,0,133163:0:0:0:0:
475,192,132642,128,0,133424:0:0:0:0:
256,192,132903,128,0,133424:0:0:0:0:
402,192,132903,128,0,133163:0:0:0:0:
36,192,132903,128,0,133163:0:0:0:0:
329,192,133163,128,0,133685:0:0:0:0:
109,192,133163,128,0,133424:0:0:0:0:
402,192,133424,128,0,133685:0:0:0:0:
36,192,133424,128,0,134468:0:0:0:0:
182,192,133424,128,0,133685:0:0:0:0:
109,192,133685,128,0,134207:0:0:0:0:
256,192,133685,128,0,133946:0:0:0:0:
475,192,133685,128,0,134207:0:0:0:0:
402,192,133946,128,0,134468:0:0:0:0:
182,192,133946,128,0,134207:0:0:0:0:
329,192,133946,1,0,0:0:0:0:
329,192,134207,128,0,134468:0:0:0:0:
256,192,134207,1,0,0:0:0:0:
256,192,134468,128,0,135511:0:0:0:0:
182,192,134468,1,0,0:0:0:0:
109,192,134468,128,0,134989:0:0:0:0:
475,192,134468,128,0,134989:0:0:0:0:
182,192,134729,1,0,0:0:0:0:
329,192,134859,1,0,0:0:0:0:
36,192,134859,128,0,135511:0:0:0:0:
402,192,134989,1,0,0:0:0:0:
182,192,134989,1,0,0:0:0:0:
329,192,135250,128,0,135511:0:0:0:0:
475,192,135250,128,0,135772:0:0:0:0:
182,192,135511,128,0,136033:0:0:0:0:
109,192,135511,1,0,0:0:0:0:
402,192,135511,1,0,0:0:0:0:
329,192,135772,128,0,136294:0:0:0:0:
36,192,135772,128,0,136294:0:0:0:0:
475,192,136033,128,0,136555:0:0:0:0:
402,192,136033,1,0,0:0:0:0:
109,192,136033,1,0,0:0:0:0:
256,192,136033,128,0,136555:0:0:0:0:
182,192,136294,128,0,136555:0:0:0:0:
109,192,136294,1,0,0:0:0:0:
402,192,136294,1,0,0:0:0:0:
109,192,136555,128,0,137076:0:0:0:0:
329,192,136555,128,0,136816:0:0:0:0:
402,192,136555,1,0,0:0:0:0:
36,192,136555,1,0,0:0:0:0:
402,192,136816,128,0,136946:0:0:0:0:
182,192,136816,128,0,137076:0:0:0:0:
329,192,136946,128,0,137337:0:0:0:0:
36,192,137076,128,0,137598:0:0:0:0:
475,192,137076,128,0,138120:0:0:0:0:
402,192,137076,1,0,0:0:0:0:
256,192,137076,128,0,137207:0:0:0:0:
182,192,137337,128,0,138120:0:0:0:0:
402,192,137337,128,0,137598:0:0:0:0:
256,192,137337,1,0,0:0:0:0:
329,192,137598,128,0,138642:0:0:0:0:
109,192,137598,1,0,0:0:0:0:
256,192,137598,1,0,0:0:0:0:
109,192,137859,1,0,0:0:0:0:
36,192,137859,128,0,138642:0:0:0:0:
402,192,138120,1,0,0:0:0:0:
256,192,138120,1,0,0:0:0:0:
109,192,138120,128,0,138381:0:0:0:0:
475,192,138381,128,0,138642:0:0:0:0:
182,192,138381,1,0,0:0:0:0:
256,192,138381,128,0,138642:0:0:0:0:
402,192,138642,1,0,0:0:0:0:
182,192,138642,128,0,139163:0:0:0:0:
109,192,138642,1,0,0:0:0:0:
329,192,138903,128,0,139424:0:0:0:0:
475,192,138903,128,0,139163:0:0:0:0:
256,192,139163,128,0,139685:0:0:0:0:
36,192,139163,128,0,140207:0:0:0:0:
109,192,139163,1,0,0:0:0:0:
402,192,139163,1,0,0:0:0:0:
402,192,139424,128,0,139685:0:0:0:0:
109,192,139424,128,0,139946:0:0:0:0:
182,192,139685,128,0,139946:0:0:0:0:
475,192,139685,128,0,140468:0:0:0:0:
329,192,139685,128,0,139946:0:0:0:0:
256,192,139946,128,0,140207:0:0:0:0:
402,192,139946,128,0,140207:0:0:0:0:
109,192,140207,128,0,140729:0:0:0:0:
182,192,140207,1,0,0:0:0:0:
329,192,140207,128,0,140468:0:0:0:0:
182,192,140468,128,0,140729:0:0:0:0:
402,192,140468,128,0,140729:0:0:0:0:
36,192,140729,128,0,141772:0:0:0:0:
256,192,140729,1,0,0:0:0:0:
475,192,140729,1,0,0:0:0:0:
329,192,140729,128,0,141250:0:0:0:0:
475,192,140989,1,0,0:0:0:0:
182,192,140989,1,0,0:0:0:0:
256,192,141120,1,0,0:0:0:0:
475,192,141250,1,0,0:0:0:0:
402,192,141250,128,0,141511:0:0:0:0:
109,192,141250,128,0,141772:0:0:0:0:
182,192,141250,1,0,0:0:0:0:
256,192,141511,128,0,141772:0:0:0:0:
329,192,141511,1,0,0:0:0:0:
475,192,141772,128,0,142294:0:0:0:0:
182,192,141772,128,0,142033:0:0:0:0:
402,192,141772,1,0,0:0:0:0:
329,192,141772,1,0,0:0:0:0:
36,192,142033,128,0,142555:0:0:0:0:
256,192,142033,128,0,142294:0:0:0:0:
402,192,142033,1,0,0:0:0:0:
329,192,142033,1,0,0:0:0:0:
109,192,142294,128,0,142555:0:0:0:0:
182,192,142294,1,0,0:0:0:0:
329,192,142294,128,0,142816:0:0:0:0:
402,192,142294,128,0,142555:0:0:0:0:
182,192,142555,128,0,142816:0:0:0:0:
475,192,142555,128,0,142816:0:0:0:0:
109,192,142816,1,0,0:0:0:0:
36,192,142816,128,0,143859:0:0:0:0:
256,192,142816,128,0,143337:0:0:0:0:
402,192,142816,1,0,0:0:0:0:
402,192,143207,128,0,143598:0:0:0:0:
182,192,143337,128,0,143859:0:0:0:0:
109,192,143337,1,0,0:0:0:0:
329,192,143337,1,0,0:0:0:0:
475,192,143337,1,0,0:0:0:0:
475,192,143598,128,0,143859:0:0:0:0:
329,192,143598,128,0,143859:0:0:0:0:
109,192,143859,128,0,144381:0:0:0:0:
256,192,143859,1,0,0:0:0:0:
402,192,143859,128,0,143989:0:0:0:0:
329,192,143989,128,0,144120:0:0:0:0:
256,192,144120,128,0,144381:0:0:0:0:
402,192,144120,128,0,144903:0:0:0:0:
182,192,144381,128,0,144642:0:0:0:0:
36,192,144381,1,0,0:0:0:0:
329,192,144381,1,0,0:0:0:0:
475,192,144381,1,0,0:0:0:0:
36,192,144642,128,0,144903:0:0:0:0:
475,192,144642,128,0,144903:0:0:0:0:
256,192,144642,128,0,144903:0:0:0:0:
109,192,144642,1,0,0:0:0:0:
109,192,144903,128,0,145424:0:0:0:0:
182,192,144903,1,0,0:0:0:0:
329,192,144903,128,0,145163:0:0:0:0:
182,192,145163,128,0,145424:0:0:0:0:
475,192,145163,128,0,145424:0:0:0:0:
402,192,145163,1,0,0:0:0:0:
329,192,145424,1,0,0:0:0:0:
36,192,145424,128,0,145946:0:0:0:0:
256,192,145424,128,0,145685:0:0:0:0:
402,192,145424,1,0,0:0:0:0:
329,192,145685,128,0,145946:0:0:0:0:
182,192,145685,1,0,0:0:0:0:
475,192,145685,1,0,0:0:0:0:
109,192,145946,128,0,146076:0:0:0:0:
402,192,145946,128,0,146468:0:0:0:0:
475,192,145946,1,0,0:0:0:0:
256,192,145946,1,0,0:0:0:0:
182,192,146076,128,0,146207:0:0:0:0:
109,192,146207,128,0,146989:0:0:0:0:
256,192,146207,128,0,146468:0:0:0:0:
329,192,146468,128,0,146729:0:0:0:0:
182,192,146468,1,0,0:0:0:0:
475,192,146468,1,0,0:0:0:0:
36,192,146468,1,0,0:0:0:0:
402,192,146729,128,0,146989:0:0:0:0:
182,192,146729,128,0,146989:0:0:0:0:
256,192,146729,1,0,0:0:0:0:
256,192,146989,1,0,0:0:0:0:
36,192,146989,1,0,0:0:0:0:
475,192,146989,1,0,0:0:0:0:
329,192,146989,1,0,0:0:0:0:
256,192,148033,1,0,0:0:0:0:
182,192,148033,1,0,0:0:0:0:
36,192,148033,1,0,0:0:0:0:
475,192,148033,1,0,0:0:0:0:
475,192,149337,1,0,0:0:0:0:
329,192,149337,1,0,0:0:0:0:
36,192,149337,1,0,0:0:0:0:
256,192,149337,128,0,149533:0:0:0:0:
329,192,149598,1,0,0:0:0:0:
475,192,149598,1,0,0:0:0:0:
36,192,149598,1,0,0:0:0:0:
256,192,149598,128,0,149794:0:0:0:0:
36,192,149859,1,0,0:0:0:0:
329,192,149859,1,0,0:0:0:0:
475,192,149859,1,0,0:0:0:0:
256,192,149859,128,0,150055:0:0:0:0:
475,192,150120,1,0,0:0:0:0:
329,192,150120,1,0,0:0:0:0:
36,192,150120,1,0,0:0:0:0:
256,192,150120,128,0,150316:0:0:0:0:
402,192,150381,1,0,0:0:0:0:
109,192,150381,1,0,0:0:0:0:
329,192,150511,1,0,0:0:0:0:
256,192,150642,1,0,0:0:0:0:
475,192,150642,1,0,0:0:0:0:
36,192,150642,1,0,0:0:0:0:
402,192,150642,1,0,0:0:0:0:
329,192,150772,1,0,0:0:0:0:
182,192,150903,1,0,0:0:0:0:
109,192,150903,1,0,0:0:0:0:
182,192,151033,1,0,0:0:0:0:
36,192,151163,1,0,0:0:0:0:
475,192,151163,1,0,0:0:0:0:
256,192,151163,1,0,0:0:0:0:
329,192,151163,128,0,151685:0:0:0:0:
36,192,151424,128,0,153250:0:0:0:0:
182,192,151424,128,0,151685:0:0:0:0:
109,192,151424,128,0,151946:0:0:0:0:
402,192,151685,128,0,152989:0:0:0:0:
475,192,151685,1,0,0:0:0:0:
256,192,151685,128,0,151946:0:0:0:0:
182,192,151946,128,0,152729:0:0:0:0:
329,192,151946,128,0,152207:0:0:0:0:
109,192,152207,1,0,0:0:0:0:
475,192,152207,1,0,0:0:0:0:
329,192,152468,128,0,152729:0:0:0:0:
256,192,152468,1,0,0:0:0:0:
109,192,152729,1,0,0:0:0:0:
475,192,152729,1,0,0:0:0:0:
256,192,152729,1,0,0:0:0:0:
329,192,152989,128,0,153120:0:0:0:0:
475,192,152989,128,0,153250:0:0:0:0:
109,192,152989,128,0,153120:0:0:0:0:
256,192,153120,128,0,153250:0:0:0:0:
329,192,153250,128,0,154294:0:0:0:0:
402,192,153250,1,0,0:0:0:0:
182,192,153250,1,0,0:0:0:0:
109,192,153250,128,0,153772:0:0:0:0:
182,192,153511,128,0,153772:0:0:0:0:
36,192,153772,1,0,0:0:0:0:
475,192,153772,1,0,0:0:0:0:
256,192,153772,1,0,0:0:0:0:
182,192,154033,128,0,154294:0:0:0:0:
36,192,154033,128,0,154816:0:0:0:0:
475,192,154294,128,0,154424:0:0:0:0:
256,192,154294,128,0,154816:0:0:0:0:
402,192,154294,1,0,0:0:0:0:
109,192,154294,1,0,0:0:0:0:
475,192,154555,128,0,154685:0:0:0:0:
329,192,154555,1,0,0:0:0:0:
182,192,154555,1,0,0:0:0:0:
402,192,154816,128,0,155076:0:0:0:0:
109,192,154816,1,0,0:0:0:0:
329,192,154816,1,0,0:0:0:0:
475,192,154816,1,0,0:0:0:0:
329,192,155076,128,0,155337:0:0:0:0:
182,192,155076,1,0,0:0:0:0:
36,192,155337,1,0,0:0:0:0:
475,192,155337,128,0,155859:0:0:0:0:
182,192,155337,128,0,156381:0:0:0:0:
256,192,155337,1,0,0:0:0:0:
402,192,155337,1,0,0:0:0:0:
329,192,155598,1,0,0:0:0:0:
36,192,155663,1,0,0:0:0:0:
256,192,155729,1,0,0:0:0:0:
109,192,155859,1,0,0:0:0:0:
402,192,155859,1,0,0:0:0:0:
329,192,155859,128,0,156120:0:0:0:0:
36,192,155859,128,0,156903:0:0:0:0:
475,192,156120,128,0,156642:0:0:0:0:
109,192,156120,1,0,0:0:0:0:
256,192,156250,1,0,0:0:0:0:
109,192,156381,1,0,0:0:0:0:
402,192,156381,1,0,0:0:0:0:
329,192,156381,128,0,156642:0:0:0:0:
256,192,156642,128,0,157163:0:0:0:0:
109,192,156642,128,0,156903:0:0:0:0:
182,192,156903,1,0,0:0:0:0:
402,192,156903,1,0,0:0:0:0:
475,192,156903,128,0,157424:0:0:0:0:
329,192,156903,128,0,157163:0:0:0:0:
36,192,157163,128,0,157685:0:0:0:0:
109,192,157163,1,0,0:0:0:0:
402,192,157163,128,0,157685:0:0:0:0:
182,192,157294,1,0,0:0:0:0:
256,192,157424,128,0,157685:0:0:0:0:
109,192,157424,1,0,0:0:0:0:
182,192,157685,128,0,157816:0:0:0:0:
475,192,157685,128,0,157816:0:0:0:0:
329,192,157685,128,0,157816:0:0:0:0:
36,192,157816,128,0,157946:0:0:0:0:
256,192,157816,128,0,157946:0:0:0:0:
329,192,157946,128,0,158207:0:0:0:0:
182,192,157946,1,0,0:0:0:0:
475,192,157946,128,0,158468:0:0:0:0:
109,192,157946,128,0,158468:0:0:0:0:
402,192,158207,128,0,158468:0:0:0:0:
182,192,158207,128,0,158989:0:0:0:0:
329,192,158468,128,0,159250:0:0:0:0:
36,192,158468,128,0,159250:0:0:0:0:
256,192,158468,1,0,0:0:0:0:
475,192,158729,128,0,159250:0:0:0:0:
109,192,158989,128,0,159250:0:0:0:0:
402,192,158989,1,0,0:0:0:0:
256,192,158989,128,0,159511:0:0:0:0:
402,192,159250,128,0,159511:0:0:0:0:
182,192,159250,128,0,159511:0:0:0:0:
475,192,159511,128,0,161076:0:0:0:0:
36,192,159511,128,0,160555:0:0:0:0:
109,192,159511,1,0,0:0:0:0:
329,192,159511,128,0,159903:0:0:0:0:
109,192,159772,1,0,0:0:0:0:
182,192,159903,128,0,160555:0:0:0:0:
256,192,160033,1,0,0:0:0:0:
109,192,160033,1,0,0:0:0:0:
402,192,160033,128,0,160294:0:0:0:0:
329,192,160294,128,0,160555:0:0:0:0:
256,192,160555,128,0,161076:0:0:0:0:
109,192,160555,1,0,0:0:0:0:
402,192,160555,1,0,0:0:0:0:
402,192,160816,128,0,161337:0:0:0:0:
36,192,160816,128,0,161076:0:0:0:0:
329,192,161076,128,0,161598:0:0:0:0:
182,192,161076,128,0,161337:0:0:0:0:
109,192,161076,1,0,0:0:0:0:
256,192,161337,128,0,161859:0:0:0:0:
36,192,161337,128,0,161598:0:0:0:0:
475,192,161598,128,0,162120:0:0:0:0:
402,192,161598,128,0,161859:0:0:0:0:
109,192,161598,128,0,162120:0:0:0:0:
182,192,161598,1,0,0:0:0:0:
329,192,161859,128,0,161989:0:0:0:0:
182,192,161989,128,0,162120:0:0:0:0:
36,192,161989,128,0,162381:0:0:0:0:
402,192,162120,128,0,162381:0:0:0:0:
256,192,162120,128,0,162642:0:0:0:0:
329,192,162120,1,0,0:0:0:0:
182,192,162381,128,0,162903:0:0:0:0:
475,192,162381,128,0,162903:0:0:0:0:
109,192,162381,1,0,0:0:0:0:
329,192,162642,128,0,163163:0:0:0:0:
36,192,162642,128,0,162903:0:0:0:0:
109,192,162903,128,0,163294:0:0:0:0:
402,192,162903,128,0,163163:0:0:0:0:
256,192,162903,1,0,0:0:0:0:
256,192,163163,128,0,163555:0:0:0:0:
475,192,163163,128,0,163555:0:0:0:0:
182,192,163163,128,0,163294:0:0:0:0:
36,192,163163,128,0,163294:0:0:0:0:
402,192,163424,128,0,163816:0:0:0:0:
329,192,163424,128,0,163555:0:0:0:0:
109,192,163424,128,0,163816:0:0:0:0:
182,192,163685,128,0,164076:0:0:0:0:
36,192,163685,128,0,163816:0:0:0:0:
329,192,163685,128,0,163816:0:0:0:0:
475,192,163685,128,0,164076:0:0:0:0:
36,192,163946,128,0,164337:0:0:0:0:
402,192,163946,128,0,164076:0:0:0:0:
256,192,163946,128,0,164337:0:0:0:0:
329,192,164207,128,0,164598:0:0:0:0:
182,192,164207,128,0,164337:0:0:0:0:
475,192,164207,128,0,164337:0:0:0:0:
109,192,164207,1,0,0:0:0:0:
475,192,164468,128,0,164859:0:0:0:0:
109,192,164468,128,0,164859:0:0:0:0:
256,192,164468,128,0,164598:0:0:0:0:
36,192,164468,128,0,164598:0:0:0:0:
256,192,164729,128,0,165120:0:0:0:0:
402,192,164729,128,0,164859:0:0:0:0:
182,192,164729,128,0,164859:0:0:0:0:
182,192,164989,128,0,165381:0:0:0:0:
402,192,164989,128,0,165120:0:0:0:0:
36,192,164989,128,0,165381:0:0:0:0:
109,192,165250,128,0,165642:0:0:0:0:
329,192,165250,128,0,165381:0:0:0:0:
256,192,165250,1,0,0:0:0:0:
475,192,165250,128,0,165381:0:0:0:0:
329,192,165511,128,0,165903:0:0:0:0:
475,192,165511,128,0,165642:0:0:0:0:
256,192,165511,128,0,165642:0:0:0:0:
109,192,165772,128,0,166294:0:0:0:0:
256,192,165772,128,0,165903:0:0:0:0:
36,192,165772,128,0,165903:0:0:0:0:
402,192,165772,128,0,165903:0:0:0:0:
475,192,166033,1,0,0:0:0:0:
329,192,166098,1,0,0:0:0:0:
182,192,166163,1,0,0:0:0:0:
402,192,166294,1,0,0:0:0:0:
36,192,166294,1,0,0:0:0:0:
256,192,166294,128,0,166816:0:0:0:0:
475,192,166294,1,0,0:0:0:0:
109,192,166555,128,0,166816:0:0:0:0:
402,192,166555,128,0,167076:0:0:0:0:
182,192,166816,128,0,167076:0:0:0:0:
329,192,166816,128,0,167076:0:0:0:0:
36,192,166816,1,0,0:0:0:0:
475,192,166816,128,0,167337:0:0:0:0:
36,192,167076,128,0,167598:0:0:0:0:
256,192,167076,128,0,167598:0:0:0:0:
109,192,167076,1,0,0:0:0:0:
109,192,167337,128,0,167598:0:0:0:0:
329,192,167337,128,0,167598:0:0:0:0:
182,192,167337,1,0,0:0:0:0:
402,192,167337,1,0,0:0:0:0:
182,192,167598,128,0,167859:0:0:0:0:
402,192,167598,128,0,167859:0:0:0:0:
475,192,167598,128,0,168185:0:0:0:0:
109,192,167859,1,0,0:0:0:0:
329,192,167859,1,0,0:0:0:0:
36,192,167859,128,0,168903:0:0:0:0:
256,192,167859,128,0,168120:0:0:0:0:
182,192,168120,128,0,168903:0:0:0:0:
329,192,168250,128,0,168903:0:0:0:0:
475,192,168381,1,0,0:0:0:0:
402,192,168381,1,0,0:0:0:0:
109,192,168381,1,0,0:0:0:0:
475,192,168642,128,0,168903:0:0:0:0:
256,192,168642,1,0,0:0:0:0:
402,192,168903,128,0,169033:0:0:0:0:
256,192,168903,1,0,0:0:0:0:
109,192,168903,128,0,169424:0:0:0:0:
329,192,169033,128,0,169163:0:0:0:0:
402,192,169163,128,0,169946:0:0:0:0:
256,192,169163,128,0,169685:0:0:0:0:
36,192,169424,1,0,0:0:0:0:
329,192,169424,1,0,0:0:0:0:
475,192,169424,1,0,0:0:0:0:
182,192,169424,128,0,169946:0:0:0:0:
329,192,169685,1,0,0:0:0:0:
109,192,169685,128,0,170207:0:0:0:0:
475,192,169946,128,0,170729:0:0:0:0:
329,192,169946,128,0,170468:0:0:0:0:
256,192,169946,128,0,170207:0:0:0:0:
36,192,169946,128,0,170468:0:0:0:0:
402,192,170207,128,0,170468:0:0:0:0:
182,192,170337,128,0,170729:0:0:0:0:
256,192,170468,128,0,170729:0:0:0:0:
109,192,170468,1,0,0:0:0:0:
402,192,170729,1,0,0:0:0:0:
36,192,170729,128,0,171250:0:0:0:0:
329,192,170729,128,0,170989:0:0:0:0:
109,192,170729,128,0,170989:0:0:0:0:
402,192,170989,128,0,171511:0:0:0:0:
475,192,170989,1,0,0:0:0:0:
256,192,170989,128,0,171250:0:0:0:0:
182,192,171120,128,0,171250:0:0:0:0:
109,192,171250,128,0,172033:0:0:0:0:
329,192,171250,128,0,171772:0:0:0:0:
36,192,171511,1,0,0:0:0:0:
182,192,171511,1,0,0:0:0:0:
475,192,171511,1,0,0:0:0:0:
256,192,171511,128,0,171772:0:0:0:0:
402,192,171772,128,0,172033:0:0:0:0:
182,192,171772,128,0,172033:0:0:0:0:
475,192,171772,1,0,0:0:0:0:
256,192,172033,1,0,0:0:0:0:
36,192,172033,1,0,0:0:0:0:
475,192,172033,1,0,0:0:0:0:
329,192,172033,1,0,0:0:0:0:
256,192,173076,1,0,0:0:0:0:
36,192,173076,1,0,0:0:0:0:
182,192,173076,1,0,0:0:0:0:
475,192,173076,1,0,0:0:0:0:
402,192,173076,1,0,0:0:0:0:
329,192,174120,1,0,0:0:0:0:
109,192,174120,128,0,174642:0:0:0:0:
402,192,174120,128,0,174381:0:0:0:0:
475,192,174120,1,0,0:0:0:0:
36,192,174120,128,0,174381:0:0:0:0:
329,192,174381,128,0,174903:0:0:0:0:
182,192,174381,1,0,0:0:0:0:
182,192,174642,128,0,175163:0:0:0:0:
475,192,174642,1,0,0:0:0:0:
256,192,174642,1,0,0:0:0:0:
402,192,174642,128,0,174903:0:0:0:0:
36,192,174642,128,0,174903:0:0:0:0:
475,192,174903,128,0,175163:0:0:0:0:
256,192,174903,128,0,175163:0:0:0:0:
109,192,174903,1,0,0:0:0:0:
329,192,175163,1,0,0:0:0:0:
109,192,175163,1,0,0:0:0:0:
36,192,175163,1,0,0:0:0:0:
256,192,175424,128,0,175946:0:0:0:0:
402,192,175424,128,0,175685:0:0:0:0:
36,192,175424,128,0,175685:0:0:0:0:
182,192,175424,1,0,0:0:0:0:
109,192,175685,128,0,176207:0:0:0:0:
475,192,175685,128,0,175946:0:0:0:0:
329,192,175946,128,0,176207:0:0:0:0:
182,192,175946,128,0,176207:0:0:0:0:
402,192,175946,1,0,0:0:0:0:
256,192,176207,1,0,0:0:0:0:
36,192,176207,1,0,0:0:0:0:
475,192,176207,1,0,0:0:0:0:
182,192,176468,128,0,176989:0:0:0:0:
475,192,176468,128,0,176729:0:0:0:0:
256,192,176468,128,0,176729:0:0:0:0:
402,192,176729,128,0,177250:0:0:0:0:
36,192,176729,128,0,176989:0:0:0:0:
256,192,176989,128,0,177511:0:0:0:0:
109,192,176989,128,0,177250:0:0:0:0:
475,192,176989,128,0,177250:0:0:0:0:
329,192,177250,128,0,177511:0:0:0:0:
36,192,177250,1,0,0:0:0:0:
182,192,177250,1,0,0:0:0:0:
109,192,177511,128,0,178033:0:0:0:0:
36,192,177511,128,0,178294:0:0:0:0:
402,192,177511,128,0,177772:0:0:0:0:
182,192,177511,1,0,0:0:0:0:
475,192,177772,128,0,178294:0:0:0:0:
256,192,177772,1,0,0:0:0:0:
329,192,177903,128,0,178294:0:0:0:0:
182,192,178033,128,0,178555:0:0:0:0:
402,192,178294,128,0,178816:0:0:0:0:
256,192,178294,1,0,0:0:0:0:
109,192,178294,1,0,0:0:0:0:
36,192,178555,128,0,179076:0:0:0:0:
329,192,178555,128,0,178816:0:0:0:0:
256,192,178816,128,0,179076:0:0:0:0:
475,192,178816,1,0,0:0:0:0:
109,192,178816,1,0,0:0:0:0:
475,192,179076,128,0,179337:0:0:0:0:
182,192,179076,128,0,179337:0:0:0:0:
109,192,179076,1,0,0:0:0:0:
402,192,179076,1,0,0:0:0:0:
329,192,179337,1,0,0:0:0:0:
36,192,179337,1,0,0:0:0:0:
36,192,179598,128,0,179859:0:0:0:0:
329,192,179598,128,0,179859:0:0:0:0:
182,192,179598,1,0,0:0:0:0:
475,192,179598,1,0,0:0:0:0:
475,192,179859,1,0,0:0:0:0:
182,192,179859,1,0,0:0:0:0:
256,192,180120,1,0,0:0:0:0:
182,192,180120,1,0,0:0:0:0:
36,192,180120,1,0,0:0:0:0:
475,192,180120,1,0,0:0:0:0:
329,192,180120,1,0,0:0:0:0:
109,192,180381,1,0,0:0:0:0:
402,192,180511,1,0,0:0:0:0:
256,192,180642,1,0,0:0:0:0:
109,192,180772,1,0,0:0:0:0:
182,192,180903,1,0,0:0:0:0:
329,192,180903,1,0,0:0:0:0:
475,192,180903,1,0,0:0:0:0:
36,192,180903,1,0,0:0:0:0:
256,192,180903,1,0,0:0:0:0:
256,192,181163,1,0,0:0:0:0:
36,192,181163,1,0,0:0:0:0:
182,192,181163,1,0,0:0:0:0:
329,192,181163,1,0,0:0:0:0:
475,192,181163,1,0,0:0:0:0:
475,192,181424,1,0,0:0:0:0:
329,192,181424,1,0,0:0:0:0:
256,192,181424,1,0,0:0:0:0:
182,192,181424,1,0,0:0:0:0:
36,192,181424,1,0,0:0:0:0:
