osu file format v14

[General]
AudioFilename: audio.ogg
AudioLeadIn: 0
PreviewTime: 92466
Countdown: 0
SampleSet: Soft
StackLeniency: 0.7
Mode: 3
LetterboxInBreaks: 0
SpecialStyle: 0
WidescreenStoryboard: 1

[Editor]
DistanceSpacing: 1
BeatDivisor: 8
GridSize: 8
TimelineZoom: 2.799998

[Metadata]
Title:Mojito
TitleUnicode:Mojito
Artist:Jay Chou
ArtistUnicode:周杰倫
Creator:AWMRone
Version:Hard
Source:
Tags:exneko wilben_chan ln long note coordination osu!mania 7K World Cup 2022 MWC 7K 2022 MWC22 quarterfinals 周杰伦 周董 chinese pop rap cuba bolero latin 最偉大的作品 Greatest Works of Art JVR Music C-pop Cpop Alang Huang mandarin mandopop Zhōu Jiélún Zhou Jie Lun
BeatmapID:3652344
BeatmapSetID:1783418

[Difficulty]
HPDrainRate:7
CircleSize:7
OverallDifficulty:8
ApproachRate:5
SliderMultiplier:1.4
SliderTickRate:1

[Events]
//Background and Video events
0,0,"mojito.jpg",0,0
//Break Periods
//Storyboard Layer 0 (Background)
//Storyboard Layer 1 (Fail)
//Storyboard Layer 2 (Pass)
//Storyboard Layer 3 (Foreground)
//Storyboard Layer 4 (Overlay)
//Storyboard Sound Samples

[TimingPoints]
903,521.739130434783,4,2,1,30,1,0
92729,-100,4,2,1,30,0,1
109424,-100,4,2,1,30,0,0

[HitObjects]
182,192,120,5,0,0:0:0:0:
256,192,381,1,0,0:0:0:0:
329,192,642,1,0,0:0:0:0:
402,192,903,1,0,0:0:0:0:
182,192,903,1,0,0:0:0:0:
36,192,903,1,0,0:0:0:0:
402,192,1163,1,0,0:0:0:0:
182,192,1163,1,0,0:0:0:0:
402,192,1424,1,0,0:0:0:0:
256,192,1424,1,0,0:0:0:0:
36,192,1685,1,0,0:0:0:0:
329,192,1685,1,0,0:0:0:0:
182,192,1685,1,0,0:0:0:0:
109,192,1946,1,0,0:0:0:0:
256,192,1946,1,0,0:0:0:0:
475,192,2207,1,0,0:0:0:0:
329,192,2207,1,0,0:0:0:0:
36,192,2468,1,0,0:0:0:0:
182,192,2468,1,0,0:0:0:0:
475,192,2729,1,0,0:0:0:0:
256,192,2729,1,0,0:0:0:0:
402,192,2729,1,0,0:0:0:0:
36,192,2989,1,0,0:0:0:0:
329,192,2989,1,0,0:0:0:0:
109,192,3250,1,0,0:0:0:0:
402,192,3250,1,0,0:0:0:0:
182,192,3511,1,0,0:0:0:0:
329,192,3511,1,0,0:0:0:0:
256,192,3772,1,0,0:0:0:0:
36,192,3772,1,0,0:0:0:0:
182,192,4033,1,0,0:0:0:0:
402,192,4033,1,0,0:0:0:0:
109,192,4294,1,0,0:0:0:0:
256,192,4294,1,0,0:0:0:0:
182,192,4555,1,0,0:0:0:0:
36,192,4555,1,0,0:0:0:0:
475,192,4555,1,0,0:0:0:0:
256,192,4816,1,0,0:0:0:0:
402,192,4816,1,0,0:0:0:0:
36,192,5076,1,0,0:0:0:0:
329,192,5076,1,0,0:0:0:0:
182,192,5076,1,0,0:0:0:0:
329,192,5337,1,0,0:0:0:0:
182,192,5337,1,0,0:0:0:0:
182,192,5598,1,0,0:0:0:0:
329,192,5598,1,0,0:0:0:0:
182,192,5859,1,0,0:0:0:0:
329,192,5859,1,0,0:0:0:0:
36,192,5859,1,0,0:0:0:0:
109,192,6120,1,0,0:0:0:0:
256,192,6120,1,0,0:0:0:0:
109,192,6381,1,0,0:0:0:0:
475,192,6381,1,0,0:0:0:0:
256,192,6642,1,0,0:0:0:0:
402,192,6642,1,0,0:0:0:0:
36,192,6903,1,0,0:0:0:0:
182,192,6903,1,0,0:0:0:0:
329,192,6903,1,0,0:0:0:0:
329,192,7163,1,0,0:0:0:0:
475,192,7163,1,0,0:0:0:0:
256,192,7424,1,0,0:0:0:0:
109,192,7424,1,0,0:0:0:0:
182,192,7685,1,0,0:0:0:0:
475,192,7685,1,0,0:0:0:0:
256,192,7946,1,0,0:0:0:0:
402,192,7946,1,0,0:0:0:0:
36,192,8207,1,0,0:0:0:0:
182,192,8207,1,0,0:0:0:0:
256,192,8468,1,0,0:0:0:0:
402,192,8468,1,0,0:0:0:0:
475,192,8468,1,0,0:0:0:0:
256,192,8729,1,0,0:0:0:0:
402,192,8729,1,0,0:0:0:0:
109,192,8729,1,0,0:0:0:0:
256,192,8989,1,0,0:0:0:0:
402,192,8989,1,0,0:0:0:0:
402,192,9250,1,0,0:0:0:0:
36,192,9250,1,0,0:0:0:0:
182,192,9250,1,0,0:0:0:0:
109,192,9511,1,0,0:0:0:0:
329,192,9511,1,0,0:0:0:0:
182,192,9772,1,0,0:0:0:0:
36,192,9772,1,0,0:0:0:0:
256,192,10033,1,0,0:0:0:0:
475,192,10033,1,0,0:0:0:0:
329,192,10033,1,0,0:0:0:0:
109,192,10294,1,0,0:0:0:0:
402,192,10294,1,0,0:0:0:0:
182,192,10555,1,0,0:0:0:0:
329,192,10555,1,0,0:0:0:0:
36,192,10555,1,0,0:0:0:0:
182,192,10816,1,0,0:0:0:0:
329,192,10816,1,0,0:0:0:0:
475,192,10816,1,0,0:0:0:0:
256,192,11076,1,0,0:0:0:0:
109,192,11076,1,0,0:0:0:0:
402,192,11076,1,0,0:0:0:0:
109,192,11337,1,0,0:0:0:0:
256,192,11337,1,0,0:0:0:0:
402,192,11337,1,0,0:0:0:0:
182,192,11598,1,0,0:0:0:0:
36,192,11598,1,0,0:0:0:0:
256,192,11859,1,0,0:0:0:0:
329,192,11859,1,0,0:0:0:0:
329,192,12120,1,0,0:0:0:0:
475,192,12120,1,0,0:0:0:0:
109,192,12120,1,0,0:0:0:0:
182,192,12381,1,0,0:0:0:0:
402,192,12381,1,0,0:0:0:0:
36,192,12642,1,0,0:0:0:0:
256,192,12642,1,0,0:0:0:0:
109,192,12903,1,0,0:0:0:0:
329,192,12903,1,0,0:0:0:0:
475,192,12903,1,0,0:0:0:0:
182,192,13163,1,0,0:0:0:0:
402,192,13163,1,0,0:0:0:0:
402,192,13424,1,0,0:0:0:0:
256,192,13424,1,0,0:0:0:0:
36,192,13424,1,0,0:0:0:0:
109,192,13685,1,0,0:0:0:0:
329,192,13685,1,0,0:0:0:0:
256,192,13946,1,0,0:0:0:0:
475,192,13946,1,0,0:0:0:0:
329,192,14207,1,0,0:0:0:0:
36,192,14207,1,0,0:0:0:0:
182,192,14207,1,0,0:0:0:0:
256,192,14468,1,0,0:0:0:0:
402,192,14468,1,0,0:0:0:0:
329,192,14729,1,0,0:0:0:0:
182,192,14729,1,0,0:0:0:0:
109,192,14989,1,0,0:0:0:0:
256,192,14989,1,0,0:0:0:0:
402,192,14989,1,0,0:0:0:0:
182,192,15250,1,0,0:0:0:0:
329,192,15250,1,0,0:0:0:0:
475,192,15250,1,0,0:0:0:0:
36,192,15772,1,0,0:0:0:0:
329,192,15772,1,0,0:0:0:0:
475,192,15772,1,0,0:0:0:0:
329,192,16033,1,0,0:0:0:0:
475,192,16033,1,0,0:0:0:0:
36,192,16033,1,0,0:0:0:0:
36,192,16294,1,0,0:0:0:0:
329,192,16294,1,0,0:0:0:0:
475,192,16294,1,0,0:0:0:0:
256,192,16555,1,0,0:0:0:0:
475,192,16555,1,0,0:0:0:0:
36,192,16555,1,0,0:0:0:0:
109,192,16816,1,0,0:0:0:0:
182,192,17076,1,0,0:0:0:0:
256,192,17337,1,0,0:0:0:0:
36,192,17598,1,0,0:0:0:0:
402,192,17598,1,0,0:0:0:0:
182,192,17598,1,0,0:0:0:0:
329,192,17859,1,0,0:0:0:0:
475,192,17859,1,0,0:0:0:0:
109,192,17924,1,0,0:0:0:0:
256,192,17989,1,0,0:0:0:0:
182,192,18120,1,0,0:0:0:0:
402,192,18120,1,0,0:0:0:0:
36,192,18381,1,0,0:0:0:0:
256,192,18381,1,0,0:0:0:0:
475,192,18381,1,0,0:0:0:0:
109,192,18642,1,0,0:0:0:0:
329,192,18642,1,0,0:0:0:0:
402,192,18642,1,0,0:0:0:0:
182,192,18903,1,0,0:0:0:0:
475,192,18903,1,0,0:0:0:0:
36,192,19163,1,0,0:0:0:0:
256,192,19163,1,0,0:0:0:0:
402,192,19163,1,0,0:0:0:0:
109,192,19424,1,0,0:0:0:0:
329,192,19424,1,0,0:0:0:0:
256,192,19685,1,0,0:0:0:0:
475,192,19685,1,0,0:0:0:0:
36,192,19685,1,0,0:0:0:0:
109,192,19946,1,0,0:0:0:0:
402,192,19946,1,0,0:0:0:0:
475,192,20011,1,0,0:0:0:0:
329,192,20076,1,0,0:0:0:0:
402,192,20207,1,0,0:0:0:0:
182,192,20207,1,0,0:0:0:0:
182,192,20468,1,0,0:0:0:0:
256,192,20468,1,0,0:0:0:0:
36,192,20468,1,0,0:0:0:0:
402,192,20729,1,0,0:0:0:0:
329,192,20729,1,0,0:0:0:0:
256,192,20989,1,0,0:0:0:0:
475,192,20989,1,0,0:0:0:0:
109,192,20989,1,0,0:0:0:0:
182,192,21250,1,0,0:0:0:0:
329,192,21250,1,0,0:0:0:0:
36,192,21250,1,0,0:0:0:0:
256,192,21511,1,0,0:0:0:0:
402,192,21511,1,0,0:0:0:0:
109,192,21511,1,0,0:0:0:0:
329,192,21772,1,0,0:0:0:0:
475,192,21772,1,0,0:0:0:0:
36,192,21772,1,0,0:0:0:0:
109,192,22033,1,0,0:0:0:0:
402,192,22033,1,0,0:0:0:0:
329,192,22098,1,0,0:0:0:0:
182,192,22163,1,0,0:0:0:0:
256,192,22294,1,0,0:0:0:0:
475,192,22294,1,0,0:0:0:0:
402,192,22555,1,0,0:0:0:0:
36,192,22555,1,0,0:0:0:0:
182,192,22555,1,0,0:0:0:0:
109,192,22816,1,0,0:0:0:0:
256,192,22816,1,0,0:0:0:0:
329,192,22816,1,0,0:0:0:0:
182,192,23076,1,0,0:0:0:0:
402,192,23076,1,0,0:0:0:0:
36,192,23337,1,0,0:0:0:0:
475,192,23337,1,0,0:0:0:0:
256,192,23337,1,0,0:0:0:0:
109,192,23598,1,0,0:0:0:0:
329,192,23598,1,0,0:0:0:0:
256,192,23859,1,0,0:0:0:0:
475,192,23859,1,0,0:0:0:0:
182,192,23859,1,0,0:0:0:0:
329,192,24120,1,0,0:0:0:0:
475,192,24185,1,0,0:0:0:0:
182,192,24250,1,0,0:0:0:0:
256,192,24381,1,0,0:0:0:0:
402,192,24381,1,0,0:0:0:0:
36,192,24642,1,0,0:0:0:0:
182,192,24642,1,0,0:0:0:0:
109,192,24642,1,0,0:0:0:0:
256,192,24903,1,0,0:0:0:0:
329,192,24903,1,0,0:0:0:0:
475,192,24903,1,0,0:0:0:0:
109,192,25163,1,0,0:0:0:0:
402,192,25163,1,0,0:0:0:0:
182,192,25424,1,0,0:0:0:0:
329,192,25424,1,0,0:0:0:0:
36,192,25424,1,0,0:0:0:0:
256,192,25685,1,0,0:0:0:0:
402,192,25685,1,0,0:0:0:0:
329,192,25946,1,0,0:0:0:0:
475,192,25946,1,0,0:0:0:0:
109,192,25946,1,0,0:0:0:0:
182,192,26207,1,0,0:0:0:0:
402,192,26272,1,0,0:0:0:0:
36,192,26337,1,0,0:0:0:0:
256,192,26337,1,0,0:0:0:0:
109,192,26468,1,0,0:0:0:0:
329,192,26468,1,0,0:0:0:0:
36,192,26729,1,0,0:0:0:0:
402,192,26729,1,0,0:0:0:0:
256,192,26729,1,0,0:0:0:0:
475,192,26989,1,0,0:0:0:0:
329,192,26989,1,0,0:0:0:0:
182,192,26989,1,0,0:0:0:0:
109,192,27250,1,0,0:0:0:0:
256,192,27250,1,0,0:0:0:0:
182,192,27511,1,0,0:0:0:0:
329,192,27511,1,0,0:0:0:0:
402,192,27511,1,0,0:0:0:0:
256,192,27772,1,0,0:0:0:0:
36,192,27772,1,0,0:0:0:0:
109,192,28033,1,0,0:0:0:0:
329,192,28033,1,0,0:0:0:0:
475,192,28033,1,0,0:0:0:0:
256,192,28294,1,0,0:0:0:0:
109,192,28359,1,0,0:0:0:0:
329,192,28424,1,0,0:0:0:0:
475,192,28424,1,0,0:0:0:0:
182,192,28555,1,0,0:0:0:0:
36,192,28555,1,0,0:0:0:0:
256,192,28816,1,0,0:0:0:0:
402,192,28816,1,0,0:0:0:0:
475,192,28816,1,0,0:0:0:0:
182,192,29076,1,0,0:0:0:0:
109,192,29076,1,0,0:0:0:0:
36,192,29076,1,0,0:0:0:0:
256,192,29337,1,0,0:0:0:0:
402,192,29337,1,0,0:0:0:0:
329,192,29598,1,0,0:0:0:0:
475,192,29598,1,0,0:0:0:0:
182,192,29598,1,0,0:0:0:0:
256,192,29859,1,0,0:0:0:0:
36,192,29859,1,0,0:0:0:0:
182,192,30120,1,0,0:0:0:0:
475,192,30120,1,0,0:0:0:0:
329,192,30120,1,0,0:0:0:0:
402,192,30381,1,0,0:0:0:0:
109,192,30381,1,0,0:0:0:0:
329,192,30446,1,0,0:0:0:0:
475,192,30511,1,0,0:0:0:0:
402,192,30642,1,0,0:0:0:0:
182,192,30642,1,0,0:0:0:0:
109,192,30903,1,0,0:0:0:0:
329,192,30903,1,0,0:0:0:0:
36,192,30903,1,0,0:0:0:0:
402,192,31163,1,0,0:0:0:0:
256,192,31163,1,0,0:0:0:0:
182,192,31424,1,0,0:0:0:0:
329,192,31424,1,0,0:0:0:0:
36,192,31424,1,0,0:0:0:0:
256,192,31685,1,0,0:0:0:0:
402,192,31685,1,0,0:0:0:0:
475,192,31685,1,0,0:0:0:0:
329,192,31946,1,0,0:0:0:0:
109,192,31946,1,0,0:0:0:0:
36,192,31946,1,0,0:0:0:0:
256,192,32207,1,0,0:0:0:0:
36,192,32468,1,0,0:0:0:0:
329,192,32468,1,0,0:0:0:0:
475,192,32468,1,0,0:0:0:0:
475,192,32729,1,0,0:0:0:0:
329,192,32729,1,0,0:0:0:0:
36,192,32729,1,0,0:0:0:0:
256,192,32989,1,0,0:0:0:0:
109,192,32989,1,0,0:0:0:0:
402,192,32989,1,0,0:0:0:0:
475,192,33250,1,0,0:0:0:0:
182,192,33250,1,0,0:0:0:0:
36,192,33250,1,0,0:0:0:0:
109,192,33511,1,0,0:0:0:0:
182,192,33772,1,0,0:0:0:0:
256,192,34033,1,0,0:0:0:0:
36,192,34294,1,0,0:0:0:0:
402,192,34294,1,0,0:0:0:0:
182,192,34294,1,0,0:0:0:0:
109,192,34555,1,0,0:0:0:0:
329,192,34555,1,0,0:0:0:0:
182,192,34620,1,0,0:0:0:0:
36,192,34685,1,0,0:0:0:0:
256,192,34816,1,0,0:0:0:0:
475,192,34816,1,0,0:0:0:0:
109,192,34816,1,0,0:0:0:0:
109,192,35076,1,0,0:0:0:0:
402,192,35076,1,0,0:0:0:0:
182,192,35337,1,0,0:0:0:0:
329,192,35337,1,0,0:0:0:0:
402,192,35598,1,0,0:0:0:0:
182,192,35598,1,0,0:0:0:0:
475,192,35598,1,0,0:0:0:0:
36,192,35859,1,0,0:0:0:0:
256,192,35859,1,0,0:0:0:0:
109,192,36120,1,0,0:0:0:0:
329,192,36120,1,0,0:0:0:0:
256,192,36381,1,0,0:0:0:0:
402,192,36381,1,0,0:0:0:0:
329,192,36642,1,0,0:0:0:0:
475,192,36642,1,0,0:0:0:0:
36,192,36642,1,0,0:0:0:0:
182,192,36707,1,0,0:0:0:0:
109,192,36772,1,0,0:0:0:0:
475,192,36903,1,0,0:0:0:0:
329,192,36903,1,0,0:0:0:0:
256,192,37163,1,0,0:0:0:0:
402,192,37163,1,0,0:0:0:0:
402,192,37424,1,0,0:0:0:0:
256,192,37424,1,0,0:0:0:0:
475,192,37685,1,0,0:0:0:0:
182,192,37685,1,0,0:0:0:0:
329,192,37685,1,0,0:0:0:0:
182,192,37946,1,0,0:0:0:0:
36,192,37946,1,0,0:0:0:0:
256,192,38207,1,0,0:0:0:0:
402,192,38207,1,0,0:0:0:0:
109,192,38207,1,0,0:0:0:0:
329,192,38468,1,0,0:0:0:0:
475,192,38468,1,0,0:0:0:0:
36,192,38468,1,0,0:0:0:0:
109,192,38729,1,0,0:0:0:0:
402,192,38729,1,0,0:0:0:0:
329,192,38794,1,0,0:0:0:0:
182,192,38859,1,0,0:0:0:0:
256,192,38989,1,0,0:0:0:0:
475,192,38989,1,0,0:0:0:0:
36,192,39250,1,0,0:0:0:0:
329,192,39250,1,0,0:0:0:0:
109,192,39511,1,0,0:0:0:0:
256,192,39511,1,0,0:0:0:0:
182,192,39772,1,0,0:0:0:0:
402,192,39772,1,0,0:0:0:0:
475,192,39772,1,0,0:0:0:0:
109,192,40033,1,0,0:0:0:0:
256,192,40033,1,0,0:0:0:0:
182,192,40294,1,0,0:0:0:0:
329,192,40294,1,0,0:0:0:0:
256,192,40555,1,0,0:0:0:0:
36,192,40555,1,0,0:0:0:0:
402,192,40555,1,0,0:0:0:0:
329,192,40816,1,0,0:0:0:0:
475,192,40881,1,0,0:0:0:0:
182,192,40946,1,0,0:0:0:0:
256,192,41076,1,0,0:0:0:0:
402,192,41076,1,0,0:0:0:0:
36,192,41337,1,0,0:0:0:0:
182,192,41337,1,0,0:0:0:0:
329,192,41598,1,0,0:0:0:0:
475,192,41598,1,0,0:0:0:0:
109,192,41859,1,0,0:0:0:0:
402,192,41859,1,0,0:0:0:0:
182,192,42120,1,0,0:0:0:0:
329,192,42120,1,0,0:0:0:0:
256,192,42381,1,0,0:0:0:0:
402,192,42381,1,0,0:0:0:0:
329,192,42642,1,0,0:0:0:0:
475,192,42642,1,0,0:0:0:0:
109,192,42642,1,0,0:0:0:0:
182,192,42903,1,0,0:0:0:0:
402,192,42968,1,0,0:0:0:0:
36,192,43033,1,0,0:0:0:0:
256,192,43033,1,0,0:0:0:0:
109,192,43163,1,0,0:0:0:0:
329,192,43163,1,0,0:0:0:0:
475,192,43163,1,0,0:0:0:0:
182,192,43424,1,0,0:0:0:0:
36,192,43424,1,0,0:0:0:0:
475,192,43685,1,0,0:0:0:0:
329,192,43685,1,0,0:0:0:0:
109,192,43946,1,0,0:0:0:0:
256,192,43946,1,0,0:0:0:0:
182,192,44207,1,0,0:0:0:0:
329,192,44207,1,0,0:0:0:0:
402,192,44468,1,0,0:0:0:0:
256,192,44468,1,0,0:0:0:0:
109,192,44729,1,0,0:0:0:0:
329,192,44729,1,0,0:0:0:0:
475,192,44729,1,0,0:0:0:0:
182,192,44989,1,0,0:0:0:0:
329,192,45055,1,0,0:0:0:0:
475,192,45120,1,0,0:0:0:0:
36,192,45120,1,0,0:0:0:0:
256,192,45250,1,0,0:0:0:0:
402,192,45250,1,0,0:0:0:0:
109,192,45250,1,0,0:0:0:0:
36,192,45511,1,0,0:0:0:0:
182,192,45511,1,0,0:0:0:0:
109,192,45772,1,0,0:0:0:0:
329,192,45772,1,0,0:0:0:0:
256,192,46033,1,0,0:0:0:0:
402,192,46033,1,0,0:0:0:0:
475,192,46033,1,0,0:0:0:0:
329,192,46294,1,0,0:0:0:0:
182,192,46294,1,0,0:0:0:0:
256,192,46555,1,0,0:0:0:0:
36,192,46555,1,0,0:0:0:0:
182,192,46816,1,0,0:0:0:0:
475,192,46816,1,0,0:0:0:0:
329,192,46816,1,0,0:0:0:0:
402,192,47076,1,0,0:0:0:0:
109,192,47076,1,0,0:0:0:0:
182,192,47142,1,0,0:0:0:0:
36,192,47207,1,0,0:0:0:0:
256,192,47337,1,0,0:0:0:0:
109,192,47337,1,0,0:0:0:0:
402,192,47337,1,0,0:0:0:0:
109,192,47598,1,0,0:0:0:0:
329,192,47598,1,0,0:0:0:0:
475,192,47598,1,0,0:0:0:0:
402,192,47859,1,0,0:0:0:0:
256,192,47859,1,0,0:0:0:0:
182,192,47859,1,0,0:0:0:0:
36,192,48120,1,0,0:0:0:0:
329,192,48120,1,0,0:0:0:0:
475,192,48120,1,0,0:0:0:0:
256,192,48381,1,0,0:0:0:0:
402,192,48381,1,0,0:0:0:0:
109,192,48381,1,0,0:0:0:0:
36,192,48642,1,0,0:0:0:0:
475,192,48642,1,0,0:0:0:0:
182,192,48642,1,0,0:0:0:0:
256,192,48903,1,0,0:0:0:0:
109,192,48903,1,0,0:0:0:0:
182,192,49163,1,0,0:0:0:0:
402,192,49163,1,0,0:0:0:0:
475,192,49163,1,0,0:0:0:0:
109,192,49229,1,0,0:0:0:0:
329,192,49294,1,0,0:0:0:0:
256,192,49424,1,0,0:0:0:0:
36,192,49424,1,0,0:0:0:0:
109,192,49685,1,0,0:0:0:0:
329,192,49685,1,0,0:0:0:0:
475,192,49685,1,0,0:0:0:0:
109,192,49946,1,0,0:0:0:0:
329,192,49946,1,0,0:0:0:0:
475,192,49946,1,0,0:0:0:0:
36,192,50207,1,0,0:0:0:0:
182,192,50207,1,0,0:0:0:0:
402,192,50207,1,0,0:0:0:0:
329,192,50468,1,0,0:0:0:0:
182,192,50468,1,0,0:0:0:0:
36,192,50468,1,0,0:0:0:0:
329,192,50729,1,0,0:0:0:0:
475,192,50729,1,0,0:0:0:0:
36,192,50989,1,0,0:0:0:0:
109,192,50989,1,0,0:0:0:0:
256,192,50989,1,0,0:0:0:0:
182,192,51250,1,0,0:0:0:0:
402,192,51250,1,0,0:0:0:0:
256,192,51381,1,0,0:0:0:0:
329,192,51511,1,0,0:0:0:0:
36,192,51511,1,0,0:0:0:0:
402,192,51642,1,0,0:0:0:0:
329,192,51772,1,0,0:0:0:0:
182,192,51772,1,0,0:0:0:0:
109,192,51772,1,0,0:0:0:0:
256,192,52033,1,0,0:0:0:0:
475,192,52033,1,0,0:0:0:0:
256,192,52294,1,0,0:0:0:0:
402,192,52294,1,0,0:0:0:0:
36,192,52294,1,0,0:0:0:0:
182,192,52555,1,0,0:0:0:0:
329,192,52555,1,0,0:0:0:0:
475,192,52555,1,0,0:0:0:0:
402,192,52816,1,0,0:0:0:0:
256,192,52816,1,0,0:0:0:0:
109,192,52816,1,0,0:0:0:0:
329,192,53076,1,0,0:0:0:0:
475,192,53076,1,0,0:0:0:0:
109,192,53076,1,0,0:0:0:0:
402,192,53337,1,0,0:0:0:0:
182,192,53337,1,0,0:0:0:0:
36,192,53337,1,0,0:0:0:0:
329,192,53403,1,0,0:0:0:0:
109,192,53468,1,0,0:0:0:0:
256,192,53598,1,0,0:0:0:0:
475,192,53598,1,0,0:0:0:0:
329,192,53859,1,0,0:0:0:0:
182,192,53859,1,0,0:0:0:0:
36,192,53859,1,0,0:0:0:0:
256,192,54120,1,0,0:0:0:0:
475,192,54120,1,0,0:0:0:0:
182,192,54381,1,0,0:0:0:0:
475,192,54381,1,0,0:0:0:0:
402,192,54381,1,0,0:0:0:0:
256,192,54642,1,0,0:0:0:0:
109,192,54642,1,0,0:0:0:0:
36,192,54642,1,0,0:0:0:0:
402,192,54903,1,0,0:0:0:0:
256,192,54903,1,0,0:0:0:0:
256,192,55163,1,0,0:0:0:0:
475,192,55163,1,0,0:0:0:0:
109,192,55163,1,0,0:0:0:0:
182,192,55424,1,0,0:0:0:0:
402,192,55489,1,0,0:0:0:0:
109,192,55555,1,0,0:0:0:0:
475,192,55685,1,0,0:0:0:0:
329,192,55685,1,0,0:0:0:0:
256,192,55685,1,0,0:0:0:0:
36,192,55946,1,0,0:0:0:0:
182,192,55946,1,0,0:0:0:0:
402,192,55946,1,0,0:0:0:0:
109,192,56207,1,0,0:0:0:0:
256,192,56207,1,0,0:0:0:0:
109,192,56468,1,0,0:0:0:0:
256,192,56468,1,0,0:0:0:0:
475,192,56468,1,0,0:0:0:0:
36,192,56729,1,0,0:0:0:0:
182,192,56729,1,0,0:0:0:0:
329,192,56729,1,0,0:0:0:0:
256,192,56989,1,0,0:0:0:0:
475,192,56989,1,0,0:0:0:0:
329,192,56989,1,0,0:0:0:0:
182,192,57250,1,0,0:0:0:0:
402,192,57250,1,0,0:0:0:0:
36,192,57250,1,0,0:0:0:0:
109,192,57511,1,0,0:0:0:0:
475,192,57511,1,0,0:0:0:0:
329,192,57576,1,0,0:0:0:0:
182,192,57642,1,0,0:0:0:0:
256,192,57772,1,0,0:0:0:0:
36,192,57772,1,0,0:0:0:0:
109,192,58033,1,0,0:0:0:0:
329,192,58033,1,0,0:0:0:0:
475,192,58033,1,0,0:0:0:0:
182,192,58294,1,0,0:0:0:0:
402,192,58294,1,0,0:0:0:0:
36,192,58294,1,0,0:0:0:0:
256,192,58555,1,0,0:0:0:0:
109,192,58555,1,0,0:0:0:0:
475,192,58555,1,0,0:0:0:0:
182,192,58816,1,0,0:0:0:0:
329,192,58816,1,0,0:0:0:0:
36,192,58816,1,0,0:0:0:0:
182,192,59076,1,0,0:0:0:0:
402,192,59076,1,0,0:0:0:0:
256,192,59076,1,0,0:0:0:0:
329,192,59337,1,0,0:0:0:0:
475,192,59337,1,0,0:0:0:0:
109,192,59337,1,0,0:0:0:0:
36,192,59598,1,0,0:0:0:0:
182,192,59663,1,0,0:0:0:0:
475,192,59729,1,0,0:0:0:0:
329,192,59729,1,0,0:0:0:0:
36,192,59859,1,0,0:0:0:0:
109,192,59859,1,0,0:0:0:0:
402,192,60120,1,0,0:0:0:0:
256,192,60120,1,0,0:0:0:0:
475,192,60120,1,0,0:0:0:0:
182,192,60381,1,0,0:0:0:0:
329,192,60381,1,0,0:0:0:0:
256,192,60642,1,0,0:0:0:0:
475,192,60642,1,0,0:0:0:0:
36,192,60903,1,0,0:0:0:0:
182,192,60903,1,0,0:0:0:0:
402,192,60903,1,0,0:0:0:0:
329,192,61163,1,0,0:0:0:0:
475,192,61163,1,0,0:0:0:0:
182,192,61163,1,0,0:0:0:0:
329,192,61424,1,0,0:0:0:0:
256,192,61424,1,0,0:0:0:0:
109,192,61424,1,0,0:0:0:0:
182,192,61685,1,0,0:0:0:0:
329,192,61750,1,0,0:0:0:0:
475,192,61816,1,0,0:0:0:0:
36,192,61816,1,0,0:0:0:0:
256,192,61946,1,0,0:0:0:0:
109,192,61946,1,0,0:0:0:0:
475,192,62207,1,0,0:0:0:0:
329,192,62207,1,0,0:0:0:0:
36,192,62207,1,0,0:0:0:0:
256,192,62468,1,0,0:0:0:0:
402,192,62468,1,0,0:0:0:0:
182,192,62468,1,0,0:0:0:0:
36,192,62729,1,0,0:0:0:0:
182,192,62729,1,0,0:0:0:0:
182,192,62989,1,0,0:0:0:0:
329,192,62989,1,0,0:0:0:0:
402,192,62989,1,0,0:0:0:0:
329,192,63250,1,0,0:0:0:0:
475,192,63250,1,0,0:0:0:0:
109,192,63250,1,0,0:0:0:0:
475,192,63511,1,0,0:0:0:0:
256,192,63511,1,0,0:0:0:0:
109,192,63511,1,0,0:0:0:0:
182,192,63772,1,0,0:0:0:0:
402,192,63772,1,0,0:0:0:0:
256,192,63837,1,0,0:0:0:0:
36,192,63903,1,0,0:0:0:0:
109,192,64033,1,0,0:0:0:0:
475,192,64033,1,0,0:0:0:0:
329,192,64294,1,0,0:0:0:0:
182,192,64294,1,0,0:0:0:0:
402,192,64294,1,0,0:0:0:0:
256,192,64555,1,0,0:0:0:0:
36,192,64555,1,0,0:0:0:0:
475,192,64555,1,0,0:0:0:0:
182,192,64816,1,0,0:0:0:0:
329,192,64816,1,0,0:0:0:0:
256,192,65076,1,0,0:0:0:0:
109,192,65076,1,0,0:0:0:0:
475,192,65076,1,0,0:0:0:0:
329,192,65337,1,0,0:0:0:0:
402,192,65337,1,0,0:0:0:0:
182,192,65598,1,0,0:0:0:0:
36,192,65598,1,0,0:0:0:0:
256,192,65598,1,0,0:0:0:0:
402,192,65859,1,0,0:0:0:0:
109,192,65859,1,0,0:0:0:0:
475,192,65989,1,0,0:0:0:0:
402,192,66120,1,0,0:0:0:0:
182,192,66120,1,0,0:0:0:0:
329,192,66250,1,0,0:0:0:0:
256,192,66381,1,0,0:0:0:0:
475,192,66381,1,0,0:0:0:0:
182,192,66511,1,0,0:0:0:0:
36,192,66642,1,0,0:0:0:0:
109,192,66642,1,0,0:0:0:0:
329,192,66642,1,0,0:0:0:0:
36,192,66903,1,0,0:0:0:0:
182,192,66903,1,0,0:0:0:0:
109,192,67163,1,0,0:0:0:0:
256,192,67163,1,0,0:0:0:0:
475,192,67163,1,0,0:0:0:0:
182,192,67424,1,0,0:0:0:0:
329,192,67424,1,0,0:0:0:0:
475,192,67685,1,0,0:0:0:0:
109,192,67685,1,0,0:0:0:0:
402,192,67685,1,0,0:0:0:0:
182,192,67946,1,0,0:0:0:0:
329,192,68011,1,0,0:0:0:0:
475,192,68076,1,0,0:0:0:0:
109,192,68076,1,0,0:0:0:0:
36,192,68207,1,0,0:0:0:0:
256,192,68207,1,0,0:0:0:0:
182,192,68468,1,0,0:0:0:0:
402,192,68468,1,0,0:0:0:0:
475,192,68468,1,0,0:0:0:0:
36,192,68729,1,0,0:0:0:0:
329,192,68729,1,0,0:0:0:0:
182,192,68859,1,0,0:0:0:0:
329,192,68989,1,0,0:0:0:0:
475,192,68989,1,0,0:0:0:0:
256,192,69250,1,0,0:0:0:0:
402,192,69250,1,0,0:0:0:0:
182,192,69511,1,0,0:0:0:0:
329,192,69511,1,0,0:0:0:0:
109,192,69511,1,0,0:0:0:0:
182,192,69772,1,0,0:0:0:0:
475,192,69772,1,0,0:0:0:0:
36,192,69772,1,0,0:0:0:0:
329,192,70033,1,0,0:0:0:0:
182,192,70098,1,0,0:0:0:0:
36,192,70163,1,0,0:0:0:0:
475,192,70163,1,0,0:0:0:0:
256,192,70294,1,0,0:0:0:0:
402,192,70294,1,0,0:0:0:0:
182,192,70555,1,0,0:0:0:0:
329,192,70555,1,0,0:0:0:0:
475,192,70555,1,0,0:0:0:0:
402,192,70816,1,0,0:0:0:0:
109,192,70816,1,0,0:0:0:0:
256,192,70816,1,0,0:0:0:0:
182,192,70946,1,0,0:0:0:0:
36,192,71076,1,0,0:0:0:0:
256,192,71076,1,0,0:0:0:0:
475,192,71076,1,0,0:0:0:0:
109,192,71337,1,0,0:0:0:0:
329,192,71337,1,0,0:0:0:0:
329,192,71598,1,0,0:0:0:0:
475,192,71598,1,0,0:0:0:0:
182,192,71598,1,0,0:0:0:0:
36,192,71859,1,0,0:0:0:0:
329,192,71859,1,0,0:0:0:0:
475,192,71859,1,0,0:0:0:0:
182,192,72120,1,0,0:0:0:0:
402,192,72381,1,0,0:0:0:0:
329,192,72642,1,0,0:0:0:0:
256,192,72903,1,0,0:0:0:0:
36,192,72903,1,0,0:0:0:0:
402,192,72903,1,0,0:0:0:0:
182,192,73163,1,0,0:0:0:0:
109,192,73424,1,0,0:0:0:0:
182,192,73685,1,0,0:0:0:0:
36,192,73946,1,0,0:0:0:0:
475,192,73946,1,0,0:0:0:0:
329,192,73946,1,0,0:0:0:0:
182,192,74468,1,0,0:0:0:0:
329,192,74468,1,0,0:0:0:0:
475,192,74468,1,0,0:0:0:0:
182,192,74729,1,0,0:0:0:0:
329,192,74729,1,0,0:0:0:0:
475,192,74729,1,0,0:0:0:0:
182,192,74989,1,0,0:0:0:0:
329,192,74989,1,0,0:0:0:0:
475,192,74989,1,0,0:0:0:0:
182,192,75250,1,0,0:0:0:0:
256,192,75511,1,0,0:0:0:0:
329,192,75772,1,0,0:0:0:0:
182,192,76033,1,0,0:0:0:0:
36,192,76033,1,0,0:0:0:0:
402,192,76033,1,0,0:0:0:0:
256,192,76196,1,0,0:0:0:0:
329,192,76261,1,0,0:0:0:0:
256,192,76326,1,0,0:0:0:0:
182,192,76392,1,0,0:0:0:0:
402,192,76555,1,0,0:0:0:0:
475,192,76555,1,0,0:0:0:0:
36,192,76816,1,0,0:0:0:0:
182,192,76816,1,0,0:0:0:0:
475,192,76881,1,0,0:0:0:0:
329,192,76946,1,0,0:0:0:0:
256,192,77076,1,0,0:0:0:0:
475,192,77337,1,0,0:0:0:0:
329,192,77337,1,0,0:0:0:0:
36,192,77403,1,0,0:0:0:0:
182,192,77468,1,0,0:0:0:0:
256,192,77598,1,0,0:0:0:0:
402,192,77598,1,0,0:0:0:0:
109,192,77859,1,0,0:0:0:0:
329,192,77859,1,0,0:0:0:0:
182,192,78120,1,0,0:0:0:0:
329,192,78381,1,0,0:0:0:0:
182,192,78381,1,0,0:0:0:0:
475,192,78446,1,0,0:0:0:0:
256,192,78511,1,0,0:0:0:0:
329,192,78642,1,0,0:0:0:0:
182,192,78903,1,0,0:0:0:0:
329,192,78903,1,0,0:0:0:0:
36,192,78968,1,0,0:0:0:0:
256,192,79033,1,0,0:0:0:0:
182,192,79163,1,0,0:0:0:0:
402,192,79163,1,0,0:0:0:0:
109,192,79424,1,0,0:0:0:0:
329,192,79424,1,0,0:0:0:0:
182,192,79685,1,0,0:0:0:0:
475,192,79685,1,0,0:0:0:0:
256,192,79946,1,0,0:0:0:0:
402,192,79946,1,0,0:0:0:0:
329,192,80207,1,0,0:0:0:0:
109,192,80207,1,0,0:0:0:0:
475,192,80207,1,0,0:0:0:0:
475,192,80468,1,0,0:0:0:0:
182,192,80468,1,0,0:0:0:0:
402,192,80533,1,0,0:0:0:0:
329,192,80663,1,0,0:0:0:0:
36,192,80729,1,0,0:0:0:0:
256,192,80729,1,0,0:0:0:0:
402,192,80989,1,0,0:0:0:0:
109,192,80989,1,0,0:0:0:0:
256,192,81055,1,0,0:0:0:0:
329,192,81120,1,0,0:0:0:0:
182,192,81250,1,0,0:0:0:0:
36,192,81250,1,0,0:0:0:0:
109,192,81511,1,0,0:0:0:0:
402,192,81511,1,0,0:0:0:0:
256,192,81576,1,0,0:0:0:0:
182,192,81642,1,0,0:0:0:0:
329,192,81772,1,0,0:0:0:0:
475,192,81772,1,0,0:0:0:0:
36,192,82033,1,0,0:0:0:0:
182,192,82033,1,0,0:0:0:0:
256,192,82033,1,0,0:0:0:0:
329,192,82294,1,0,0:0:0:0:
109,192,82294,1,0,0:0:0:0:
402,192,82468,1,0,0:0:0:0:
36,192,82555,1,0,0:0:0:0:
256,192,82555,1,0,0:0:0:0:
329,192,82620,1,0,0:0:0:0:
109,192,82642,1,0,0:0:0:0:
402,192,82685,1,0,0:0:0:0:
182,192,82816,1,0,0:0:0:0:
256,192,83076,1,0,0:0:0:0:
36,192,83076,1,0,0:0:0:0:
475,192,83142,1,0,0:0:0:0:
402,192,83207,1,0,0:0:0:0:
36,192,83337,1,0,0:0:0:0:
256,192,83337,1,0,0:0:0:0:
182,192,83598,1,0,0:0:0:0:
329,192,83663,1,0,0:0:0:0:
182,192,83729,1,0,0:0:0:0:
402,192,83859,1,0,0:0:0:0:
109,192,83859,1,0,0:0:0:0:
329,192,84120,1,0,0:0:0:0:
182,192,84120,1,0,0:0:0:0:
36,192,84381,1,0,0:0:0:0:
256,192,84381,1,0,0:0:0:0:
475,192,84381,1,0,0:0:0:0:
109,192,84642,1,0,0:0:0:0:
329,192,84642,1,0,0:0:0:0:
475,192,84707,1,0,0:0:0:0:
256,192,84772,1,0,0:0:0:0:
182,192,84903,1,0,0:0:0:0:
402,192,84903,1,0,0:0:0:0:
475,192,85163,1,0,0:0:0:0:
329,192,85163,1,0,0:0:0:0:
109,192,85229,1,0,0:0:0:0:
256,192,85294,1,0,0:0:0:0:
402,192,85424,1,0,0:0:0:0:
182,192,85424,1,0,0:0:0:0:
329,192,85685,1,0,0:0:0:0:
109,192,85685,1,0,0:0:0:0:
36,192,85750,1,0,0:0:0:0:
256,192,85816,1,0,0:0:0:0:
182,192,85946,1,0,0:0:0:0:
402,192,85946,1,0,0:0:0:0:
109,192,86207,1,0,0:0:0:0:
329,192,86207,1,0,0:0:0:0:
182,192,86468,1,0,0:0:0:0:
475,192,86468,1,0,0:0:0:0:
36,192,86729,1,0,0:0:0:0:
256,192,86729,1,0,0:0:0:0:
329,192,86794,1,0,0:0:0:0:
109,192,86859,1,0,0:0:0:0:
182,192,86989,1,0,0:0:0:0:
402,192,86989,1,0,0:0:0:0:
256,192,87250,1,0,0:0:0:0:
475,192,87250,1,0,0:0:0:0:
109,192,87316,1,0,0:0:0:0:
329,192,87381,1,0,0:0:0:0:
182,192,87511,1,0,0:0:0:0:
402,192,87511,1,0,0:0:0:0:
256,192,87772,1,0,0:0:0:0:
36,192,87772,1,0,0:0:0:0:
402,192,87837,1,0,0:0:0:0:
109,192,87903,1,0,0:0:0:0:
182,192,88033,1,0,0:0:0:0:
475,192,88033,1,0,0:0:0:0:
256,192,88098,1,0,0:0:0:0:
329,192,88163,1,0,0:0:0:0:
402,192,88229,1,0,0:0:0:0:
36,192,88294,1,0,0:0:0:0:
109,192,88359,1,0,0:0:0:0:
256,192,88424,1,0,0:0:0:0:
402,192,88489,1,0,0:0:0:0:
182,192,88555,1,0,0:0:0:0:
36,192,88555,1,0,0:0:0:0:
475,192,88555,1,0,0:0:0:0:
182,192,88816,1,0,0:0:0:0:
329,192,89076,1,0,0:0:0:0:
182,192,89337,1,0,0:0:0:0:
36,192,89598,1,0,0:0:0:0:
256,192,89598,1,0,0:0:0:0:
402,192,89598,1,0,0:0:0:0:
109,192,89772,1,0,0:0:0:0:
256,192,89772,1,0,0:0:0:0:
475,192,89772,1,0,0:0:0:0:
182,192,89946,1,0,0:0:0:0:
329,192,89946,1,0,0:0:0:0:
36,192,89946,1,0,0:0:0:0:
329,192,90120,1,0,0:0:0:0:
109,192,90120,1,0,0:0:0:0:
475,192,90120,1,0,0:0:0:0:
402,192,90294,1,0,0:0:0:0:
182,192,90294,1,0,0:0:0:0:
256,192,90294,1,0,0:0:0:0:
402,192,90468,1,0,0:0:0:0:
36,192,90468,1,0,0:0:0:0:
329,192,90468,1,0,0:0:0:0:
109,192,90642,1,0,0:0:0:0:
475,192,90642,1,0,0:0:0:0:
182,192,90642,1,0,0:0:0:0:
256,192,90903,1,0,0:0:0:0:
329,192,91033,1,0,0:0:0:0:
402,192,91098,1,0,0:0:0:0:
109,192,91163,1,0,0:0:0:0:
109,192,91294,1,0,0:0:0:0:
402,192,91424,1,0,0:0:0:0:
182,192,91555,1,0,0:0:0:0:
256,192,91685,1,0,0:0:0:0:
256,192,91946,1,0,0:0:0:0:
256,192,92207,1,0,0:0:0:0:
182,192,92468,1,0,0:0:0:0:
109,192,92598,1,0,0:0:0:0:
329,192,92729,5,0,0:0:0:0:
475,192,92729,1,0,0:0:0:0:
36,192,92729,1,0,0:0:0:0:
109,192,92989,1,0,0:0:0:0:
402,192,92989,1,0,0:0:0:0:
256,192,93120,1,0,0:0:0:0:
475,192,93250,1,0,0:0:0:0:
182,192,93250,1,0,0:0:0:0:
329,192,93250,1,0,0:0:0:0:
36,192,93511,1,0,0:0:0:0:
256,192,93511,1,0,0:0:0:0:
109,192,93511,1,0,0:0:0:0:
329,192,93642,1,0,0:0:0:0:
182,192,93772,1,0,0:0:0:0:
475,192,93772,1,0,0:0:0:0:
256,192,93903,1,0,0:0:0:0:
109,192,94033,1,0,0:0:0:0:
329,192,94033,1,0,0:0:0:0:
475,192,94033,1,0,0:0:0:0:
182,192,94163,1,0,0:0:0:0:
256,192,94294,1,0,0:0:0:0:
402,192,94294,1,0,0:0:0:0:
36,192,94294,1,0,0:0:0:0:
109,192,94555,1,0,0:0:0:0:
402,192,94685,1,0,0:0:0:0:
402,192,94816,1,0,0:0:0:0:
182,192,94816,1,0,0:0:0:0:
475,192,94816,1,0,0:0:0:0:
36,192,95076,1,0,0:0:0:0:
329,192,95076,1,0,0:0:0:0:
109,192,95207,1,0,0:0:0:0:
182,192,95337,1,0,0:0:0:0:
475,192,95337,1,0,0:0:0:0:
402,192,95337,1,0,0:0:0:0:
36,192,95598,1,0,0:0:0:0:
329,192,95598,1,0,0:0:0:0:
256,192,95729,1,0,0:0:0:0:
182,192,95859,1,0,0:0:0:0:
402,192,95859,1,0,0:0:0:0:
256,192,95989,1,0,0:0:0:0:
36,192,95989,1,0,0:0:0:0:
109,192,96120,1,0,0:0:0:0:
329,192,96120,1,0,0:0:0:0:
475,192,96120,1,0,0:0:0:0:
182,192,96381,1,0,0:0:0:0:
36,192,96381,1,0,0:0:0:0:
402,192,96381,1,0,0:0:0:0:
256,192,96642,1,0,0:0:0:0:
109,192,96642,1,0,0:0:0:0:
329,192,96772,1,0,0:0:0:0:
36,192,96903,1,0,0:0:0:0:
182,192,96903,1,0,0:0:0:0:
402,192,96903,1,0,0:0:0:0:
256,192,97163,1,0,0:0:0:0:
109,192,97163,1,0,0:0:0:0:
109,192,97424,1,0,0:0:0:0:
256,192,97424,1,0,0:0:0:0:
475,192,97424,1,0,0:0:0:0:
182,192,97685,1,0,0:0:0:0:
36,192,97685,1,0,0:0:0:0:
402,192,97685,1,0,0:0:0:0:
329,192,97816,1,0,0:0:0:0:
109,192,97946,1,0,0:0:0:0:
256,192,97946,1,0,0:0:0:0:
475,192,98076,1,0,0:0:0:0:
402,192,98207,1,0,0:0:0:0:
182,192,98207,1,0,0:0:0:0:
36,192,98207,1,0,0:0:0:0:
109,192,98468,1,0,0:0:0:0:
256,192,98468,1,0,0:0:0:0:
402,192,98468,1,0,0:0:0:0:
182,192,98729,1,0,0:0:0:0:
36,192,98729,1,0,0:0:0:0:
329,192,98859,1,0,0:0:0:0:
475,192,98989,1,0,0:0:0:0:
36,192,98989,1,0,0:0:0:0:
109,192,98989,1,0,0:0:0:0:
256,192,99120,1,0,0:0:0:0:
329,192,99120,1,0,0:0:0:0:
36,192,99250,1,0,0:0:0:0:
402,192,99250,1,0,0:0:0:0:
109,192,99381,1,0,0:0:0:0:
182,192,99381,1,0,0:0:0:0:
329,192,99511,1,0,0:0:0:0:
475,192,99511,1,0,0:0:0:0:
36,192,99511,1,0,0:0:0:0:
256,192,99642,1,0,0:0:0:0:
402,192,99642,1,0,0:0:0:0:
36,192,99772,1,0,0:0:0:0:
475,192,99772,1,0,0:0:0:0:
182,192,99772,1,0,0:0:0:0:
109,192,99903,1,0,0:0:0:0:
402,192,99903,1,0,0:0:0:0:
256,192,100033,1,0,0:0:0:0:
329,192,100033,1,0,0:0:0:0:
182,192,100163,1,0,0:0:0:0:
402,192,100294,1,0,0:0:0:0:
256,192,100294,1,0,0:0:0:0:
109,192,100294,1,0,0:0:0:0:
256,192,100555,1,0,0:0:0:0:
475,192,100555,1,0,0:0:0:0:
36,192,100555,1,0,0:0:0:0:
402,192,100685,1,0,0:0:0:0:
329,192,100816,1,0,0:0:0:0:
182,192,100816,1,0,0:0:0:0:
109,192,101076,1,0,0:0:0:0:
256,192,101076,1,0,0:0:0:0:
36,192,101076,1,0,0:0:0:0:
329,192,101337,1,0,0:0:0:0:
475,192,101337,1,0,0:0:0:0:
109,192,101403,1,0,0:0:0:0:
182,192,101468,1,0,0:0:0:0:
329,192,101598,1,0,0:0:0:0:
475,192,101598,1,0,0:0:0:0:
256,192,101598,1,0,0:0:0:0:
36,192,101859,1,0,0:0:0:0:
182,192,101859,1,0,0:0:0:0:
256,192,101859,1,0,0:0:0:0:
475,192,102120,1,0,0:0:0:0:
329,192,102120,1,0,0:0:0:0:
36,192,102381,1,0,0:0:0:0:
109,192,102381,1,0,0:0:0:0:
256,192,102381,1,0,0:0:0:0:
182,192,102642,1,0,0:0:0:0:
329,192,102642,1,0,0:0:0:0:
475,192,102642,1,0,0:0:0:0:
402,192,102903,1,0,0:0:0:0:
109,192,102903,1,0,0:0:0:0:
36,192,103163,1,0,0:0:0:0:
182,192,103163,1,0,0:0:0:0:
475,192,103163,1,0,0:0:0:0:
182,192,103424,1,0,0:0:0:0:
36,192,103424,1,0,0:0:0:0:
402,192,103489,1,0,0:0:0:0:
329,192,103555,1,0,0:0:0:0:
182,192,103685,1,0,0:0:0:0:
36,192,103685,1,0,0:0:0:0:
475,192,103685,1,0,0:0:0:0:
109,192,103946,1,0,0:0:0:0:
256,192,103946,1,0,0:0:0:0:
329,192,103946,1,0,0:0:0:0:
182,192,104076,1,0,0:0:0:0:
475,192,104207,1,0,0:0:0:0:
402,192,104207,1,0,0:0:0:0:
329,192,104337,1,0,0:0:0:0:
109,192,104468,1,0,0:0:0:0:
256,192,104468,1,0,0:0:0:0:
36,192,104468,1,0,0:0:0:0:
182,192,104729,1,0,0:0:0:0:
329,192,104729,1,0,0:0:0:0:
475,192,104729,1,0,0:0:0:0:
256,192,104989,1,0,0:0:0:0:
36,192,104989,1,0,0:0:0:0:
109,192,105250,1,0,0:0:0:0:
36,192,105250,1,0,0:0:0:0:
329,192,105250,1,0,0:0:0:0:
256,192,105511,1,0,0:0:0:0:
402,192,105511,1,0,0:0:0:0:
182,192,105642,1,0,0:0:0:0:
109,192,105772,1,0,0:0:0:0:
329,192,105772,1,0,0:0:0:0:
475,192,105772,1,0,0:0:0:0:
329,192,106033,1,0,0:0:0:0:
36,192,106033,1,0,0:0:0:0:
182,192,106033,1,0,0:0:0:0:
256,192,106163,1,0,0:0:0:0:
182,192,106294,1,0,0:0:0:0:
402,192,106294,1,0,0:0:0:0:
402,192,106555,1,0,0:0:0:0:
36,192,106555,1,0,0:0:0:0:
256,192,106555,1,0,0:0:0:0:
329,192,106685,1,0,0:0:0:0:
256,192,106816,1,0,0:0:0:0:
109,192,106816,1,0,0:0:0:0:
475,192,106816,1,0,0:0:0:0:
329,192,107076,1,0,0:0:0:0:
182,192,107076,1,0,0:0:0:0:
402,192,107337,1,0,0:0:0:0:
402,192,107598,1,0,0:0:0:0:
256,192,107598,1,0,0:0:0:0:
36,192,107598,1,0,0:0:0:0:
256,192,107859,1,0,0:0:0:0:
36,192,107859,1,0,0:0:0:0:
402,192,107859,1,0,0:0:0:0:
36,192,108120,1,0,0:0:0:0:
329,192,108120,1,0,0:0:0:0:
402,192,108120,1,0,0:0:0:0:
36,192,108381,1,0,0:0:0:0:
256,192,108381,1,0,0:0:0:0:
402,192,108381,1,0,0:0:0:0:
329,192,108642,1,0,0:0:0:0:
182,192,108642,1,0,0:0:0:0:
256,192,108772,1,0,0:0:0:0:
402,192,108903,1,0,0:0:0:0:
109,192,108903,1,0,0:0:0:0:
402,192,109163,1,0,0:0:0:0:
329,192,109424,1,0,0:0:0:0:
256,192,109424,1,0,0:0:0:0:
36,192,109424,1,0,0:0:0:0:
475,192,109424,1,0,0:0:0:0:
402,192,109685,1,0,0:0:0:0:
36,192,109685,1,0,0:0:0:0:
256,192,109750,1,0,0:0:0:0:
109,192,109816,1,0,0:0:0:0:
329,192,109946,1,0,0:0:0:0:
475,192,109946,1,0,0:0:0:0:
182,192,109946,1,0,0:0:0:0:
36,192,110207,1,0,0:0:0:0:
256,192,110207,1,0,0:0:0:0:
402,192,110207,1,0,0:0:0:0:
182,192,110468,1,0,0:0:0:0:
329,192,110468,1,0,0:0:0:0:
256,192,110729,1,0,0:0:0:0:
109,192,110729,1,0,0:0:0:0:
36,192,110729,1,0,0:0:0:0:
182,192,110989,1,0,0:0:0:0:
329,192,110989,1,0,0:0:0:0:
475,192,110989,1,0,0:0:0:0:
109,192,111250,1,0,0:0:0:0:
256,192,111250,1,0,0:0:0:0:
329,192,111511,1,0,0:0:0:0:
475,192,111511,1,0,0:0:0:0:
36,192,111511,1,0,0:0:0:0:
109,192,111772,1,0,0:0:0:0:
256,192,111772,1,0,0:0:0:0:
402,192,111837,1,0,0:0:0:0:
329,192,111903,1,0,0:0:0:0:
182,192,112033,1,0,0:0:0:0:
36,192,112033,1,0,0:0:0:0:
475,192,112033,1,0,0:0:0:0:
109,192,112294,1,0,0:0:0:0:
402,192,112294,1,0,0:0:0:0:
329,192,112294,1,0,0:0:0:0:
182,192,112424,1,0,0:0:0:0:
475,192,112555,1,0,0:0:0:0:
256,192,112555,1,0,0:0:0:0:
329,192,112685,1,0,0:0:0:0:
402,192,112816,1,0,0:0:0:0:
36,192,112816,1,0,0:0:0:0:
182,192,112816,1,0,0:0:0:0:
256,192,113076,1,0,0:0:0:0:
475,192,113076,1,0,0:0:0:0:
329,192,113076,1,0,0:0:0:0:
256,192,113337,1,0,0:0:0:0:
182,192,113337,1,0,0:0:0:0:
256,192,113598,1,0,0:0:0:0:
475,192,113598,1,0,0:0:0:0:
109,192,113598,1,0,0:0:0:0:
182,192,113859,1,0,0:0:0:0:
329,192,113859,1,0,0:0:0:0:
36,192,113924,1,0,0:0:0:0:
109,192,113989,1,0,0:0:0:0:
256,192,114120,1,0,0:0:0:0:
475,192,114120,1,0,0:0:0:0:
402,192,114120,1,0,0:0:0:0:
329,192,114381,1,0,0:0:0:0:
182,192,114381,1,0,0:0:0:0:
36,192,114381,1,0,0:0:0:0:
256,192,114642,1,0,0:0:0:0:
402,192,114642,1,0,0:0:0:0:
182,192,114903,1,0,0:0:0:0:
109,192,114903,1,0,0:0:0:0:
329,192,114903,1,0,0:0:0:0:
256,192,115163,1,0,0:0:0:0:
402,192,115163,1,0,0:0:0:0:
475,192,115163,1,0,0:0:0:0:
36,192,115424,1,0,0:0:0:0:
182,192,115424,1,0,0:0:0:0:
109,192,115685,1,0,0:0:0:0:
256,192,115685,1,0,0:0:0:0:
475,192,115685,1,0,0:0:0:0:
329,192,115946,1,0,0:0:0:0:
475,192,116011,1,0,0:0:0:0:
402,192,116076,1,0,0:0:0:0:
182,192,116207,1,0,0:0:0:0:
36,192,116207,1,0,0:0:0:0:
256,192,116207,1,0,0:0:0:0:
109,192,116468,1,0,0:0:0:0:
329,192,116468,1,0,0:0:0:0:
475,192,116468,1,0,0:0:0:0:
256,192,116598,1,0,0:0:0:0:
182,192,116729,1,0,0:0:0:0:
402,192,116729,1,0,0:0:0:0:
329,192,116859,1,0,0:0:0:0:
256,192,116989,1,0,0:0:0:0:
36,192,116989,1,0,0:0:0:0:
109,192,116989,1,0,0:0:0:0:
329,192,117120,1,0,0:0:0:0:
402,192,117250,1,0,0:0:0:0:
182,192,117250,1,0,0:0:0:0:
475,192,117250,1,0,0:0:0:0:
256,192,117381,1,0,0:0:0:0:
329,192,117511,1,0,0:0:0:0:
109,192,117511,1,0,0:0:0:0:
182,192,117772,1,0,0:0:0:0:
36,192,117772,1,0,0:0:0:0:
475,192,117772,1,0,0:0:0:0:
256,192,118033,1,0,0:0:0:0:
402,192,118098,1,0,0:0:0:0:
109,192,118163,1,0,0:0:0:0:
36,192,118163,1,0,0:0:0:0:
182,192,118294,1,0,0:0:0:0:
329,192,118294,1,0,0:0:0:0:
475,192,118294,1,0,0:0:0:0:
256,192,118555,1,0,0:0:0:0:
36,192,118555,1,0,0:0:0:0:
402,192,118555,1,0,0:0:0:0:
109,192,118816,1,0,0:0:0:0:
475,192,118816,1,0,0:0:0:0:
182,192,119076,1,0,0:0:0:0:
329,192,119076,1,0,0:0:0:0:
256,192,119076,1,0,0:0:0:0:
109,192,119337,1,0,0:0:0:0:
402,192,119337,1,0,0:0:0:0:
256,192,119337,1,0,0:0:0:0:
182,192,119598,1,0,0:0:0:0:
329,192,119598,1,0,0:0:0:0:
36,192,119859,1,0,0:0:0:0:
256,192,119859,1,0,0:0:0:0:
475,192,119859,1,0,0:0:0:0:
402,192,120120,1,0,0:0:0:0:
256,192,120185,1,0,0:0:0:0:
109,192,120250,1,0,0:0:0:0:
36,192,120250,1,0,0:0:0:0:
182,192,120381,1,0,0:0:0:0:
329,192,120381,1,0,0:0:0:0:
475,192,120381,1,0,0:0:0:0:
256,192,120642,1,0,0:0:0:0:
402,192,120642,1,0,0:0:0:0:
36,192,120642,1,0,0:0:0:0:
475,192,120772,1,0,0:0:0:0:
109,192,120903,1,0,0:0:0:0:
329,192,120903,1,0,0:0:0:0:
182,192,121033,1,0,0:0:0:0:
256,192,121163,1,0,0:0:0:0:
475,192,121163,1,0,0:0:0:0:
36,192,121163,1,0,0:0:0:0:
109,192,121424,1,0,0:0:0:0:
182,192,121424,1,0,0:0:0:0:
402,192,121424,1,0,0:0:0:0:
329,192,121685,1,0,0:0:0:0:
256,192,121685,1,0,0:0:0:0:
182,192,121946,1,0,0:0:0:0:
475,192,121946,1,0,0:0:0:0:
402,192,121946,1,0,0:0:0:0:
109,192,122207,1,0,0:0:0:0:
329,192,122207,1,0,0:0:0:0:
256,192,122272,1,0,0:0:0:0:
402,192,122337,1,0,0:0:0:0:
182,192,122468,1,0,0:0:0:0:
36,192,122468,1,0,0:0:0:0:
475,192,122468,1,0,0:0:0:0:
109,192,122729,1,0,0:0:0:0:
329,192,122729,1,0,0:0:0:0:
402,192,122729,1,0,0:0:0:0:
256,192,122989,1,0,0:0:0:0:
475,192,122989,1,0,0:0:0:0:
36,192,123250,1,0,0:0:0:0:
182,192,123250,1,0,0:0:0:0:
402,192,123250,1,0,0:0:0:0:
109,192,123511,1,0,0:0:0:0:
256,192,123511,1,0,0:0:0:0:
475,192,123511,1,0,0:0:0:0:
329,192,123772,1,0,0:0:0:0:
182,192,123772,1,0,0:0:0:0:
36,192,124033,1,0,0:0:0:0:
256,192,124033,1,0,0:0:0:0:
402,192,124033,1,0,0:0:0:0:
402,192,124294,1,0,0:0:0:0:
109,192,124294,1,0,0:0:0:0:
256,192,124359,1,0,0:0:0:0:
182,192,124424,1,0,0:0:0:0:
329,192,124555,1,0,0:0:0:0:
36,192,124555,1,0,0:0:0:0:
475,192,124555,1,0,0:0:0:0:
109,192,124816,1,0,0:0:0:0:
256,192,124816,1,0,0:0:0:0:
402,192,124816,1,0,0:0:0:0:
329,192,124946,1,0,0:0:0:0:
329,192,125076,1,0,0:0:0:0:
182,192,125076,1,0,0:0:0:0:
256,192,125207,1,0,0:0:0:0:
402,192,125337,1,0,0:0:0:0:
109,192,125337,1,0,0:0:0:0:
256,192,125598,1,0,0:0:0:0:
36,192,125598,1,0,0:0:0:0:
475,192,125598,1,0,0:0:0:0:
256,192,125859,1,0,0:0:0:0:
402,192,125859,1,0,0:0:0:0:
402,192,125989,1,0,0:0:0:0:
256,192,126120,1,0,0:0:0:0:
475,192,126120,1,0,0:0:0:0:
36,192,126120,1,0,0:0:0:0:
182,192,126120,1,0,0:0:0:0:
109,192,126381,1,0,0:0:0:0:
329,192,126381,1,0,0:0:0:0:
182,192,126511,1,0,0:0:0:0:
402,192,126511,1,0,0:0:0:0:
256,192,126642,1,0,0:0:0:0:
475,192,126642,1,0,0:0:0:0:
36,192,126642,1,0,0:0:0:0:
329,192,126772,1,0,0:0:0:0:
109,192,126903,1,0,0:0:0:0:
402,192,126903,1,0,0:0:0:0:
256,192,126903,1,0,0:0:0:0:
182,192,127033,1,0,0:0:0:0:
36,192,127163,1,0,0:0:0:0:
329,192,127163,1,0,0:0:0:0:
182,192,127424,1,0,0:0:0:0:
475,192,127424,1,0,0:0:0:0:
329,192,127424,1,0,0:0:0:0:
109,192,127555,1,0,0:0:0:0:
36,192,127685,1,0,0:0:0:0:
256,192,127685,1,0,0:0:0:0:
402,192,127685,1,0,0:0:0:0:
182,192,127816,1,0,0:0:0:0:
109,192,127946,1,0,0:0:0:0:
329,192,127946,1,0,0:0:0:0:
256,192,128207,1,0,0:0:0:0:
475,192,128207,1,0,0:0:0:0:
36,192,128207,1,0,0:0:0:0:
109,192,128468,1,0,0:0:0:0:
329,192,128468,1,0,0:0:0:0:
256,192,128598,1,0,0:0:0:0:
182,192,128729,1,0,0:0:0:0:
475,192,128729,1,0,0:0:0:0:
402,192,128729,1,0,0:0:0:0:
182,192,128989,1,0,0:0:0:0:
36,192,128989,1,0,0:0:0:0:
329,192,128989,1,0,0:0:0:0:
402,192,129120,1,0,0:0:0:0:
475,192,129250,1,0,0:0:0:0:
109,192,129250,1,0,0:0:0:0:
182,192,129381,1,0,0:0:0:0:
256,192,129511,1,0,0:0:0:0:
402,192,129511,1,0,0:0:0:0:
36,192,129511,1,0,0:0:0:0:
256,192,129772,1,0,0:0:0:0:
475,192,129772,1,0,0:0:0:0:
109,192,129772,1,0,0:0:0:0:
256,192,130033,1,0,0:0:0:0:
182,192,130033,1,0,0:0:0:0:
256,192,130294,1,0,0:0:0:0:
475,192,130294,1,0,0:0:0:0:
36,192,130294,1,0,0:0:0:0:
402,192,130555,1,0,0:0:0:0:
182,192,130555,1,0,0:0:0:0:
329,192,130685,1,0,0:0:0:0:
256,192,130816,1,0,0:0:0:0:
36,192,130816,1,0,0:0:0:0:
475,192,130816,1,0,0:0:0:0:
182,192,131076,1,0,0:0:0:0:
329,192,131076,1,0,0:0:0:0:
109,192,131076,1,0,0:0:0:0:
402,192,131207,1,0,0:0:0:0:
475,192,131337,1,0,0:0:0:0:
256,192,131337,1,0,0:0:0:0:
36,192,131468,1,0,0:0:0:0:
329,192,131598,1,0,0:0:0:0:
475,192,131598,1,0,0:0:0:0:
182,192,131729,1,0,0:0:0:0:
256,192,131859,1,0,0:0:0:0:
109,192,131859,1,0,0:0:0:0:
402,192,131859,1,0,0:0:0:0:
329,192,132120,1,0,0:0:0:0:
475,192,132120,1,0,0:0:0:0:
182,192,132250,1,0,0:0:0:0:
36,192,132381,1,0,0:0:0:0:
402,192,132381,1,0,0:0:0:0:
256,192,132381,1,0,0:0:0:0:
182,192,132642,1,0,0:0:0:0:
36,192,132642,1,0,0:0:0:0:
329,192,132772,1,0,0:0:0:0:
182,192,132903,1,0,0:0:0:0:
36,192,132903,1,0,0:0:0:0:
475,192,132903,1,0,0:0:0:0:
109,192,133163,1,0,0:0:0:0:
256,192,133163,1,0,0:0:0:0:
402,192,133163,1,0,0:0:0:0:
182,192,133294,1,0,0:0:0:0:
256,192,133424,1,0,0:0:0:0:
36,192,133424,1,0,0:0:0:0:
329,192,133555,1,0,0:0:0:0:
109,192,133685,1,0,0:0:0:0:
402,192,133685,1,0,0:0:0:0:
475,192,133685,1,0,0:0:0:0:
182,192,133816,1,0,0:0:0:0:
256,192,133946,1,0,0:0:0:0:
329,192,133946,1,0,0:0:0:0:
36,192,133946,1,0,0:0:0:0:
182,192,134076,1,0,0:0:0:0:
109,192,134207,1,0,0:0:0:0:
402,192,134207,1,0,0:0:0:0:
329,192,134337,1,0,0:0:0:0:
36,192,134468,1,0,0:0:0:0:
256,192,134468,1,0,0:0:0:0:
475,192,134468,1,0,0:0:0:0:
182,192,134468,1,0,0:0:0:0:
109,192,134729,1,0,0:0:0:0:
402,192,134859,1,0,0:0:0:0:
329,192,134859,1,0,0:0:0:0:
36,192,134989,1,0,0:0:0:0:
109,192,134989,1,0,0:0:0:0:
182,192,134989,1,0,0:0:0:0:
36,192,135250,1,0,0:0:0:0:
475,192,135250,1,0,0:0:0:0:
329,192,135250,1,0,0:0:0:0:
256,192,135381,1,0,0:0:0:0:
402,192,135511,1,0,0:0:0:0:
182,192,135511,1,0,0:0:0:0:
109,192,135642,1,0,0:0:0:0:
475,192,135772,1,0,0:0:0:0:
402,192,135772,1,0,0:0:0:0:
182,192,135772,1,0,0:0:0:0:
256,192,135903,1,0,0:0:0:0:
109,192,136033,1,0,0:0:0:0:
329,192,136033,1,0,0:0:0:0:
36,192,136033,1,0,0:0:0:0:
256,192,136294,1,0,0:0:0:0:
402,192,136294,1,0,0:0:0:0:
329,192,136424,1,0,0:0:0:0:
475,192,136555,1,0,0:0:0:0:
109,192,136555,1,0,0:0:0:0:
256,192,136555,1,0,0:0:0:0:
402,192,136816,1,0,0:0:0:0:
182,192,136946,1,0,0:0:0:0:
36,192,136946,1,0,0:0:0:0:
329,192,137076,1,0,0:0:0:0:
402,192,137076,1,0,0:0:0:0:
475,192,137076,1,0,0:0:0:0:
36,192,137337,1,0,0:0:0:0:
256,192,137337,1,0,0:0:0:0:
182,192,137337,1,0,0:0:0:0:
402,192,137468,1,0,0:0:0:0:
109,192,137598,1,0,0:0:0:0:
329,192,137598,1,0,0:0:0:0:
256,192,137729,1,0,0:0:0:0:
36,192,137859,1,0,0:0:0:0:
182,192,137859,1,0,0:0:0:0:
402,192,137859,1,0,0:0:0:0:
475,192,137989,1,0,0:0:0:0:
256,192,138120,1,0,0:0:0:0:
109,192,138120,1,0,0:0:0:0:
182,192,138120,1,0,0:0:0:0:
329,192,138250,1,0,0:0:0:0:
182,192,138381,1,0,0:0:0:0:
402,192,138381,1,0,0:0:0:0:
402,192,138642,1,0,0:0:0:0:
256,192,138642,1,0,0:0:0:0:
36,192,138642,1,0,0:0:0:0:
182,192,138903,1,0,0:0:0:0:
329,192,138903,1,0,0:0:0:0:
402,192,139033,1,0,0:0:0:0:
475,192,139163,1,0,0:0:0:0:
36,192,139163,1,0,0:0:0:0:
256,192,139163,1,0,0:0:0:0:
109,192,139424,1,0,0:0:0:0:
402,192,139424,1,0,0:0:0:0:
256,192,139424,1,0,0:0:0:0:
182,192,139555,1,0,0:0:0:0:
36,192,139685,1,0,0:0:0:0:
329,192,139685,1,0,0:0:0:0:
109,192,139816,1,0,0:0:0:0:
182,192,139946,1,0,0:0:0:0:
329,192,139946,1,0,0:0:0:0:
475,192,139946,1,0,0:0:0:0:
256,192,140076,1,0,0:0:0:0:
402,192,140207,1,0,0:0:0:0:
109,192,140207,1,0,0:0:0:0:
475,192,140207,1,0,0:0:0:0:
182,192,140468,1,0,0:0:0:0:
329,192,140468,1,0,0:0:0:0:
256,192,140598,1,0,0:0:0:0:
402,192,140729,1,0,0:0:0:0:
109,192,140729,1,0,0:0:0:0:
36,192,140729,1,0,0:0:0:0:
329,192,140989,1,0,0:0:0:0:
182,192,141120,1,0,0:0:0:0:
256,192,141250,1,0,0:0:0:0:
475,192,141250,1,0,0:0:0:0:
109,192,141250,1,0,0:0:0:0:
36,192,141511,1,0,0:0:0:0:
182,192,141511,1,0,0:0:0:0:
109,192,141511,1,0,0:0:0:0:
256,192,141642,1,0,0:0:0:0:
402,192,141772,1,0,0:0:0:0:
475,192,141772,1,0,0:0:0:0:
329,192,141772,1,0,0:0:0:0:
36,192,142033,1,0,0:0:0:0:
109,192,142033,1,0,0:0:0:0:
402,192,142033,1,0,0:0:0:0:
182,192,142163,1,0,0:0:0:0:
329,192,142294,1,0,0:0:0:0:
256,192,142294,1,0,0:0:0:0:
475,192,142294,1,0,0:0:0:0:
109,192,142555,1,0,0:0:0:0:
402,192,142555,1,0,0:0:0:0:
182,192,142685,1,0,0:0:0:0:
329,192,142685,1,0,0:0:0:0:
36,192,142816,1,0,0:0:0:0:
475,192,142816,1,0,0:0:0:0:
109,192,142816,1,0,0:0:0:0:
402,192,142816,1,0,0:0:0:0:
329,192,143076,1,0,0:0:0:0:
475,192,143076,1,0,0:0:0:0:
109,192,143207,1,0,0:0:0:0:
182,192,143207,1,0,0:0:0:0:
256,192,143337,1,0,0:0:0:0:
402,192,143337,1,0,0:0:0:0:
475,192,143337,1,0,0:0:0:0:
36,192,143598,1,0,0:0:0:0:
329,192,143598,1,0,0:0:0:0:
182,192,143598,1,0,0:0:0:0:
109,192,143729,1,0,0:0:0:0:
182,192,143859,1,0,0:0:0:0:
475,192,143859,1,0,0:0:0:0:
402,192,143989,1,0,0:0:0:0:
256,192,143989,1,0,0:0:0:0:
109,192,144120,1,0,0:0:0:0:
475,192,144120,1,0,0:0:0:0:
329,192,144120,1,0,0:0:0:0:
182,192,144250,1,0,0:0:0:0:
256,192,144381,1,0,0:0:0:0:
402,192,144381,1,0,0:0:0:0:
475,192,144381,1,0,0:0:0:0:
329,192,144642,1,0,0:0:0:0:
182,192,144642,1,0,0:0:0:0:
256,192,144772,1,0,0:0:0:0:
36,192,144903,1,0,0:0:0:0:
109,192,144903,1,0,0:0:0:0:
402,192,144903,1,0,0:0:0:0:
36,192,145163,1,0,0:0:0:0:
182,192,145163,1,0,0:0:0:0:
329,192,145294,1,0,0:0:0:0:
402,192,145294,1,0,0:0:0:0:
256,192,145424,1,0,0:0:0:0:
36,192,145424,1,0,0:0:0:0:
109,192,145424,1,0,0:0:0:0:
182,192,145685,1,0,0:0:0:0:
475,192,145685,1,0,0:0:0:0:
329,192,145685,1,0,0:0:0:0:
402,192,145816,1,0,0:0:0:0:
329,192,145946,1,0,0:0:0:0:
36,192,145946,1,0,0:0:0:0:
109,192,146076,1,0,0:0:0:0:
256,192,146076,1,0,0:0:0:0:
182,192,146207,1,0,0:0:0:0:
475,192,146207,1,0,0:0:0:0:
402,192,146207,1,0,0:0:0:0:
329,192,146337,1,0,0:0:0:0:
256,192,146468,1,0,0:0:0:0:
36,192,146468,1,0,0:0:0:0:
109,192,146468,1,0,0:0:0:0:
402,192,146598,1,0,0:0:0:0:
329,192,146729,1,0,0:0:0:0:
182,192,146729,1,0,0:0:0:0:
475,192,146989,1,0,0:0:0:0:
36,192,146989,1,0,0:0:0:0:
256,192,146989,1,0,0:0:0:0:
182,192,147250,1,0,0:0:0:0:
402,192,147511,1,0,0:0:0:0:
329,192,147772,1,0,0:0:0:0:
256,192,148033,1,0,0:0:0:0:
109,192,148033,1,0,0:0:0:0:
402,192,148033,1,0,0:0:0:0:
182,192,148294,1,0,0:0:0:0:
109,192,148555,1,0,0:0:0:0:
329,192,148816,1,0,0:0:0:0:
256,192,149076,1,0,0:0:0:0:
36,192,149337,1,0,0:0:0:0:
256,192,149337,1,0,0:0:0:0:
475,192,149337,1,0,0:0:0:0:
475,192,149598,1,0,0:0:0:0:
256,192,149598,1,0,0:0:0:0:
36,192,149598,1,0,0:0:0:0:
36,192,149859,1,0,0:0:0:0:
256,192,149859,1,0,0:0:0:0:
475,192,149859,1,0,0:0:0:0:
475,192,150120,1,0,0:0:0:0:
256,192,150120,1,0,0:0:0:0:
36,192,150120,1,0,0:0:0:0:
182,192,150381,1,0,0:0:0:0:
329,192,150511,1,0,0:0:0:0:
109,192,150642,1,0,0:0:0:0:
256,192,150772,1,0,0:0:0:0:
402,192,150903,1,0,0:0:0:0:
402,192,151033,1,0,0:0:0:0:
256,192,151163,1,0,0:0:0:0:
36,192,151163,1,0,0:0:0:0:
182,192,151163,1,0,0:0:0:0:
475,192,151163,1,0,0:0:0:0:
109,192,151424,1,0,0:0:0:0:
256,192,151424,1,0,0:0:0:0:
329,192,151489,1,0,0:0:0:0:
402,192,151555,1,0,0:0:0:0:
182,192,151685,1,0,0:0:0:0:
475,192,151685,1,0,0:0:0:0:
36,192,151685,1,0,0:0:0:0:
182,192,151946,1,0,0:0:0:0:
402,192,151946,1,0,0:0:0:0:
256,192,152011,1,0,0:0:0:0:
329,192,152076,1,0,0:0:0:0:
109,192,152207,1,0,0:0:0:0:
475,192,152207,1,0,0:0:0:0:
109,192,152468,1,0,0:0:0:0:
402,192,152468,1,0,0:0:0:0:
475,192,152468,1,0,0:0:0:0:
182,192,152533,1,0,0:0:0:0:
256,192,152598,1,0,0:0:0:0:
329,192,152729,1,0,0:0:0:0:
475,192,152729,1,0,0:0:0:0:
36,192,152729,1,0,0:0:0:0:
109,192,152989,1,0,0:0:0:0:
402,192,152989,1,0,0:0:0:0:
329,192,153120,1,0,0:0:0:0:
182,192,153120,1,0,0:0:0:0:
256,192,153250,1,0,0:0:0:0:
36,192,153250,1,0,0:0:0:0:
475,192,153250,1,0,0:0:0:0:
256,192,153511,1,0,0:0:0:0:
182,192,153576,1,0,0:0:0:0:
109,192,153642,1,0,0:0:0:0:
36,192,153772,1,0,0:0:0:0:
329,192,153772,1,0,0:0:0:0:
475,192,153772,1,0,0:0:0:0:
329,192,154033,1,0,0:0:0:0:
36,192,154033,1,0,0:0:0:0:
109,192,154033,1,0,0:0:0:0:
256,192,154098,1,0,0:0:0:0:
182,192,154163,1,0,0:0:0:0:
329,192,154294,1,0,0:0:0:0:
475,192,154294,1,0,0:0:0:0:
402,192,154555,1,0,0:0:0:0:
36,192,154555,1,0,0:0:0:0:
109,192,154555,1,0,0:0:0:0:
329,192,154620,1,0,0:0:0:0:
256,192,154685,1,0,0:0:0:0:
475,192,154816,1,0,0:0:0:0:
36,192,154816,1,0,0:0:0:0:
182,192,154816,1,0,0:0:0:0:
402,192,155076,1,0,0:0:0:0:
256,192,155076,1,0,0:0:0:0:
182,192,155207,1,0,0:0:0:0:
36,192,155337,1,0,0:0:0:0:
329,192,155337,1,0,0:0:0:0:
475,192,155337,1,0,0:0:0:0:
182,192,155598,1,0,0:0:0:0:
329,192,155663,1,0,0:0:0:0:
109,192,155729,1,0,0:0:0:0:
256,192,155859,1,0,0:0:0:0:
475,192,155859,1,0,0:0:0:0:
402,192,155859,1,0,0:0:0:0:
36,192,156120,1,0,0:0:0:0:
109,192,156120,1,0,0:0:0:0:
256,192,156120,1,0,0:0:0:0:
329,192,156250,1,0,0:0:0:0:
402,192,156381,1,0,0:0:0:0:
182,192,156381,1,0,0:0:0:0:
329,192,156511,1,0,0:0:0:0:
256,192,156642,1,0,0:0:0:0:
109,192,156642,1,0,0:0:0:0:
475,192,156642,1,0,0:0:0:0:
182,192,156772,1,0,0:0:0:0:
36,192,156903,1,0,0:0:0:0:
402,192,156903,1,0,0:0:0:0:
256,192,156903,1,0,0:0:0:0:
329,192,157163,1,0,0:0:0:0:
475,192,157163,1,0,0:0:0:0:
182,192,157294,1,0,0:0:0:0:
109,192,157294,1,0,0:0:0:0:
256,192,157424,1,0,0:0:0:0:
475,192,157424,1,0,0:0:0:0:
402,192,157424,1,0,0:0:0:0:
36,192,157685,1,0,0:0:0:0:
256,192,157685,1,0,0:0:0:0:
109,192,157816,1,0,0:0:0:0:
329,192,157816,1,0,0:0:0:0:
182,192,157946,1,0,0:0:0:0:
402,192,157946,1,0,0:0:0:0:
475,192,157946,1,0,0:0:0:0:
329,192,158207,1,0,0:0:0:0:
475,192,158207,1,0,0:0:0:0:
36,192,158207,1,0,0:0:0:0:
256,192,158337,1,0,0:0:0:0:
182,192,158468,1,0,0:0:0:0:
402,192,158468,1,0,0:0:0:0:
109,192,158598,1,0,0:0:0:0:
256,192,158729,1,0,0:0:0:0:
402,192,158729,1,0,0:0:0:0:
475,192,158729,1,0,0:0:0:0:
329,192,158859,1,0,0:0:0:0:
36,192,158989,1,0,0:0:0:0:
256,192,158989,1,0,0:0:0:0:
182,192,158989,1,0,0:0:0:0:
402,192,159120,1,0,0:0:0:0:
109,192,159250,1,0,0:0:0:0:
329,192,159250,1,0,0:0:0:0:
182,192,159381,1,0,0:0:0:0:
256,192,159511,1,0,0:0:0:0:
402,192,159511,1,0,0:0:0:0:
475,192,159511,1,0,0:0:0:0:
36,192,159511,1,0,0:0:0:0:
329,192,159772,1,0,0:0:0:0:
109,192,159772,1,0,0:0:0:0:
402,192,159903,1,0,0:0:0:0:
182,192,160033,1,0,0:0:0:0:
475,192,160033,1,0,0:0:0:0:
36,192,160033,1,0,0:0:0:0:
256,192,160163,1,0,0:0:0:0:
109,192,160294,1,0,0:0:0:0:
402,192,160294,1,0,0:0:0:0:
329,192,160294,1,0,0:0:0:0:
182,192,160424,1,0,0:0:0:0:
475,192,160555,1,0,0:0:0:0:
256,192,160555,1,0,0:0:0:0:
36,192,160685,1,0,0:0:0:0:
182,192,160816,1,0,0:0:0:0:
402,192,160816,1,0,0:0:0:0:
329,192,160816,1,0,0:0:0:0:
475,192,160946,1,0,0:0:0:0:
256,192,161076,1,0,0:0:0:0:
109,192,161076,1,0,0:0:0:0:
36,192,161076,1,0,0:0:0:0:
182,192,161337,1,0,0:0:0:0:
402,192,161337,1,0,0:0:0:0:
402,192,161598,1,0,0:0:0:0:
256,192,161598,1,0,0:0:0:0:
36,192,161598,1,0,0:0:0:0:
182,192,161859,1,0,0:0:0:0:
329,192,161859,1,0,0:0:0:0:
109,192,161989,1,0,0:0:0:0:
402,192,161989,1,0,0:0:0:0:
36,192,162120,1,0,0:0:0:0:
475,192,162120,1,0,0:0:0:0:
256,192,162120,1,0,0:0:0:0:
109,192,162381,1,0,0:0:0:0:
256,192,162381,1,0,0:0:0:0:
402,192,162381,1,0,0:0:0:0:
475,192,162511,1,0,0:0:0:0:
182,192,162642,1,0,0:0:0:0:
329,192,162642,1,0,0:0:0:0:
36,192,162772,1,0,0:0:0:0:
109,192,162903,1,0,0:0:0:0:
256,192,162903,1,0,0:0:0:0:
402,192,162903,1,0,0:0:0:0:
329,192,163033,1,0,0:0:0:0:
475,192,163163,1,0,0:0:0:0:
182,192,163163,1,0,0:0:0:0:
36,192,163163,1,0,0:0:0:0:
329,192,163424,1,0,0:0:0:0:
475,192,163424,1,0,0:0:0:0:
256,192,163555,1,0,0:0:0:0:
475,192,163685,1,0,0:0:0:0:
182,192,163685,1,0,0:0:0:0:
36,192,163685,1,0,0:0:0:0:
402,192,163946,1,0,0:0:0:0:
256,192,163946,1,0,0:0:0:0:
109,192,164076,1,0,0:0:0:0:
329,192,164207,1,0,0:0:0:0:
475,192,164207,1,0,0:0:0:0:
182,192,164207,1,0,0:0:0:0:
256,192,164468,1,0,0:0:0:0:
402,192,164468,1,0,0:0:0:0:
36,192,164468,1,0,0:0:0:0:
109,192,164598,1,0,0:0:0:0:
182,192,164729,1,0,0:0:0:0:
329,192,164729,1,0,0:0:0:0:
402,192,164859,1,0,0:0:0:0:
109,192,164989,1,0,0:0:0:0:
256,192,164989,1,0,0:0:0:0:
36,192,164989,1,0,0:0:0:0:
402,192,165120,1,0,0:0:0:0:
182,192,165250,1,0,0:0:0:0:
329,192,165250,1,0,0:0:0:0:
475,192,165250,1,0,0:0:0:0:
256,192,165511,1,0,0:0:0:0:
402,192,165511,1,0,0:0:0:0:
329,192,165642,1,0,0:0:0:0:
182,192,165772,1,0,0:0:0:0:
36,192,165772,1,0,0:0:0:0:
109,192,165772,1,0,0:0:0:0:
36,192,166033,1,0,0:0:0:0:
182,192,166033,1,0,0:0:0:0:
256,192,166163,1,0,0:0:0:0:
329,192,166294,1,0,0:0:0:0:
402,192,166294,1,0,0:0:0:0:
475,192,166294,1,0,0:0:0:0:
36,192,166555,1,0,0:0:0:0:
109,192,166555,1,0,0:0:0:0:
182,192,166685,1,0,0:0:0:0:
256,192,166816,1,0,0:0:0:0:
329,192,166816,1,0,0:0:0:0:
475,192,166816,1,0,0:0:0:0:
36,192,167076,1,0,0:0:0:0:
109,192,167076,1,0,0:0:0:0:
402,192,167076,1,0,0:0:0:0:
329,192,167207,1,0,0:0:0:0:
182,192,167337,1,0,0:0:0:0:
475,192,167337,1,0,0:0:0:0:
256,192,167337,1,0,0:0:0:0:
402,192,167598,1,0,0:0:0:0:
109,192,167598,1,0,0:0:0:0:
329,192,167729,1,0,0:0:0:0:
182,192,167859,1,0,0:0:0:0:
36,192,167859,1,0,0:0:0:0:
256,192,167859,1,0,0:0:0:0:
475,192,167859,1,0,0:0:0:0:
109,192,168120,1,0,0:0:0:0:
402,192,168120,1,0,0:0:0:0:
329,192,168250,1,0,0:0:0:0:
182,192,168250,1,0,0:0:0:0:
36,192,168381,1,0,0:0:0:0:
256,192,168381,1,0,0:0:0:0:
475,192,168381,1,0,0:0:0:0:
109,192,168642,1,0,0:0:0:0:
402,192,168642,1,0,0:0:0:0:
256,192,168642,1,0,0:0:0:0:
329,192,168772,1,0,0:0:0:0:
182,192,168903,1,0,0:0:0:0:
475,192,168903,1,0,0:0:0:0:
402,192,169033,1,0,0:0:0:0:
109,192,169033,1,0,0:0:0:0:
182,192,169163,1,0,0:0:0:0:
475,192,169163,1,0,0:0:0:0:
36,192,169163,1,0,0:0:0:0:
256,192,169294,1,0,0:0:0:0:
329,192,169424,1,0,0:0:0:0:
109,192,169424,1,0,0:0:0:0:
402,192,169424,1,0,0:0:0:0:
182,192,169685,1,0,0:0:0:0:
256,192,169685,1,0,0:0:0:0:
256,192,169946,1,0,0:0:0:0:
36,192,169946,1,0,0:0:0:0:
475,192,169946,1,0,0:0:0:0:
109,192,170207,1,0,0:0:0:0:
329,192,170207,1,0,0:0:0:0:
182,192,170337,1,0,0:0:0:0:
402,192,170337,1,0,0:0:0:0:
256,192,170468,1,0,0:0:0:0:
475,192,170468,1,0,0:0:0:0:
36,192,170468,1,0,0:0:0:0:
182,192,170729,1,0,0:0:0:0:
36,192,170729,1,0,0:0:0:0:
402,192,170729,1,0,0:0:0:0:
475,192,170859,1,0,0:0:0:0:
109,192,170989,1,0,0:0:0:0:
329,192,170989,1,0,0:0:0:0:
402,192,171120,1,0,0:0:0:0:
182,192,171120,1,0,0:0:0:0:
256,192,171250,1,0,0:0:0:0:
475,192,171250,1,0,0:0:0:0:
36,192,171250,1,0,0:0:0:0:
329,192,171381,1,0,0:0:0:0:
109,192,171511,1,0,0:0:0:0:
182,192,171511,1,0,0:0:0:0:
402,192,171511,1,0,0:0:0:0:
256,192,171772,1,0,0:0:0:0:
475,192,171772,1,0,0:0:0:0:
475,192,172033,1,0,0:0:0:0:
256,192,172033,1,0,0:0:0:0:
36,192,172033,1,0,0:0:0:0:
109,192,172294,1,0,0:0:0:0:
402,192,172555,1,0,0:0:0:0:
329,192,172816,1,0,0:0:0:0:
256,192,173076,1,0,0:0:0:0:
36,192,173076,1,0,0:0:0:0:
475,192,173076,1,0,0:0:0:0:
329,192,173337,1,0,0:0:0:0:
182,192,173598,1,0,0:0:0:0:
256,192,173663,1,0,0:0:0:0:
402,192,173729,1,0,0:0:0:0:
475,192,173794,1,0,0:0:0:0:
109,192,173859,1,0,0:0:0:0:
182,192,173924,1,0,0:0:0:0:
329,192,173989,1,0,0:0:0:0:
402,192,174055,1,0,0:0:0:0:
256,192,174120,1,0,0:0:0:0:
36,192,174120,1,0,0:0:0:0:
475,192,174120,1,0,0:0:0:0:
182,192,174381,1,0,0:0:0:0:
36,192,174642,1,0,0:0:0:0:
109,192,174642,1,0,0:0:0:0:
329,192,174642,1,0,0:0:0:0:
182,192,174903,1,0,0:0:0:0:
402,192,174903,1,0,0:0:0:0:
475,192,174903,1,0,0:0:0:0:
256,192,175163,1,0,0:0:0:0:
109,192,175163,1,0,0:0:0:0:
256,192,175424,1,0,0:0:0:0:
329,192,175424,1,0,0:0:0:0:
475,192,175424,1,0,0:0:0:0:
402,192,175685,1,0,0:0:0:0:
182,192,175685,1,0,0:0:0:0:
109,192,175946,1,0,0:0:0:0:
329,192,175946,1,0,0:0:0:0:
36,192,175946,1,0,0:0:0:0:
182,192,176207,1,0,0:0:0:0:
402,192,176207,1,0,0:0:0:0:
36,192,176468,1,0,0:0:0:0:
182,192,176468,1,0,0:0:0:0:
329,192,176468,1,0,0:0:0:0:
329,192,176729,1,0,0:0:0:0:
475,192,176729,1,0,0:0:0:0:
182,192,176729,1,0,0:0:0:0:
109,192,176989,1,0,0:0:0:0:
256,192,176989,1,0,0:0:0:0:
36,192,176989,1,0,0:0:0:0:
182,192,177250,1,0,0:0:0:0:
329,192,177250,1,0,0:0:0:0:
402,192,177250,1,0,0:0:0:0:
256,192,177511,1,0,0:0:0:0:
475,192,177511,1,0,0:0:0:0:
36,192,177511,1,0,0:0:0:0:
182,192,177642,1,0,0:0:0:0:
402,192,177772,1,0,0:0:0:0:
109,192,177772,1,0,0:0:0:0:
329,192,177772,1,0,0:0:0:0:
256,192,177903,1,0,0:0:0:0:
182,192,178033,1,0,0:0:0:0:
109,192,178033,1,0,0:0:0:0:
475,192,178294,1,0,0:0:0:0:
329,192,178294,1,0,0:0:0:0:
182,192,178294,1,0,0:0:0:0:
256,192,178555,1,0,0:0:0:0:
109,192,178555,1,0,0:0:0:0:
402,192,178816,1,0,0:0:0:0:
182,192,178816,1,0,0:0:0:0:
36,192,178816,1,0,0:0:0:0:
109,192,179076,1,0,0:0:0:0:
256,192,179076,1,0,0:0:0:0:
329,192,179076,1,0,0:0:0:0:
402,192,179337,1,0,0:0:0:0:
36,192,179598,1,0,0:0:0:0:
182,192,179598,1,0,0:0:0:0:
329,192,179598,1,0,0:0:0:0:
256,192,179859,5,0,0:0:0:0:
109,192,180120,1,0,0:0:0:0:
329,192,180120,1,0,0:0:0:0:
475,192,180120,1,0,0:0:0:0:
329,192,180381,1,0,0:0:0:0:
256,192,180511,1,0,0:0:0:0:
182,192,180642,1,0,0:0:0:0:
109,192,180772,1,0,0:0:0:0:
36,192,180903,5,0,0:0:0:0:
329,192,180903,1,0,0:0:0:0:
475,192,180903,1,0,0:0:0:0:
329,192,181163,1,0,0:0:0:0:
36,192,181163,1,0,0:0:0:0:
475,192,181163,1,0,0:0:0:0:
475,192,181424,1,0,0:0:0:0:
329,192,181424,1,0,0:0:0:0:
182,192,181424,1,0,0:0:0:0:
36,192,181424,1,0,0:0:0:0:
