osu file format v14

[General]
AudioFilename: audio.mp3
AudioLeadIn: 0
PreviewTime: 57896
Countdown: 0
SampleSet: Soft
StackLeniency: 0.3
Mode: 0
LetterboxInBreaks: 0
WidescreenStoryboard: 1

[Editor]
Bookmarks: 46009,77141,210726
DistanceSpacing: 2
BeatDivisor: 4
GridSize: 32
TimelineZoom: 1

[Metadata]
Title:Bed Time Story
TitleUnicode:床边故事
Artist:Jay Chou
ArtistUnicode:周杰伦
Creator:FaiVillager
Version:Serene Night
Source:Bed Time Story
Tags:
BeatmapID:1076280
BeatmapSetID:505973

[Difficulty]
HPDrainRate:6
CircleSize:4
OverallDifficulty:9
ApproachRate:9.5
SliderMultiplier:1.8
SliderTickRate:1

[Events]
//Background and Video events
0,0,"9250be63b6b71138de2d409099ab8e27.jpg",0,0
//Break Periods
//Storyboard Layer 0 (Background)
//Storyboard Layer 1 (Fail)
//Storyboard Layer 2 (Pass)
//Storyboard Layer 3 (Foreground)
//Storyboard Sound Samples

[TimingPoints]
4689,283.018867924528,4,2,0,30,1,0
4689,-200,4,2,0,30,0,0
13745,-133.333333333333,4,2,1,30,0,0
14877,-133.333333333333,4,2,2,30,0,0
14948,-133.333333333333,4,2,1,30,0,0
19405,-133.333333333333,4,2,2,30,0,0
19476,-133.333333333333,4,2,1,30,0,0
21670,-200,4,2,1,50,0,0
25066,-200,4,2,2,50,0,0
25207,-200,4,2,1,50,0,0
30302,-200,4,2,2,40,0,0
30726,-200,4,2,1,50,0,0
36387,-200,4,2,2,50,0,0
36528,-200,4,2,1,50,0,0
40915,-50,4,2,10,50,0,0
41056,-55.5555555555556,4,2,10,50,0,0
41198,-62.5,4,2,10,50,0,0
41339,-71.4285714285714,4,2,10,50,0,0
41481,-83.3333333333333,4,2,1,50,0,0
42047,-50,4,2,10,50,0,0
42188,-55.5555555555556,4,2,10,50,0,0
42330,-62.5,4,2,10,50,0,0
42472,-71.4285714285714,4,2,10,50,0,0
42613,-83.3333333333333,4,2,1,50,0,0
43179,-50,4,2,10,50,0,0
43321,-55.5555555555556,4,2,10,50,0,0
43462,-62.5,4,2,10,50,0,0
43604,-71.4285714285714,4,2,10,50,0,0
43745,-83.3333333333333,4,2,1,50,0,0
44311,-50,4,2,10,50,0,0
44453,-55.5555555555556,4,2,10,50,0,0
44594,-62.5,4,2,10,50,0,0
44736,-71.4285714285714,4,2,10,50,0,0
44877,-83.3333333333333,4,2,1,50,0,0
49688,-133.333333333333,4,2,1,50,0,0
49972,-200,4,2,1,50,0,0
56764,-133.333333333333,4,2,1,30,0,0
57047,-133.333333333333,4,2,1,50,0,0
58179,-83.3333333333333,4,2,1,70,0,0
59028,-83.3333333333333,4,2,1,70,0,1
77141,-83.3333333333333,4,2,1,70,0,0
95255,-133.333333333333,4,2,1,50,0,0
95396,-133.333333333333,4,2,1,20,0,0
96387,-55.5555555555556,4,2,1,50,0,0
96528,-55.5555555555556,4,2,1,20,0,0
97519,-200,4,2,1,50,0,0
99783,-200,4,2,11,50,0,0
99924,-200,4,2,1,50,0,0
104311,-200,4,2,11,50,0,0
104453,-200,4,2,1,50,0,0
106575,-200,4,2,0,15,0,0
108839,-200,4,2,10,35,0,0
108981,-200,4,2,0,15,0,0
115632,-200,4,2,2,35,0,0
115773,-200,4,2,0,15,0,0
116764,-200,4,2,10,35,0,0
117047,-200,4,2,0,15,0,0
120160,-133.333333333333,4,2,1,50,0,0
123556,-133.333333333333,4,2,2,50,0,0
123698,-133.333333333333,4,2,1,50,0,0
126953,-200,4,2,0,25,0,0
128085,-133.333333333333,4,2,1,50,0,0
129217,-50,4,2,10,50,0,0
129358,-55.5555555555556,4,2,10,50,0,0
129500,-62.5,4,2,10,50,0,0
129641,-71.4285714285714,4,2,10,50,0,0
129783,-83.3333333333333,4,2,1,50,0,0
130349,-50,4,2,10,50,0,0
130490,-55.5555555555556,4,2,10,50,0,0
130632,-62.5,4,2,10,50,0,0
130773,-71.4285714285714,4,2,10,50,0,0
130915,-83.3333333333333,4,2,1,50,0,0
131481,-50,4,2,10,50,0,0
131622,-55.5555555555556,4,2,10,50,0,0
131764,-62.5,4,2,10,50,0,0
131905,-71.4285714285714,4,2,10,50,0,0
132047,-83.3333333333333,4,2,1,50,0,0
132613,-50,4,2,10,50,0,0
132755,-55.5555555555556,4,2,10,50,0,0
132896,-62.5,4,2,10,50,0,0
133038,-71.4285714285714,4,2,10,50,0,0
133179,-83.3333333333333,4,2,1,50,0,0
137990,-133.333333333333,4,2,1,50,0,0
138273,-200,4,2,1,50,0,0
145066,-133.333333333333,4,2,1,50,0,0
146198,-83.3333333333333,4,2,1,70,0,0
147330,-83.3333333333333,4,2,1,70,0,1
165443,-200,4,2,0,40,0,0
166434,-200,4,2,10,40,0,0
166575,-200,4,2,0,40,0,0
167141,-200,4,2,10,40,0,0
167283,-200,4,2,0,40,0,0
167566,-200,4,2,10,40,0,0
167707,-200,4,2,0,40,0,0
169830,-200,4,2,10,40,0,0
169972,-200,4,2,0,40,0,0
170962,-200,4,2,10,40,0,0
171104,-200,4,2,0,40,0,0
171670,-200,4,2,10,40,0,0
171811,-200,4,2,0,40,0,0
172094,-200,4,2,10,40,0,0
172236,-200,4,2,0,40,0,0
173368,-83.3333333333333,4,2,1,70,0,0
174500,-83.3333333333333,4,2,1,70,0,1
192613,-83.3333333333333,4,2,1,70,0,0
210726,-200,4,2,2,50,0,0
210938,-200,4,2,10,50,0,0
211009,-200,4,2,0,20,0,0
211292,-200,4,2,0,30,0,0
211858,-200,4,2,0,20,0,0
215255,307.692307692308,4,2,0,20,1,0
215255,-200,4,2,0,20,0,0
215870,335.195530726257,4,2,0,20,1,0
215870,-200,4,2,0,20,0,0
216540,340.909090909091,4,2,0,20,1,0
216540,-200,4,2,0,20,0,0
218585,352.941176470588,4,2,0,20,1,0
218585,-200,4,2,0,20,0,0
219114,421.052631578947,4,2,0,20,1,0
219114,-200,4,2,0,20,0,0
219429,-200,4,2,10,20,0,0
219535,566.037735849057,4,2,0,20,1,0
219535,-200,4,2,0,20,0,0
220101,923.076923076923,4,2,0,20,1,0
220101,-200,4,2,0,20,0,0
220793,-200,4,2,10,20,0,0
221024,-200,4,2,0,20,0,0

[Colours]
Combo1 : 172,65,252
Combo2 : 254,89,1
Combo3 : 206,115,2
Combo4 : 200,0,0
Combo5 : 245,51,251

[HitObjects]
148,271,4689,5,0,0:0:0:0:
148,271,4972,1,0,0:0:0:0:
107,192,5255,1,0,0:0:0:0:
148,271,5538,1,0,0:0:0:0:
197,170,5821,6,0,L|178:208,1,22.5
197,170,6104,2,0,L|178:208,1,22.5
148,271,6387,1,0,0:0:0:0:
148,271,6670,1,0,0:0:0:0:
348,212,6953,5,0,0:0:0:0:
348,212,7236,1,0,0:0:0:0:
396,294,7519,1,0,0:0:0:0:
348,212,7802,1,0,0:0:0:0:
434,137,8085,6,0,L|405:162,1,22.5
434,137,8368,2,0,L|405:162,1,22.5
348,212,8651,1,0,0:0:0:0:
348,212,8934,1,0,0:0:0:0:
203,180,9217,6,0,P|162:189|109:174,2,90
162,86,10066,1,0,0:0:0:0:
43,239,10349,6,0,L|79:263,1,22.5
43,239,10632,2,0,L|79:263,1,22.5
329,269,10915,2,0,P|281:255|230:272,1,90
447,300,11481,5,0,0:0:0:0:
451,153,11764,1,0,0:0:0:0:
447,300,12047,1,0,0:0:0:0:
451,153,12330,1,0,0:0:0:0:
290,170,12613,6,0,L|272:202,1,22.5
290,170,12896,2,0,L|279:190,1,22.5
175,74,13179,1,0,0:0:0:0:
200,262,13462,1,0,0:0:0:0:
116,219,13745,6,0,P|142:187|247:181,1,135.000005149842,8|0,0:0|0:0,0:0:0:0:
326,269,14170,1,0,0:0:0:0:
326,269,14240,1,0,0:0:0:0:
326,269,14311,1,0,0:0:0:0:
469,213,14453,1,0,0:0:0:0:
308,142,14594,1,0,0:0:0:0:
417,317,14736,1,0,0:0:0:0:
389,194,14877,6,0,P|384:141|404:75,1,101.250003862381,4|0,0:0|0:0,0:0:0:0:
446,46,15160,2,0,L|335:66,1,101.250003862381
291,111,15443,2,0,P|266:142|188:160,1,101.250003862381
149,127,15726,1,0,0:0:0:0:
78,264,15868,5,0,0:0:0:0:
78,264,15938,1,0,0:0:0:0:
78,264,16009,2,0,P|78:309|64:347,2,67.5000025749208
192,291,16434,1,0,0:0:0:0:
192,291,16575,2,0,L|331:276,1,135.000005149842
451,357,17000,1,0,0:0:0:0:
365,208,17141,6,0,P|361:163|415:76,1,135.000005149842
460,213,17566,1,0,0:0:0:0:
460,213,17637,1,0,0:0:0:0:
460,213,17707,1,0,0:0:0:0:
288,84,17849,1,0,0:0:0:0:
295,236,17990,1,0,0:0:0:0:
200,32,18132,1,0,0:0:0:0:
190,172,18273,6,0,P|161:212|51:223,1,135.000005149842
94,52,18698,1,0,0:0:0:0:
94,52,18769,1,0,0:0:0:0:
94,52,18839,1,0,0:0:0:0:
260,145,18981,1,0,0:0:0:0:
19,190,19122,2,0,P|8:237|22:284,1,67.5000025749208
146,244,19405,6,0,L|262:258,1,101.250003862381,4|0,0:0|0:0,0:0:0:0:
307,296,19688,2,0,P|358:316|411:298,1,101.250003862381
474,295,19972,2,0,L|424:179,1,101.250003862381
417,132,20255,1,0,0:0:0:0:
301,180,20396,5,0,0:0:0:0:
301,180,20467,1,0,0:0:0:0:
301,180,20538,1,0,0:0:0:0:
141,121,20679,1,0,0:0:0:0:
286,268,20821,1,0,0:0:0:0:
219,68,20962,1,0,0:0:0:0:
179,226,21104,2,0,P|133:250|36:222,1,135.000005149842
235,150,21528,5,0,0:0:0:0:
235,150,21599,1,0,0:0:0:0:
235,150,21670,1,4,0:0:0:0:
403,86,21811,1,4,0:0:0:0:
282,298,21953,1,0,0:0:0:0:
298,91,22094,5,0,0:0:0:0:
298,91,22165,1,0,0:0:0:0:
298,91,22236,1,6,0:0:0:0:
389,223,22377,1,4,0:0:0:0:
166,101,22519,5,2,0:0:0:0:
196,325,22660,1,2,0:0:0:0:
166,101,22802,1,10,0:0:0:0:
196,325,22943,1,0,0:0:0:0:
84,217,23085,2,0,P|46:209|22:214,2,45,0|0|4,0:0|0:0|0:0,0:0:0:0:
127,384,23509,1,0,0:0:0:0:
388,298,23651,1,0,0:0:0:0:
205,194,23792,2,0,P|193:168|194:124,1,67.5
238,62,24075,5,0,0:0:0:0:
260,336,24217,1,0,0:0:0:0:
67,122,24358,1,0,0:0:0:0:
341,227,24500,1,4,0:0:0:0:
170,278,24641,1,0,0:0:0:0:
317,152,24783,5,0,0:0:0:0:
328,149,24854,1,0,0:0:0:0:
339,148,24924,1,0,0:0:0:0:
350,149,24995,1,0,0:0:0:0:
361,151,25066,5,4,0:0:0:0:
339,342,25207,1,0,0:0:0:0:
469,148,25349,1,0,0:0:0:0:
200,224,25490,1,0,0:0:0:0:
431,293,25632,1,4,0:0:0:0:
319,28,25773,1,0,0:0:0:0:
281,272,25915,1,0,0:0:0:0:
372,157,26056,2,0,P|378:114|370:80,1,67.5
319,28,26339,5,0,0:0:0:0:
161,235,26481,1,0,0:0:0:0:
194,44,26622,1,0,0:0:0:0:
194,44,26693,1,0,0:0:0:0:
194,44,26764,1,4,0:0:0:0:
289,300,26905,1,0,0:0:0:0:
148,160,27047,5,0,0:0:0:0:
137,163,27118,1,0,0:0:0:0:
126,167,27188,1,0,0:0:0:0:
117,173,27259,1,0,0:0:0:0:
109,181,27330,5,8,0:0:0:0:
211,364,27472,1,0,0:0:0:0:
286,94,27613,1,0,0:0:0:0:
145,267,27755,1,0,0:0:0:0:
387,257,27896,1,4,0:0:0:0:
167,80,28038,1,0,0:0:0:0:
292,339,28179,1,0,0:0:0:0:
403,132,28321,2,0,L|430:85,1,45,8|0,0:0|0:0,0:0:0:0:
157,256,28604,5,8,0:0:0:0:
321,20,28745,1,0,0:0:0:0:
424,329,28887,2,0,P|436:303|438:266,1,45,8|4,0:0|0:0,0:0:0:0:
279,230,29170,5,8,0:0:0:0:
75,37,29311,1,0,0:0:0:0:
133,305,29453,2,0,P|151:338|170:351,1,45,8|0,0:0|0:0,0:0:0:0:
357,124,29736,5,0,0:0:0:0:
17,160,29877,1,0,0:0:0:0:
354,217,30019,2,0,P|386:213|407:201,1,45,0|4,0:0|0:0,0:0:0:0:
191,103,30302,5,2,0:0:0:0:
185,124,30443,1,2,0:0:0:0:
179,145,30585,1,2,0:0:0:0:
283,373,30868,5,2,0:0:0:0:
355,21,31009,1,2,0:0:0:0:
36,203,31151,1,2,0:0:0:0:
307,199,31292,2,0,B|329:186|329:186|369:198|369:198|407:182,1,90,6|0,0:0|0:0,0:0:0:0:
442,81,31717,1,8,0:0:0:0:
311,284,31858,6,0,P|267:274|233:231,1,90,10|8,0:0|0:0,0:0:0:0:
201,29,32283,1,0,0:0:0:0:
376,224,32424,2,0,P|399:268|393:315,1,90,4|0,0:0|0:0,0:0:0:0:
212,164,32849,2,0,P|207:133|216:103,1,45,8|0,0:0|0:0,0:0:0:0:
469,167,33132,5,0,0:0:0:0:
203,308,33273,2,0,L|141:295,1,45,8|0,0:0|0:0,0:0:0:0:
376,224,33556,2,0,P|380:252|375:273,1,45,12|0,0:0|0:0,0:0:0:0:
142,157,33839,5,0,0:0:0:0:
143,145,33910,1,0,0:0:0:0:
147,135,33981,1,0,0:0:0:0:
152,125,34052,1,0,0:0:0:0:
159,116,34122,5,10,0:0:0:0:
265,251,34264,1,0,0:0:0:0:
38,125,34405,1,8,0:0:0:0:
298,133,34547,1,8,0:0:0:0:
298,133,34618,1,0,0:0:0:0:
298,133,34688,2,0,P|333:119|371:69,1,90,4|0,0:0|0:0,0:0:0:0:
218,137,35113,6,0,P|223:165|239:189,1,45,8|0,0:0|0:0,0:0:0:0:
451,265,35396,1,0,0:0:0:0:
145,103,35538,2,0,P|138:133|141:157,1,45,8|0,0:0|0:0,0:0:0:0:
80,207,35750,1,0,0:0:0:0:
80,207,35821,2,0,P|87:237|84:261,1,45,4|0,0:0|0:0,0:0:0:0:
295,225,36104,5,0,0:0:0:0:
302,233,36174,1,0,0:0:0:0:
306,243,36245,1,0,0:0:0:0:
307,254,36316,1,0,0:0:0:0:
305,265,36387,5,4,0:0:0:0:
402,85,36528,1,0,0:0:0:0:
205,212,36670,1,8,0:0:0:0:
451,262,36811,1,8,0:0:0:0:
327,83,36953,2,0,P|331:56|345:35,1,45,4|0,0:0|0:0,0:0:0:0:
286,319,37236,1,0,0:0:0:0:
382,142,37377,2,0,P|359:158|329:165,1,45,8|0,0:0|0:0,0:0:0:0:
116,61,37660,5,0,0:0:0:0:
324,245,37802,2,0,L|371:242,1,45
146,308,38085,2,0,P|128:286|121:257,1,45,4|0,0:0|0:0,0:0:0:0:
258,88,38368,5,0,0:0:0:0:
264,97,38438,1,0,0:0:0:0:
268,107,38509,1,0,0:0:0:0:
270,118,38580,1,0,0:0:0:0:
270,130,38651,6,0,P|252:177|227:196,1,67.5,2|0,0:0|0:0,0:0:0:0:
165,214,38934,1,0,0:0:0:0:
239,14,39075,2,0,L|298:17,2,45
456,131,39500,1,8,0:0:0:0:
195,132,39641,2,0,P|169:125|145:108,1,45,8|0,0:0|0:0,0:0:0:0:
363,172,39924,6,0,L|347:228,1,45
167,335,40207,1,0,0:0:0:0:
65,146,40349,1,0,0:0:0:0:
65,146,40420,1,0,0:0:0:0:
65,146,40490,1,0,0:0:0:0:
261,291,40632,1,0,0:0:0:0:
16,240,40773,1,0,0:0:0:0:
149,49,40915,6,0,P|164:79|164:143,1,90,6|0,0:0|0:0,0:0:0:0:
197,116,41056,2,0,P|195:155|170:205,1,80.9999975280763,6|0,0:0|0:0,0:0:0:0:
221,196,41198,2,0,P|204:234|172:264,1,72,6|0,0:0|0:0,0:0:0:0:
233,280,41339,2,0,P|202:303|158:315,1,62.9999980773926,6|0,0:0|0:0,0:0:0:0:
218,362,41481,2,0,L|346:354,1,107.999996704102
501,93,41764,5,0,0:0:0:0:
318,268,41905,1,0,0:0:0:0:
413,43,42047,6,0,P|383:58|319:58,1,90,4|0,0:0|0:0,0:0:0:0:
346,91,42188,2,0,P|307:89|257:64,1,80.9999975280763,4|0,0:0|0:0,0:0:0:0:
266,115,42330,2,0,P|228:98|198:66,1,72,4|0,0:0|0:0,0:0:0:0:
182,127,42472,2,0,P|159:96|147:52,1,62.9999980773926,4|0,0:0|0:0,0:0:0:0:
100,112,42613,2,0,L|108:240,1,107.999996704102
321,277,42896,5,0,0:0:0:0:
321,277,42967,1,0,0:0:0:0:
321,277,43038,1,0,0:0:0:0:
321,277,43108,1,0,0:0:0:0:
321,277,43179,6,0,L|400:230,1,90,6|0,0:0|0:0,0:0:0:0:
248,243,43321,2,0,L|310:175,1,80.9999975280763,6|0,0:0|0:0,0:0:0:0:
168,229,43462,2,0,L|207:156,1,72,6|0,0:0|0:0,0:0:0:0:
88,234,43604,2,0,L|101:157,1,62.9999980773926,6|0,0:0|0:0,0:0:0:0:
16,269,43745,2,0,P|65:312|128:304,1,107.999996704102
189,43,44028,5,0,0:0:0:0:
194,359,44170,1,0,0:0:0:0:
414,297,44311,6,0,L|475:214,1,90,4|0,0:0|0:0,0:0:0:0:
360,242,44453,2,0,L|412:168,1,80.9999975280763,4|0,0:0|0:0,0:0:0:0:
306,187,44594,2,0,L|356:114,1,72,4|0,0:0|0:0,0:0:0:0:
252,132,44736,2,0,L|293:73,1,62.9999980773926,4|0,0:0|0:0,0:0:0:0:
198,77,44877,2,0,P|144:65|84:85,1,107.999996704102
92,248,45160,5,0,0:0:0:0:
92,248,45231,1,0,0:0:0:0:
92,248,45302,1,0,0:0:0:0:
92,248,45372,1,0,0:0:0:0:
92,248,45443,6,2,L|220:243,2,107.999996704102
278,349,45868,1,2,0:0:0:0:
343,155,46009,2,0,L|235:159,1,107.999996704102
38,26,46292,5,0,0:0:0:0:
92,248,46434,1,0,0:0:0:0:
189,73,46575,2,0,P|241:43|311:39,1,107.999996704102
343,339,46858,2,0,L|206:318,1,107.999996704102,8|0,0:0|0:0,0:0:0:0:
363,111,47141,1,8,0:0:0:0:
79,215,47424,5,0,0:0:0:0:
79,215,47495,1,0,0:0:0:0:
79,215,47566,1,0,0:0:0:0:
79,215,47637,1,0,0:0:0:0:
79,215,47707,6,0,P|97:273|86:333,1,107.999996704102
0,106,47990,1,8,0:0:0:0:
363,111,48132,1,8,0:0:0:0:
177,191,48273,2,0,P|142:151|138:81,1,107.999996704102,4|0,0:0|0:0,0:0:0:0:
409,35,48556,5,0,0:0:0:0:
272,317,48698,1,0,0:0:0:0:
219,155,48839,2,0,P|184:114|100:102,1,107.999996704102
147,364,49122,5,8,0:0:0:0:
441,258,49264,1,8,0:0:0:0:
219,155,49405,2,0,P|222:99|256:54,1,107.999996704102,4|0,0:0|0:0,0:0:0:0:
362,220,49688,6,0,L|356:268,1,33.7500012874604
277,300,49830,2,0,L|271:348,1,33.7500012874604
64,248,49972,1,0,0:0:0:0:
346,120,50113,1,0,0:0:0:0:
106,157,50255,2,0,P|76:142|59:122,1,45
162,241,50538,1,4,0:0:0:0:
195,62,50679,6,0,P|230:43|241:42,2,45
286,282,51104,1,0,0:0:0:0:
59,163,51245,1,0,0:0:0:0:
349,158,51387,2,0,P|359:133|359:106,1,45
138,304,51670,1,4,0:0:0:0:
243,113,51811,6,0,L|295:119,2,45
241,268,52236,1,0,0:0:0:0:
89,52,52377,1,0,0:0:0:0:
290,205,52519,2,0,P|267:192|241:188,1,45
75,324,52802,1,4,0:0:0:0:
320,280,52943,6,0,P|351:290|381:288,2,45
380,60,53368,1,0,0:0:0:0:
171,191,53509,1,0,0:0:0:0:
457,144,53651,2,0,P|479:166|487:184,1,45
206,73,53934,1,4,0:0:0:0:
340,238,54217,5,0,0:0:0:0:
340,249,54288,1,0,0:0:0:0:
337,259,54358,1,0,0:0:0:0:
331,268,54429,1,0,0:0:0:0:
324,276,54500,5,0,0:0:0:0:
127,140,54641,1,0,0:0:0:0:
222,349,54783,1,0,0:0:0:0:
272,81,54924,1,0,0:0:0:0:
88,247,55066,1,4,0:0:0:0:
320,167,55207,2,0,P|347:165|369:169,2,45
126,168,55632,6,0,L|96:117,1,45
314,61,55915,1,0,0:0:0:0:
195,275,56056,2,0,P|159:295|139:298,1,45,0|4,0:0|0:0,0:0:0:0:
179,101,56339,6,0,L|179:46,2,45
270,69,56764,2,4,P|303:61|332:62,2,45.0000017166138
304,153,57047,2,8,P|304:192|291:227,1,67.5000025749208
127,186,57330,2,0,L|203:173,2,67.5000025749208,4|8|4,0:0|0:0|0:0,0:0:0:0:
247,360,57896,5,0,0:0:0:0:
247,360,58179,6,0,L|266:248,1,107.999996704102,2|0,0:0|0:0,0:0:0:0:
352,246,58391,1,0,0:0:0:0:
352,246,58462,2,2,L|337:111,1,107.999996704102,6|2,0:0|0:0,0:0:0:0:
146,273,58745,1,4,0:0:0:0:
448,139,58887,1,4,0:0:0:0:
154,132,59028,6,0,P|123:83|123:24,1,107.999996704102,8|0,0:0|0:0,0:0:0:0:
359,65,59311,1,8,0:0:0:0:
69,249,59453,1,8,0:0:0:0:
338,208,59594,2,0,P|396:239|426:287,1,107.999996704102,4|0,0:0|0:0,0:0:0:0:
194,357,59877,6,0,L|185:296,1,53.9999983520508
286,145,60019,2,0,L|294:73,1,53.9999983520508
24,63,60160,1,8,0:0:0:0:
238,210,60302,2,0,P|302:225|353:194,1,107.999996704102
131,68,60585,1,8,0:0:0:0:
45,356,60726,5,4,0:0:0:0:
45,114,60868,1,0,0:0:0:0:
34,89,60938,1,0,0:0:0:0:
24,63,61009,1,0,0:0:0:0:
286,145,61151,1,0,0:0:0:0:
100,235,61292,6,0,L|226:241,1,107.999996704102,8|0,0:0|0:0,0:0:0:0:
380,263,61505,1,0,0:0:0:0:
406,267,61575,2,8,L|256:273,1,107.999996704102
116,275,61788,1,0,0:0:0:0:
90,283,61858,2,0,L|216:289,1,107.999996704102,4|0,0:0|0:0,0:0:0:0:
454,133,62141,6,8,L|346:127,1,107.999996704102
250,364,62424,1,0,0:0:0:0:
211,116,62566,2,0,P|185:64|137:21,1,107.999996704102,8|0,0:0|0:0,0:0:0:0:
9,268,62849,1,0,0:0:0:0:
288,195,62990,2,0,P|302:134|293:72,1,107.999996704102,12|0,0:0|0:0,0:0:0:0:
224,271,63273,5,0,0:0:0:0:
249,281,63344,1,0,0:0:0:0:
274,291,63415,1,0,0:0:0:0:
299,301,63486,1,0,0:0:0:0:
323,311,63556,6,0,P|391:308|446:276,1,107.999996704102,8|0,0:0|0:0,0:0:0:0:
397,167,63769,1,0,0:0:0:0:
397,167,63839,2,8,P|405:100|433:52,1,107.999996704102
423,350,64122,2,0,L|311:306,1,107.999996704102,4|0,0:0|0:0,0:0:0:0:
512,122,64405,5,8,0:0:0:0:
227,198,64547,1,0,0:0:0:0:
392,0,64688,1,0,0:0:0:0:
301,261,64830,2,0,P|253:292|190:288,1,107.999996704102,8|0,0:0|0:0,0:0:0:0:
342,84,65113,2,0,L|453:115,2,107.999996704102,8|4|0,0:0|0:0|0:0,0:0:0:0:
96,47,65538,5,0,0:0:0:0:
104,72,65608,1,0,0:0:0:0:
105,99,65679,1,0,0:0:0:0:
97,125,65750,1,0,0:0:0:0:
84,148,65821,6,0,P|58:214|61:270,1,107.999996704102,8|0,0:0|0:0,0:0:0:0:
429,239,66104,2,8,P|374:216|321:215,1,107.999996704102
101,369,66387,2,0,P|147:326|166:270,1,107.999996704102,4|0,0:0|0:0,0:0:0:0:
217,55,66670,6,0,L|231:116,1,53.9999983520508
318,293,66811,2,0,L|304:364,1,53.9999983520508
102,205,66953,1,8,0:0:0:0:
394,176,67094,2,0,P|434:129|449:81,1,107.999996704102,8|0,0:0|0:0,0:0:0:0:
161,118,67377,2,0,L|185:242,1,107.999996704102,0|4,0:0|0:0,0:0:0:0:
416,286,67660,5,10,0:0:0:0:
416,286,67731,1,2,0:0:0:0:
416,286,67802,2,0,L|435:225,1,53.9999983520508,2|0,0:0|0:0,0:0:0:0:
285,21,67943,2,0,L|301:96,1,53.9999983520508,2|0,0:0|0:0,0:0:0:0:
270,295,68085,6,0,P|215:323|147:313,1,107.999996704102,8|0,0:0|0:0,0:0:0:0:
80,54,68368,1,8,0:0:0:0:
337,181,68509,1,8,0:0:0:0:
23,120,68651,2,0,P|-4:63|9:4,1,107.999996704102,4|0,0:0|0:0,0:0:0:0:
285,21,68934,6,0,L|280:85,1,53.9999983520508
154,230,69075,2,0,L|164:298,1,53.9999983520508,8|0,0:0|0:0,0:0:0:0:
444,280,69217,1,0,0:0:0:0:
144,137,69358,2,0,P|90:162|63:235,1,107.999996704102,8|0,0:0|0:0,0:0:0:0:
314,370,69641,1,0,0:0:0:0:
282,60,69783,5,4,0:0:0:0:
457,222,69924,1,0,0:0:0:0:
451,248,69995,1,0,0:0:0:0:
445,274,70066,1,0,0:0:0:0:
163,300,70207,1,0,0:0:0:0:
388,67,70349,6,8,P|322:56|264:63,1,107.999996704102,8|0,0:0|0:0,0:0:0:0:
131,106,70561,1,0,0:0:0:0:
108,121,70632,2,8,P|160:110|214:113,1,107.999996704102
372,132,70844,1,0,0:0:0:0:
395,147,70915,2,0,P|342:136|288:139,1,107.999996704102,4|0,0:0|0:0,0:0:0:0:
35,274,71198,2,0,P|87:263|141:266,1,107.999996704102,0|8,0:0|0:0,0:0:0:0:
371,384,71481,5,8,0:0:0:0:
479,181,71622,2,0,P|489:112|476:59,1,107.999996704102
281,306,71905,1,8,0:0:0:0:
75,113,72047,2,0,L|210:101,1,107.999996704102,4|0,0:0|0:0,0:0:0:0:
414,241,72330,5,0,0:0:0:0:
414,241,72401,1,0,0:0:0:0:
414,241,72472,1,0,0:0:0:0:
414,241,72542,1,0,0:0:0:0:
414,241,72613,6,0,P|419:298|406:354,1,107.999996704102
121,247,72896,1,8,0:0:0:0:
368,129,73038,1,0,0:0:0:0:
341,123,73108,1,0,0:0:0:0:
314,116,73179,1,4,0:0:0:0:
74,221,73321,1,0,0:0:0:0:
301,362,73462,2,8,L|434:343,1,107.999996704102
235,160,73745,6,0,P|225:99|254:46,1,107.999996704102,8|0,0:0|0:0,0:0:0:0:
395,238,74028,1,8,0:0:0:0:
84,143,74170,1,8,0:0:0:0:
474,218,74311,2,0,P|467:279|430:313,1,107.999996704102
158,266,74594,6,0,L|172:194,1,53.9999983520508
312,16,74736,2,0,L|301:69,1,53.9999983520508
247,306,74877,2,0,P|206:355|152:367,1,107.999996704102,8|0,0:0|0:0,0:0:0:0:
39,141,75160,5,8,0:0:0:0:
351,276,75302,1,8,0:0:0:0:
168,104,75443,2,0,P|161:59|183:-10,1,107.999996704102,4|0,0:0|0:0,0:0:0:0:
452,219,75726,2,0,P|457:272|442:323,1,107.999996704102
197,313,76009,5,10,0:0:0:0:
332,76,76151,1,2,0:0:0:0:
332,76,76222,1,2,0:0:0:0:
332,76,76292,1,2,0:0:0:0:
89,193,76434,1,10,0:0:0:0:
352,179,76575,2,0,P|363:240|353:291,1,107.999996704102,4|0,0:0|0:0,0:0:0:0:
187,33,76858,2,0,P|176:94|186:145,1,107.999996704102
233,364,77141,5,8,0:0:0:0:
279,20,77283,1,0,0:0:0:0:
147,331,77424,1,8,0:0:0:0:
365,53,77566,1,0,0:0:0:0:
149,245,77707,1,4,0:0:0:0:
363,139,77849,1,0,0:0:0:0:
63,212,77990,1,8,0:0:0:0:
449,172,78132,1,8,0:0:0:0:
193,89,78273,5,0,0:0:0:0:
341,274,78415,1,0,0:0:0:0:
341,274,78486,1,0,0:0:0:0:
341,274,78556,2,8,P|348:319|336:386,1,107.999996704102
66,108,78839,2,0,L|192:90,1,107.999996704102,4|0,0:0|0:0,0:0:0:0:
454,192,79122,2,8,L|323:177,1,107.999996704102
32,342,79405,5,8,0:0:0:0:
205,109,79547,1,0,0:0:0:0:
132,378,79688,1,8,0:0:0:0:
220,94,79830,1,0,0:0:0:0:
239,368,79972,1,4,0:0:0:0:
231,75,80113,1,0,0:0:0:0:
332,314,80255,1,8,0:0:0:0:
237,54,80396,1,8,0:0:0:0:
101,185,80538,6,0,L|79:253,1,53.9999983520508
165,280,80679,2,0,L|143:348,1,53.9999983520508
221,178,80821,2,8,P|280:163|346:179,1,107.999996704102
4,226,81104,2,0,P|-2:170|24:108,1,107.999996704102,4|0,0:0|0:0,0:0:0:0:
144,34,81316,1,0,0:0:0:0:
167,47,81387,2,8,L|296:35,1,107.999996704102,8|0,0:0|0:0,0:0:0:0:
491,252,81670,5,8,0:0:0:0:
393,32,81811,1,0,0:0:0:0:
418,335,81953,1,8,0:0:0:0:
461,88,82094,1,0,0:0:0:0:
291,321,82236,1,4,0:0:0:0:
379,119,82377,1,0,0:0:0:0:
240,211,82519,1,8,0:0:0:0:
393,32,82660,1,8,0:0:0:0:
389,273,82802,6,0,P|336:308|272:318,1,107.999996704102
101,258,83014,1,0,0:0:0:0:
80,240,83085,2,0,L|224:215,1,107.999996704102
454,144,83368,2,0,L|311:128,1,107.999996704102,4|0,0:0|0:0,0:0:0:0:
103,32,83651,1,8,0:0:0:0:
201,301,83792,1,0,0:0:0:0:
201,301,83863,1,0,0:0:0:0:
201,301,83934,5,8,0:0:0:0:
409,32,84075,1,0,0:0:0:0:
311,301,84217,1,8,0:0:0:0:
103,32,84358,1,0,0:0:0:0:
113,258,84500,1,4,0:0:0:0:
446,104,84641,1,0,0:0:0:0:
399,258,84783,1,8,0:0:0:0:
66,104,84924,1,8,0:0:0:0:
255,309,85066,5,2,0:0:0:0:
309,149,85207,1,0,0:0:0:0:
309,149,85278,1,2,0:0:0:0:
309,149,85349,2,0,P|249:143|192:150,1,107.999996704102,2|0,0:0|0:0,0:0:0:0:
128,275,85632,1,0,0:0:0:0:
256,54,85773,1,2,0:0:0:0:
384,275,85915,1,2,0:0:0:0:
384,275,86198,6,0,L|422:168,1,107.999996704102,8|0,0:0|0:0,0:0:0:0:
131,106,86481,1,8,0:0:0:0:
265,284,86622,1,0,0:0:0:0:
211,66,86764,2,0,P|165:23|94:22,1,107.999996704102,4|0,0:0|0:0,0:0:0:0:
99,308,87047,5,8,0:0:0:0:
244,157,87188,2,0,P|292:140|351:159,1,107.999996704102,8|0,0:0|0:0,0:0:0:0:
103,210,87472,1,0,0:0:0:0:
366,235,87613,2,0,P|415:197|425:135,1,107.999996704102,8|0,0:0|0:0,0:0:0:0:
188,232,87896,2,8,L|244:353,1,107.999996704102,12|0,0:0|0:0,0:0:0:0:
351,98,88179,6,0,L|292:86,1,53.9999983520508
116,133,88321,2,0,L|51:142,1,53.9999983520508
274,203,88462,2,0,P|273:267|236:314,1,107.999996704102,8|0,0:0|0:0,0:0:0:0:
130,54,88745,1,8,0:0:0:0:
363,176,88887,1,0,0:0:0:0:
116,226,89028,2,0,L|20:175,2,107.999996704102,4|0|0,0:0|0:0|0:0,0:0:0:0:
308,106,89453,6,0,P|369:87|414:101,1,107.999996704102
275,277,89736,1,0,0:0:0:0:
275,277,89806,1,0,0:0:0:0:
275,277,89877,2,0,L|228:175,1,107.999996704102
95,319,90160,1,14,0:0:0:0:
329,184,90302,1,10,0:0:0:0:
83,162,90443,2,0,P|60:103|73:40,1,107.999996704102,10|0,0:0|0:0,0:0:0:0:
433,105,90726,6,2,L|406:219,1,107.999996704102,10|2,0:0|0:0,0:0:0:0:
173,301,91009,1,8,0:0:0:0:
289,85,91151,1,0,0:0:0:0:
347,281,91292,2,0,P|412:304|451:293,1,107.999996704102,4|0,0:0|0:0,0:0:0:0:
481,75,91575,5,8,0:0:0:0:
269,236,91717,2,0,P|259:302|291:353,1,107.999996704102,8|0,0:0|0:0,0:0:0:0:
481,75,92000,1,0,0:0:0:0:
251,140,92141,2,0,L|120:177,1,107.999996704102
39,103,92354,1,0,0:0:0:0:
19,84,92424,2,0,L|147:96,1,107.999996704102,4|0,0:0|0:0,0:0:0:0:
363,29,92707,5,8,0:0:0:0:
356,275,92849,1,0,0:0:0:0:
356,275,92920,1,0,0:0:0:0:
356,275,92990,2,2,L|229:241,1,107.999996704102,10|2,0:0|0:0,0:0:0:0:
469,137,93273,2,0,P|490:195|479:245,1,107.999996704102
123,288,93556,1,4,0:0:0:0:
310,93,93698,1,0,0:0:0:0:
405,344,93839,5,8,0:0:0:0:
242,152,93981,2,0,P|217:87|234:39,1,107.999996704102,8|2,0:0|0:0,0:0:0:0:
453,216,94264,1,2,0:0:0:0:
427,225,94335,1,2,0:0:0:0:
402,235,94405,1,2,0:0:0:0:
249,350,94547,1,0,0:0:0:0:
343,60,94688,5,4,0:0:0:0:
77,207,94830,1,2,0:0:0:0:
349,341,94972,1,10,0:0:0:0:
349,341,95255,6,0,B|357:326|357:326|375:327|375:327|372:306|372:306|388:296|388:296|378:280|378:280|391:267|391:267|375:251|375:251|380:235|380:235|362:230|362:230|360:210|360:210|341:214|341:214|334:197|334:197|318:207|318:207|303:193|303:193|291:208|291:208|273:201|273:201|266:221|266:221|247:220|247:220|249:240|249:240|233:246|233:246|240:267|240:267|228:278|228:278|243:290|243:290|236:305|236:305|256:313|256:313,1,472.500018024445
473,343,96387,6,0,B|498:229|498:229|469:252|469:252|445:130|445:130|428:165|428:165|345:51|345:51|345:87|345:87|223:44|223:44|247:76|247:76|118:96|118:96|157:110|157:110|57:187|57:187|101:193|101:193|48:312,1,1133.99996539307,2|0,0:0|0:0,0:0:0:0:
262,186,97519,5,8,0:0:0:0:
144,341,97802,5,8,0:0:0:0:
262,186,98085,5,12,0:0:0:0:
368,341,98368,5,8,0:0:0:0:
191,274,98509,1,0,0:0:0:0:
341,172,98651,2,0,P|324:133|311:123,1,45,8|0,0:0|0:0,0:0:0:0:
264,350,98934,1,0,0:0:0:0:
444,230,99075,1,8,0:0:0:0:
247,136,99217,2,0,P|248:112|258:91,1,45,12|0,0:0|0:0,0:0:0:0:
303,330,99500,2,0,P|277:347|256:350,1,45,8|0,0:0|0:0,0:0:0:0:
207,298,99712,1,0,0:0:0:0:
207,298,99783,5,12,0:0:0:0:
327,97,99924,1,0,0:0:0:0:
163,190,100066,1,8,0:0:0:0:
418,265,100207,1,8,0:0:0:0:
230,63,100349,1,4,0:0:0:0:
283,290,100490,1,0,0:0:0:0:
283,290,100561,1,0,0:0:0:0:
283,290,100632,2,0,P|282:319|273:339,1,45
54,248,100915,5,8,0:0:0:0:
130,70,101056,1,0,0:0:0:0:
159,289,101198,1,0,0:0:0:0:
58,43,101339,1,8,0:0:0:0:
58,43,101410,1,8,0:0:0:0:
58,43,101481,2,0,P|75:15|92:3,1,45,4|0,0:0|0:0,0:0:0:0:
243,115,101764,2,0,P|259:125|288:130,1,45
362,105,101976,1,0,0:0:0:0:
362,105,102047,5,8,0:0:0:0:
256,299,102188,1,0,0:0:0:0:
163,77,102330,1,0,0:0:0:0:
270,267,102472,1,8,0:0:0:0:
404,187,102613,5,4,0:0:0:0:
138,246,102755,1,0,0:0:0:0:
373,177,102896,1,8,0:0:0:0:
195,153,103038,1,8,0:0:0:0:
260,320,103179,5,8,0:0:0:0:
275,99,103321,1,0,0:0:0:0:
75,199,103462,1,0,0:0:0:0:
312,218,103604,1,0,0:0:0:0:
227,35,103745,2,0,P|204:62|200:73,1,45,4|0,0:0|0:0,0:0:0:0:
401,139,104028,2,0,P|424:112|428:101,1,45
391,32,104240,1,0,0:0:0:0:
391,32,104311,5,12,0:0:0:0:
343,263,104453,1,0,0:0:0:0:
504,136,104594,1,0,0:0:0:0:
275,99,104736,1,0,0:0:0:0:
440,224,104877,1,4,0:0:0:0:
311,22,105019,1,0,0:0:0:0:
261,207,105160,2,0,P|251:218|243:223,2,22.5,0|0|8,0:0|0:0|0:0,0:0:0:0:
153,76,105443,5,8,0:0:0:0:
153,76,105585,1,0,0:0:0:0:
288,330,105726,1,0,0:0:0:0:
70,153,105868,1,8,0:0:0:0:
325,38,106009,1,8,0:0:0:0:
325,38,106575,6,0,P|331:67|316:129,1,90
221,247,107141,2,0,L|265:349,1,90
319,227,107707,6,0,P|334:191|334:174,2,30
261,178,107990,2,0,P|206:169|161:192,1,90
87,335,108556,2,0,L|62:289,1,45
41,257,108839,6,0,P|33:210|61:156,1,90,12|0,0:0|0:0,0:0:0:0:
220,103,109405,2,0,L|169:191,1,90
285,324,109972,5,0,0:0:0:0:
352,206,110255,1,0,0:0:0:0:
443,306,110538,1,0,0:0:0:0:
275,242,110821,1,0,0:0:0:0:
427,234,111104,6,0,P|433:204|407:147,2,90
335,310,111953,1,0,0:0:0:0:
241,209,112236,6,0,P|192:209|147:241,1,90
335,310,112802,2,0,L|343:195,1,90
449,63,113368,5,0,0:0:0:0:
382,120,113651,1,0,0:0:0:0:
294,121,113934,1,0,0:0:0:0:
228,63,114217,1,0,0:0:0:0:
15,287,114500,5,0,0:0:0:0:
45,203,114783,1,0,0:0:0:0:
117,152,115066,1,0,0:0:0:0:
205,151,115349,1,0,0:0:0:0:
371,327,115632,6,0,L|432:257,1,90,4|0,0:0|0:0,0:0:0:0:
378,119,116198,2,0,L|318:186,1,90
226,321,116764,5,12,0:0:0:0:
129,210,117047,1,0,0:0:0:0:
129,210,117330,1,0,0:0:0:0:
226,321,117613,1,0,0:0:0:0:
193,91,117896,5,0,0:0:0:0:
255,153,118179,1,0,0:0:0:0:
343,165,118462,1,0,0:0:0:0:
421,122,118745,1,0,0:0:0:0:
143,193,119028,6,0,P|107:230|96:279,2,90
203,282,119877,1,0,0:0:0:0:
359,203,120160,6,0,L|382:119,1,67.5000025749208
184,52,120443,2,0,L|203:123,1,67.5000025749208
323,289,120726,2,0,P|371:297|413:280,1,67.5000025749208,4|0,0:0|0:0,0:0:0:0:
402,116,121009,2,0,L|373:140,1,33.7500012874604
279,129,121151,2,0,L|305:107,1,33.7500012874604
201,97,121292,6,0,P|195:135|206:170,2,67.5000025749208
327,206,121717,1,0,0:0:0:0:
237,24,121858,2,0,P|196:15|167:23,1,67.5000025749208,4|0,0:0|0:0,0:0:0:0:
139,216,122141,5,0,0:0:0:0:
141,232,122212,1,0,0:0:0:0:
138,249,122283,1,0,0:0:0:0:
132,264,122354,1,0,0:0:0:0:
121,277,122424,5,8,0:0:0:0:
36,122,122566,1,0,0:0:0:0:
234,245,122707,1,8,0:0:0:0:
71,229,122849,1,0,0:0:0:0:
282,177,122990,2,0,P|308:206|316:242,1,67.5000025749208,4|0,0:0|0:0,0:0:0:0:
145,345,123273,5,0,0:0:0:0:
145,100,123415,1,8,0:0:0:0:
277,300,123556,2,0,P|319:311|346:305,1,67.5000025749208,4|0,0:0|0:0,0:0:0:0:
394,242,123769,1,0,0:0:0:0:
394,242,123839,2,0,P|436:231|463:237,1,67.5000025749208,8|0,0:0|0:0,0:0:0:0:
211,362,124122,2,0,L|195:283,1,67.5000025749208,4|0,0:0|0:0,0:0:0:0:
312,181,124405,2,0,L|322:96,1,67.5000025749208,8|0,0:0|0:0,0:0:0:0:
149,202,124688,6,8,P|104:212|41:187,2,90.0000034332277
249,53,125255,6,0,B|318:41|318:41|359:50,2,90.0000034332277,4|8|8,0:0|0:0|0:0,0:0:0:0:
289,267,125821,5,8,0:0:0:0:
107,122,126009,1,8,0:0:0:0:
398,177,126198,1,8,0:0:0:0:
289,267,126387,5,4,0:0:0:0:
378,52,126575,1,8,0:0:0:0:
424,344,126764,1,8,0:0:0:0:
217,297,126953,6,0,P|211:268|219:234,2,60
133,207,127519,6,0,P|151:175|171:158,2,60
100,96,128085,5,4,0:0:0:0:
180,56,128179,1,8,0:0:0:0:
250,111,128273,1,12,0:0:0:0:
330,71,128368,2,0,L|415:66,1,67.5000025749208,8|0,0:0|0:0,0:0:0:0:
418,243,128651,5,4,0:0:0:0:
418,243,128792,1,0,0:0:0:0:
250,111,128934,1,8,0:0:0:0:
250,111,129075,1,8,0:0:0:0:
269,230,129217,6,0,L|182:287,1,90,6|0,0:0|0:0,0:0:0:0:
107,376,129358,2,0,L|127:274,1,80.9999975280763,6|0,0:0|0:0,0:0:0:0:
203,184,129500,2,0,L|125:236,1,72,6|0,0:0|0:0,0:0:0:0:
44,320,129641,2,0,L|60:250,1,62.9999980773926,6|0,0:0|0:0,0:0:0:0:
148,116,129783,2,0,P|203:97|255:114,1,107.999996704102,2|0,0:0|0:0,0:0:0:0:
346,354,130066,1,8,0:0:0:0:
452,126,130207,1,0,0:0:0:0:
271,239,130349,6,0,P|233:219|193:162,1,90,4|0,0:0|0:0,0:0:0:0:
132,22,130490,2,0,P|143:59|179:102,1,80.9999975280763,4|0,0:0|0:0,0:0:0:0:
341,175,130632,2,0,P|285:167|267:155,1,72,4|0,0:0|0:0,0:0:0:0:
205,21,130773,2,0,P|233:55|280:70,1,62.9999980773926,4|0,0:0|0:0,0:0:0:0:
358,83,130915,2,0,P|411:115|434:164,1,107.999996704102
347,318,131198,5,0,0:0:0:0:
347,318,131269,1,0,0:0:0:0:
347,318,131339,1,0,0:0:0:0:
347,318,131410,1,0,0:0:0:0:
347,318,131481,6,0,L|241:298,1,90,6|0,0:0|0:0,0:0:0:0:
161,244,131622,2,0,L|73:226,1,80.9999975280763,6|0,0:0|0:0,0:0:0:0:
321,237,131764,2,0,L|233:220,1,72,6|0,0:0|0:0,0:0:0:0:
135,163,131905,2,0,L|48:145,1,62.9999980773926,6|0,0:0|0:0,0:0:0:0:
295,156,132047,2,0,L|418:180,1,107.999996704102
499,14,132330,2,0,L|440:22,1,53.9999983520508,8|0,0:0|0:0,0:0:0:0:
239,53,132472,1,8,0:0:0:0:
321,237,132613,6,0,P|325:276|293:352,1,90,4|0,0:0|0:0,0:0:0:0:
161,309,132755,2,0,P|157:270|188:195,1,80.9999975280763,4|0,0:0|0:0,0:0:0:0:
307,243,132896,2,0,P|311:282|269:346,1,72,4|0,0:0|0:0,0:0:0:0:
176,303,133038,2,0,P|172:264|201:218,1,62.9999980773926,4|0,0:0|0:0,0:0:0:0:
283,147,133179,2,0,P|337:148|391:194,1,107.999996704102
477,51,133462,5,0,0:0:0:0:
477,51,133533,1,0,0:0:0:0:
477,51,133604,1,0,0:0:0:0:
477,51,133674,1,0,0:0:0:0:
477,51,133745,5,2,0:0:0:0:
230,3,133887,1,2,0:0:0:0:
307,243,134028,1,2,0:0:0:0:
371,127,134170,1,2,0:0:0:0:
371,127,134240,1,0,0:0:0:0:
371,127,134311,6,0,P|308:109|217:145,2,143.999995605469
467,284,134877,5,8,0:0:0:0:
167,234,135019,1,0,0:0:0:0:
411,208,135160,2,0,P|457:159|460:107,1,107.999996704102
278,251,135443,1,4,0:0:0:0:
130,63,135726,5,0,0:0:0:0:
47,281,135868,2,0,L|70:338,1,53.9999983520508
222,180,136009,2,0,P|283:162|326:176,1,107.999996704102,8|0,0:0|0:0,0:0:0:0:
243,348,136292,1,0,0:0:0:0:
104,132,136434,1,8,0:0:0:0:
301,249,136575,2,0,P|364:241|396:201,1,107.999996704102,4|0,0:0|0:0,0:0:0:0:
313,37,136858,5,8,0:0:0:0:
141,246,137000,1,0,0:0:0:0:
354,135,137141,2,0,P|398:127|454:156,1,107.999996704102,8|0,0:0|0:0,0:0:0:0:
309,348,137424,1,0,0:0:0:0:
238,103,137566,1,0,0:0:0:0:
190,312,137707,2,0,P|132:327|82:303,1,107.999996704102,4|0,0:0|0:0,0:0:0:0:
34,93,137990,6,0,L|64:123,1,33.7500012874604
135,98,138132,2,0,L|165:128,1,33.7500012874604
23,232,138273,1,8,0:0:0:0:
271,131,138415,1,8,0:0:0:0:
114,304,138556,2,0,P|116:334|129:358,1,45
369,308,138839,1,4,0:0:0:0:
201,157,138981,6,0,P|195:127|198:111,2,45,0|0|8,0:0|0:0|0:0,0:0:0:0:
287,327,139405,1,0,0:0:0:0:
328,101,139547,1,0,0:0:0:0:
200,266,139688,2,0,P|219:245|234:235,1,45
452,246,139972,1,4,0:0:0:0:
274,154,140113,6,0,L|253:136,1,22.5
179,156,140255,2,0,L|158:138,1,22.5
84,158,140396,2,0,L|63:140,1,22.5
139,25,140538,1,0,0:0:0:0:
161,256,140679,1,0,0:0:0:0:
236,77,140821,2,0,P|261:66|285:66,1,45
474,162,141104,1,4,0:0:0:0:
300,179,141245,6,0,L|275:139,2,45
459,275,141670,1,0,0:0:0:0:
216,269,141811,1,0,0:0:0:0:
375,81,141953,2,0,P|388:113|387:127,1,45
343,341,142236,1,4,0:0:0:0:
235,191,142519,5,0,0:0:0:0:
224,188,142589,1,0,0:0:0:0:
212,187,142660,1,0,0:0:0:0:
201,188,142731,1,0,0:0:0:0:
191,192,142802,5,0,0:0:0:0:
343,341,142943,1,0,0:0:0:0:
280,88,143085,1,0,0:0:0:0:
217,260,143226,2,0,L|209:286,1,22.5
130,281,143368,2,0,P|95:281|76:273,1,45,4|0,0:0|0:0,0:0:0:0:
182,39,143651,2,0,P|192:63|191:86,1,45
32,179,143934,5,0,0:0:0:0:
50,209,144075,1,0,0:0:0:0:
276,196,144217,1,0,0:0:0:0:
294,226,144358,2,0,L|321:264,1,45,0|4,0:0|0:0,0:0:0:0:
146,268,144641,5,0,0:0:0:0:
280,82,144783,2,8,P|309:70|350:72,1,67.5
392,136,145066,6,0,L|461:142,2,45.0000017166138,4|8|8,0:0|0:0|0:0,0:0:0:0:
325,179,145349,2,0,P|308:221|311:252,1,67.5000025749208
454,340,145632,1,4,0:0:0:0:
120,275,145773,1,8,0:0:0:0:
407,236,145915,1,8,0:0:0:0:
407,236,146198,5,10,0:0:0:0:
407,236,146481,6,0,L|298:215,1,107.999996704102,2|0,0:0|0:0,0:0:0:0:
246,131,146693,1,2,0:0:0:0:
246,131,146764,2,2,L|127:143,1,107.999996704102,6|2,0:0|0:0,0:0:0:0:
19,271,147047,2,0,L|86:264,1,53.9999983520508,4|0,0:0|0:0,0:0:0:0:
97,71,147188,2,0,L|164:64,1,53.9999983520508,8|0,0:0|0:0,0:0:0:0:
302,235,147330,6,0,P|366:246|422:227,1,107.999996704102,8|0,0:0|0:0,0:0:0:0:
276,18,147613,1,0,0:0:0:0:
141,287,147755,1,8,0:0:0:0:
342,106,147896,2,0,P|392:88|454:97,1,107.999996704102,4|0,0:0|0:0,0:0:0:0:
373,371,148179,6,0,L|342:312,1,53.9999983520508,8|0,0:0|0:0,0:0:0:0:
159,186,148321,2,0,L|128:127,1,53.9999983520508
409,197,148462,1,0,0:0:0:0:
193,273,148604,2,0,P|127:274|85:241,1,107.999996704102
254,36,148887,1,0,0:0:0:0:
286,240,149028,6,0,L|304:355,1,107.999996704102,4|0,0:0|0:0,0:0:0:0:
409,197,149240,1,0,0:0:0:0:
414,170,149311,2,0,L|429:62,1,107.999996704102,8|0,0:0|0:0,0:0:0:0:
249,132,149594,6,0,P|191:117|136:121,1,107.999996704102,8|0,0:0|0:0,0:0:0:0:
22,205,149806,1,0,0:0:0:0:
46,217,149877,2,8,P|104:232|159:228,1,107.999996704102
282,72,150089,1,0,0:0:0:0:
257,62,150160,2,0,P|197:49|143:51,1,107.999996704102,4|0,0:0|0:0,0:0:0:0:
276,376,150443,1,0,0:0:0:0:
162,142,150585,1,8,0:0:0:0:
374,321,150726,6,0,P|416:330|480:320,1,107.999996704102,8|0,0:0|0:0,0:0:0:0:
417,58,151009,1,8,0:0:0:0:
274,228,151151,1,0,0:0:0:0:
274,228,151222,1,0,0:0:0:0:
274,228,151292,2,0,P|216:239|168:227,1,107.999996704102,4|0,0:0|0:0,0:0:0:0:
20,88,151575,5,0,0:0:0:0:
44,77,151645,1,0,0:0:0:0:
69,66,151716,1,0,0:0:0:0:
94,56,151787,1,0,0:0:0:0:
119,45,151858,6,0,P|177:34|225:46,1,107.999996704102,8|0,0:0|0:0,0:0:0:0:
250,346,152141,1,8,0:0:0:0:
435,164,152283,1,0,0:0:0:0:
435,164,152354,1,0,0:0:0:0:
435,164,152424,2,0,P|462:103|460:55,1,107.999996704102,4|0,0:0|0:0,0:0:0:0:
124,67,152707,6,0,L|131:127,1,53.9999983520508,8|0,0:0|0:0,0:0:0:0:
280,289,152849,2,0,L|273:349,1,53.9999983520508,8|0,0:0|0:0,0:0:0:0:
27,282,152990,1,8,0:0:0:0:
331,154,153132,2,0,P|398:149|439:166,1,107.999996704102,8|0,0:0|0:0,0:0:0:0:
186,332,153415,2,0,L|156:204,2,107.999996704102,8|4|0,0:0|0:0|0:0,0:0:0:0:
324,207,153839,6,0,L|331:147,1,53.9999983520508
132,116,153981,1,0,0:0:0:0:
132,116,154052,1,0,0:0:0:0:
132,116,154122,6,0,L|116:242,1,107.999996704102,8|0,0:0|0:0,0:0:0:0:
490,247,154405,2,0,P|442:213|387:202,1,107.999996704102,8|0,0:0|0:0,0:0:0:0:
200,384,154688,2,0,P|243:335|254:288,1,107.999996704102,4|0,0:0|0:0,0:0:0:0:
176,51,154972,2,0,L|226:86,1,53.9999983520508
374,287,155113,2,0,L|329:256,1,53.9999983520508
79,202,155255,5,8,0:0:0:0:
394,202,155396,2,0,P|451:175|480:138,1,107.999996704102
128,124,155679,1,0,0:0:0:0:
329,256,155821,2,0,L|439:332,1,107.999996704102,4|2,0:0|0:0,0:0:0:0:
145,339,156104,6,0,L|163:274,1,53.9999983520508,10|2,0:0|0:0,0:0:0:0:
304,108,156245,2,0,L|297:50,1,53.9999983520508,2|0,0:0|0:0,0:0:0:0:
270,321,156387,6,0,P|318:345|382:332,1,107.999996704102,8|0,0:0|0:0,0:0:0:0:
402,53,156670,1,8,0:0:0:0:
221,229,156811,1,8,0:0:0:0:
481,108,156953,2,0,P|501:51|487:5,1,107.999996704102,4|0,0:0|0:0,0:0:0:0:
138,74,157236,1,0,0:0:0:0:
394,236,157377,1,8,0:0:0:0:
44,178,157519,5,0,0:0:0:0:
333,129,157660,2,0,P|382:96|403:47,1,107.999996704102,8|0,0:0|0:0,0:0:0:0:
48,43,157943,1,0,0:0:0:0:
286,217,158085,2,0,P|294:280|253:340,1,107.999996704102,4|0,0:0|0:0,0:0:0:0:
185,257,158297,1,8,0:0:0:0:
185,257,158368,2,0,L|127:263,1,53.9999983520508,8|0,0:0|0:0,0:0:0:0:
0,81,158509,2,0,L|53:75,1,53.9999983520508,8|0,0:0|0:0,0:0:0:0:
335,242,158651,6,8,P|387:243|449:221,1,107.999996704102,0|8,0:0|0:0,0:0:0:0:
202,233,158863,1,0,0:0:0:0:
177,242,158934,2,0,P|125:243|63:221,1,107.999996704102
311,171,159146,1,0,0:0:0:0:
337,175,159217,2,0,P|395:166|437:137,1,107.999996704102,4|0,0:0|0:0,0:0:0:0:
153,29,159500,1,0,0:0:0:0:
261,300,159641,1,8,0:0:0:0:
41,63,159783,5,8,0:0:0:0:
337,175,159924,2,0,P|395:166|437:137,1,107.999996704102
146,112,160207,2,0,L|72:222,2,107.999996704102,8|4|0,0:0|0:0|0:0,0:0:0:0:
409,69,160632,5,0,0:0:0:0:
435,63,160702,1,0,0:0:0:0:
461,68,160773,1,0,0:0:0:0:
485,81,160844,1,0,0:0:0:0:
502,101,160915,6,0,L|439:199,1,107.999996704102,8|0,0:0|0:0,0:0:0:0:
84,243,161198,1,8,0:0:0:0:
329,103,161339,1,0,0:0:0:0:
329,130,161410,1,0,0:0:0:0:
330,157,161481,1,4,0:0:0:0:
114,287,161622,1,0,0:0:0:0:
173,36,161764,1,8,0:0:0:0:
259,278,161905,2,0,L|280:332,1,53.9999983520508
29,144,162047,6,0,P|55:88|113:53,1,107.999996704102
437,182,162330,1,8,0:0:0:0:
132,154,162472,1,0,0:0:0:0:
466,301,162613,2,0,P|440:357|382:392,1,107.999996704102,4|0,0:0|0:0,0:0:0:0:
118,261,162896,2,0,L|183:260,1,53.9999983520508,8|0,0:0|0:0,0:0:0:0:
437,182,163038,2,0,L|383:182,1,53.9999983520508
70,329,163179,6,0,P|37:277|42:228,1,107.999996704102
280,52,163462,1,0,0:0:0:0:
214,328,163604,1,8,0:0:0:0:
122,118,163745,2,0,L|74:0,1,107.999996704102,4|0,0:0|0:0,0:0:0:0:
309,219,164028,2,0,L|349:319,1,107.999996704102
184,191,164311,6,0,P|202:134|247:95,1,107.999996704102
480,259,164594,1,8,0:0:0:0:
241,351,164736,1,8,0:0:0:0:
323,41,164877,5,4,0:0:0:0:
376,331,165019,1,0,0:0:0:0:
323,41,165160,2,0,L|334:113,1,53.9999983520508
376,331,165302,2,0,L|387:403,1,53.9999983520508
150,382,165443,5,0,0:0:0:0:
474,188,165632,1,0,0:0:0:0:
143,4,165821,1,0,0:0:0:0:
315,320,166009,6,0,P|359:309|395:225,1,135
357,150,166575,5,0,0:0:0:0:
54,359,166764,1,0,0:0:0:0:
199,21,166953,1,0,0:0:0:0:
315,320,167141,6,0,P|359:309|395:225,1,135,12|0,0:0|0:0,0:0:0:0:
357,150,167707,5,0,0:0:0:0:
54,359,167896,1,0,0:0:0:0:
199,21,168085,1,0,0:0:0:0:
384,345,168273,5,0,0:0:0:0:
71,125,168462,1,0,0:0:0:0:
429,59,168651,1,0,0:0:0:0:
181,364,168839,5,0,0:0:0:0:
199,21,169028,1,0,0:0:0:0:
495,192,169217,1,0,0:0:0:0:
140,269,169405,6,0,P|92:254|62:164,1,135
77,91,169972,5,0,0:0:0:0:
510,71,170160,1,0,0:0:0:0:
202,287,170349,1,0,0:0:0:0:
385,34,170538,6,0,P|421:71|410:165,1,135
361,222,171104,5,0,0:0:0:0:
83,15,171292,1,0,0:0:0:0:
244,372,171481,1,0,0:0:0:0:
274,85,171670,6,0,P|316:38|389:35,1,135,12|0,0:0|0:0,0:0:0:0:
431,112,172236,5,0,0:0:0:0:
20,183,172424,1,0,0:0:0:0:
483,237,172613,1,0,0:0:0:0:
144,368,172802,5,0,0:0:0:0:
256,0,172990,1,0,0:0:0:0:
368,368,173179,1,0,0:0:0:0:
147,298,173368,5,4,0:0:0:0:
107,221,173462,1,8,0:0:0:0:
125,136,173556,1,4,0:0:0:0:
195,84,173651,2,0,L|315:72,1,107.999996704102,8|0,0:0|0:0,0:0:0:0:
512,149,173934,5,4,0:0:0:0:
228,204,174075,1,8,0:0:0:0:
476,285,174217,1,8,0:0:0:0:
410,33,174358,1,4,0:0:0:0:
348,294,174500,6,0,P|296:331|220:345,1,107.999996704102,8|0,0:0|0:0,0:0:0:0:
61,47,174783,1,0,0:0:0:0:
375,189,174924,1,0,0:0:0:0:
103,248,175066,2,0,P|70:197|66:132,1,107.999996704102,4|0,0:0|0:0,0:0:0:0:
313,25,175349,6,0,L|307:88,1,53.9999983520508
211,293,175490,2,0,L|223:364,1,53.9999983520508,8|0,0:0|0:0,0:0:0:0:
476,232,175632,1,8,0:0:0:0:
215,173,175773,2,0,P|183:123|180:54,1,107.999996704102,8|0,0:0|0:0,0:0:0:0:
387,311,176056,1,0,0:0:0:0:
438,52,176198,5,4,0:0:0:0:
259,285,176339,1,0,0:0:0:0:
231,286,176410,1,0,0:0:0:0:
203,287,176481,1,8,0:0:0:0:
478,198,176622,1,8,0:0:0:0:
242,199,176764,6,0,L|122:199,1,107.999996704102,8|0,0:0|0:0,0:0:0:0:
307,123,176976,1,0,0:0:0:0:
279,123,177047,2,8,L|159:123,1,107.999996704102
372,47,177259,1,0,0:0:0:0:
344,47,177330,2,0,L|224:47,1,107.999996704102,4|0,0:0|0:0,0:0:0:0:
51,331,177613,1,0,0:0:0:0:
391,196,177755,1,8,0:0:0:0:
207,381,177896,5,0,0:0:0:0:
67,143,178038,2,0,P|69:80|100:38,1,107.999996704102,8|0,0:0|0:0,0:0:0:0:
391,196,178321,2,0,P|331:197|280:171,1,107.999996704102,8|4,0:0|0:0,0:0:0:0:
477,80,178604,1,8,0:0:0:0:
477,80,178674,1,0,0:0:0:0:
477,80,178745,2,0,L|468:142,1,53.9999983520508
330,364,178887,2,0,L|312:284,1,53.9999983520508,8|0,0:0|0:0,0:0:0:0:
338,58,179028,6,0,P|275:43|203:72,1,107.999996704102,8|0,0:0|0:0,0:0:0:0:
65,325,179311,1,0,0:0:0:0:
283,192,179453,1,0,0:0:0:0:
257,184,179523,1,0,0:0:0:0:
230,176,179594,1,4,0:0:0:0:
335,333,179736,1,0,0:0:0:0:
149,201,179877,6,0,P|146:171|156:134,1,53.9999983520508,8|0,0:0|0:0,0:0:0:0:
393,105,180019,2,0,P|396:75|386:38,1,53.9999983520508
82,49,180160,1,0,0:0:0:0:
357,188,180302,2,0,P|422:191|471:148,1,107.999996704102,8|0,0:0|0:0,0:0:0:0:
160,11,180585,1,0,0:0:0:0:
234,268,180726,2,0,L|359:301,1,107.999996704102,4|0,0:0|0:0,0:0:0:0:
153,93,181009,5,0,0:0:0:0:
130,107,181079,1,0,0:0:0:0:
113,128,181150,1,0,0:0:0:0:
105,154,181221,1,0,0:0:0:0:
106,181,181292,5,8,0:0:0:0:
286,366,181434,1,0,0:0:0:0:
234,53,181575,1,8,0:0:0:0:
252,343,181717,1,0,0:0:0:0:
398,96,181858,2,0,P|393:161|364:223,1,107.999996704102,4|0,0:0|0:0,0:0:0:0:
34,235,182141,2,0,L|114:202,1,53.9999983520508,8|0,0:0|0:0,0:0:0:0:
362,339,182283,2,0,L|442:306,1,53.9999983520508
245,127,182424,5,0,0:0:0:0:
45,336,182566,2,0,L|172:284,1,107.999996704102,8|0,0:0|0:0,0:0:0:0:
448,247,182849,1,8,0:0:0:0:
133,113,182990,1,4,0:0:0:0:
384,59,183132,5,2,0:0:0:0:
384,59,183203,1,2,0:0:0:0:
384,59,183273,2,0,L|373:121,1,53.9999983520508,2|0,0:0|0:0,0:0:0:0:
276,355,183415,2,0,L|257:285,1,53.9999983520508,2|0,0:0|0:0,0:0:0:0:
172,37,183556,6,0,P|114:31|70:54,1,107.999996704102,8|0,0:0|0:0,0:0:0:0:
162,319,183839,1,8,0:0:0:0:
464,179,183981,1,8,0:0:0:0:
161,220,184122,2,0,P|132:168|139:118,1,107.999996704102,4|0,0:0|0:0,0:0:0:0:
427,36,184405,6,0,L|415:98,1,53.9999983520508
329,306,184547,2,0,L|317:368,1,53.9999983520508,8|0,0:0|0:0,0:0:0:0:
253,57,184688,1,0,0:0:0:0:
418,230,184830,2,0,P|441:291|435:337,1,107.999996704102,8|0,0:0|0:0,0:0:0:0:
94,154,185113,2,0,P|71:93|77:47,1,107.999996704102,8|4,0:0|0:0,0:0:0:0:
352,138,185396,5,8,0:0:0:0:
352,138,185467,1,0,0:0:0:0:
352,138,185538,2,0,L|284:157,1,53.9999983520508
23,297,185679,2,0,L|91:316,1,53.9999983520508,8|0,0:0|0:0,0:0:0:0:
431,282,185821,6,0,P|474:240|489:185,1,107.999996704102,8|0,0:0|0:0,0:0:0:0:
176,74,186033,1,0,0:0:0:0:
163,98,186104,2,0,L|193:224,1,107.999996704102
498,73,186316,1,0,0:0:0:0:
512,50,186387,2,0,P|459:29|383:36,1,107.999996704102,4|0,0:0|0:0,0:0:0:0:
304,328,186670,1,0,0:0:0:0:
242,35,186811,1,8,0:0:0:0:
449,238,186953,5,8,0:0:0:0:
121,297,187094,2,0,P|58:287|13:251,1,107.999996704102
242,35,187377,1,8,0:0:0:0:
302,266,187519,2,0,L|417:245,1,107.999996704102,4|0,0:0|0:0,0:0:0:0:
161,60,187802,5,0,0:0:0:0:
142,79,187872,1,0,0:0:0:0:
130,103,187943,1,0,0:0:0:0:
126,130,188014,1,0,0:0:0:0:
129,157,188085,6,0,L|193:264,1,107.999996704102,8|0,0:0|0:0,0:0:0:0:
495,88,188368,2,0,P|436:71|384:80,1,107.999996704102,8|0,0:0|0:0,0:0:0:0:
250,142,188580,1,0,0:0:0:0:
235,164,188651,2,0,P|294:147|346:156,1,107.999996704102,4|0,0:0|0:0,0:0:0:0:
440,384,188934,1,8,0:0:0:0:
88,273,189075,1,0,0:0:0:0:
397,223,189217,6,0,P|427:173|422:119,1,107.999996704102,8|0,0:0|0:0,0:0:0:0:
129,40,189500,1,0,0:0:0:0:
222,360,189641,1,0,0:0:0:0:
348,62,189783,2,0,P|402:31|462:36,1,107.999996704102,4|0,0:0|0:0,0:0:0:0:
310,262,190066,2,0,L|238:238,1,53.9999983520508
84,130,190207,5,0,0:0:0:0:
84,130,190278,1,0,0:0:0:0:
84,130,190349,2,2,P|137:118|179:133,2,71.9999978027344,6|10|10,0:0|0:0|0:0,0:0:0:0:
131,212,190632,2,0,L|111:266,1,53.9999983520508,8|0,0:0|0:0,0:0:0:0:
317,99,190773,2,0,L|303:23,1,53.9999983520508,8|0,0:0|0:0,0:0:0:0:
219,278,190915,2,0,P|255:330|305:356,1,107.999996704102,4|0,0:0|0:0,0:0:0:0:
453,133,191198,1,10,0:0:0:0:
453,133,191339,1,10,0:0:0:0:
264,167,191481,6,0,P|236:117|241:61,1,107.999996704102,8|0,0:0|0:0,0:0:0:0:
491,280,191764,2,0,L|371:322,1,107.999996704102
66,254,192047,1,6,0:0:0:0:
389,145,192188,1,2,0:0:0:0:
366,129,192259,1,2,0:0:0:0:
343,113,192330,1,6,0:0:0:0:
256,369,192472,1,6,0:0:0:0:
161,81,192613,5,8,0:0:0:0:
436,218,192755,1,0,0:0:0:0:
65,142,192896,1,8,0:0:0:0:
421,195,193038,1,8,0:0:0:0:
162,189,193179,1,4,0:0:0:0:
414,169,193321,1,0,0:0:0:0:
66,250,193462,1,8,0:0:0:0:
413,142,193604,1,8,0:0:0:0:
163,303,193745,6,0,P|186:351|233:382,1,107.999996704102,8|0,0:0|0:0,0:0:0:0:
356,36,194028,2,0,L|263:128,1,107.999996704102
413,299,194311,1,4,0:0:0:0:
153,184,194453,1,0,0:0:0:0:
126,183,194523,1,0,0:0:0:0:
98,182,194594,1,0,0:0:0:0:
260,12,194736,1,0,0:0:0:0:
163,303,194877,5,8,0:0:0:0:
478,150,195019,1,0,0:0:0:0:
245,347,195160,1,8,0:0:0:0:
102,31,195302,1,0,0:0:0:0:
332,330,195443,1,4,0:0:0:0:
465,63,195585,1,8,0:0:0:0:
125,222,195726,1,0,0:0:0:0:
334,22,195868,1,8,0:0:0:0:
226,233,196009,6,0,P|226:296|262:354,1,107.999996704102,8|0,0:0|0:0,0:0:0:0:
385,241,196222,1,0,0:0:0:0:
397,217,196292,2,0,P|397:154|361:96,1,107.999996704102,8|0,0:0|0:0,0:0:0:0:
26,110,196575,2,0,L|121:162,1,107.999996704102,4|0,0:0|0:0,0:0:0:0:
194,199,196788,1,0,0:0:0:0:
194,199,196858,1,0,0:0:0:0:
428,43,197000,1,8,0:0:0:0:
363,278,197141,5,8,0:0:0:0:
261,37,197283,1,0,0:0:0:0:
360,304,197424,1,8,0:0:0:0:
213,61,197566,2,0,L|246:116,1,53.9999983520508
367,330,197707,1,0,0:0:0:0:
180,103,197849,1,0,0:0:0:0:
381,353,197990,1,0,0:0:0:0:
169,156,198132,1,8,0:0:0:0:
393,226,198273,6,0,P|454:225|502:204,1,107.999996704102,8|0,0:0|0:0,0:0:0:0:
180,103,198556,2,0,P|119:104|71:125,1,107.999996704102,8|0,0:0|0:0,0:0:0:0:
306,345,198839,2,0,P|319:282|307:222,1,107.999996704102,4|0,0:0|0:0,0:0:0:0:
72,238,199122,5,0,0:0:0:0:
72,238,199193,1,0,0:0:0:0:
72,238,199264,1,0,0:0:0:0:
72,238,199335,1,0,0:0:0:0:
72,238,199405,6,0,L|184:191,1,107.999996704102,8|0,0:0|0:0,0:0:0:0:
477,235,199688,1,0,0:0:0:0:
231,17,199830,1,8,0:0:0:0:
336,235,199972,2,0,P|336:297|317:350,1,107.999996704102,4|0,0:0|0:0,0:0:0:0:
216,122,200255,2,8,P|216:60|235:7,1,107.999996704102
416,117,200538,5,2,0:0:0:0:
184,265,200679,1,2,0:0:0:0:
157,258,200750,1,2,0:0:0:0:
130,251,200821,1,2,0:0:0:0:
400,172,200962,1,2,0:0:0:0:
136,152,201104,2,0,P|123:98|139:43,1,107.999996704102,4|0,0:0|0:0,0:0:0:0:
480,82,201387,2,0,L|461:142,1,53.9999983520508
283,292,201528,2,0,L|264:352,1,53.9999983520508
446,293,201670,5,8,0:0:0:0:
211,61,201811,1,0,0:0:0:0:
453,207,201953,1,0,0:0:0:0:
138,110,202094,1,8,0:0:0:0:
378,243,202236,1,4,0:0:0:0:
114,195,202377,1,8,0:0:0:0:
381,157,202519,1,0,0:0:0:0:
118,286,202660,1,8,0:0:0:0:
469,213,202802,6,0,P|488:159|475:107,1,107.999996704102,8|0,0:0|0:0,0:0:0:0:
197,233,203085,2,0,L|238:369,1,107.999996704102,8|0,0:0|0:0,0:0:0:0:
342,95,203368,1,4,0:0:0:0:
70,193,203509,2,0,L|11:172,2,53.9999983520508
324,201,203792,1,0,0:0:0:0:
324,201,203863,1,0,0:0:0:0:
324,201,203934,5,8,0:0:0:0:
65,332,204075,1,0,0:0:0:0:
248,92,204217,1,8,0:0:0:0:
447,332,204358,1,8,0:0:0:0:
326,56,204500,1,4,0:0:0:0:
122,267,204641,1,0,0:0:0:0:
254,7,204783,1,8,0:0:0:0:
390,267,204924,1,8,0:0:0:0:
148,174,205066,6,0,P|87:178|45:212,1,107.999996704102,8|0,0:0|0:0,0:0:0:0:
218,275,205278,1,0,0:0:0:0:
218,275,205349,2,0,L|251:165,1,107.999996704102
502,44,205632,2,0,L|470:147,1,107.999996704102,4|0,0:0|0:0,0:0:0:0:
259,347,205915,5,0,0:0:0:0:
233,356,205985,1,0,0:0:0:0:
206,356,206056,1,0,0:0:0:0:
181,349,206127,1,0,0:0:0:0:
159,333,206198,5,8,0:0:0:0:
437,187,206339,1,8,0:0:0:0:
105,250,206481,1,0,0:0:0:0:
481,267,206622,1,8,0:0:0:0:
141,152,206764,1,4,0:0:0:0:
392,262,206905,1,0,0:0:0:0:
250,126,207047,1,8,0:0:0:0:
434,346,207188,1,8,0:0:0:0:
170,176,207330,6,0,P|158:118|176:68,1,107.999996704102,8|0,0:0|0:0,0:0:0:0:
257,32,207542,1,8,0:0:0:0:
257,32,207613,1,8,0:0:0:0:
13,199,207755,1,0,0:0:0:0:
264,338,207896,2,0,L|378:273,1,107.999996704102,4|0,0:0|0:0,0:0:0:0:
469,67,208179,5,0,0:0:0:0:
445,54,208249,1,0,0:0:0:0:
418,49,208320,1,0,0:0:0:0:
391,53,208391,1,0,0:0:0:0:
367,64,208462,6,0,P|306:81|233:65,1,107.999996704102
16,64,208745,1,8,0:0:0:0:
85,342,208887,1,8,0:0:0:0:
209,172,209028,2,0,P|267:153|320:157,1,107.999996704102,4|0,0:0|0:0,0:0:0:0:
11,339,209311,2,8,L|0:212,1,107.999996704102
255,354,209594,5,2,0:0:0:0:
496,131,209736,1,2,0:0:0:0:
471,141,209806,1,2,0:0:0:0:
445,151,209877,1,2,0:0:0:0:
137,168,210019,1,8,0:0:0:0:
346,271,210160,2,0,P|411:286|462:273,1,107.999996704102
298,75,210443,2,0,L|294:15,1,53.9999983520508
195,256,210585,2,0,L|198:309,1,53.9999983520508
265,203,210726,6,0,P|229:173|198:166,1,67.5,4|0,0:0|0:0,0:0:0:0:
116,184,211009,6,2,L|124:161,5,15
71,189,211292,6,0,L|125:114,1,90
257,130,211858,6,0,P|306:132|345:107,1,90
454,41,212424,2,0,L|426:133,1,90
361,230,212990,5,0,0:0:0:0:
381,270,213273,1,0,0:0:0:0:
206,215,213556,1,0,0:0:0:0:
213,259,213839,1,0,0:0:0:0:
284,156,214122,6,0,P|257:127|198:118,1,90
128,188,214688,1,0,0:0:0:0:
179,328,215255,6,0,L|279:341,1,90
443,264,215870,6,0,L|404:259,1,22.5
348,252,216205,1,0,0:0:0:0:
128,212,216540,6,0,L|230:196,2,90
132,127,217562,1,0,0:0:0:0:
324,135,217903,6,0,L|355:142,1,22.5
426,155,218244,1,0,0:0:0:0:
167,70,218585,6,0,L|154:35,1,22.5
260,46,219114,2,0,P|266:77|249:119,1,67.5
218,134,219535,6,0,L|224:165,1,22.5
153,195,220101,2,0,P|139:238|152:277,1,78.75
162,286,221024,6,0,L|161:307,1,11.25
