osu file format v14

[General]
AudioFilename: audio.mp3
AudioLeadIn: 0
PreviewTime: 90794
Countdown: 0
SampleSet: Soft
StackLeniency: 0.4
Mode: 0
LetterboxInBreaks: 0
WidescreenStoryboard: 1

[Editor]
Bookmarks: 913,75912,113412,161576,163685
DistanceSpacing: 1.6
BeatDivisor: 4
GridSize: 8
TimelineZoom: 4.899997

[Metadata]
Title:Do It MF
TitleUnicode:Do It MF
Artist:Jax Van Riper
ArtistUnicode:Jax Van Riper
Creator:iaport
Version:Do or Die
Source:
Tags:axley uptempo hardcore terrorcore
BeatmapID:4420387
BeatmapSetID:2106557

[Difficulty]
HPDrainRate:6
CircleSize:4
OverallDifficulty:9
ApproachRate:9.9
SliderMultiplier:1.6
SliderTickRate:0.5

[Events]
//Background and Video events
//Break Periods
2,106112,112947
//Storyboard Layer 0 (Background)
//Storyboard Layer 1 (Fail)
//Storyboard Layer 2 (Pass)
//Storyboard Layer 3 (Foreground)
//Storyboard Layer 4 (Overlay)
//Storyboard Sound Samples

[TimingPoints]
912,234.375,4,2,0,5,1,0
912,-125,4,2,0,5,0,0
8412,-100,4,2,0,5,0,0
12162,-90.9090909090909,4,2,0,5,0,0
23880,-64.5161290322581,4,2,0,5,0,0
24115,-64.5161290322581,4,2,0,5,0,1
29974,-64.5161290322581,4,2,0,5,0,0
31380,-64.5161290322581,4,2,0,5,0,1
36771,-64.5161290322581,4,2,0,5,0,0
38412,-57.1428571428571,4,2,0,5,0,0
38880,-57.1428571428571,4,2,0,5,0,1
44271,-57.1428571428571,4,2,0,5,0,0
45912,-57.1428571428571,4,2,0,5,0,1
51771,-57.1428571428571,4,2,0,5,0,0
53412,-57.1428571428571,4,2,0,5,0,0
53646,-57.1428571428571,4,2,0,5,0,1
59037,-57.1428571428571,4,2,0,5,0,0
59974,-57.1428571428571,4,2,0,5,0,0
60912,-57.1428571428571,4,2,0,5,0,0
61146,-57.1428571428571,4,2,0,5,0,1
66537,-57.1428571428571,4,2,0,5,0,0
68412,-57.1428571428571,4,2,0,5,0,0
83412,-100,4,2,0,5,0,0
90912,-100,4,2,0,5,0,0
94662,-83.3333333333333,4,2,0,5,0,0
98412,-83.3333333333333,4,2,0,5,0,1
105912,-100,4,2,0,5,0,0
120912,-100,4,2,0,5,0,0
122787,-76.9230769230769,4,2,0,5,0,0
123724,-71.4285714285714,4,2,0,5,0,0
124427,-19.2307692307692,4,2,0,5,0,0
124662,-62.5,4,2,0,5,0,1
131224,-58.8235294117647,4,2,0,5,0,0
132162,-55.5555555555556,4,2,0,5,0,0
132396,-50,4,2,0,5,0,1
138724,-50,4,2,0,5,0,0
139662,-40,4,2,0,5,0,1
143646,-35.0877192982456,4,2,0,5,0,1
144115,-40,4,2,0,5,0,1
146224,-80,4,2,0,5,0,0
146927,-60.6060606060606,4,2,0,5,0,0
147162,-45.4545454545455,4,2,0,5,0,1
152787,-68.9655172413793,4,2,0,5,0,0
154662,-68.9655172413793,4,2,0,5,0,0
157474,-62.5,4,2,0,5,0,0
158412,-51.2820512820513,4,2,0,5,0,0
158646,-51.2820512820513,4,2,0,5,0,1
164974,-51.2820512820513,4,2,0,5,0,0
165912,-48.780487804878,4,2,0,5,0,0
166380,-48.780487804878,4,2,0,5,0,1
171771,-51.2820512820513,4,2,0,5,0,0
173412,-54.054054054054,4,2,0,5,0,0
173880,-54.054054054054,4,2,0,5,0,1
179271,-54.054054054054,4,2,0,5,0,0
179974,-51.9480519480519,4,2,0,5,0,0
180912,-50,4,2,0,5,0,1
187474,-50,4,2,0,5,0,0
188412,-52.6315789473684,4,2,0,5,0,0

[HitObjects]
256,192,87162,12,0,89974,0:0:0:0:
399,127,90912,6,0,P|369:114|311:113,1,80
430,202,91146,1,0,0:0:0:0:
480,138,91263,1,0,0:0:0:0:
347,189,91380,2,0,P|352:228|371:263,1,80
476,351,91615,1,0,0:0:0:0:
507,209,91732,1,0,0:0:0:0:
381,353,91849,6,0,P|341:347|306:328,1,80
248,179,92083,1,0,0:0:0:0:
155,344,92201,1,0,0:0:0:0:
257,166,92318,1,0,0:0:0:0:
254,118,92376,1,0,0:0:0:0:
252,69,92435,1,0,0:0:0:0:
137,202,92552,1,0,0:0:0:0:
344,255,92669,1,0,0:0:0:0:
364,79,92787,6,0,P|359:118|340:153,1,80
321,18,93021,1,0,0:0:0:0:
505,183,93138,1,0,0:0:0:0:
456,240,93255,2,0,P|437:204|431:165,1,80
457,34,93490,1,0,0:0:0:0:
509,193,93607,1,0,0:0:0:0:
319,129,93724,6,0,L|315:88,1,40
453,89,93841,2,0,L|457:48,1,40
273,185,93958,1,0,0:0:0:0:
478,253,94076,1,0,0:0:0:0:
214,137,94193,2,0,P|196:173|203:212,1,80
372,294,94427,2,0,B|356:282|356:282|332:288,1,40
327,361,94544,2,0,B|343:373|343:373|367:367,1,40
146,315,94662,6,0,B|184:345|184:345|252:329,1,95.9999970703126
106,144,94896,1,0,0:0:0:0:
57,207,95013,2,0,B|62:262,1,47.9999985351563
173,119,95130,2,0,P|137:78|86:76,1,95.9999970703126
157,239,95365,1,0,0:0:0:0:
255,51,95482,1,0,0:0:0:0:
382,183,95599,6,0,L|274:193,1,95.9999970703126
417,74,95833,1,0,0:0:0:0:
485,272,95951,2,0,L|486:219,1,47.9999985351563
493,69,96068,1,0,0:0:0:0:
427,96,96126,1,0,0:0:0:0:
362,63,96185,2,0,P|329:53|255:64,2,95.9999970703126
265,276,96537,6,0,B|295:238|295:238|286:191,1,95.9999970703126
157,85,96771,1,0,0:0:0:0:
207,321,96888,2,0,B|243:351|243:351|291:344,1,95.9999970703126
262,123,97122,1,0,0:0:0:0:
122,249,97240,1,0,0:0:0:0:
152,73,97357,2,0,L|165:136,1,47.9999985351563
189,14,97474,6,0,P|149:1|98:28,1,95.9999970703126
223,186,97708,2,0,P|263:199|314:172,1,95.9999970703126
410,72,97943,2,0,L|403:25,1,47.9999985351563
490,88,98060,2,0,L|483:135,1,47.9999985351563
427,312,98177,1,0,0:0:0:0:
378,258,98236,1,0,0:0:0:0:
381,187,98294,2,0,P|401:152|425:135,1,47.9999985351563
483,361,98412,6,0,P|454:382|383:371,1,95.9999970703126
297,230,98646,1,0,0:0:0:0:
463,243,98763,1,0,0:0:0:0:
228,268,98880,6,0,P|214:222|232:179,1,95.9999970703126
301,311,99115,1,0,0:0:0:0:
95,324,99232,2,0,L|90:274,1,47.9999985351563
72,119,99349,5,0,0:0:0:0:
188,341,99466,1,0,0:0:0:0:
59,93,99583,2,0,P|49:60|57:-6,1,95.9999970703126
262,106,99818,2,0,L|154:117,1,95.9999970703126
260,10,100052,2,0,B|253:20|253:20|319:33|388:31,1,143.999995605469
385,210,100287,6,0,P|360:169|366:122,1,95.9999970703126
479,200,100521,1,0,0:0:0:0:
339,297,100638,1,0,0:0:0:0:
490,195,100755,6,0,P|514:235|508:282,1,95.9999970703126
308,224,100990,1,0,0:0:0:0:
479,112,101107,1,0,0:0:0:0:
432,346,101224,6,0,L|425:298,1,47.9999985351563
303,168,101341,2,0,L|296:216,1,47.9999985351563
353,357,101458,2,0,L|346:309,1,47.9999985351563
385,120,101576,1,0,0:0:0:0:
149,280,101693,2,0,P|188:304|252:293,1,95.9999970703126
174,103,101927,2,0,B|197:76|236:124|203:226,1,143.999995605469
312,16,102162,6,0,P|283:37|212:26,1,95.9999970703126
103,9,102396,1,0,0:0:0:0:
276,124,102513,1,0,0:0:0:0:
12,164,102630,6,0,P|41:143|112:154,1,95.9999970703126
227,282,102865,1,0,0:0:0:0:
81,271,102982,2,0,L|70:208,1,47.9999985351563
174,103,103099,5,0,0:0:0:0:
150,318,103216,1,0,0:0:0:0:
310,177,103333,1,0,0:0:0:0:
310,177,103392,1,0,0:0:0:0:
310,177,103451,2,0,P|281:162|259:157,1,47.9999985351563
403,250,103568,2,0,P|390:206|392:144,1,95.9999970703126
351,277,103802,2,0,P|397:270|438:295,1,95.9999970703126
245,369,104037,6,0,P|220:328|226:281,1,95.9999970703126
360,155,104271,2,0,L|356:127,2,23.9999992675781
405,75,104388,2,0,P|368:54|310:75,1,95.9999970703126
248,186,104622,1,0,0:0:0:0:
172,1,104740,2,0,P|217:11|242:51,1,95.9999970703126
101,116,104974,6,0,B|87:95|87:95|97:57,1,47.9999985351563
239,142,105091,2,0,B|253:163|253:163|243:201,1,47.9999985351563
132,289,105208,1,0,0:0:0:0:
174,88,105326,1,0,0:0:0:0:
326,254,105443,5,0,0:0:0:0:
84,203,105561,1,0,0:0:0:0:
343,259,105677,2,0,L|440:280,1,95.9999970703126
233,352,105912,5,0,0:0:0:0:
201,251,113412,5,0,0:0:0:0:
242,169,113529,1,0,0:0:0:0:
242,319,113646,2,0,P|211:334|156:317,1,80
180,187,113880,5,0,0:0:0:0:
262,228,113997,1,0,0:0:0:0:
112,228,114114,2,0,P|97:197|114:142,1,80
248,162,114349,5,0,0:0:0:0:
198,260,114466,1,0,0:0:0:0:
156,85,114583,1,0,0:0:0:0:
317,289,114701,1,0,0:0:0:0:
359,114,114818,5,0,0:0:0:0:
318,32,114935,1,0,0:0:0:0:
318,182,115052,2,0,P|349:197|404:180,1,80
307,15,115287,5,0,0:0:0:0:
245,106,115404,1,0,0:3:0:0:
435,124,115521,2,0,P|431:82|397:41,1,80,0|0,0:3|0:3,0:3:0:0:
209,310,115755,5,0,0:0:0:0:
300,372,115872,1,0,0:3:0:0:
318,182,115989,2,0,P|276:185|235:220,1,80,0|0,0:3|0:3,0:3:0:0:
401,326,116224,5,0,0:0:0:0:
432,144,116341,1,0,0:0:0:0:
303,268,116458,5,0,0:0:0:0:
272,86,116575,1,0,0:0:0:0:
397,342,116693,5,0,0:0:0:0:
352,96,116810,1,0,0:0:0:0:
497,225,116927,2,0,P|461:240|417:245,1,80
257,180,117162,5,0,0:0:0:0:
501,125,117279,1,0,0:0:0:0:
262,6,117396,2,0,L|273:96,1,80
299,278,117630,5,0,0:0:0:0:
432,55,117747,1,0,0:0:0:0:
428,325,117865,2,0,L|417:235,1,80
212,178,118099,5,0,0:0:0:0:
497,237,118216,1,0,0:0:0:0:
185,272,118333,5,0,0:0:0:0:
452,156,118450,1,0,0:0:0:0:
69,130,118568,5,0,0:0:0:0:
354,189,118685,1,0,0:0:0:0:
121,362,118802,2,0,L|108:260,1,80
298,73,119037,6,0,L|303:126,1,40
423,267,119154,2,0,L|428:214,1,40
448,73,119271,1,0,0:0:0:0:
276,259,119388,1,0,0:0:0:0:
468,62,119505,6,0,P|427:29|385:20,1,80
274,341,119740,2,0,P|323:321|351:290,1,80
481,190,119974,5,0,0:0:0:0:
173,149,120091,1,0,0:0:0:0:
413,367,120208,5,0,0:0:0:0:
456,38,120325,1,0,0:0:0:0:
134,331,120443,5,0,0:0:0:0:
488,269,120560,1,0,0:0:0:0:
276,383,120677,2,0,B|257:353|257:353|256:284,1,80
358,227,120912,5,0,0:0:0:0:
256,192,120970,12,0,122669,0:0:0:0:
409,156,122787,6,0,P|429:216|428:276,1,103.999995239258
293,140,123021,1,0,0:0:0:0:
486,88,123138,1,0,0:0:0:0:
325,326,123255,2,0,P|326:277|339:213,1,103.999995239258
226,54,123490,2,0,B|125:56|185:131|79:133,1,155.999992858887
47,197,123724,6,0,P|87:208|111:210,1,55.9999982910157
180,266,123841,2,0,P|207:261|234:253,1,55.9999982910157
331,2,123958,1,0,0:0:0:0:
402,24,124017,1,0,0:0:0:0:
398,98,124076,2,0,P|365:101|321:101,1,55.9999982910157
188,30,124193,6,0,P|201:63|207:102,1,55.9999982910157
391,225,124310,2,0,P|378:258|372:297,1,55.9999982910157
251,168,124427,6,0,B|278:160|278:160|304:169,12,51.999997619629
325,369,124662,2,0,B|294:342|294:342|152:354,1,170.666666666667
18,172,124896,5,0,0:0:0:0:
195,195,124974,1,0,0:0:0:0:
119,357,125052,1,0,0:0:0:0:
72,146,125130,5,0,0:0:0:0:
213,254,125208,1,0,0:0:0:0:
66,356,125286,1,0,0:0:0:0:
131,150,125365,5,0,0:0:0:0:
199,314,125443,1,0,0:0:0:0:
21,329,125521,1,0,0:0:0:0:
296,202,125599,6,0,P|260:191|210:182,1,85.3333333333333,0|0,0:0|0:0,0:0:0:0:
316,303,125755,1,0,0:0:0:0:
363,128,125833,2,0,P|399:117|449:108,1,85.3333333333333,0|0,0:0|0:0,0:0:0:0:
388,232,125990,1,0,0:0:0:0:
272,107,126068,6,0,P|251:60|255:20,2,85.3333333333333,0|0|0,0:0|0:0|0:0,0:0:0:0:
491,207,126302,1,0,0:0:0:0:
409,47,126380,1,0,0:0:0:0:
310,197,126458,1,0,0:0:0:0:
470,191,126537,5,0,0:0:0:0:
408,70,126615,1,0,0:0:0:0:
334,183,126693,1,0,0:0:0:0:
172,43,126771,6,0,L|181:100,1,42.6666666666667,0|0,0:0|0:0,0:0:0:0:
228,219,126849,2,0,L|234:176,1,42.6666666666667
100,56,126927,2,0,L|109:113,1,42.6666666666667
257,279,127005,6,0,P|227:288|203:280,5,42.6666666666667,2|0|0|0|0|0,0:0|0:0|0:0|0:0|0:0|0:0,0:0:0:0:
377,208,127240,6,0,L|368:265,1,42.6666666666667,0|0,0:0|0:0,0:0:0:0:
321,384,127318,2,0,L|314:341,1,42.6666666666667
449,221,127396,2,0,L|440:278,1,42.6666666666667
304,105,127474,6,0,P|325:103|344:112,5,42.6666666666667,2|0|0|0|0|0,0:0|0:0|0:0|0:0|0:0|0:0,0:0:0:0:
367,258,127708,1,0,0:3:0:0:
223,216,127787,1,0,0:0:0:0:
79,174,127865,1,0,0:0:0:0:
138,0,127943,6,0,P|146:48|158:178,1,170.666666666667
346,188,128177,2,0,P|308:175|275:168,1,64
60,268,128294,2,0,P|98:255|131:248,1,64
268,38,128412,2,0,B|274:-6|229:-10|201:23|236:144,1,170.666666666667
355,255,128646,5,0,0:0:0:0:
460,168,128724,1,0,0:0:0:0:
334,120,128802,1,0,0:0:0:0:
395,259,128880,5,0,0:0:0:0:
443,131,128958,1,0,0:0:0:0:
310,152,129036,1,0,0:0:0:0:
483,119,129115,6,0,P|496:66|492:30,2,85.3333333333333
250,69,129349,6,0,P|303:56|339:60,1,85.3333333333333
413,210,129505,1,0,0:0:0:0:
191,127,129583,2,0,P|138:114|102:118,1,85.3333333333333
251,262,129740,1,0,0:0:0:0:
246,39,129818,5,0,0:0:0:0:
137,210,129896,1,0,0:0:0:0:
297,152,129974,1,0,0:0:0:0:
153,46,130052,5,0,0:0:0:0:
179,292,130130,1,0,0:0:0:0:
155,67,130208,1,0,0:0:0:0:
75,343,130287,6,0,B|106:374|106:374|238:358,1,170.666666666667
339,333,130521,2,0,L|344:268,1,42.6666666666667
414,180,130599,2,0,L|419:245,1,42.6666666666667
434,360,130677,2,0,L|439:295,1,42.6666666666667
486,168,130755,6,0,P|453:119|403:106,2,85.3333333333333
453,35,130990,2,0,P|394:39|357:75,2,85.3333333333333
355,129,131224,6,0,P|319:109|289:102,1,68.0000012969971
198,240,131341,2,0,P|230:230|259:213,1,68.0000012969971
225,45,131458,1,0,0:0:0:0:
62,169,131576,1,0,0:0:0:0:
248,42,131693,6,0,L|168:33,1,68.0000012969971
49,184,131810,2,0,L|129:175,1,68.0000012969971
248,337,131927,2,0,B|262:341|267:364|267:364|270:287|281:192,1,204.000003890991
486,275,132162,6,0,P|454:291|414:302,1,71.9999978027344
314,363,132279,2,0,P|279:353|247:336,1,71.9999978027344
336,71,132396,5,0,0:0:0:0:
496,195,132513,1,0,0:0:0:0:
290,274,132630,6,0,L|279:194,1,80
261,75,132747,1,0,0:0:0:0:
415,198,132865,2,0,L|425:118,1,80
443,10,132982,1,0,0:0:0:0:
200,201,133099,6,0,P|243:201|295:189,1,80
445,274,133216,2,0,P|401:274|350:262,1,80
191,117,133333,5,0,0:0:0:0:
283,353,133451,2,0,P|290:313|289:273,1,80
191,117,133568,5,0,0:0:0:0:
379,106,133686,2,0,P|348:80|313:60,1,80
120,210,133802,6,0,L|211:199,1,80
458,115,133919,2,0,L|367:104,1,80
170,34,134037,6,0,B|55:57|55:57|24:122,1,160
185,293,134271,1,0,0:0:0:0:
319,43,134388,1,0,0:0:0:0:
317,320,134505,6,0,P|305:268|306:238,1,80
427,44,134622,1,0,0:0:0:0:
454,294,134740,6,0,P|402:278|377:262,1,80
427,44,134857,1,0,0:0:0:0:
441,219,134974,6,0,L|434:133,1,80
225,93,135091,2,0,L|218:172,1,80
201,361,135208,1,0,0:0:0:0:
279,350,135267,1,0,0:0:0:0:
356,338,135326,2,0,P|374:308|379:258,1,80
227,72,135443,5,0,0:0:0:0:
73,205,135560,2,0,B|109:223|109:223|162:214,1,80
226,59,135677,5,0,0:0:0:0:
363,194,135794,2,0,B|327:212|327:212|274:203,1,80
121,0,135912,2,0,B|99:32|99:32|120:151,1,160
158,349,136146,5,0,0:0:0:0:
287,205,136263,2,0,L|279:295,1,80
217,172,136380,2,0,B|240:140|240:140|359:119,1,160
452,303,136615,6,0,L|356:286,1,80
434,107,136732,2,0,L|530:90,1,80
281,134,136849,6,0,L|298:38,1,80
489,175,136966,2,0,L|506:271,1,80
259,203,137083,5,0,0:0:0:0:
432,31,137201,2,0,B|446:68|446:68|433:108,1,80
253,215,137318,6,0,L|68:197,1,160
239,319,137552,1,0,0:0:0:0:
376,230,137669,2,0,L|370:141,1,80
356,18,137787,5,0,0:0:0:0:
86,81,137904,1,0,0:0:0:0:
443,63,138021,2,0,L|434:121,1,40
448,131,138079,2,0,L|439:189,1,40
453,199,138138,2,0,L|444:257,1,40
458,267,138197,2,0,L|449:325,1,40
463,335,138255,6,0,B|428:355|428:355|366:330,1,80
253,215,138372,2,0,B|288:195|288:195|350:220,1,80
294,372,138490,2,0,L|290:322,6,40
106,335,138724,6,0,P|63:346|27:328,1,80
154,279,138841,1,0,0:0:0:0:
157,247,138899,1,0,0:0:0:0:
160,215,138958,1,0,0:0:0:0:
163,183,139016,1,0,0:0:0:0:
166,151,139076,2,0,L|175:56,1,80
63,176,139193,6,0,L|69:255,1,80
250,244,139310,1,0,0:0:0:0:
330,234,139369,1,0,0:0:0:0:
408,225,139427,2,0,B|436:235|441:280|441:280|470:107,1,240
371,70,139662,6,0,B|363:169|363:169|371:69,1,200
141,70,139896,2,0,B|149:169|149:169|141:69,1,200
393,242,140130,6,0,B|360:257|323:243|306:214|306:214|306:214|306:214|324:245|362:256|393:242,1,200
121,243,140365,2,0,B|154:258|191:244|208:215|208:215|208:215|208:215|190:246|152:257|121:243,1,200
413,236,140599,6,0,B|421:335|421:335|413:235,1,200
99,236,140833,2,0,B|91:335|91:335|99:235,1,200
419,352,141068,6,0,P|352:340|300:336,1,100
42,335,141185,1,0,0:0:0:0:
134,375,141244,1,0,0:0:0:0:
211,313,141302,2,0,B|222:263|210:214|210:214|222:264|211:313,1,200
121,146,141537,6,0,B|22:138|22:138|122:146,1,200
276,62,141771,2,0,B|268:161|268:161|276:61,1,200
374,324,142005,6,0,B|366:225|366:225|374:325,1,200
484,127,142240,2,0,B|385:135|385:135|485:127,1,200
292,331,142474,5,0,0:0:0:0:
386,134,142591,1,0,0:0:0:0:
211,313,142708,1,0,0:0:0:0:
132,74,142826,1,0,0:0:0:0:
354,253,142943,6,0,P|410:242|469:242,1,100
246,156,143060,2,0,P|190:145|131:145,1,100
335,14,143177,6,0,P|319:69|314:128,1,100
190,215,143294,2,0,P|206:270|211:329,1,100
458,50,143412,2,0,B|485:90|485:90|459:146,1,100
259,159,143529,2,0,B|232:119|232:119|258:63,1,100
348,15,143646,6,0,L|365:61|346:108|363:154|344:201|361:247|342:295|359:341|340:388|340:388|323:342|342:295|325:249|344:202|327:156|346:108|329:62|348:15,1,800
264,202,144115,2,0,B|247:250|247:250|265:296,1,100
429,292,144232,2,0,B|446:244|446:244|428:198,1,100
163,213,144349,6,0,B|215:203|262:201|262:201|215:203|163:213,1,200
95,75,144583,2,0,B|43:85|-4:87|-4:87|43:85|95:75,1,200
60,185,144818,2,0,B|70:237|72:284|72:284|70:237|60:185,1,200
199,108,145052,2,0,B|189:56|187:9|187:9|189:56|199:108,1,200
388,0,145287,5,0,0:3:0:0:
358,95,145345,1,0,0:3:0:0:
329,192,145404,1,0,0:3:0:0:
300,286,145462,1,0,0:3:0:0:
272,383,145521,2,0,P|215:366|71:342,1,200
414,159,145755,6,0,L|513:146|413:159,1,200
236,244,145990,2,0,L|136:231|235:244,1,200
464,292,146224,5,0,0:0:0:0:
333,337,146341,1,0,0:0:0:0:
483,284,146458,2,0,P|472:328|463:393,1,100
320,202,146693,5,0,0:0:0:0:
468,151,146810,1,0,0:0:0:0:
319,350,146927,2,0,P|241:331|165:322,1,132.00000125885
160,36,147162,6,0,B|174:122,1,88.000002685547
362,123,147279,2,0,B|376:36,1,88.000002685547
186,196,147396,6,0,B|200:282,1,88.000002685547
327,283,147513,2,0,B|341:196,1,88.000002685547
266,364,147630,6,0,B|324:375|324:375|375:348|375:348|433:359,1,176.000005371094
300,68,147865,1,0,0:0:0:0:
214,70,147923,1,0,0:0:0:0:
152,129,147982,1,0,0:0:0:0:
146,215,148040,1,0,0:0:0:0:
200,282,148099,5,0,0:0:0:0:
410,125,148216,1,0,0:0:0:0:
100,57,148333,1,0,0:0:0:0:
316,258,148451,2,0,L|313:160,1,88.000002685547
266,327,148568,6,0,P|312:344|397:264,1,176.000005371094
129,244,148802,2,0,B|114:286|114:286|138:331,1,88.000002685547
318,89,148919,2,0,B|333:131|333:131|309:176,1,88.000002685547
63,150,149037,6,0,B|99:170|99:170|235:146,1,176.000005371094
499,22,149271,2,0,L|412:6,1,88.000002685547
301,189,149388,2,0,L|387:173,1,88.000002685547
276,0,149505,5,0,0:0:0:0:
137,91,149622,1,0,0:0:0:0:
387,75,149740,2,0,B|351:55|351:55|215:79,1,176.000005371094
2,26,149974,6,0,P|52:13|99:26,1,88.000002685547
265,148,150091,2,0,P|249:107|217:77,1,88.000002685547
47,103,150208,2,0,B|19:136|19:136|36:282,1,176.000005371094
345,306,150443,6,0,L|248:295,1,88.000002685547
89,361,150560,2,0,L|186:350,1,88.000002685547
334,189,150677,1,0,0:0:0:0:
479,369,150794,1,0,0:0:0:0:
452,141,150912,6,0,B|426:135|401:103|401:103|452:305,1,264.000008056641
452,46,151146,2,0,P|395:29|330:117,1,176.000005371094
390,368,151380,5,0,0:0:0:0:
475,148,151497,1,0,0:0:0:0:
220,284,151615,2,0,B|294:329|294:329|374:278,1,176.000005371094
114,152,151849,5,0,0:0:0:0:
199,372,151966,1,0,0:0:0:0:
280,157,152083,2,0,L|193:147,1,88.000002685547
0,265,152201,2,0,B|92:271|92:271|160:211,1,176.000005371094
33,35,152435,5,0,0:0:0:0:
238,244,152552,1,0,0:0:0:0:
326,236,152611,1,0,0:0:0:0:
412,230,152669,2,0,B|429:269|429:269|409:323,1,88.000002685547
299,161,152787,6,0,B|262:115|262:115|274:35,1,116.000003540039
486,101,153021,1,0,0:0:0:0:
374,158,153138,1,0,0:0:0:0:
506,94,153255,2,0,P|488:153|482:215,1,116.000003540039
365,317,153490,2,0,L|426:311,1,58.0000017700196
503,302,153607,1,0,0:0:0:0:
374,143,153724,5,0,0:0:0:0:
314,373,153841,1,0,0:0:0:0:
295,152,153958,5,0,0:3:0:0:
396,365,154075,1,0,0:3:0:0:
457,133,154193,6,0,P|431:81|379:59,1,116.000003540039
210,234,154427,2,0,L|343:240,1,116.000003540039
177,93,154662,6,0,P|112:135|50:101,1,154.666671386719
50,26,154896,5,0,0:0:0:0:
113,65,154974,5,0,0:0:0:0:
127,139,155052,5,0,0:0:0:0:
81,198,155130,5,0,0:0:0:0:
35,257,155208,5,0,0:0:0:0:
48,331,155286,5,0,0:0:0:0:
112,370,155365,6,0,P|165:383|273:333,1,154.666671386719
455,337,155599,5,0,0:0:0:0:
388,368,155677,5,0,0:0:0:0:
325,329,155755,5,0,0:0:0:0:
326,255,155833,5,0,0:0:0:0:
388,209,155911,5,0,0:0:0:0:
390,135,155989,5,0,0:0:0:0:
329,93,156068,6,0,P|316:53|317:15,2,77.3333356933594
452,259,156302,2,0,P|465:219|464:181,2,77.3333356933594
432,58,156537,5,0,0:0:0:0:
448,67,156771,2,0,L|492:61,2,29.0000008850098
345,21,156888,2,0,L|301:15,2,29.0000008850098
323,169,157005,2,0,P|283:195|201:189,1,116.000003540039
162,15,157240,2,0,P|204:36|240:110,1,116.000003540039
64,211,157474,6,0,L|0:218,1,64
87,90,157591,2,0,L|150:97,1,64
162,246,157708,1,0,0:0:0:0:
162,246,157767,1,0,0:0:0:0:
162,246,157826,2,0,P|142:205|143:181,1,64
259,257,157943,1,0,0:0:0:0:
134,343,158060,6,0,L|69:337,1,64
272,256,158177,2,0,L|337:250,1,64
76,127,158294,2,0,L|11:121,1,64
255,79,158412,6,0,P|235:90|252:66,1,78.0000002975464
291,1,158646,6,0,B|334:32|334:32|319:150,1,156.000000595093
366,384,158880,2,0,B|323:353|323:353|338:235,1,156.000000595093
483,33,159115,2,0,B|433:50|433:50|415:168,1,156.000000595093,0|0,0:0|0:3,0:0:0:0:
155,366,159349,6,0,B|204:348|204:348|222:230,1,156.000000595093,0|0,0:0|0:3,0:0:0:0:
144,15,159583,2,0,B|193:32|193:32|211:150,1,156.000000595093,0|0,0:0|0:3,0:0:0:0:
462,359,159818,2,0,B|419:328|419:328|434:210,1,156.000000595093
137,198,160052,1,0,0:0:0:0:
321,346,160169,1,0,0:0:0:0:
337,28,160287,6,0,L|328:183,1,156.000000595093
146,353,160521,2,0,L|137:198,1,156.000000595093
476,355,160755,2,0,L|321:346,1,156.000000595093
203,89,160990,2,0,L|48:98,1,156.000000595093
323,258,161224,2,0,B|396:233|396:233|424:57,1,234.000000892639
321,170,161458,6,0,P|299:161|329:159,1,78.0000002975464
480,209,161576,2,0,P|509:217|489:196,1,78.0000002975464
253,224,161693,1,0,0:0:0:0:
488,118,161810,1,0,0:0:0:0:
297,62,161927,2,0,B|312:56|321:36|321:36|330:183,1,156.000000595093
444,357,162162,6,0,L|456:271,1,78.0000002975464
184,264,162279,2,0,L|172:178,1,78.0000002975464
505,218,162396,2,0,B|454:206|454:206|349:239,1,156.000000595093
319,36,162630,2,0,B|331:87|331:87|298:192,1,156.000000595093
155,37,162865,2,0,B|143:88|143:88|176:193,1,156.000000595093
354,375,163099,6,0,B|390:306|390:306|344:215,1,156.000000595093
115,375,163333,2,0,B|79:306|79:306|125:215,1,156.000000595093
461,122,163568,2,0,P|428:144|388:152,1,78.0000002975464
299,185,163685,2,0,P|263:167|236:136,1,78.0000002975464
153,333,163802,2,0,P|192:335|231:322,1,78.0000002975464,0|0,0:3|0:3,0:3:0:0:
324,306,163919,2,0,P|346:273|354:233,1,78.0000002975464,0|0,0:3|0:3,0:3:0:0:
165,68,164037,6,0,B|123:101|123:101|140:212,1,156.000000595093
473,302,164271,2,0,B|454:251|454:251|343:233,1,156.000000595093
18,269,164505,2,0,B|36:218|36:218|147:200,1,156.000000595093
420,115,164740,2,0,B|369:133|369:133|351:244,1,156.000000595093
188,135,164974,5,0,0:0:0:0:
366,52,165091,1,0,0:0:0:0:
440,196,165208,2,0,L|427:273,1,78.0000002975464
302,107,165326,2,0,L|289:30,1,78.0000002975464
472,42,165443,5,0,0:0:0:0:
172,143,165560,1,0,0:0:0:0:
311,368,165677,2,0,P|360:308|350:231,1,156.000000595093
131,221,165912,6,0,B|168:240|168:240|211:220,1,82.0000012512207
207,76,166029,2,0,B|170:57|170:57|127:77,1,82.0000012512207
280,186,166146,2,0,L|294:97,1,82.0000012512207
39,97,166263,2,0,L|51:178,1,82.0000012512207
450,13,166380,6,0,B|396:4|396:4|352:31|352:31|294:21,1,164.000002502441
51,304,166615,2,0,B|105:295|105:295|149:322|149:322|207:312,1,164.000002502441
493,136,166849,6,0,B|439:146|439:146|407:187|407:187|350:199,1,164.000002502441,0|0,0:0|0:0,0:3:0:0:
57,7,167083,2,0,B|110:17|110:17|142:58|142:58|199:70,1,164.000002502441,0|0,0:0|0:0,0:3:0:0:
307,347,167318,5,0,0:0:0:0:
322,267,167376,1,0,0:0:0:0:
338,186,167435,2,0,L|356:101,1,82.0000012512207
193,210,167552,2,0,B|232:230|232:230|278:210,1,82.0000012512207
397,47,167669,2,0,B|358:27|358:27|312:47,1,82.0000012512207
92,208,167787,6,0,B|102:261|102:261|143:293|143:293|155:350,1,164.000002502441,0|0,0:0|0:0,0:3:0:0:
445,208,168021,2,0,B|434:262|434:262|393:293|393:293|382:350,1,164.000002502441,0|0,0:0|0:0,0:3:0:0:
382,70,168255,6,0,B|351:48|351:48|305:51,1,82.0000012512207
220,250,168372,2,0,B|257:249|257:249|292:219,1,82.0000012512207
246,9,168490,6,0,B|216:31|216:31|205:75,1,82.0000012512207
368,220,168607,2,0,B|378:184|378:184|361:141,1,82.0000012512207
145,120,168724,6,0,B|156:155|156:155|196:179,1,82.0000012512207
432,128,168841,2,0,B|420:92|420:92|380:68,1,82.0000012512207
143,235,168958,5,0,0:0:0:0:
89,298,169017,1,0,0:0:0:0:
138,363,169076,2,0,L|232:349,1,82.0000012512207
288,285,169193,2,0,B|263:257|263:257|218:249,1,82.0000012512207,0|0,0:3|0:0,0:0:0:0:
310,375,169310,5,0,0:0:0:0:
391,363,169369,1,0,0:0:0:0:
471,350,169427,2,0,L|474:262,1,82.0000012512207
380,286,169544,2,0,L|404:287,4,20.5000003128052
219,350,169662,6,0,L|209:265,1,82.0000012512207
357,78,169779,2,0,L|347:159,1,82.0000012512207
40,170,169896,6,0,B|96:160|96:160|140:187|140:187|194:178,1,164.000002502441
512,70,170130,2,0,B|455:60|455:60|411:87|411:87|357:78,1,164.000002502441
156,90,170365,5,0,0:0:0:0:
282,257,170482,1,0,0:0:0:0:
267,9,170599,2,0,B|236:85|236:85|290:162,1,164.000002502441
421,304,170833,6,0,B|409:247|409:247|368:215|368:215|358:162,1,164.000002502441,0|0,0:0|0:0,0:3:0:0:
273,278,171068,2,0,B|310:301|310:301|348:289,1,82.0000012512207
506,187,171185,2,0,B|469:164|469:164|431:176,1,82.0000012512207
368,360,171302,5,0,0:0:0:0:
206,251,171419,2,0,B|183:214|183:214|195:176,1,82.0000012512207
372,92,171537,5,0,0:0:0:0:
142,50,171654,1,0,0:0:0:0:
294,8,171771,5,0,0:0:0:0:
266,133,171888,1,0,0:0:0:0:
124,54,172005,2,0,L|136:158,1,78.0000002975464
33,207,172122,2,0,L|41:129,1,78.0000002975464
149,242,172240,1,0,0:0:0:0:
12,320,172357,1,0,0:0:0:0:
233,336,172474,6,0,B|162:365|162:365|100:314,1,156.000000595093
265,110,172708,2,0,B|194:81|194:81|132:132,1,156.000000595093
316,329,172943,6,0,B|328:278|328:278|298:236|298:236|304:174,1,156.000000595093
357,134,173119,2,0,P|391:60|286:44,1,156.000000595093
272,31,173294,1,0,0:0:0:0:
373,207,173412,5,0,0:0:0:0:
190,308,173529,2,0,L|181:229,1,73.9999997177124
177,158,173646,2,0,P|119:111|76:223,1,221.999999153137
73,223,173880,6,0,P|112:142|121:70,1,147.999999435425
421,344,174115,2,0,P|381:263|372:191,1,147.999999435425
106,80,174349,6,0,L|263:65,1,147.999999435425
503,218,174583,2,0,L|346:203,1,147.999999435425
211,0,174818,6,0,P|279:-9|330:65,1,147.999999435425
307,268,175052,2,0,P|265:213|303:132,1,147.999999435425
425,10,175287,2,0,P|466:64|428:145,1,147.999999435425
181,66,175521,6,0,P|259:54|339:58,1,147.999999435425
499,215,175755,2,0,P|425:217|352:205,1,147.999999435425
190,379,175990,2,0,P|268:367|348:371,1,147.999999435425
152,146,176224,5,0,0:0:0:0:
105,378,176341,1,0,0:0:0:0:
40,99,176458,1,0,0:0:0:0:
99,363,176576,1,0,0:0:0:0:
167,51,176693,5,0,0:0:0:0:
24,237,176810,1,0,0:0:0:0:
98,233,176869,1,0,0:0:0:0:
171,230,176927,2,0,B|219:226|219:226|256:189|256:189|313:187,1,147.999999435425
360,380,177162,6,0,B|302:334|302:334|287:242,1,147.999999435425
504,108,177396,2,0,L|492:262,1,147.999999435425
303,187,177630,2,0,L|291:39,1,147.999999435425
409,191,177865,2,0,B|363:249|363:249|289:260,1,147.999999435425
137,86,178099,5,0,0:0:0:0:
38,321,178216,2,0,L|130:308,1,73.9999997177124
200,296,178333,5,0,0:0:0:0:
63,75,178451,2,0,L|155:88,1,73.9999997177124
370,122,178568,6,0,L|296:111,1,73.9999997177124
83,208,178685,1,0,0:0:0:0:
279,343,178802,1,0,0:0:0:0:
73,204,178919,2,0,L|-19:217,1,73.9999997177124
214,186,179037,2,0,L|235:21,1,147.999999435425
176,250,179271,5,0,0:0:0:0:
343,195,179388,1,0,0:0:0:0:
129,141,179505,1,0,0:0:0:0:
281,324,179622,1,0,0:0:0:0:
138,151,179740,6,0,L|127:77,1,73.9999997177124
303,65,179857,2,0,L|292:138,1,73.9999997177124
52,59,179974,6,0,P|90:15|189:30,1,154.000001468658
343,195,180208,2,0,P|269:208|215:157,1,154.000001468658
437,24,180443,1,0,0:0:0:0:
437,24,180677,2,0,P|428:70|412:268,1,231.000002202988
311,342,180912,6,0,B|359:318|359:318|483:344,1,160
179,283,181146,2,0,B|131:307|131:307|7:281,1,160
322,81,181380,2,0,B|346:129|346:129|320:253,1,160
120,144,181615,6,0,B|106:105|106:105|125:72,1,80
234,72,181732,2,0,B|253:39|253:39|236:-8,1,80
70,198,181849,2,0,B|111:221|111:221|231:199,1,160
476,160,182083,5,0,0:0:0:0:
226,42,182201,1,0,0:0:0:0:
497,172,182318,5,0,0:0:0:0:
159,296,182435,2,0,L|175:397,1,80
372,165,182552,6,0,P|302:147|283:149,1,80
399,340,182669,2,0,P|438:337|475:322,1,80
164,218,182787,2,0,B|212:242|212:242|336:216,1,160
369,12,183021,6,0,B|393:60|393:60|367:184,1,160
88,164,183255,2,0,B|64:212|64:212|90:336,1,160
223,69,183490,5,0,0:0:0:0:
288,373,183607,1,0,0:0:0:0:
340,96,183724,1,0,0:0:0:0:
287,350,183841,1,0,0:0:0:0:
206,159,183958,6,0,L|200:271,1,80
288,329,184076,2,0,P|360:338|468:304,1,160
342,86,184310,6,0,L|348:198,1,80
195,336,184427,1,0,0:0:0:0:
126,154,184544,6,0,L|238:160,1,80
439,177,184662,2,0,B|480:242|480:242|440:324,1,160
205,158,184896,6,0,B|243:144|243:144|278:161,1,80
361,332,185013,2,0,B|323:346|323:346|288:329,1,80
126,154,185130,2,0,B|85:89|85:89|125:7,1,160
288,169,185365,5,0,0:0:0:0:
79,236,185482,1,0,0:0:0:0:
396,337,185599,1,0,0:0:0:0:
187,381,185716,5,0,0:0:0:0:
197,301,185775,1,0,0:0:0:0:
206,222,185833,2,0,L|218:140,1,80
356,89,185951,2,0,L|367:168,1,80
179,78,186068,6,0,P|240:72|262:89,1,80
408,235,186185,2,0,P|371:248|333:237,1,80
448,58,186302,5,0,0:0:0:0:
505,245,186419,2,0,L|494:335,1,80
295,165,186537,5,0,0:0:0:0:
505,140,186654,1,0,0:0:0:0:
265,351,186771,5,0,0:0:0:0:
55,326,186888,1,0,0:0:0:0:
312,163,187005,1,0,0:0:0:0:
158,362,187122,1,0,0:0:0:0:
117,113,187240,2,0,L|142:279,1,160
304,74,187474,5,0,0:0:0:0:
223,36,187591,1,0,0:0:0:0:
312,163,187708,5,0,0:0:0:0:
385,111,187825,1,0,0:0:0:0:
231,126,187943,5,0,0:0:0:0:
238,215,188060,1,0,0:0:0:0:
466,149,188177,2,0,L|473:104,6,40
492,226,188412,6,0,B|374:188|421:329|285:286,1,227.999993911743
256,52,188646,1,0,0:0:0:0:
256,192,189349,12,0,193919,0:0:0:0:
