osu file format v14

[General]
AudioFilename: audio.mp3
AudioLeadIn: 0
PreviewTime: 30665
Countdown: 0
SampleSet: Normal
StackLeniency: 0.7
Mode: 1
LetterboxInBreaks: 0
WidescreenStoryboard: 0

[Editor]
DistanceSpacing: 0.9
BeatDivisor: 4
GridSize: 32
TimelineZoom: 3.2

[Metadata]
Title:Hos Down (feat. Rick Graham)
TitleUnicode:Hos Down (feat. Rick Graham)
Artist:Jason Richardson
ArtistUnicode:Jason Richardson
Creator:Crysally
Version:Disorder
Source:
Tags:progressive metal deathcore country jazz djent instrumental i one luke holland marathon
BeatmapID:2987655
BeatmapSetID:1453215

[Difficulty]
HPDrainRate:5
CircleSize:5
OverallDifficulty:7
ApproachRate:5
SliderMultiplier:1.4
SliderTickRate:1

[Events]
//Background and Video events
0,0,"bg.jpg",0,0
//Break Periods
2,66445,68885
2,267317,269764
2,379164,380884
//Storyboard Layer 0 (Background)
//Storyboard Layer 1 (Fail)
//Storyboard Layer 2 (Pass)
//Storyboard Layer 3 (Foreground)
//Storyboard Layer 4 (Overlay)
//Storyboard Sound Samples

[TimingPoints]
30725,240,4,1,0,100,1,0
35045,-97.0873786407767,4,1,0,100,0,0
35525,-93.4579439252336,4,1,0,100,0,1
48965,-93.7031484257871,4,1,0,100,0,1
49045,-93.9496429913566,4,1,0,100,0,1
49125,-94.197437829691,4,1,0,100,0,1
49205,-94.4465432565168,4,1,0,100,0,1
49285,-94.6969696969697,4,1,0,100,0,1
49365,-94.948727687049,4,1,0,100,0,1
49445,-95.2018278750952,4,1,0,100,0,1
49525,-95.4562810232913,4,1,0,100,0,1
49605,-95.7120980091884,4,1,0,100,0,1
49685,-95.9692898272553,4,1,0,100,0,1
49765,-96.2278675904542,4,1,0,100,0,1
49845,-96.487842531841,4,1,0,100,0,1
49925,-96.7492260061919,4,1,0,100,0,1
50005,-97.012029491657,4,1,0,100,0,1
50085,-97.2762645914397,4,1,0,100,0,1
50165,-97.5419430355053,4,1,0,100,0,1
50245,-97.8090766823161,4,1,0,100,0,1
50325,-98.0776775205963,4,1,0,100,0,1
50405,-98.3477576711251,4,1,0,100,0,1
50485,-98.6193293885602,4,1,0,100,0,1
50565,-98.8924050632911,4,1,0,100,0,1
50645,-99.1669972233241,4,1,0,100,0,1
50725,-99.4431185361973,4,1,0,100,0,1
50805,-99.7207818109294,4,1,0,100,0,1
50885,-100,4,1,0,100,0,1
61685,-99.502487562189,4,1,0,100,0,1
61745,-99.009900990099,4,1,0,100,0,1
61805,-98.5221674876847,4,1,0,100,0,1
61865,-98.0392156862745,4,1,0,100,0,1
61925,-97.5609756097561,4,1,0,100,0,1
61985,-97.0873786407767,4,1,0,100,0,1
62045,-96.6183574879227,4,1,0,100,0,1
62105,-96.1538461538461,4,1,0,100,0,1
62165,-95.6937799043062,4,1,0,100,0,1
62225,-95.2380952380952,4,1,0,100,0,1
62285,-94.7867298578199,4,1,0,100,0,1
62345,-94.3396226415094,4,1,0,100,0,1
62405,-93.8967136150235,4,1,0,100,0,1
66245,480,4,1,0,100,1,0
66245,-46.9483568075117,4,1,0,100,0,0
66365,-80,4,1,0,60,0,0
88325,-76.9230769230769,4,1,0,60,0,0
88805,-74.0740740740741,4,1,0,60,0,0
89285,-71.4285714285714,4,1,0,60,0,0
96005,-71.4285714285714,4,1,0,75,0,0
96545,-71.4285714285714,4,1,0,60,0,0
103205,-71.4285714285714,4,1,0,65,0,0
103445,-71.4285714285714,4,1,0,70,0,0
103685,-71.4285714285714,4,1,0,75,0,0
103925,-71.4285714285714,4,1,0,80,0,0
104165,-71.4285714285714,4,1,0,85,0,0
104645,-66.6666666666667,4,1,0,75,0,0
110405,-66.0707345511077,4,1,0,75,0,0
110525,-65.4853620955316,4,1,0,75,0,0
110645,-64.9102710958381,4,1,0,75,0,0
110765,-64.3451930355791,4,1,0,75,0,0
110885,-63.7898686679174,4,1,0,75,0,0
111005,-63.2440476190476,4,1,0,75,0,0
111125,-62.7074880118038,4,1,0,75,0,0
111245,-62.1799561082663,4,1,0,75,0,0
111365,-61.6612259702575,4,1,0,75,0,0
111485,-61.1510791366906,4,1,0,75,0,0
111605,-60.6493043168034,4,1,0,75,0,0
111725,-60.1556970983723,4,1,0,75,0,0
111845,-59.6700596700597,4,1,0,75,0,0
111965,-59.1922005571031,4,1,0,75,0,0
112085,-58.7219343696028,4,1,0,75,0,0
112205,-58.2590815627142,4,1,0,75,0,0
112325,-57.8034682080925,4,1,0,75,0,0
112565,-66.6666666666667,4,1,0,75,0,0
117605,-65.6167979002625,4,1,0,75,0,0
117725,-64.5994832041344,4,1,0,76,0,0
117845,-63.6132315521629,4,1,0,78,0,0
117965,-62.65664160401,4,1,0,79,0,0
118085,-61.7283950617284,4,1,0,80,0,0
118205,-60.8272506082725,4,1,0,82,0,0
118325,-59.9520383693046,4,1,0,83,0,0
118445,-59.1016548463357,4,1,0,84,0,0
118565,-58.2750582750583,4,1,0,86,0,0
118685,-57.4712643678161,4,1,0,87,0,0
118805,-56.6893424036281,4,1,0,88,0,0
118925,-55.9284116331096,4,1,0,89,0,0
119045,-55.1876379690949,4,1,0,91,0,0
119165,-54.4662309368192,4,1,0,92,0,0
119285,-53.7634408602151,4,1,0,93,0,0
119405,-53.0785562632696,4,1,0,95,0,0
119525,-52.4109014675052,4,1,0,96,0,0
119645,-51.75983436853,4,1,0,97,0,0
119765,-51.1247443762781,4,1,0,99,0,0
119885,-50.5050505050505,4,1,0,100,0,0
120005,240,4,1,0,100,1,0
120005,-100,4,1,0,100,0,0
155045,-96.1538461538461,4,1,0,100,0,0
155525,-93.4579439252336,4,1,0,100,0,1
168965,-93.7031484257871,4,1,0,100,0,1
169045,-93.9496429913566,4,1,0,100,0,1
169125,-94.197437829691,4,1,0,100,0,1
169205,-94.4465432565168,4,1,0,100,0,1
169285,-94.6969696969697,4,1,0,100,0,1
169365,-94.948727687049,4,1,0,100,0,1
169445,-95.2018278750952,4,1,0,100,0,1
169525,-95.4562810232913,4,1,0,100,0,1
169605,-95.7120980091884,4,1,0,100,0,1
169685,-95.9692898272553,4,1,0,100,0,1
169765,-96.2278675904542,4,1,0,100,0,1
169845,-96.487842531841,4,1,0,100,0,1
169925,-96.7492260061919,4,1,0,100,0,1
170005,-97.012029491657,4,1,0,100,0,1
170085,-97.2762645914397,4,1,0,100,0,1
170165,-97.5419430355053,4,1,0,100,0,1
170245,-97.8090766823161,4,1,0,100,0,1
170325,-98.0776775205963,4,1,0,100,0,1
170405,-98.3477576711251,4,1,0,100,0,1
170485,-98.6193293885602,4,1,0,100,0,1
170565,-98.8924050632911,4,1,0,100,0,1
170645,-99.1669972233241,4,1,0,100,0,1
170725,-99.4431185361973,4,1,0,100,0,1
170805,-99.7207818109294,4,1,0,100,0,1
170885,-100,4,1,0,100,0,1
177125,-100,4,1,0,100,0,0
180245,-104.166666666667,4,1,0,100,0,0
181685,-103.256552819698,4,1,0,100,0,0
181745,-102.362204724409,4,1,0,100,0,0
181805,-101.483216237315,4,1,0,100,0,0
181865,-100.61919504644,4,1,0,100,0,0
181925,-99.7697620874904,4,1,0,100,0,0
181985,-98.9345509893455,4,1,0,100,0,0
182045,-98.1132075471698,4,1,0,100,0,0
182105,-97.3053892215569,4,1,0,100,0,0
182165,-96.5107646622123,4,1,0,100,0,0
182225,-95.7290132547864,4,1,0,100,0,0
182285,-94.9598246895544,4,1,0,100,0,0
182345,-94.2028985507246,4,1,0,100,0,0
182405,-93.4579439252337,4,1,0,100,0,1
193921,352.941176470588,4,1,0,100,1,0
193921,-63.5727908455181,4,1,0,100,0,0
194979,344.827586206897,4,1,0,100,1,8
195463,342.857142857143,4,1,0,100,1,0
195463,-98.7841945288754,4,1,0,100,0,0
195720,-95.3079178885631,4,1,0,100,0,0
195806,-94.2028985507246,4,1,0,100,0,0
196063,-91.0364145658263,4,1,0,100,0,0
196149,-90.0277008310249,4,1,0,100,0,0
196320,-88.0758807588076,4,1,0,100,0,0
196492,-86.2068965517241,4,1,0,100,0,0
196663,342.857142857143,4,1,0,100,1,1
196663,-79.3650793650794,4,1,0,100,0,1
215863,-79.3650793650794,4,1,0,100,0,0
219974,214.285714285714,4,1,0,100,1,0
219974,-120.481927710843,4,1,0,100,0,8
235402,-101.010101010101,4,1,0,100,0,8
237116,428.265524625268,4,1,0,100,1,0
237116,-50.5050505050505,4,1,0,100,0,0
237574,428.265524625268,4,1,0,40,1,8
237574,-95.2380952380952,4,1,0,40,0,0
238858,428.265524625268,4,1,0,40,1,0
238858,-95.2380952380952,4,1,0,40,0,0
242712,-93.0232558139535,4,1,0,41,0,0
242926,-90.9090909090909,4,1,0,43,0,0
243140,-88.8888888888889,4,1,0,45,0,0
243354,-86.9565217391304,4,1,0,47,0,0
243568,-85.1063829787234,4,1,0,48,0,0
243783,-83.3333333333333,4,1,0,49,0,0
243997,-81.6326530612245,4,1,0,50,0,0
258313,491.803278688525,4,1,0,50,1,8
258558,428.265524625268,4,1,0,50,1,8
259013,480,4,1,0,46,1,0
259013,-72.463768115942,4,1,0,46,0,0
259513,480,4,1,0,46,1,8
259513,-72.463768115942,4,1,0,46,0,8
259733,461.538461538462,4,1,0,46,1,0
259733,-75.187969924812,4,1,0,46,0,0
267124,480,4,1,0,60,1,8
267124,-80,4,1,0,60,0,8
289204,-71.4285714285714,4,1,0,65,0,8
289684,-68.4931506849315,4,1,0,70,0,8
290164,-65.7894736842105,4,1,0,75,0,8
290644,-63.2911392405063,4,1,0,75,0,8
296884,-63.2911392405063,4,1,0,90,0,8
297604,-63.2911392405063,4,1,0,75,0,8
304564,-63.2911392405063,4,1,0,95,0,8
305104,-61.3496932515337,4,1,0,75,0,8
311284,-60.6926097822206,4,1,0,75,0,0
311404,-60.0494524902861,4,1,0,75,0,0
311524,-59.4197832925551,4,1,0,75,0,0
311644,-58.8031822898651,4,1,0,75,0,0
311764,-58.1992468332763,4,1,0,75,0,0
311884,-57.6075906472382,4,1,0,75,0,0
312004,-57.0278430057028,4,1,0,75,0,0
312124,-56.4596479574892,4,1,0,75,0,0
312244,-55.9026635975008,4,1,0,75,0,0
312364,-55.3565613806578,4,1,0,75,0,0
312484,-54.821025475653,4,1,0,75,0,0
312604,-54.2957521558607,4,1,0,75,0,0
312724,-53.7804492249288,4,1,0,75,0,0
312844,-53.2748354747728,4,1,0,75,0,0
312964,-52.7786401738591,4,1,0,75,0,0
313084,-52.2916025838204,4,1,0,75,0,0
313204,-51.8134715025907,4,1,0,75,0,0
313444,-61.3496932515337,4,1,0,75,0,0
318724,-60.6253988513082,4,1,0,75,0,0
318844,-59.9180069378745,4,1,0,76,0,0
318964,-59.2269326683292,4,1,0,78,0,0
319084,-58.5516178736518,4,1,0,79,0,0
319204,-57.8915295551493,4,1,0,81,0,0
319324,-57.2461584814703,4,1,0,82,0,0
319444,-56.6150178784267,4,1,0,84,0,0
319564,-55.9976422045388,4,1,0,85,0,0
319684,-55.3935860058309,4,1,0,87,0,0
319804,-54.8024228439573,4,1,0,88,0,0
319924,-54.2237442922374,4,1,0,90,0,0
320044,-53.6571589946343,4,1,0,91,0,0
320164,-53.1022917831191,4,1,0,93,0,0
320284,-52.5587828492393,4,1,0,94,0,0
320404,-52.026286966046,4,1,0,96,0,0
320524,-51.5044727568447,4,1,0,97,0,0
320644,-50.9930220075148,4,1,0,99,0,0
320764,-50.4916290193994,4,1,0,100,0,0
320884,240,4,1,0,100,1,0
320884,-100,4,1,0,100,0,0
321124,-104.166666666667,4,1,0,100,0,0
328204,-101.781170483461,4,1,0,100,0,0
328324,-100,4,1,0,100,0,0
328444,-98.0392156862745,4,1,0,100,0,0
328564,-95.2380952380952,4,1,0,100,0,0
335644,-95.6521739130435,4,1,0,100,0,0
335704,-96.0698689956332,4,1,0,100,0,0
335764,-96.4912280701754,4,1,0,100,0,0
335884,-97.3451327433628,4,1,0,100,0,0
336004,-98.2142857142857,4,1,0,100,0,0
336124,-99.0990990990991,4,1,0,100,0,0
336244,-100,4,1,0,100,0,0
357364,-96.1538461538461,4,1,0,100,0,1
357484,-95.2380952380952,4,1,0,100,0,1
357544,-94.7867298578199,4,1,0,100,0,1
357604,-94.3396226415094,4,1,0,100,0,1
357724,-93.4579439252336,4,1,0,100,0,1
370804,-93.7031484257871,4,1,0,100,0,1
370884,-93.9496429913566,4,1,0,100,0,1
370964,-94.197437829691,4,1,0,100,0,1
371044,-94.4465432565168,4,1,0,100,0,1
371124,-94.6969696969697,4,1,0,100,0,1
371204,-94.948727687049,4,1,0,100,0,1
371284,-95.2018278750952,4,1,0,100,0,1
371364,-95.4562810232913,4,1,0,100,0,1
371444,-95.7120980091884,4,1,0,100,0,1
371524,-95.9692898272553,4,1,0,100,0,1
371604,-96.2278675904542,4,1,0,100,0,1
371684,-96.487842531841,4,1,0,100,0,1
371764,-96.7492260061919,4,1,0,100,0,1
371844,-97.012029491657,4,1,0,100,0,1
371924,-97.2762645914397,4,1,0,100,0,1
372004,-97.5419430355053,4,1,0,100,0,1
372084,-97.8090766823161,4,1,0,100,0,1
372164,-98.0776775205963,4,1,0,100,0,1
372244,-98.3477576711251,4,1,0,100,0,1
372324,-98.6193293885602,4,1,0,100,0,1
372404,-98.8924050632911,4,1,0,100,0,1
372484,-99.1669972233241,4,1,0,100,0,1
372564,-99.4431185361973,4,1,0,100,0,1
372644,-99.7207818109294,4,1,0,100,0,1
372724,-100,4,1,0,100,0,1
378964,-100,4,1,0,100,0,0
382084,-104.166666666667,4,1,0,100,0,0
383524,-103.256552819698,4,1,0,100,0,0
383584,-102.362204724409,4,1,0,100,0,0
383644,-101.483216237315,4,1,0,100,0,0
383704,-100.61919504644,4,1,0,100,0,0
383764,-99.7697620874904,4,1,0,100,0,0
383824,-98.9345509893455,4,1,0,100,0,0
383884,-98.1132075471698,4,1,0,100,0,0
383944,-97.3053892215569,4,1,0,100,0,0
384004,-96.5107646622123,4,1,0,100,0,0
384064,-95.7290132547864,4,1,0,100,0,0
384124,-94.9598246895544,4,1,0,100,0,0
384184,-94.2028985507246,4,1,0,100,0,0
384244,-93.4579439252337,4,1,0,100,0,1
403444,480,4,1,0,100,1,0

[HitObjects]
256,192,30725,5,8,0:0:0:0:
256,192,30785,1,8,0:0:0:0:
256,192,30845,1,0,0:0:0:0:
256,192,30905,1,0,0:0:0:0:
256,192,30965,1,8,0:0:0:0:
256,192,31025,1,0,0:0:0:0:
256,192,31085,1,0,0:0:0:0:
256,192,31145,1,0,0:0:0:0:
256,192,31205,1,8,0:0:0:0:
256,192,31265,1,8,0:0:0:0:
256,192,31325,1,8,0:0:0:0:
256,192,31385,1,8,0:0:0:0:
256,192,31445,1,0,0:0:0:0:
256,192,31505,1,0,0:0:0:0:
256,192,31565,1,0,0:0:0:0:
256,192,31625,1,0,0:0:0:0:
256,192,31685,1,8,0:0:0:0:
256,192,31745,1,0,0:0:0:0:
256,192,31805,1,0,0:0:0:0:
256,192,31865,1,0,0:0:0:0:
256,192,31925,1,8,0:0:0:0:
256,192,31985,1,8,0:0:0:0:
256,192,32045,1,8,0:0:0:0:
256,192,32105,1,8,0:0:0:0:
256,192,32165,1,0,0:0:0:0:
256,192,32225,1,0,0:0:0:0:
256,192,32285,1,0,0:0:0:0:
256,192,32345,1,0,0:0:0:0:
256,192,32405,1,8,0:0:0:0:
256,192,32465,1,8,0:0:0:0:
256,192,32525,1,8,0:0:0:0:
256,192,32585,1,8,0:0:0:0:
256,192,32645,1,0,0:0:0:0:
256,192,32705,1,0,0:0:0:0:
256,192,32765,1,0,0:0:0:0:
256,192,32825,1,0,0:0:0:0:
256,192,32885,1,8,0:0:0:0:
256,192,32945,1,0,0:0:0:0:
256,192,33005,1,0,0:0:0:0:
256,192,33065,1,0,0:0:0:0:
256,192,33125,1,8,0:0:0:0:
256,192,33185,1,0,0:0:0:0:
256,192,33245,1,8,0:0:0:0:
256,192,33305,1,8,0:0:0:0:
256,192,33365,1,0,0:0:0:0:
256,192,33425,1,0,0:0:0:0:
256,192,33485,1,0,0:0:0:0:
256,192,33545,1,0,0:0:0:0:
256,192,33605,1,8,0:0:0:0:
256,192,33665,1,8,0:0:0:0:
256,192,33725,1,8,0:0:0:0:
256,192,33785,1,8,0:0:0:0:
256,192,33845,1,0,0:0:0:0:
256,192,33905,1,0,0:0:0:0:
256,192,33965,1,0,0:0:0:0:
256,192,34025,1,0,0:0:0:0:
256,192,34085,1,8,0:0:0:0:
256,192,34145,1,8,0:0:0:0:
256,192,34205,1,0,0:0:0:0:
256,192,34265,1,0,0:0:0:0:
256,192,34325,1,8,0:0:0:0:
256,192,34385,1,0,0:0:0:0:
256,192,34445,1,8,0:0:0:0:
256,192,34505,1,8,0:0:0:0:
256,192,34565,1,4,0:0:0:0:
256,192,35045,1,4,0:0:0:0:
256,192,35165,1,12,0:0:0:0:
256,192,35525,1,4,0:0:0:0:
256,192,35645,1,8,0:0:0:0:
256,192,35705,1,8,0:0:0:0:
256,192,35765,1,0,0:0:0:0:
256,192,35885,1,0,0:0:0:0:
256,192,36005,1,8,0:0:0:0:
256,192,36065,1,8,0:0:0:0:
256,192,36125,1,0,0:0:0:0:
256,192,36245,1,8,0:0:0:0:
256,192,36305,1,0,0:0:0:0:
256,192,36365,1,0,0:0:0:0:
256,192,36425,1,0,0:0:0:0:
256,192,36485,1,8,0:0:0:0:
256,192,36605,1,0,0:0:0:0:
256,192,36725,1,8,0:0:0:0:
256,192,36785,1,0,0:0:0:0:
256,192,36845,1,8,0:0:0:0:
256,192,36905,1,0,0:0:0:0:
256,192,36965,1,8,0:0:0:0:
256,192,37085,1,0,0:0:0:0:
256,192,37205,1,8,0:0:0:0:
256,192,37265,1,8,0:0:0:0:
256,192,37325,1,0,0:0:0:0:
256,192,37385,1,0,0:0:0:0:
256,192,37445,1,8,0:0:0:0:
256,192,37505,1,8,0:0:0:0:
256,192,37565,1,8,0:0:0:0:
256,192,37625,1,8,0:0:0:0:
256,192,37685,1,0,0:0:0:0:
256,192,37805,1,8,0:0:0:0:
256,192,37925,1,0,0:0:0:0:
256,192,37985,1,0,0:0:0:0:
256,192,38045,1,8,0:0:0:0:
256,192,38165,1,0,0:0:0:0:
256,192,38285,1,8,0:0:0:0:
256,192,38405,1,0,0:0:0:0:
256,192,38525,1,8,0:0:0:0:
256,192,38585,1,8,0:0:0:0:
256,192,38645,1,0,0:0:0:0:
256,192,38705,1,0,0:0:0:0:
256,192,38765,1,8,0:0:0:0:
256,192,38825,1,0,0:0:0:0:
256,192,38885,1,8,0:0:0:0:
256,192,38945,1,0,0:0:0:0:
256,192,39005,1,0,0:0:0:0:
256,192,39065,1,0,0:0:0:0:
256,192,39125,1,8,0:0:0:0:
256,192,39185,1,8,0:0:0:0:
256,192,39245,1,8,0:0:0:0:
256,192,39305,1,8,0:0:0:0:
256,192,39365,1,4,0:0:0:0:
256,192,39485,1,8,0:0:0:0:
256,192,39605,1,0,0:0:0:0:
256,192,39665,1,0,0:0:0:0:
256,192,39725,1,8,0:0:0:0:
256,192,39785,1,0,0:0:0:0:
256,192,39845,1,0,0:0:0:0:
256,192,39905,1,0,0:0:0:0:
256,192,39965,1,8,0:0:0:0:
256,192,40085,1,0,0:0:0:0:
256,192,40145,1,0,0:0:0:0:
256,192,40205,1,8,0:0:0:0:
256,192,40325,1,0,0:0:0:0:
256,192,40445,1,8,0:0:0:0:
256,192,40565,1,0,0:0:0:0:
256,192,40625,1,0,0:0:0:0:
256,192,40685,1,8,0:0:0:0:
256,192,40745,1,0,0:0:0:0:
256,192,40805,1,8,0:0:0:0:
256,192,40925,1,8,0:0:0:0:
256,192,41045,1,0,0:0:0:0:
256,192,41105,1,0,0:0:0:0:
256,192,41165,1,8,0:0:0:0:
256,192,41285,1,0,0:0:0:0:
256,192,41405,1,8,0:0:0:0:
256,192,41525,1,0,0:0:0:0:
256,192,41645,1,8,0:0:0:0:
256,192,41705,1,8,0:0:0:0:
256,192,41765,1,0,0:0:0:0:
256,192,41845,1,0,0:0:0:0:
256,192,41925,1,0,0:0:0:0:
256,192,42005,1,8,0:0:0:0:
256,192,42085,1,8,0:0:0:0:
256,192,42165,1,0,0:0:0:0:
256,192,42245,1,8,0:0:0:0:
256,192,42325,1,8,0:0:0:0:
256,192,42405,1,8,0:0:0:0:
256,192,42485,1,8,0:0:0:0:
256,192,42565,1,0,0:0:0:0:
256,192,42645,1,0,0:0:0:0:
256,192,42725,1,8,0:0:0:0:
256,192,42805,1,8,0:0:0:0:
256,192,42885,1,0,0:0:0:0:
256,192,42965,1,8,0:0:0:0:
256,192,43045,1,0,0:0:0:0:
256,192,43125,1,0,0:0:0:0:
256,192,43205,1,12,0:0:0:0:
256,192,43325,1,0,0:0:0:0:
256,192,43445,1,8,0:0:0:0:
256,192,43565,1,8,0:0:0:0:
256,192,43685,1,0,0:0:0:0:
256,192,43745,1,0,0:0:0:0:
256,192,43805,1,8,0:0:0:0:
256,192,43925,1,0,0:0:0:0:
256,192,44045,1,8,0:0:0:0:
256,192,44165,1,8,0:0:0:0:
256,192,44225,1,0,0:0:0:0:
256,192,44285,1,8,0:0:0:0:
256,192,44345,1,8,0:0:0:0:
256,192,44405,1,0,0:0:0:0:
256,192,44465,1,0,0:0:0:0:
256,192,44525,1,8,0:0:0:0:
256,192,44645,1,0,0:0:0:0:
256,192,44765,1,8,0:0:0:0:
256,192,44885,1,0,0:0:0:0:
256,192,44945,1,0,0:0:0:0:
256,192,45005,1,8,0:0:0:0:
256,192,45125,1,8,0:0:0:0:
256,192,45245,1,8,0:0:0:0:
256,192,45365,1,0,0:0:0:0:
256,192,45485,1,8,0:0:0:0:
256,192,45545,1,8,0:0:0:0:
256,192,45605,1,0,0:0:0:0:
256,192,45665,1,0,0:0:0:0:
256,192,45725,1,8,0:0:0:0:
256,192,45845,1,0,0:0:0:0:
256,192,45965,1,0,0:0:0:0:
256,192,46085,1,8,0:0:0:0:
256,192,46205,1,0,0:0:0:0:
256,192,46325,1,8,0:0:0:0:
256,192,46385,1,8,0:0:0:0:
256,192,46445,1,0,0:0:0:0:
256,192,46505,1,0,0:0:0:0:
256,192,46565,1,8,0:0:0:0:
256,192,46625,1,0,0:0:0:0:
256,192,46685,1,0,0:0:0:0:
256,192,46745,1,0,0:0:0:0:
256,192,46805,1,8,0:0:0:0:
256,192,46865,1,8,0:0:0:0:
256,192,46925,1,8,0:0:0:0:
256,192,46985,1,8,0:0:0:0:
256,192,47045,1,4,0:0:0:0:
256,192,47165,1,8,0:0:0:0:
256,192,47285,1,0,0:0:0:0:
256,192,47405,1,8,0:0:0:0:
256,192,47465,1,0,0:0:0:0:
256,192,47525,1,0,0:0:0:0:
256,192,47585,1,0,0:0:0:0:
256,192,47645,1,8,0:0:0:0:
256,192,47765,1,0,0:0:0:0:
256,192,47885,1,0,0:0:0:0:
256,192,48005,1,8,0:0:0:0:
256,192,48125,1,0,0:0:0:0:
256,192,48185,1,0,0:0:0:0:
256,192,48245,1,8,0:0:0:0:
256,192,48305,1,0,0:0:0:0:
256,192,48365,1,8,0:0:0:0:
256,192,48485,1,0,0:0:0:0:
256,192,48605,1,8,0:0:0:0:
256,192,48725,1,0,0:0:0:0:
256,192,48785,1,0,0:0:0:0:
256,192,48845,1,8,0:0:0:0:
256,192,48905,1,8,0:0:0:0:
256,192,48965,1,0,0:0:0:0:
256,192,49045,1,0,0:0:0:0:
256,192,49125,1,0,0:0:0:0:
256,192,49205,1,8,0:0:0:0:
256,192,49285,1,8,0:0:0:0:
256,192,49365,1,8,0:0:0:0:
256,192,49445,1,0,0:0:0:0:
256,192,49525,1,0,0:0:0:0:
256,192,49605,1,0,0:0:0:0:
256,192,49685,1,8,0:0:0:0:
256,192,49765,1,0,0:0:0:0:
256,192,49845,1,0,0:0:0:0:
256,192,49925,1,8,0:0:0:0:
256,192,50005,1,8,0:0:0:0:
256,192,50085,1,8,0:0:0:0:
256,192,50165,1,0,0:0:0:0:
256,192,50245,1,0,0:0:0:0:
256,192,50325,1,0,0:0:0:0:
256,192,50405,1,8,0:0:0:0:
256,192,50485,1,8,0:0:0:0:
256,192,50565,1,8,0:0:0:0:
256,192,50645,1,0,0:0:0:0:
256,192,50725,1,8,0:0:0:0:
256,192,50805,1,8,0:0:0:0:
256,192,50885,1,4,0:0:0:0:
256,192,51005,1,8,0:0:0:0:
256,192,51065,1,8,0:0:0:0:
256,192,51125,1,0,0:0:0:0:
256,192,51245,1,0,0:0:0:0:
256,192,51365,1,8,0:0:0:0:
256,192,51485,1,0,0:0:0:0:
256,192,51545,1,0,0:0:0:0:
256,192,51605,1,8,0:0:0:0:
256,192,51665,1,0,0:0:0:0:
256,192,51725,1,0,0:0:0:0:
256,192,51785,1,0,0:0:0:0:
256,192,51845,1,8,0:0:0:0:
256,192,51965,1,0,0:0:0:0:
256,192,52085,1,8,0:0:0:0:
256,192,52145,1,0,0:0:0:0:
256,192,52205,1,8,0:0:0:0:
256,192,52265,1,0,0:0:0:0:
256,192,52325,1,8,0:0:0:0:
256,192,52445,1,0,0:0:0:0:
256,192,52565,1,8,0:0:0:0:
256,192,52625,1,8,0:0:0:0:
256,192,52685,1,0,0:0:0:0:
256,192,52745,1,0,0:0:0:0:
256,192,52805,1,8,0:0:0:0:
256,192,52865,1,0,0:0:0:0:
256,192,52925,1,8,0:0:0:0:
256,192,52985,1,8,0:0:0:0:
256,192,53045,1,0,0:0:0:0:
256,192,53165,1,8,0:0:0:0:
256,192,53285,1,8,0:0:0:0:
256,192,53405,1,0,0:0:0:0:
256,192,53525,1,0,0:0:0:0:
256,192,53585,1,0,0:0:0:0:
256,192,53645,1,8,0:0:0:0:
256,192,53705,1,0,0:0:0:0:
256,192,53765,1,8,0:0:0:0:
256,192,53825,1,8,0:0:0:0:
256,192,53885,1,0,0:0:0:0:
256,192,54005,1,8,0:0:0:0:
256,192,54125,1,0,0:0:0:0:
256,192,54185,1,0,0:0:0:0:
256,192,54245,1,8,0:0:0:0:
256,192,54365,1,0,0:0:0:0:
256,192,54485,1,8,0:0:0:0:
256,192,54545,1,0,0:0:0:0:
256,192,54605,1,8,0:0:0:0:
256,192,54665,1,8,0:0:0:0:
256,192,54725,1,4,0:0:0:0:
256,192,54845,1,8,0:0:0:0:
256,192,54965,1,0,0:0:0:0:
256,192,55085,1,0,0:0:0:0:
256,192,55205,1,8,0:0:0:0:
256,192,55325,1,0,0:0:0:0:
256,192,55445,1,8,0:0:0:0:
256,192,55505,1,0,0:0:0:0:
256,192,55565,1,0,0:0:0:0:
256,192,55625,1,0,0:0:0:0:
256,192,55685,1,8,0:0:0:0:
256,192,55805,1,0,0:0:0:0:
256,192,55925,1,0,0:0:0:0:
256,192,56045,1,8,0:0:0:0:
256,192,56105,1,0,0:0:0:0:
256,192,56165,1,8,0:0:0:0:
256,192,56285,1,0,0:0:0:0:
256,192,56405,1,8,0:0:0:0:
256,192,56525,1,0,0:0:0:0:
256,192,56585,1,0,0:0:0:0:
256,192,56645,1,8,0:0:0:0:
256,192,56705,1,8,0:0:0:0:
256,192,56765,1,8,0:0:0:0:
256,192,56825,1,8,0:0:0:0:
256,192,56885,1,0,0:0:0:0:
256,192,57005,1,8,0:0:0:0:
256,192,57125,1,0,0:0:0:0:
256,192,57205,1,0,0:0:0:0:
256,192,57285,1,0,0:0:0:0:
256,192,57365,1,8,0:0:0:0:
256,192,57445,1,0,0:0:0:0:
256,192,57525,1,8,0:0:0:0:
256,192,57605,1,8,0:0:0:0:
256,192,57685,1,0,0:0:0:0:
256,192,57765,1,0,0:0:0:0:
256,192,57845,1,8,0:0:0:0:
256,192,57925,1,0,0:0:0:0:
256,192,58005,1,8,0:0:0:0:
256,192,58085,1,8,0:0:0:0:
256,192,58165,1,0,0:0:0:0:
256,192,58245,1,0,0:0:0:0:
256,192,58325,1,0,0:0:0:0:
256,192,58405,1,8,0:0:0:0:
256,192,58485,1,8,0:0:0:0:
256,192,58565,1,4,0:0:0:0:
256,192,58685,1,8,0:0:0:0:
256,192,58805,1,0,0:0:0:0:
256,192,58925,1,8,0:0:0:0:
256,192,58985,1,8,0:0:0:0:
256,192,59045,1,0,0:0:0:0:
256,192,59165,1,8,0:0:0:0:
256,192,59285,1,0,0:0:0:0:
256,192,59345,1,0,0:0:0:0:
256,192,59405,1,8,0:0:0:0:
256,192,59525,1,0,0:0:0:0:
256,192,59645,1,8,0:0:0:0:
256,192,59765,1,0,0:0:0:0:
256,192,59885,1,0,0:0:0:0:
256,192,59945,1,0,0:0:0:0:
256,192,60005,1,8,0:0:0:0:
256,192,60065,1,0,0:0:0:0:
256,192,60125,1,8,0:0:0:0:
256,192,60245,1,0,0:0:0:0:
256,192,60365,1,0,0:0:0:0:
256,192,60485,1,8,0:0:0:0:
256,192,60545,1,0,0:0:0:0:
256,192,60605,1,8,0:0:0:0:
256,192,60725,1,0,0:0:0:0:
256,192,60845,1,8,0:0:0:0:
256,192,60965,1,0,0:0:0:0:
256,192,61085,1,8,0:0:0:0:
256,192,61145,1,8,0:0:0:0:
256,192,61205,1,0,0:0:0:0:
256,192,61325,1,0,0:0:0:0:
256,192,61445,1,8,0:0:0:0:
256,192,61565,1,0,0:0:0:0:
256,192,61685,1,8,0:0:0:0:
256,192,61745,1,8,0:0:0:0:
256,192,61805,1,0,0:0:0:0:
256,192,61865,1,0,0:0:0:0:
256,192,61925,1,8,0:0:0:0:
256,192,61985,1,0,0:0:0:0:
256,192,62045,1,0,0:0:0:0:
256,192,62105,1,0,0:0:0:0:
256,192,62165,1,8,0:0:0:0:
256,192,62225,1,8,0:0:0:0:
256,192,62285,1,8,0:0:0:0:
256,192,62345,1,8,0:0:0:0:
256,192,62405,1,4,0:0:0:0:
256,192,62525,1,8,0:0:0:0:
256,192,62645,1,0,0:0:0:0:
256,192,62765,1,8,0:0:0:0:
256,192,62885,1,0,0:0:0:0:
256,192,62945,1,0,0:0:0:0:
256,192,63005,1,8,0:0:0:0:
256,192,63125,1,0,0:0:0:0:
256,192,63245,1,8,0:0:0:0:
256,192,63365,1,0,0:0:0:0:
256,192,63485,1,8,0:0:0:0:
256,192,63545,1,8,0:0:0:0:
256,192,63605,1,0,0:0:0:0:
256,192,63665,1,0,0:0:0:0:
256,192,63725,1,8,0:0:0:0:
256,192,63845,1,0,0:0:0:0:
256,192,63965,1,8,0:0:0:0:
256,192,64085,1,0,0:0:0:0:
256,192,64145,1,0,0:0:0:0:
256,192,64205,1,8,0:0:0:0:
256,192,64265,1,8,0:0:0:0:
256,192,64325,1,0,0:0:0:0:
256,192,64405,1,0,0:0:0:0:
256,192,64485,1,0,0:0:0:0:
256,192,64565,1,8,0:0:0:0:
256,192,64645,1,8,0:0:0:0:
256,192,64725,1,8,0:0:0:0:
256,192,64805,1,0,0:0:0:0:
256,192,64885,1,0,0:0:0:0:
256,192,64965,1,0,0:0:0:0:
256,192,65045,1,8,0:0:0:0:
256,192,65125,1,0,0:0:0:0:
256,192,65205,1,0,0:0:0:0:
256,192,65285,1,8,0:0:0:0:
256,192,65365,1,0,0:0:0:0:
256,192,65445,1,8,0:0:0:0:
256,192,65525,1,8,0:0:0:0:
256,192,65605,1,0,0:0:0:0:
256,192,65685,1,0,0:0:0:0:
256,192,65765,1,8,0:0:0:0:
256,192,65845,1,8,0:0:0:0:
256,192,65925,1,8,0:0:0:0:
256,192,66005,1,0,0:0:0:0:
256,192,66085,1,8,0:0:0:0:
256,192,66165,1,8,0:0:0:0:
256,192,66245,1,0,0:0:0:0:
256,192,70085,12,8,73685,0:0:0:0:
256,192,73925,5,4,0:0:0:0:
256,192,74885,1,8,0:0:0:0:
256,192,75845,1,0,0:0:0:0:
256,192,76805,1,0,0:0:0:0:
256,192,77765,1,0,0:0:0:0:
256,192,77825,1,8,0:0:0:0:
256,192,78725,1,8,0:0:0:0:
256,192,79685,1,0,0:0:0:0:
256,192,80645,1,8,0:0:0:0:
256,192,81125,1,0,0:0:0:0:
256,192,81605,1,0,0:0:0:0:
256,192,81665,1,8,0:0:0:0:
256,192,82565,1,8,0:0:0:0:
256,192,83045,1,8,0:0:0:0:
256,192,83525,1,0,0:0:0:0:
256,192,84485,1,0,0:0:0:0:
256,192,85445,1,8,0:0:0:0:
256,192,85505,1,8,0:0:0:0:
256,192,86405,1,8,0:0:0:0:
256,192,86885,1,0,0:0:0:0:
256,192,87005,1,0,0:0:0:0:
256,192,87365,1,8,0:0:0:0:
256,192,88325,1,12,0:0:0:0:
256,192,88805,1,12,0:0:0:0:
256,192,89285,1,4,0:0:0:0:
256,192,89765,1,8,0:0:0:0:
256,192,90005,1,0,0:0:0:0:
256,192,90245,1,8,0:0:0:0:
256,192,90485,1,8,0:0:0:0:
256,192,90725,1,0,0:0:0:0:
256,192,91205,1,0,0:0:0:0:
256,192,91445,1,8,0:0:0:0:
256,192,91685,1,0,0:0:0:0:
256,192,91925,1,0,0:0:0:0:
256,192,92165,1,8,0:0:0:0:
256,192,92405,1,8,0:0:0:0:
256,192,92645,1,0,0:0:0:0:
256,192,93125,1,0,0:0:0:0:
256,192,93605,1,0,0:0:0:0:
256,192,93845,1,0,0:0:0:0:
256,192,94085,1,8,0:0:0:0:
256,192,94325,1,0,0:0:0:0:
256,192,94565,1,8,0:0:0:0:
256,192,95045,1,8,0:0:0:0:
256,192,95285,1,0,0:0:0:0:
256,192,95525,1,8,0:0:0:0:
256,192,95765,1,0,0:0:0:0:
256,192,96005,1,12,0:0:0:0:
256,192,96245,1,12,0:0:0:0:
256,192,96485,1,12,0:0:0:0:
256,192,96965,1,0,0:0:0:0:
256,192,97445,1,0,0:0:0:0:
256,192,97685,1,8,0:0:0:0:
256,192,97925,1,8,0:0:0:0:
256,192,98165,1,0,0:0:0:0:
256,192,98405,1,8,0:0:0:0:
256,192,98885,1,8,0:0:0:0:
256,192,99125,1,8,0:0:0:0:
256,192,99365,1,0,0:0:0:0:
256,192,99605,1,8,0:0:0:0:
256,192,99665,1,8,0:0:0:0:
256,192,99845,1,0,0:0:0:0:
256,192,100085,1,0,0:0:0:0:
256,192,100325,1,8,0:0:0:0:
256,192,100805,1,8,0:0:0:0:
256,192,101045,1,0,0:0:0:0:
256,192,101285,1,0,0:0:0:0:
256,192,101525,1,8,0:0:0:0:
256,192,101765,1,8,0:0:0:0:
256,192,102005,1,8,0:0:0:0:
256,192,102245,1,0,0:0:0:0:
256,192,102485,1,8,0:0:0:0:
256,192,102725,1,0,0:0:0:0:
256,192,103205,1,0,0:0:0:0:
256,192,103445,1,0,0:0:0:0:
256,192,103685,1,8,0:0:0:0:
256,192,103925,1,0,0:0:0:0:
256,192,104165,1,8,0:0:0:0:
256,192,104645,1,12,0:0:0:0:
256,192,104885,1,0,0:0:0:0:
256,192,105125,1,0,0:0:0:0:
256,192,105245,1,8,0:0:0:0:
256,192,105365,1,0,0:0:0:0:
256,192,105485,1,8,0:0:0:0:
256,192,105605,1,8,0:0:0:0:
256,192,105845,1,0,0:0:0:0:
256,192,106085,1,0,0:0:0:0:
256,192,106325,1,0,0:0:0:0:
256,192,106445,1,0,0:0:0:0:
256,192,106565,1,8,0:0:0:0:
256,192,106805,1,0,0:0:0:0:
256,192,107045,1,0,0:0:0:0:
256,192,107285,1,0,0:0:0:0:
256,192,107405,1,8,0:0:0:0:
256,192,107525,1,8,0:0:0:0:
256,192,107765,1,0,0:0:0:0:
256,192,108005,1,8,0:0:0:0:
256,192,108125,1,8,0:0:0:0:
256,192,108245,1,0,0:0:0:0:
256,192,108365,1,0,0:0:0:0:
256,192,108485,1,12,0:0:0:0:
256,192,108725,1,0,0:0:0:0:
256,192,108965,1,0,0:0:0:0:
256,192,109085,1,0,0:0:0:0:
256,192,109205,1,0,0:0:0:0:
256,192,109325,1,8,0:0:0:0:
256,192,109445,1,8,0:0:0:0:
256,192,109685,1,0,0:0:0:0:
256,192,109925,1,8,0:0:0:0:
256,192,110165,1,0,0:0:0:0:
256,192,110405,1,0,0:0:0:0:
256,192,110525,1,8,0:0:0:0:
256,192,110645,1,8,0:0:0:0:
256,192,110765,1,0,0:0:0:0:
256,192,110885,1,8,0:0:0:0:
256,192,111005,1,0,0:0:0:0:
256,192,111125,1,0,0:0:0:0:
256,192,111245,1,0,0:0:0:0:
256,192,111365,1,8,0:0:0:0:
256,192,111485,1,8,0:0:0:0:
256,192,111605,1,0,0:0:0:0:
256,192,111725,1,0,0:0:0:0:
256,192,111845,1,8,0:0:0:0:
256,192,111965,1,0,0:0:0:0:
256,192,112085,1,0,0:0:0:0:
256,192,112205,1,0,0:0:0:0:
256,192,112325,1,12,0:0:0:0:
256,192,112565,1,0,0:0:0:0:
256,192,112685,1,0,0:0:0:0:
256,192,112805,1,8,0:0:0:0:
256,192,113045,1,8,0:0:0:0:
256,192,113165,1,0,0:0:0:0:
256,192,113285,1,8,0:0:0:0:
256,192,113525,1,0,0:0:0:0:
256,192,113765,1,8,0:0:0:0:
256,192,114005,1,8,0:0:0:0:
256,192,114125,1,0,0:0:0:0:
256,192,114245,1,8,0:0:0:0:
256,192,114485,1,0,0:0:0:0:
256,192,114725,1,8,0:0:0:0:
256,192,114845,1,8,0:0:0:0:
256,192,114965,1,0,0:0:0:0:
256,192,115085,1,8,0:0:0:0:
256,192,115205,1,8,0:0:0:0:
256,192,115445,1,0,0:0:0:0:
256,192,115685,1,8,0:0:0:0:
256,192,115805,1,0,0:0:0:0:
256,192,115925,1,8,0:0:0:0:
256,192,116045,1,0,0:0:0:0:
256,192,116165,1,8,0:0:0:0:
256,192,116285,1,0,0:0:0:0:
256,192,116405,1,0,0:0:0:0:
256,192,116645,1,8,0:0:0:0:
256,192,116885,1,0,0:0:0:0:
256,192,117005,1,8,0:0:0:0:
256,192,117125,1,8,0:0:0:0:
256,192,117365,1,0,0:0:0:0:
256,192,117605,1,8,0:0:0:0:
256,192,117725,1,8,0:0:0:0:
256,192,117845,1,0,0:0:0:0:
256,192,117965,1,0,0:0:0:0:
256,192,118085,1,0,0:0:0:0:
256,192,118205,1,8,0:0:0:0:
256,192,118325,1,8,0:0:0:0:
256,192,118445,1,0,0:0:0:0:
256,192,118565,1,8,0:0:0:0:
256,192,118685,1,0,0:0:0:0:
256,192,118805,1,0,0:0:0:0:
256,192,118925,1,0,0:0:0:0:
256,192,119045,1,8,0:0:0:0:
256,192,119165,1,8,0:0:0:0:
256,192,119285,1,0,0:0:0:0:
256,192,119405,1,0,0:0:0:0:
256,192,119525,1,8,0:0:0:0:
256,192,119645,1,0,0:0:0:0:
256,192,119765,1,0,0:0:0:0:
256,192,119885,1,0,0:0:0:0:
256,192,120005,1,12,0:0:0:0:
256,192,120245,1,0,0:0:0:0:
256,192,120305,1,0,0:0:0:0:
256,192,120365,1,8,0:0:0:0:
256,192,120485,1,0,0:0:0:0:
256,192,120605,1,0,0:0:0:0:
256,192,120725,1,0,0:0:0:0:
256,192,120785,1,0,0:0:0:0:
256,192,120845,1,8,0:0:0:0:
256,192,120905,1,0,0:0:0:0:
256,192,120965,1,8,0:0:0:0:
256,192,121085,1,0,0:0:0:0:
256,192,121205,1,0,0:0:0:0:
256,192,121325,1,8,0:0:0:0:
256,192,121385,1,0,0:0:0:0:
256,192,121445,1,8,0:0:0:0:
256,192,121505,1,8,0:0:0:0:
256,192,121565,1,0,0:0:0:0:
256,192,121685,1,8,0:0:0:0:
256,192,121925,1,0,0:0:0:0:
256,192,122045,1,0,0:0:0:0:
256,192,122165,1,8,0:0:0:0:
256,192,122285,1,0,0:0:0:0:
256,192,122345,1,0,0:0:0:0:
256,192,122405,1,8,0:0:0:0:
256,192,122465,1,8,0:0:0:0:
256,192,122525,1,0,0:0:0:0:
256,192,122645,1,8,0:0:0:0:
256,192,122765,1,0,0:0:0:0:
256,192,122885,1,8,0:0:0:0:
256,192,123005,1,0,0:0:0:0:
256,192,123245,1,0,0:0:0:0:
256,192,123305,1,0,0:0:0:0:
256,192,123365,1,8,0:0:0:0:
256,192,123605,1,8,0:0:0:0:
256,192,123665,1,0,0:0:0:0:
256,192,123725,1,8,0:0:0:0:
256,192,123785,1,0,0:0:0:0:
256,192,123845,1,8,0:0:0:0:
256,192,123965,1,0,0:0:0:0:
256,192,124085,1,0,0:0:0:0:
256,192,124205,1,0,0:0:0:0:
256,192,124265,1,0,0:0:0:0:
256,192,124325,1,8,0:0:0:0:
256,192,124445,1,8,0:0:0:0:
256,192,124565,1,0,0:0:0:0:
256,192,124685,1,8,0:0:0:0:
256,192,124745,1,0,0:0:0:0:
256,192,124805,1,8,0:0:0:0:
256,192,124865,1,8,0:0:0:0:
256,192,124925,1,0,0:0:0:0:
256,192,125045,1,8,0:0:0:0:
256,192,125285,1,0,0:0:0:0:
256,192,125405,1,8,0:0:0:0:
256,192,125645,1,0,0:0:0:0:
256,192,125765,1,8,0:0:0:0:
256,192,125885,1,0,0:0:0:0:
256,192,125945,1,8,0:0:0:0:
256,192,126005,1,0,0:0:0:0:
256,192,126125,1,0,0:0:0:0:
256,192,126245,1,8,0:0:0:0:
256,192,126305,1,0,0:0:0:0:
256,192,126365,1,8,0:0:0:0:
256,192,126605,1,0,0:0:0:0:
256,192,126725,1,8,0:0:0:0:
256,192,126965,1,0,0:0:0:0:
256,192,127085,1,8,0:0:0:0:
256,192,127145,1,8,0:0:0:0:
256,192,127205,1,0,0:0:0:0:
256,192,127325,1,0,0:0:0:0:
256,192,127445,1,8,0:0:0:0:
256,192,127565,1,0,0:0:0:0:
256,192,127625,1,0,0:0:0:0:
256,192,127685,1,8,0:0:0:0:
256,192,127805,1,0,0:0:0:0:
256,192,127925,1,0,0:0:0:0:
256,192,128045,1,8,0:0:0:0:
256,192,128105,1,8,0:0:0:0:
256,192,128165,1,0,0:0:0:0:
256,192,128225,1,0,0:0:0:0:
256,192,128285,1,0,0:0:0:0:
256,192,128405,1,8,0:0:0:0:
256,192,128525,1,0,0:0:0:0:
256,192,128645,1,8,0:0:0:0:
256,192,128765,1,0,0:0:0:0:
256,192,128825,1,0,0:0:0:0:
256,192,128885,1,8,0:0:0:0:
256,192,129125,1,0,0:0:0:0:
256,192,129245,1,8,0:0:0:0:
256,192,129305,1,0,0:0:0:0:
256,192,129365,1,8,0:0:0:0:
256,192,129605,1,0,0:0:0:0:
256,192,129725,1,8,0:0:0:0:
256,192,129785,1,8,0:0:0:0:
256,192,129845,1,0,0:0:0:0:
256,192,129965,1,0,0:0:0:0:
256,192,130085,1,8,0:0:0:0:
256,192,130205,1,8,0:0:0:0:
256,192,130325,1,0,0:0:0:0:
256,192,130445,1,0,0:0:0:0:
256,192,130565,1,8,0:0:0:0:
256,192,130625,1,0,0:0:0:0:
256,192,130685,1,8,0:0:0:0:
256,192,130745,1,8,0:0:0:0:
256,192,130805,1,0,0:0:0:0:
256,192,130925,1,0,0:0:0:0:
256,192,131045,1,8,0:0:0:0:
256,192,131165,1,8,0:0:0:0:
256,192,131285,1,0,0:0:0:0:
256,192,131345,1,0,0:0:0:0:
256,192,131405,1,8,0:0:0:0:
256,192,131465,1,8,0:0:0:0:
256,192,131525,1,0,0:0:0:0:
256,192,131645,1,0,0:0:0:0:
256,192,131765,1,8,0:0:0:0:
256,192,131885,1,0,0:0:0:0:
256,192,131945,1,0,0:0:0:0:
256,192,132005,1,8,0:0:0:0:
256,192,132125,1,0,0:0:0:0:
256,192,132245,1,0,0:0:0:0:
256,192,132365,1,8,0:0:0:0:
256,192,132485,1,8,0:0:0:0:
256,192,132545,1,8,0:0:0:0:
256,192,132605,1,0,0:0:0:0:
256,192,132665,1,0,0:0:0:0:
256,192,132725,1,8,0:0:0:0:
256,192,132965,1,8,0:0:0:0:
256,192,133085,1,0,0:0:0:0:
256,192,133145,1,0,0:0:0:0:
256,192,133205,1,8,0:0:0:0:
256,192,133325,1,0,0:0:0:0:
256,192,133445,1,8,0:0:0:0:
256,192,133565,1,0,0:0:0:0:
256,192,133625,1,8,0:0:0:0:
256,192,133685,1,0,0:0:0:0:
256,192,133805,1,0,0:0:0:0:
256,192,133925,1,8,0:0:0:0:
256,192,134045,1,8,0:0:0:0:
256,192,134165,1,0,0:0:0:0:
256,192,134285,1,0,0:0:0:0:
256,192,134345,1,0,0:0:0:0:
256,192,134405,1,8,0:0:0:0:
256,192,134645,1,0,0:0:0:0:
256,192,134765,1,8,0:0:0:0:
256,192,134825,1,8,0:0:0:0:
256,192,134885,1,8,0:0:0:0:
256,192,135005,1,0,0:0:0:0:
256,192,135125,1,8,0:0:0:0:
256,192,135365,1,4,0:0:0:0:
256,192,135605,1,0,0:0:0:0:
256,192,135725,1,0,0:0:0:0:
256,192,135965,1,0,0:0:0:0:
256,192,136085,1,0,0:0:0:0:
256,192,136205,1,8,0:0:0:0:
256,192,136325,1,8,0:0:0:0:
256,192,136445,1,0,0:0:0:0:
256,192,136505,1,0,0:0:0:0:
256,192,136565,1,8,0:0:0:0:
256,192,136625,1,8,0:0:0:0:
256,192,136685,1,0,0:0:0:0:
256,192,136805,1,8,0:0:0:0:
256,192,136925,1,0,0:0:0:0:
256,192,137045,1,0,0:0:0:0:
256,192,137285,1,8,0:0:0:0:
256,192,137405,1,0,0:0:0:0:
256,192,137525,1,0,0:0:0:0:
256,192,137765,1,8,0:0:0:0:
256,192,137825,1,0,0:0:0:0:
256,192,137885,1,8,0:0:0:0:
256,192,137945,1,8,0:0:0:0:
256,192,138005,1,0,0:0:0:0:
256,192,138245,1,8,0:0:0:0:
256,192,138365,1,8,0:0:0:0:
256,192,138485,1,0,0:0:0:0:
256,192,138605,1,8,0:0:0:0:
256,192,138725,1,8,0:0:0:0:
256,192,138965,1,0,0:0:0:0:
256,192,139085,1,0,0:0:0:0:
256,192,139205,1,8,0:0:0:0:
256,192,139445,1,8,0:0:0:0:
256,192,139505,1,0,0:0:0:0:
256,192,139565,1,8,0:0:0:0:
256,192,139625,1,0,0:0:0:0:
256,192,139685,1,8,0:0:0:0:
256,192,139925,1,0,0:0:0:0:
256,192,140045,1,0,0:0:0:0:
256,192,140165,1,8,0:0:0:0:
256,192,140285,1,0,0:0:0:0:
256,192,140405,1,0,0:0:0:0:
256,192,140645,1,8,0:0:0:0:
256,192,140765,1,0,0:0:0:0:
256,192,141005,1,0,0:0:0:0:
256,192,141125,1,8,0:0:0:0:
256,192,141245,1,0,0:0:0:0:
256,192,141485,1,0,0:0:0:0:
256,192,141545,1,0,0:0:0:0:
256,192,141605,1,8,0:0:0:0:
256,192,141665,1,8,0:0:0:0:
256,192,141725,1,0,0:0:0:0:
256,192,141965,1,0,0:0:0:0:
256,192,142085,1,8,0:0:0:0:
256,192,142325,1,8,0:0:0:0:
256,192,142445,1,8,0:0:0:0:
256,192,142685,1,0,0:0:0:0:
256,192,142805,1,0,0:0:0:0:
256,192,142925,1,8,0:0:0:0:
256,192,143165,1,8,0:0:0:0:
256,192,143225,1,8,0:0:0:0:
256,192,143285,1,0,0:0:0:0:
256,192,143345,1,0,0:0:0:0:
256,192,143405,1,8,0:0:0:0:
256,192,143525,1,8,0:0:0:0:
256,192,143645,1,0,0:0:0:0:
256,192,143765,1,0,0:0:0:0:
256,192,144005,1,8,0:0:0:0:
256,192,144125,1,0,0:0:0:0:
256,192,144245,1,0,0:0:0:0:
256,192,144485,1,8,0:0:0:0:
256,192,144545,1,8,0:0:0:0:
256,192,144605,1,0,0:0:0:0:
256,192,144665,1,8,0:0:0:0:
256,192,144725,1,0,0:0:0:0:
256,192,144845,1,0,0:0:0:0:
256,192,144965,1,8,0:0:0:0:
256,192,145085,1,0,0:0:0:0:
256,192,145325,1,0,0:0:0:0:
256,192,145445,1,8,0:0:0:0:
256,192,145565,1,0,0:0:0:0:
256,192,145685,1,8,0:0:0:0:
256,192,145805,1,8,0:0:0:0:
256,192,145925,1,8,0:0:0:0:
256,192,145985,1,8,0:0:0:0:
256,192,146045,1,0,0:0:0:0:
256,192,146105,1,0,0:0:0:0:
256,192,146165,1,8,0:0:0:0:
256,192,146285,1,0,0:0:0:0:
256,192,146405,1,8,0:0:0:0:
256,192,146645,1,0,0:0:0:0:
256,192,146765,1,0,0:0:0:0:
256,192,146885,1,8,0:0:0:0:
256,192,147005,1,0,0:0:0:0:
256,192,147125,1,0,0:0:0:0:
256,192,147245,1,0,0:0:0:0:
256,192,147365,1,8,0:0:0:0:
256,192,147485,1,0,0:0:0:0:
256,192,147545,1,0,0:0:0:0:
256,192,147605,1,8,0:0:0:0:
256,192,147665,1,8,0:0:0:0:
256,192,147725,1,0,0:0:0:0:
256,192,147845,1,8,0:0:0:0:
256,192,147965,1,0,0:0:0:0:
256,192,148085,1,0,0:0:0:0:
256,192,148205,1,8,0:0:0:0:
256,192,148325,1,8,0:0:0:0:
256,192,148445,1,0,0:0:0:0:
256,192,148565,1,8,0:0:0:0:
256,192,148685,1,0,0:0:0:0:
256,192,148805,1,8,0:0:0:0:
256,192,149045,1,0,0:0:0:0:
256,192,149165,1,0,0:0:0:0:
256,192,149285,1,8,0:0:0:0:
256,192,149525,1,0,0:0:0:0:
256,192,149585,1,0,0:0:0:0:
256,192,149645,1,0,0:0:0:0:
256,192,149705,1,0,0:0:0:0:
256,192,149765,1,8,0:0:0:0:
256,192,150005,1,0,0:0:0:0:
256,192,150125,1,0,0:0:0:0:
256,192,150245,1,8,0:0:0:0:
256,192,150365,1,0,0:0:0:0:
256,192,150485,1,8,0:0:0:0:
256,192,150725,1,12,0:0:0:0:
256,192,150965,1,4,0:0:0:0:
256,192,151205,1,8,0:0:0:0:
256,192,151235,1,8,0:0:0:0:
256,192,151445,1,4,0:0:0:0:
256,192,151685,1,12,0:0:0:0:
256,192,151925,1,8,0:0:0:0:
256,192,151985,1,0,0:0:0:0:
256,192,152045,1,8,0:0:0:0:
256,192,152105,1,8,0:0:0:0:
256,192,152165,1,0,0:0:0:0:
256,192,152405,1,0,0:0:0:0:
256,192,152465,1,0,0:0:0:0:
256,192,152525,1,0,0:0:0:0:
256,192,152585,1,0,0:0:0:0:
256,192,152645,1,8,0:0:0:0:
256,192,152885,1,8,0:0:0:0:
256,192,152945,1,8,0:0:0:0:
256,192,153005,1,0,0:0:0:0:
256,192,153065,1,0,0:0:0:0:
256,192,153125,1,8,0:0:0:0:
256,192,153245,1,8,0:0:0:0:
256,192,153365,1,0,0:0:0:0:
256,192,153605,1,8,0:0:0:0:
256,192,153845,1,0,0:0:0:0:
256,192,153905,1,0,0:0:0:0:
256,192,153965,1,0,0:0:0:0:
256,192,154025,1,0,0:0:0:0:
256,192,154085,1,8,0:0:0:0:
256,192,154205,1,0,0:0:0:0:
256,192,154325,1,8,0:0:0:0:
256,192,154385,1,0,0:0:0:0:
256,192,154445,1,0,0:0:0:0:
256,192,154505,1,0,0:0:0:0:
256,192,154565,1,12,0:0:0:0:
256,192,155045,1,12,0:0:0:0:
256,192,155165,1,4,0:0:0:0:
256,192,155525,1,4,0:0:0:0:
256,192,155645,1,8,0:0:0:0:
256,192,155705,1,8,0:0:0:0:
256,192,155765,1,0,0:0:0:0:
256,192,155885,1,8,0:0:0:0:
256,192,156005,1,0,0:0:0:0:
256,192,156065,1,0,0:0:0:0:
256,192,156125,1,8,0:0:0:0:
256,192,156245,1,0,0:0:0:0:
256,192,156365,1,8,0:0:0:0:
256,192,156485,1,0,0:0:0:0:
256,192,156605,1,8,0:0:0:0:
256,192,156725,1,0,0:0:0:0:
256,192,156785,1,0,0:0:0:0:
256,192,156845,1,8,0:0:0:0:
256,192,156905,1,0,0:0:0:0:
256,192,156965,1,2,0:0:0:0:
256,192,157085,1,8,0:0:0:0:
256,192,157205,1,0,0:0:0:0:
256,192,157265,1,0,0:0:0:0:
256,192,157325,1,8,0:0:0:0:
256,192,157385,1,0,0:0:0:0:
256,192,157445,1,8,0:0:0:0:
256,192,157505,1,8,0:0:0:0:
256,192,157565,1,8,0:0:0:0:
256,192,157625,1,8,0:0:0:0:
256,192,157685,1,0,0:0:0:0:
256,192,157805,1,8,0:0:0:0:
256,192,157925,1,0,0:0:0:0:
256,192,157985,1,0,0:0:0:0:
256,192,158045,1,8,0:0:0:0:
256,192,158165,1,0,0:0:0:0:
256,192,158285,1,0,0:0:0:0:
256,192,158405,1,8,0:0:0:0:
256,192,158525,1,8,0:0:0:0:
256,192,158645,1,0,0:0:0:0:
256,192,158705,1,0,0:0:0:0:
256,192,158765,1,0,0:0:0:0:
256,192,158825,1,0,0:0:0:0:
256,192,158885,1,8,0:0:0:0:
256,192,159005,1,0,0:0:0:0:
256,192,159065,1,0,0:0:0:0:
256,192,159125,1,8,0:0:0:0:
256,192,159185,1,8,0:0:0:0:
256,192,159245,1,8,0:0:0:0:
256,192,159305,1,8,0:0:0:0:
256,192,159365,1,4,0:0:0:0:
256,192,159485,1,8,0:0:0:0:
256,192,159605,1,0,0:0:0:0:
256,192,159725,1,0,0:0:0:0:
256,192,159785,1,0,0:0:0:0:
256,192,159845,1,8,0:0:0:0:
256,192,159905,1,0,0:0:0:0:
256,192,159965,1,8,0:0:0:0:
256,192,160025,1,8,0:0:0:0:
256,192,160085,1,0,0:0:0:0:
256,192,160205,1,8,0:0:0:0:
256,192,160325,1,0,0:0:0:0:
256,192,160445,1,8,0:0:0:0:
256,192,160565,1,0,0:0:0:0:
256,192,160625,1,0,0:0:0:0:
256,192,160685,1,8,0:0:0:0:
256,192,160805,1,0,0:0:0:0:
256,192,160925,1,8,0:0:0:0:
256,192,161045,1,0,0:0:0:0:
256,192,161105,1,0,0:0:0:0:
256,192,161165,1,8,0:0:0:0:
256,192,161225,1,0,0:0:0:0:
256,192,161285,1,8,0:0:0:0:
256,192,161405,1,8,0:0:0:0:
256,192,161525,1,0,0:0:0:0:
256,192,161645,1,8,0:0:0:0:
256,192,161765,1,8,0:0:0:0:
256,192,161845,1,0,0:0:0:0:
256,192,161925,1,0,0:0:0:0:
256,192,162005,1,8,0:0:0:0:
256,192,162085,1,8,0:0:0:0:
256,192,162165,1,0,0:0:0:0:
256,192,162245,1,8,0:0:0:0:
256,192,162325,1,0,0:0:0:0:
256,192,162405,1,0,0:0:0:0:
256,192,162485,1,8,0:0:0:0:
256,192,162565,1,0,0:0:0:0:
256,192,162645,1,0,0:0:0:0:
256,192,162725,1,8,0:0:0:0:
256,192,162805,1,8,0:0:0:0:
256,192,162885,1,8,0:0:0:0:
256,192,162965,1,0,0:0:0:0:
256,192,163045,1,0,0:0:0:0:
256,192,163125,1,0,0:0:0:0:
256,192,163205,1,12,0:0:0:0:
256,192,163325,1,8,0:0:0:0:
256,192,163445,1,0,0:0:0:0:
256,192,163565,1,8,0:0:0:0:
256,192,163685,1,0,0:0:0:0:
256,192,163745,1,0,0:0:0:0:
256,192,163805,1,8,0:0:0:0:
256,192,163865,1,0,0:0:0:0:
256,192,163925,1,0,0:0:0:0:
256,192,164045,1,8,0:0:0:0:
256,192,164165,1,0,0:0:0:0:
256,192,164285,1,8,0:0:0:0:
256,192,164345,1,8,0:0:0:0:
256,192,164405,1,0,0:0:0:0:
256,192,164465,1,0,0:0:0:0:
256,192,164525,1,8,0:0:0:0:
256,192,164645,1,0,0:0:0:0:
256,192,164765,1,8,0:0:0:0:
256,192,164825,1,0,0:0:0:0:
256,192,164885,1,0,0:0:0:0:
256,192,164945,1,0,0:0:0:0:
256,192,165005,1,8,0:0:0:0:
256,192,165065,1,8,0:0:0:0:
256,192,165125,1,0,0:0:0:0:
256,192,165245,1,8,0:0:0:0:
256,192,165365,1,8,0:0:0:0:
256,192,165485,1,0,0:0:0:0:
256,192,165605,1,8,0:0:0:0:
256,192,165665,1,0,0:0:0:0:
256,192,165725,1,8,0:0:0:0:
256,192,165845,1,0,0:0:0:0:
256,192,165965,1,8,0:0:0:0:
256,192,166085,1,0,0:0:0:0:
256,192,166205,1,0,0:0:0:0:
256,192,166325,1,8,0:0:0:0:
256,192,166385,1,8,0:0:0:0:
256,192,166445,1,0,0:0:0:0:
256,192,166505,1,0,0:0:0:0:
256,192,166565,1,8,0:0:0:0:
256,192,166625,1,0,0:0:0:0:
256,192,166685,1,0,0:0:0:0:
256,192,166745,1,0,0:0:0:0:
256,192,166805,1,8,0:0:0:0:
256,192,166865,1,8,0:0:0:0:
256,192,166925,1,8,0:0:0:0:
256,192,166985,1,8,0:0:0:0:
256,192,167045,1,4,0:0:0:0:
256,192,167165,1,8,0:0:0:0:
256,192,167285,1,0,0:0:0:0:
256,192,167405,1,8,0:0:0:0:
256,192,167465,1,8,0:0:0:0:
256,192,167525,1,0,0:0:0:0:
256,192,167585,1,0,0:0:0:0:
256,192,167645,1,8,0:0:0:0:
256,192,167765,1,0,0:0:0:0:
256,192,167885,1,8,0:0:0:0:
256,192,168005,1,0,0:0:0:0:
256,192,168125,1,8,0:0:0:0:
256,192,168185,1,0,0:0:0:0:
256,192,168245,1,0,0:0:0:0:
256,192,168305,1,0,0:0:0:0:
256,192,168365,1,8,0:0:0:0:
256,192,168485,1,0,0:0:0:0:
256,192,168605,1,8,0:0:0:0:
256,192,168665,1,8,0:0:0:0:
256,192,168725,1,0,0:0:0:0:
256,192,168845,1,8,0:0:0:0:
256,192,168965,1,0,0:0:0:0:
256,192,169045,1,0,0:0:0:0:
256,192,169125,1,8,0:0:0:0:
256,192,169205,1,8,0:0:0:0:
256,192,169285,1,0,0:0:0:0:
256,192,169365,1,0,0:0:0:0:
256,192,169445,1,8,0:0:0:0:
256,192,169525,1,0,0:0:0:0:
256,192,169605,1,0,0:0:0:0:
256,192,169685,1,0,0:0:0:0:
256,192,169765,1,8,0:0:0:0:
256,192,169845,1,8,0:0:0:0:
256,192,169925,1,0,0:0:0:0:
256,192,170005,1,0,0:0:0:0:
256,192,170085,1,8,0:0:0:0:
256,192,170165,1,0,0:0:0:0:
256,192,170245,1,0,0:0:0:0:
256,192,170325,1,0,0:0:0:0:
256,192,170405,1,8,0:0:0:0:
256,192,170485,1,8,0:0:0:0:
256,192,170565,1,0,0:0:0:0:
256,192,170645,1,0,0:0:0:0:
256,192,170725,1,8,0:0:0:0:
256,192,170805,1,8,0:0:0:0:
256,192,170885,1,4,0:0:0:0:
256,192,171005,1,8,0:0:0:0:
256,192,171065,1,8,0:0:0:0:
256,192,171125,1,0,0:0:0:0:
256,192,171245,1,0,0:0:0:0:
256,192,171365,1,8,0:0:0:0:
256,192,171485,1,0,0:0:0:0:
256,192,171605,1,8,0:0:0:0:
256,192,171665,1,0,0:0:0:0:
256,192,171725,1,8,0:0:0:0:
256,192,171785,1,0,0:0:0:0:
256,192,171845,1,8,0:0:0:0:
256,192,171965,1,0,0:0:0:0:
256,192,172085,1,8,0:0:0:0:
256,192,172145,1,8,0:0:0:0:
256,192,172205,1,0,0:0:0:0:
256,192,172265,1,0,0:0:0:0:
256,192,172325,1,8,0:0:0:0:
256,192,172445,1,0,0:0:0:0:
256,192,172565,1,8,0:0:0:0:
256,192,172625,1,0,0:0:0:0:
256,192,172685,1,0,0:0:0:0:
256,192,172745,1,0,0:0:0:0:
256,192,172805,1,8,0:0:0:0:
256,192,172865,1,0,0:0:0:0:
256,192,172925,1,8,0:0:0:0:
256,192,172985,1,8,0:0:0:0:
256,192,173045,1,0,0:0:0:0:
256,192,173165,1,8,0:0:0:0:
256,192,173285,1,8,0:0:0:0:
256,192,173405,1,0,0:0:0:0:
256,192,173525,1,0,0:0:0:0:
256,192,173585,1,0,0:0:0:0:
256,192,173645,1,8,0:0:0:0:
256,192,173705,1,0,0:0:0:0:
256,192,173765,1,8,0:0:0:0:
256,192,173885,1,0,0:0:0:0:
256,192,174005,1,0,0:0:0:0:
256,192,174125,1,8,0:0:0:0:
256,192,174185,1,8,0:0:0:0:
256,192,174245,1,8,0:0:0:0:
256,192,174365,1,0,0:0:0:0:
256,192,174485,1,8,0:0:0:0:
256,192,174545,1,0,0:0:0:0:
256,192,174605,1,0,0:0:0:0:
256,192,174665,1,0,0:0:0:0:
256,192,174725,1,12,0:0:0:0:
256,192,174845,1,0,0:0:0:0:
256,192,174965,1,8,0:0:0:0:
256,192,175085,1,0,0:0:0:0:
256,192,175145,1,0,0:0:0:0:
256,192,175205,1,8,0:0:0:0:
256,192,175265,1,0,0:0:0:0:
256,192,175325,1,0,0:0:0:0:
256,192,175445,1,0,0:0:0:0:
256,192,175565,1,0,0:0:0:0:
256,192,175685,1,8,0:0:0:0:
256,192,175745,1,8,0:0:0:0:
256,192,175805,1,0,0:0:0:0:
256,192,175925,1,0,0:0:0:0:
256,192,176045,1,0,0:0:0:0:
256,192,176165,1,8,0:0:0:0:
256,192,176225,1,0,0:0:0:0:
256,192,176285,1,0,0:0:0:0:
256,192,176405,1,8,0:0:0:0:
256,192,176525,1,0,0:0:0:0:
256,192,176645,1,8,0:0:0:0:
256,192,176705,1,0,0:0:0:0:
256,192,176765,1,8,0:0:0:0:
256,192,176825,1,8,0:0:0:0:
256,192,176885,1,0,0:0:0:0:
256,192,177005,1,8,0:0:0:0:
256,192,177125,1,4,0:0:0:0:
256,192,177605,1,8,0:0:0:0:
256,192,180245,1,12,0:0:0:0:
256,192,180485,1,0,0:0:0:0:
256,192,180605,1,8,0:0:0:0:
256,192,180665,1,0,0:0:0:0:
256,192,180725,1,8,0:0:0:0:
256,192,180845,1,0,0:0:0:0:
256,192,180965,1,8,0:0:0:0:
256,192,181085,1,0,0:0:0:0:
256,192,181205,1,0,0:0:0:0:
256,192,181325,1,0,0:0:0:0:
256,192,181445,1,8,0:0:0:0:
256,192,181565,1,0,0:0:0:0:
256,192,181685,1,8,0:0:0:0:
256,192,181745,1,0,0:0:0:0:
256,192,181805,1,0,0:0:0:0:
256,192,181865,1,0,0:0:0:0:
256,192,181925,1,8,0:0:0:0:
256,192,181985,1,8,0:0:0:0:
256,192,182045,1,0,0:0:0:0:
256,192,182105,1,0,0:0:0:0:
256,192,182165,1,8,0:0:0:0:
256,192,182225,1,8,0:0:0:0:
256,192,182285,1,8,0:0:0:0:
256,192,182345,1,8,0:0:0:0:
256,192,182405,1,4,0:0:0:0:
256,192,182525,1,8,0:0:0:0:
256,192,182645,1,0,0:0:0:0:
256,192,182765,1,8,0:0:0:0:
256,192,182825,1,8,0:0:0:0:
256,192,182885,1,0,0:0:0:0:
256,192,182945,1,0,0:0:0:0:
256,192,183005,1,8,0:0:0:0:
256,192,183125,1,0,0:0:0:0:
256,192,183245,1,0,0:0:0:0:
256,192,183365,1,8,0:0:0:0:
256,192,183485,1,0,0:0:0:0:
256,192,183545,1,0,0:0:0:0:
256,192,183605,1,8,0:0:0:0:
256,192,183665,1,8,0:0:0:0:
256,192,183725,1,0,0:0:0:0:
256,192,183845,1,8,0:0:0:0:
256,192,183965,1,8,0:0:0:0:
256,192,184085,1,0,0:0:0:0:
256,192,184145,1,0,0:0:0:0:
256,192,184205,1,8,0:0:0:0:
256,192,184325,1,0,0:0:0:0:
256,192,184405,1,0,0:0:0:0:
256,192,184485,1,0,0:0:0:0:
256,192,184565,1,8,0:0:0:0:
256,192,184645,1,8,0:0:0:0:
256,192,184725,1,8,0:0:0:0:
256,192,184805,1,0,0:0:0:0:
256,192,184885,1,0,0:0:0:0:
256,192,184965,1,0,0:0:0:0:
256,192,185045,1,8,0:0:0:0:
256,192,185125,1,0,0:0:0:0:
256,192,185205,1,0,0:0:0:0:
256,192,185285,1,8,0:0:0:0:
256,192,185365,1,8,0:0:0:0:
256,192,185445,1,8,0:0:0:0:
256,192,185525,1,0,0:0:0:0:
256,192,185605,1,0,0:0:0:0:
256,192,185685,1,0,0:0:0:0:
256,192,185765,1,8,0:0:0:0:
256,192,185845,1,8,0:0:0:0:
256,192,185925,1,8,0:0:0:0:
256,192,186005,1,0,0:0:0:0:
256,192,186085,1,8,0:0:0:0:
256,192,186165,1,8,0:0:0:0:
256,192,186245,1,0,0:0:0:0:
256,192,186325,1,0,0:0:0:0:
256,192,186405,1,0,0:0:0:0:
256,192,186485,1,8,0:0:0:0:
256,192,186565,1,0,0:0:0:0:
256,192,186645,1,8,0:0:0:0:
256,192,186725,1,8,0:0:0:0:
256,192,186805,1,0,0:0:0:0:
256,192,186885,1,0,0:0:0:0:
256,192,186965,1,8,0:0:0:0:
256,192,187045,1,8,0:0:0:0:
256,192,187125,1,0,0:0:0:0:
256,192,187205,1,8,0:0:0:0:
256,192,187285,1,0,0:0:0:0:
256,192,187365,1,0,0:0:0:0:
256,192,187445,1,8,0:0:0:0:
256,192,187525,1,0,0:0:0:0:
256,192,187605,1,0,0:0:0:0:
256,192,187685,1,8,0:0:0:0:
256,192,187765,1,8,0:0:0:0:
256,192,187845,1,0,0:0:0:0:
256,192,187925,1,8,0:0:0:0:
256,192,188005,1,0,0:0:0:0:
256,192,188085,1,0,0:0:0:0:
256,192,188165,1,8,0:0:0:0:
256,192,188245,1,0,0:0:0:0:
256,192,188325,1,0,0:0:0:0:
256,192,188405,1,8,0:0:0:0:
256,192,188565,1,0,0:0:0:0:
256,192,188645,1,8,0:0:0:0:
256,192,188725,1,8,0:0:0:0:
256,192,188805,1,0,0:0:0:0:
256,192,188885,1,8,0:0:0:0:
256,192,188945,1,0,0:0:0:0:
256,192,189005,1,8,0:0:0:0:
256,192,189065,1,8,0:0:0:0:
256,192,189125,1,0,0:0:0:0:
256,192,189185,1,0,0:0:0:0:
256,192,189245,1,8,0:0:0:0:
256,192,189305,1,8,0:0:0:0:
256,192,189365,1,0,0:0:0:0:
256,192,189485,1,0,0:0:0:0:
256,192,189545,1,0,0:0:0:0:
256,192,189605,1,8,0:0:0:0:
256,192,189665,1,0,0:0:0:0:
256,192,189725,1,0,0:0:0:0:
256,192,189785,1,0,0:0:0:0:
256,192,189845,1,8,0:0:0:0:
256,192,189905,1,8,0:0:0:0:
256,192,189965,1,0,0:0:0:0:
256,192,190085,1,8,0:0:0:0:
256,192,190145,1,0,0:0:0:0:
256,192,190205,1,8,0:0:0:0:
256,192,190265,1,8,0:0:0:0:
256,192,190325,1,0,0:0:0:0:
256,192,190385,1,0,0:0:0:0:
256,192,190445,1,0,0:0:0:0:
256,192,190505,1,0,0:0:0:0:
256,192,190565,1,8,0:0:0:0:
256,192,190685,1,0,0:0:0:0:
256,192,190745,1,8,0:0:0:0:
256,192,190805,1,0,0:0:0:0:
256,192,190925,1,8,0:0:0:0:
256,192,191045,1,0,0:0:0:0:
256,192,191105,1,0,0:0:0:0:
256,192,191165,1,8,0:0:0:0:
256,192,191225,1,0,0:0:0:0:
256,192,191285,1,0,0:0:0:0:
256,192,191345,1,0,0:0:0:0:
256,192,191405,1,8,0:0:0:0:
256,192,191465,1,8,0:0:0:0:
256,192,191525,1,0,0:0:0:0:
256,192,191585,1,0,0:0:0:0:
256,192,191645,1,8,0:0:0:0:
256,192,191765,1,0,0:0:0:0:
256,192,191825,1,0,0:0:0:0:
256,192,191885,1,0,0:0:0:0:
256,192,191945,1,0,0:0:0:0:
256,192,192005,1,8,0:0:0:0:
256,192,192065,1,0,0:0:0:0:
256,192,192125,1,8,0:0:0:0:
256,192,192185,1,8,0:0:0:0:
256,192,192245,1,0,0:0:0:0:
256,192,192305,1,8,0:0:0:0:
256,192,192365,1,0,0:0:0:0:
256,192,192485,1,8,0:0:0:0:
256,192,192545,1,0,0:0:0:0:
256,192,192605,1,8,0:0:0:0:
256,192,192665,1,8,0:0:0:0:
256,192,192725,1,0,0:0:0:0:
256,192,192785,1,0,0:0:0:0:
256,192,192845,1,0,0:0:0:0:
256,192,192905,1,0,0:0:0:0:
256,192,192965,1,8,0:0:0:0:
256,192,193025,1,0,0:0:0:0:
256,192,193085,1,8,0:0:0:0:
256,192,193145,1,8,0:0:0:0:
256,192,193205,1,8,0:0:0:0:
256,192,193265,1,8,0:0:0:0:
256,192,193325,1,8,0:0:0:0:
256,192,193385,1,8,0:0:0:0:
256,192,193445,1,0,0:0:0:0:
256,192,193505,1,0,0:0:0:0:
256,192,193565,1,8,0:0:0:0:
256,192,193625,1,8,0:0:0:0:
256,192,193685,1,0,0:0:0:0:
256,192,193745,1,0,0:0:0:0:
256,192,193805,1,8,0:0:0:0:
256,192,193865,1,0,0:0:0:0:
256,192,193921,1,12,0:0:0:0:
256,192,195463,1,0,0:0:0:0:
256,192,195720,1,8,0:0:0:0:
256,192,195806,1,0,0:0:0:0:
256,192,196063,1,8,0:0:0:0:
256,192,196149,1,8,0:0:0:0:
256,192,196320,1,0,0:0:0:0:
256,192,196492,1,0,0:0:0:0:
256,192,196663,1,12,0:0:0:0:
256,192,196834,1,8,0:0:0:0:
256,192,196920,1,0,0:0:0:0:
256,192,197006,1,8,0:0:0:0:
256,192,197092,1,8,0:0:0:0:
256,192,197177,1,0,0:0:0:0:
256,192,197349,1,8,0:0:0:0:
256,192,197520,1,0,0:0:0:0:
256,192,197606,1,0,0:0:0:0:
256,192,197692,1,8,0:0:0:0:
256,192,197777,1,8,0:0:0:0:
256,192,197863,1,8,0:0:0:0:
256,192,198034,1,0,0:0:0:0:
256,192,198120,1,0,0:0:0:0:
256,192,198206,1,8,0:0:0:0:
256,192,198292,1,8,0:0:0:0:
256,192,198377,1,0,0:0:0:0:
256,192,198463,1,0,0:0:0:0:
256,192,198549,1,8,0:0:0:0:
256,192,198720,1,0,0:0:0:0:
256,192,198892,1,8,0:0:0:0:
256,192,198977,1,0,0:0:0:0:
256,192,199063,1,0,0:0:0:0:
256,192,199149,1,8,0:0:0:0:
256,192,199234,1,8,0:0:0:0:
256,192,199406,1,12,0:0:0:0:
256,192,199577,1,0,0:0:0:0:
256,192,199663,1,8,0:0:0:0:
256,192,199749,1,0,0:0:0:0:
256,192,199834,1,0,0:0:0:0:
256,192,199920,1,8,0:0:0:0:
256,192,200006,1,0,0:0:0:0:
256,192,200092,1,8,0:0:0:0:
256,192,200263,1,8,0:0:0:0:
256,192,200349,1,8,0:0:0:0:
256,192,200434,1,0,0:0:0:0:
256,192,200520,1,8,0:0:0:0:
256,192,200606,1,8,0:0:0:0:
256,192,200777,1,8,0:0:0:0:
256,192,200863,1,0,0:0:0:0:
256,192,200949,1,8,0:0:0:0:
256,192,201034,1,0,0:0:0:0:
256,192,201120,1,0,0:0:0:0:
256,192,201206,1,0,0:0:0:0:
256,192,201292,1,8,0:0:0:0:
256,192,201377,1,8,0:0:0:0:
256,192,201463,1,0,0:0:0:0:
256,192,201549,1,0,0:0:0:0:
256,192,201634,1,8,0:0:0:0:
256,192,201720,1,0,0:0:0:0:
256,192,201806,1,8,0:0:0:0:
256,192,201892,1,8,0:0:0:0:
256,192,201977,1,8,0:0:0:0:
256,192,202149,1,12,0:0:0:0:
256,192,202320,1,8,0:0:0:0:
256,192,202406,1,0,0:0:0:0:
256,192,202492,1,0,0:0:0:0:
256,192,202577,1,0,0:0:0:0:
256,192,202663,1,8,0:0:0:0:
256,192,202749,1,8,0:0:0:0:
256,192,202834,1,0,0:0:0:0:
256,192,202920,1,0,0:0:0:0:
256,192,203006,1,8,0:0:0:0:
256,192,203092,1,0,0:0:0:0:
256,192,203177,1,0,0:0:0:0:
256,192,203263,1,8,0:0:0:0:
256,192,203349,1,8,0:0:0:0:
256,192,203520,1,0,0:0:0:0:
256,192,203692,1,8,0:0:0:0:
256,192,203777,1,8,0:0:0:0:
256,192,203863,1,0,0:0:0:0:
256,192,203949,1,0,0:0:0:0:
256,192,204034,1,8,0:0:0:0:
256,192,204206,1,0,0:0:0:0:
256,192,204292,1,0,0:0:0:0:
256,192,204377,1,8,0:0:0:0:
256,192,204463,1,8,0:0:0:0:
256,192,204549,1,0,0:0:0:0:
256,192,204634,1,8,0:0:0:0:
256,192,204720,1,8,0:0:0:0:
256,192,204806,1,0,0:0:0:0:
256,192,204892,1,12,0:0:0:0:
256,192,205063,1,8,0:0:0:0:
256,192,205234,1,0,0:0:0:0:
256,192,205320,1,0,0:0:0:0:
256,192,205406,1,8,0:0:0:0:
256,192,205492,1,8,0:0:0:0:
256,192,205577,1,0,0:0:0:0:
256,192,205749,1,8,0:0:0:0:
256,192,205834,1,0,0:0:0:0:
256,192,205920,1,0,0:0:0:0:
256,192,206006,1,8,0:0:0:0:
256,192,206092,1,8,0:0:0:0:
256,192,206263,1,0,0:0:0:0:
256,192,206434,1,8,0:0:0:0:
256,192,206520,1,0,0:0:0:0:
256,192,206606,1,8,0:0:0:0:
256,192,206692,1,8,0:0:0:0:
256,192,206777,1,0,0:0:0:0:
256,192,206863,1,0,0:0:0:0:
256,192,206949,1,8,0:0:0:0:
256,192,207034,1,0,0:0:0:0:
256,192,207120,1,0,0:0:0:0:
256,192,207206,1,0,0:0:0:0:
256,192,207292,1,8,0:0:0:0:
256,192,207377,1,8,0:0:0:0:
256,192,207463,1,8,0:0:0:0:
256,192,207634,1,12,0:0:0:0:
256,192,207806,1,0,0:0:0:0:
256,192,207892,1,8,0:0:0:0:
256,192,207977,1,0,0:0:0:0:
256,192,208063,1,0,0:0:0:0:
256,192,208149,1,8,0:0:0:0:
256,192,208234,1,0,0:0:0:0:
256,192,208320,1,8,0:0:0:0:
256,192,208406,1,8,0:0:0:0:
256,192,208492,1,0,0:0:0:0:
256,192,208577,1,8,0:0:0:0:
256,192,208663,1,0,0:0:0:0:
256,192,208749,1,8,0:0:0:0:
256,192,208834,1,8,0:0:0:0:
256,192,209006,1,0,0:0:0:0:
256,192,209177,1,8,0:0:0:0:
256,192,209263,1,8,0:0:0:0:
256,192,209349,1,0,0:0:0:0:
256,192,209434,1,0,0:0:0:0:
256,192,209520,1,8,0:0:0:0:
256,192,209606,1,0,0:0:0:0:
256,192,209692,1,0,0:0:0:0:
256,192,209777,1,0,0:0:0:0:
256,192,209863,1,8,0:0:0:0:
256,192,209949,1,0,0:0:0:0:
256,192,210034,1,8,0:0:0:0:
256,192,210120,1,8,0:0:0:0:
256,192,210206,1,8,0:0:0:0:
256,192,210377,1,12,0:0:0:0:
256,192,210549,1,0,0:0:0:0:
256,192,210634,1,0,0:0:0:0:
256,192,210720,1,8,0:0:0:0:
256,192,210806,1,0,0:0:0:0:
256,192,210892,1,8,0:0:0:0:
256,192,211063,1,0,0:0:0:0:
256,192,211234,1,8,0:0:0:0:
256,192,211320,1,8,0:0:0:0:
256,192,211406,1,0,0:0:0:0:
256,192,211492,1,8,0:0:0:0:
256,192,211577,1,8,0:0:0:0:
256,192,211749,1,0,0:0:0:0:
256,192,211920,1,8,0:0:0:0:
256,192,212006,1,8,0:0:0:0:
256,192,212092,1,0,0:0:0:0:
256,192,212177,1,0,0:0:0:0:
256,192,212263,1,8,0:0:0:0:
256,192,212349,1,0,0:0:0:0:
256,192,212434,1,0,0:0:0:0:
256,192,212520,1,0,0:0:0:0:
256,192,212606,1,8,0:0:0:0:
256,192,212692,1,0,0:0:0:0:
256,192,212777,1,0,0:0:0:0:
256,192,212863,1,8,0:0:0:0:
256,192,212949,1,8,0:0:0:0:
256,192,213120,1,12,0:0:0:0:
256,192,213292,1,0,0:0:0:0:
256,192,213377,1,8,0:0:0:0:
256,192,213463,1,0,0:0:0:0:
256,192,213549,1,0,0:0:0:0:
256,192,213634,1,8,0:0:0:0:
256,192,213720,1,8,0:0:0:0:
256,192,213806,1,0,0:0:0:0:
256,192,213892,1,0,0:0:0:0:
256,192,213977,1,8,0:0:0:0:
256,192,214063,1,0,0:0:0:0:
256,192,214149,1,8,0:0:0:0:
256,192,214234,1,8,0:0:0:0:
256,192,214320,1,8,0:0:0:0:
256,192,214492,1,0,0:0:0:0:
256,192,214663,1,8,0:0:0:0:
256,192,214749,1,8,0:0:0:0:
256,192,214834,1,0,0:0:0:0:
256,192,214920,1,0,0:0:0:0:
256,192,215006,1,8,0:0:0:0:
256,192,215092,1,8,0:0:0:0:
256,192,215177,1,0,0:0:0:0:
256,192,215263,1,0,0:0:0:0:
256,192,215349,1,8,0:0:0:0:
256,192,215434,1,8,0:0:0:0:
256,192,215520,1,0,0:0:0:0:
256,192,215606,1,8,0:0:0:0:
256,192,215692,1,8,0:0:0:0:
256,192,215777,1,0,0:0:0:0:
256,192,215863,1,8,0:0:0:0:
256,192,216034,1,0,0:0:0:0:
256,192,216120,1,0,0:0:0:0:
256,192,216206,1,12,0:0:0:0:
256,192,219974,1,12,0:0:0:0:
256,192,220402,1,0,0:0:0:0:
256,192,220509,1,8,0:0:0:0:
256,192,220616,1,0,0:0:0:0:
256,192,220724,1,0,0:0:0:0:
256,192,220831,1,8,0:0:0:0:
256,192,220938,1,0,0:0:0:0:
256,192,221152,1,0,0:0:0:0:
256,192,221259,1,8,0:0:0:0:
256,192,221366,1,0,0:0:0:0:
256,192,221474,1,8,0:0:0:0:
256,192,221581,1,8,0:0:0:0:
256,192,221688,1,8,0:0:0:0:
256,192,221795,1,0,0:0:0:0:
256,192,222116,1,8,0:0:0:0:
256,192,222438,1,0,0:0:0:0:
256,192,222545,1,8,0:0:0:0:
256,192,222759,1,0,0:0:0:0:
256,192,222866,1,0,0:0:0:0:
256,192,222974,1,8,0:0:0:0:
256,192,223081,1,0,0:0:0:0:
256,192,223402,1,8,0:0:0:0:
256,192,223509,1,0,0:0:0:0:
256,192,223616,1,8,0:0:0:0:
256,192,223831,1,8,0:0:0:0:
256,192,223938,1,0,0:0:0:0:
256,192,224259,1,8,0:0:0:0:
256,192,224474,1,0,0:0:0:0:
256,192,224581,1,0,0:0:0:0:
256,192,224688,1,8,0:0:0:0:
256,192,224795,1,0,0:0:0:0:
256,192,224902,1,8,0:0:0:0:
256,192,225009,1,8,0:0:0:0:
256,192,225116,1,0,0:0:0:0:
256,192,225331,1,0,0:0:0:0:
256,192,225545,1,8,0:0:0:0:
256,192,225652,1,0,0:0:0:0:
256,192,225759,1,0,0:0:0:0:
256,192,225974,1,8,0:0:0:0:
256,192,226188,1,0,0:0:0:0:
256,192,226295,1,0,0:0:0:0:
256,192,226402,1,8,0:0:0:0:
256,192,226509,1,0,0:0:0:0:
256,192,226616,1,8,0:0:0:0:
256,192,226724,1,0,0:0:0:0:
256,192,226831,1,8,0:0:0:0:
256,192,226938,1,8,0:0:0:0:
256,192,227045,1,0,0:0:0:0:
256,192,227152,1,8,0:0:0:0:
256,192,227259,1,0,0:0:0:0:
256,192,227366,1,0,0:0:0:0:
256,192,227474,1,8,0:0:0:0:
256,192,227581,1,0,0:0:0:0:
256,192,227688,1,8,0:0:0:0:
256,192,227795,1,8,0:0:0:0:
256,192,227902,1,0,0:0:0:0:
256,192,228009,1,0,0:0:0:0:
256,192,228116,1,8,0:0:0:0:
256,192,228224,1,0,0:0:0:0:
256,192,228331,1,0,0:0:0:0:
256,192,228438,1,0,0:0:0:0:
256,192,228545,1,8,0:0:0:0:
256,192,228652,1,8,0:0:0:0:
256,192,228759,1,8,0:0:0:0:
256,192,228866,1,0,0:0:0:0:
256,192,228974,1,8,0:0:0:0:
256,192,229081,1,0,0:0:0:0:
256,192,229188,1,8,0:0:0:0:
256,192,229295,1,8,0:0:0:0:
256,192,229402,1,0,0:0:0:0:
256,192,229509,1,0,0:0:0:0:
256,192,229616,1,8,0:0:0:0:
256,192,229724,1,0,0:0:0:0:
256,192,229831,1,8,0:0:0:0:
256,192,229938,1,8,0:0:0:0:
256,192,230045,1,0,0:0:0:0:
256,192,230152,1,0,0:0:0:0:
256,192,230259,1,8,0:0:0:0:
256,192,230331,1,0,0:0:0:0:
256,192,230402,1,0,0:0:0:0:
256,192,230474,1,8,0:0:0:0:
256,192,230545,1,8,0:0:0:0:
256,192,230616,1,0,0:0:0:0:
256,192,230688,1,8,0:0:0:0:
256,192,230759,1,0,0:0:0:0:
256,192,230831,1,0,0:0:0:0:
256,192,230902,1,8,0:0:0:0:
256,192,230974,1,8,0:0:0:0:
256,192,231045,1,8,0:0:0:0:
256,192,231116,1,0,0:0:0:0:
256,192,231188,1,0,0:0:0:0:
256,192,231259,1,8,0:0:0:0:
256,192,231331,1,8,0:0:0:0:
256,192,231402,1,0,0:0:0:0:
256,192,231473,1,8,0:0:0:0:
256,192,231545,1,0,0:0:0:0:
256,192,231616,1,0,0:0:0:0:
256,192,231688,1,8,0:0:0:0:
256,192,231759,1,0,0:0:0:0:
256,192,231831,1,0,0:0:0:0:
256,192,231902,1,8,0:0:0:0:
256,192,231973,1,8,0:0:0:0:
256,192,232045,1,0,0:0:0:0:
256,192,232116,1,8,0:0:0:0:
256,192,232188,1,0,0:0:0:0:
256,192,232259,1,0,0:0:0:0:
256,192,232331,1,0,0:0:0:0:
256,192,232402,1,0,0:0:0:0:
256,192,232473,1,0,0:0:0:0:
256,192,232545,1,0,0:0:0:0:
256,192,232616,1,8,0:0:0:0:
256,192,232688,1,0,0:0:0:0:
256,192,232759,1,0,0:0:0:0:
256,192,232831,1,12,0:0:0:0:
256,192,232973,1,12,0:0:0:0:
256,192,233116,1,4,0:0:0:0:
256,192,233259,1,4,0:0:0:0:
256,192,233402,1,12,0:0:0:0:
256,192,233545,1,4,0:0:0:0:
256,192,233688,1,12,0:0:0:0:
256,192,234116,1,4,0:0:0:0:
256,192,234706,1,4,0:0:0:0:
256,192,235402,1,8,0:0:0:0:
256,192,235456,1,8,0:0:0:0:
256,192,235509,1,0,0:0:0:0:
256,192,235563,1,0,0:0:0:0:
256,192,235616,1,8,0:0:0:0:
256,192,235670,1,8,0:0:0:0:
256,192,235723,1,8,0:0:0:0:
256,192,235777,1,8,0:0:0:0:
256,192,235831,1,0,0:0:0:0:
256,192,235884,1,0,0:0:0:0:
256,192,235938,1,0,0:0:0:0:
256,192,235991,1,0,0:0:0:0:
256,192,236045,1,8,0:0:0:0:
256,192,236098,1,8,0:0:0:0:
256,192,236152,1,0,0:0:0:0:
256,192,236206,1,0,0:0:0:0:
256,192,236259,1,8,0:0:0:0:
256,192,236313,1,8,0:0:0:0:
256,192,236366,1,8,0:0:0:0:
256,192,236420,1,8,0:0:0:0:
256,192,236473,1,0,0:0:0:0:
256,192,236527,1,0,0:0:0:0:
256,192,236581,1,8,0:0:0:0:
256,192,236634,1,8,0:0:0:0:
256,192,236688,1,0,0:0:0:0:
256,192,236741,1,0,0:0:0:0:
256,192,236795,1,0,0:0:0:0:
256,192,236848,1,0,0:0:0:0:
256,192,236902,1,8,0:0:0:0:
256,192,236956,1,8,0:0:0:0:
256,192,237009,1,8,0:0:0:0:
256,192,237063,1,8,0:0:0:0:
256,192,237116,1,4,0:0:0:0:
256,192,237574,1,8,0:0:0:0:
256,192,238002,1,0,0:0:0:0:
256,192,238216,1,8,0:0:0:0:
256,192,238430,1,8,0:0:0:0:
256,192,238644,1,0,0:0:0:0:
256,192,239286,1,8,0:0:0:0:
256,192,239714,1,0,0:0:0:0:
256,192,240142,1,8,0:0:0:0:
256,192,240571,1,0,0:0:0:0:
256,192,240999,1,8,0:0:0:0:
256,192,241427,1,0,0:0:0:0:
256,192,241641,1,8,0:0:0:0:
256,192,241855,1,0,0:0:0:0:
256,192,242069,1,0,0:0:0:0:
256,192,242712,1,8,0:0:0:0:
256,192,242926,1,8,0:0:0:0:
256,192,243140,1,0,0:0:0:0:
256,192,243354,1,0,0:0:0:0:
256,192,243568,1,8,0:0:0:0:
256,192,243783,1,8,0:0:0:0:
256,192,243997,1,0,0:0:0:0:
256,192,244211,1,8,0:0:0:0:
256,192,244425,1,8,0:0:0:0:
256,192,244639,1,0,0:0:0:0:
256,192,244853,1,0,0:0:0:0:
256,192,244960,1,0,0:0:0:0:
256,192,245067,1,8,0:0:0:0:
256,192,245174,1,8,0:0:0:0:
256,192,245282,1,0,0:0:0:0:
256,192,245496,1,8,0:0:0:0:
256,192,245924,1,8,0:0:0:0:
256,192,246138,1,8,0:0:0:0:
256,192,246352,1,0,0:0:0:0:
256,192,246566,1,8,0:0:0:0:
256,192,246780,1,0,0:0:0:0:
256,192,246888,1,0,0:0:0:0:
256,192,246995,1,8,0:0:0:0:
256,192,247209,1,0,0:0:0:0:
256,192,247423,1,0,0:0:0:0:
256,192,247851,1,8,0:0:0:0:
256,192,248065,1,8,0:0:0:0:
256,192,248279,1,0,0:0:0:0:
256,192,248494,1,8,0:0:0:0:
256,192,248601,1,8,0:0:0:0:
256,192,248708,1,0,0:0:0:0:
256,192,248922,1,8,0:0:0:0:
256,192,249136,1,8,0:0:0:0:
256,192,249350,1,0,0:0:0:0:
256,192,249564,1,8,0:0:0:0:
256,192,249778,1,0,0:0:0:0:
256,192,249885,1,0,0:0:0:0:
256,192,249992,1,8,0:0:0:0:
256,192,250100,1,0,0:0:0:0:
256,192,250207,1,0,0:0:0:0:
256,192,250421,1,8,0:0:0:0:
256,192,250635,1,0,0:0:0:0:
256,192,250849,1,8,0:0:0:0:
256,192,251063,1,0,0:0:0:0:
256,192,251170,1,0,0:0:0:0:
256,192,251277,1,8,0:0:0:0:
256,192,251706,1,0,0:0:0:0:
256,192,251920,1,8,0:0:0:0:
256,192,252134,1,0,0:0:0:0:
256,192,252348,1,0,0:0:0:0:
256,192,252455,1,0,0:0:0:0:
256,192,252562,1,8,0:0:0:0:
256,192,252776,1,0,0:0:0:0:
256,192,252990,1,8,0:0:0:0:
256,192,253419,1,0,0:0:0:0:
256,192,253633,1,0,0:0:0:0:
256,192,253847,1,8,0:0:0:0:
256,192,254061,1,0,0:0:0:0:
256,192,254168,1,0,0:0:0:0:
256,192,254275,1,0,0:0:0:0:
256,192,254703,1,8,0:0:0:0:
256,192,254918,1,0,0:0:0:0:
256,192,255132,1,8,0:0:0:0:
256,192,255239,1,0,0:0:0:0:
256,192,255346,1,8,0:0:0:0:
256,192,255560,1,0,0:0:0:0:
256,192,255774,1,8,0:0:0:0:
256,192,255988,1,8,0:0:0:0:
256,192,256202,1,0,0:0:0:0:
256,192,256416,1,8,0:0:0:0:
256,192,256631,1,0,0:0:0:0:
256,192,256738,1,0,0:0:0:0:
256,192,256845,1,8,0:0:0:0:
256,192,256952,1,0,0:0:0:0:
256,192,257059,1,0,0:0:0:0:
256,192,257273,1,8,0:0:0:0:
256,192,257487,1,0,0:0:0:0:
256,192,257701,1,12,0:0:0:0:
256,256,257915,2,0,P|128:192|256:96,1,343.000003271103
256,192,259013,5,8,0:0:0:0:
256,192,259133,1,8,0:0:0:0:
256,192,259513,1,4,0:0:0:0:
256,192,259733,1,12,0:0:0:0:
256,192,260656,1,8,0:0:0:0:
256,192,261579,12,4,267117,0:0:0:0:
256,192,270964,12,0,274564,0:0:0:0:
256,192,274804,5,12,0:0:0:0:
256,192,275764,1,0,0:0:0:0:
256,192,276724,1,0,0:0:0:0:
256,192,277684,1,0,0:0:0:0:
256,192,278404,1,0,0:0:0:0:
256,192,278644,1,0,0:0:0:0:
256,192,278704,1,8,0:0:0:0:
256,192,279604,1,8,0:0:0:0:
256,192,280564,1,0,0:0:0:0:
256,192,281524,1,8,0:0:0:0:
256,192,281764,1,8,0:0:0:0:
256,192,282004,1,0,0:0:0:0:
256,192,282244,1,0,0:0:0:0:
256,192,282484,1,8,0:0:0:0:
256,192,283444,1,8,0:0:0:0:
256,192,283924,1,8,0:0:0:0:
256,192,284044,1,8,0:0:0:0:
256,192,284164,1,0,0:0:0:0:
256,192,284284,1,0,0:0:0:0:
256,192,284404,1,8,0:0:0:0:
256,192,284884,1,0,0:0:0:0:
256,192,285364,1,8,0:0:0:0:
256,192,285844,1,0,0:0:0:0:
256,192,286004,1,8,0:0:0:0:
256,192,286164,1,0,0:0:0:0:
256,192,286324,1,0,0:0:0:0:
256,192,286384,1,8,0:0:0:0:
256,192,287284,1,8,0:0:0:0:
256,192,287764,1,0,0:0:0:0:
256,192,287884,1,0,0:0:0:0:
256,192,288244,1,8,0:0:0:0:
256,192,289204,1,12,0:0:0:0:
256,192,289684,1,12,0:0:0:0:
256,192,290164,1,4,0:0:0:0:
256,192,290644,1,8,0:0:0:0:
256,192,290884,1,0,0:0:0:0:
256,192,291124,1,8,0:0:0:0:
256,192,291364,1,8,0:0:0:0:
256,192,291604,1,0,0:0:0:0:
256,192,292084,1,0,0:0:0:0:
256,192,292324,1,0,0:0:0:0:
256,192,292564,1,8,0:0:0:0:
256,192,292804,1,0,0:0:0:0:
256,192,292884,1,0,0:0:0:0:
256,192,292964,1,0,0:0:0:0:
256,192,293044,1,8,0:0:0:0:
256,192,293124,1,8,0:0:0:0:
256,192,293204,1,8,0:0:0:0:
256,192,293284,1,0,0:0:0:0:
256,192,293364,1,0,0:0:0:0:
256,192,293444,1,0,0:0:0:0:
256,192,293524,1,8,0:0:0:0:
256,192,293584,1,8,0:0:0:0:
256,192,293644,1,8,0:0:0:0:
256,192,293704,1,8,0:0:0:0:
256,192,293764,1,0,0:0:0:0:
256,192,293824,1,0,0:0:0:0:
256,192,293884,1,8,0:0:0:0:
256,192,293944,1,8,0:0:0:0:
256,192,294004,1,0,0:0:0:0:
256,192,294364,1,0,0:0:0:0:
256,192,294484,1,0,0:0:0:0:
256,192,294724,1,0,0:0:0:0:
256,192,294964,1,8,0:0:0:0:
256,192,295204,1,0,0:0:0:0:
256,192,295444,1,8,0:0:0:0:
256,192,295564,1,0,0:0:0:0:
256,192,295624,1,8,0:0:0:0:
256,192,295684,1,0,0:0:0:0:
256,192,295804,1,8,0:0:0:0:
256,192,295924,1,8,0:0:0:0:
256,192,296164,1,0,0:0:0:0:
256,192,296404,1,0,0:0:0:0:
256,192,296644,1,8,0:0:0:0:
256,192,296884,1,12,0:0:0:0:
256,192,297124,1,4,0:0:0:0:
256,192,297364,1,12,0:0:0:0:
256,192,297604,1,0,0:0:0:0:
256,192,297844,1,0,0:0:0:0:
256,192,298324,1,0,0:0:0:0:
256,192,298564,1,8,0:0:0:0:
256,192,298804,1,0,0:0:0:0:
256,192,299044,1,0,0:0:0:0:
256,192,299284,1,8,0:0:0:0:
256,192,299764,1,0,0:0:0:0:
256,192,300004,1,0,0:0:0:0:
256,192,300244,1,0,0:0:0:0:
256,192,300484,1,8,0:0:0:0:
256,192,300544,1,8,0:0:0:0:
256,192,300724,1,0,0:0:0:0:
256,192,300964,1,0,0:0:0:0:
256,192,301204,1,8,0:0:0:0:
256,192,301444,1,8,0:0:0:0:
256,192,301684,1,0,0:0:0:0:
256,192,302164,1,8,0:0:0:0:
256,192,302404,1,0,0:0:0:0:
256,192,302644,1,8,0:0:0:0:
256,192,302884,1,8,0:0:0:0:
256,192,303124,1,0,0:0:0:0:
256,192,303364,1,8,0:0:0:0:
256,192,303444,1,8,0:0:0:0:
256,192,303524,1,8,0:0:0:0:
256,192,303604,1,0,0:0:0:0:
256,192,303684,1,8,0:0:0:0:
256,192,303764,1,8,0:0:0:0:
256,192,303844,1,0,0:0:0:0:
256,192,303924,1,0,0:0:0:0:
256,192,304004,1,0,0:0:0:0:
256,192,304084,1,8,0:0:0:0:
256,192,304324,1,0,0:0:0:0:
256,192,304564,1,8,0:0:0:0:
256,192,304804,1,0,0:0:0:0:
256,192,305044,1,8,0:0:0:0:
256,192,305524,1,4,0:0:0:0:
256,192,305764,1,8,0:0:0:0:
256,192,306004,1,0,0:0:0:0:
256,192,306124,1,0,0:0:0:0:
256,192,306244,1,0,0:0:0:0:
256,192,306364,1,8,0:0:0:0:
256,192,306484,1,8,0:0:0:0:
256,192,306724,1,0,0:0:0:0:
256,192,306964,1,8,0:0:0:0:
256,192,307204,1,0,0:0:0:0:
256,192,307324,1,0,0:0:0:0:
256,192,307444,1,0,0:0:0:0:
256,192,307684,1,8,0:0:0:0:
256,192,307924,1,0,0:0:0:0:
256,192,308044,1,8,0:0:0:0:
256,192,308164,1,0,0:0:0:0:
256,192,308284,1,8,0:0:0:0:
256,192,308404,1,8,0:0:0:0:
256,192,308644,1,0,0:0:0:0:
256,192,308884,1,8,0:0:0:0:
256,192,309124,1,0,0:0:0:0:
256,192,309244,1,0,0:0:0:0:
256,192,309364,1,12,0:0:0:0:
256,192,309604,1,0,0:0:0:0:
256,192,309844,1,8,0:0:0:0:
256,192,310084,1,0,0:0:0:0:
256,192,310204,1,8,0:0:0:0:
256,192,310324,1,8,0:0:0:0:
256,192,310564,1,0,0:0:0:0:
256,192,310804,1,8,0:0:0:0:
256,192,311044,1,0,0:0:0:0:
256,192,311284,1,8,0:0:0:0:
256,192,311404,1,8,0:0:0:0:
256,192,311524,1,0,0:0:0:0:
256,192,311644,1,0,0:0:0:0:
256,192,311764,1,8,0:0:0:0:
256,192,311884,1,0,0:0:0:0:
256,192,312004,1,0,0:0:0:0:
256,192,312124,1,0,0:0:0:0:
256,192,312244,1,8,0:0:0:0:
256,192,312364,1,8,0:0:0:0:
256,192,312484,1,0,0:0:0:0:
256,192,312604,1,0,0:0:0:0:
256,192,312724,1,8,0:0:0:0:
256,192,312844,1,0,0:0:0:0:
256,192,312964,1,8,0:0:0:0:
256,192,313084,1,8,0:0:0:0:
256,192,313204,1,4,0:0:0:0:
256,192,313444,1,8,0:0:0:0:
256,192,313564,1,8,0:0:0:0:
256,192,313684,1,8,0:0:0:0:
256,192,313924,1,0,0:0:0:0:
256,192,314044,1,0,0:0:0:0:
256,192,314164,1,8,0:0:0:0:
256,192,314404,1,0,0:0:0:0:
256,192,314644,1,8,0:0:0:0:
256,192,314884,1,0,0:0:0:0:
256,192,315004,1,8,0:0:0:0:
256,192,315124,1,0,0:0:0:0:
256,192,315364,1,0,0:0:0:0:
256,192,315604,1,8,0:0:0:0:
256,192,315724,1,8,0:0:0:0:
256,192,315844,1,0,0:0:0:0:
256,192,315964,1,8,0:0:0:0:
256,192,316084,1,8,0:0:0:0:
256,192,316324,1,0,0:0:0:0:
256,192,316564,1,8,0:0:0:0:
256,192,316804,1,0,0:0:0:0:
256,192,316924,1,8,0:0:0:0:
256,192,317044,1,0,0:0:0:0:
256,192,317164,1,0,0:0:0:0:
256,192,317284,1,0,0:0:0:0:
256,192,317524,1,8,0:0:0:0:
256,192,317764,1,0,0:0:0:0:
256,192,317884,1,8,0:0:0:0:
256,192,318004,1,8,0:0:0:0:
256,192,318244,1,0,0:0:0:0:
256,192,318484,1,8,0:0:0:0:
256,192,318724,1,8,0:0:0:0:
256,192,318844,1,0,0:0:0:0:
256,192,318964,1,0,0:0:0:0:
256,192,319084,1,8,0:0:0:0:
256,192,319204,1,0,0:0:0:0:
256,192,319324,1,0,0:0:0:0:
256,192,319444,1,8,0:0:0:0:
256,192,319564,1,8,0:0:0:0:
256,192,319684,1,0,0:0:0:0:
256,192,319804,1,0,0:0:0:0:
256,192,319924,1,8,0:0:0:0:
256,192,320044,1,0,0:0:0:0:
256,192,320164,1,0,0:0:0:0:
256,192,320284,1,0,0:0:0:0:
256,192,320404,1,8,0:0:0:0:
256,192,320524,1,8,0:0:0:0:
256,192,320644,1,0,0:0:0:0:
256,192,320764,1,0,0:0:0:0:
256,192,320884,1,12,0:0:0:0:
256,192,321124,1,0,0:0:0:0:
256,192,321244,1,0,0:0:0:0:
256,192,321364,1,8,0:0:0:0:
256,192,321484,1,0,0:0:0:0:
256,192,321604,1,0,0:0:0:0:
256,192,321724,1,0,0:0:0:0:
256,192,321844,1,8,0:0:0:0:
256,192,321964,1,0,0:0:0:0:
256,192,322024,1,0,0:0:0:0:
256,192,322084,1,8,0:0:0:0:
256,192,322144,1,8,0:0:0:0:
256,192,322204,1,8,0:0:0:0:
256,192,322444,1,0,0:0:0:0:
256,192,322564,1,0,0:0:0:0:
256,192,322804,1,8,0:0:0:0:
256,192,322924,1,8,0:0:0:0:
256,192,323044,1,0,0:0:0:0:
256,192,323284,1,8,0:0:0:0:
256,192,323404,1,0,0:0:0:0:
256,192,323524,1,0,0:0:0:0:
256,192,323764,1,8,0:0:0:0:
256,192,323884,1,0,0:0:0:0:
256,192,324124,1,0,0:0:0:0:
256,192,324244,1,8,0:0:0:0:
256,192,324484,1,0,0:0:0:0:
256,192,324604,1,0,0:0:0:0:
256,192,324724,1,8,0:0:0:0:
256,192,324964,1,0,0:0:0:0:
256,192,325024,1,0,0:0:0:0:
256,192,325084,1,8,0:0:0:0:
256,192,325144,1,8,0:0:0:0:
256,192,325204,1,0,0:0:0:0:
256,192,325444,1,8,0:0:0:0:
256,192,325564,1,0,0:0:0:0:
256,192,325684,1,8,0:0:0:0:
256,192,325804,1,0,0:0:0:0:
256,192,325924,1,0,0:0:0:0:
256,192,326164,1,8,0:0:0:0:
256,192,326284,1,0,0:0:0:0:
256,192,326524,1,0,0:0:0:0:
256,192,326644,1,8,0:0:0:0:
256,192,326764,1,0,0:0:0:0:
256,192,327004,1,8,0:0:0:0:
256,192,327064,1,8,0:0:0:0:
256,192,327124,1,0,0:0:0:0:
256,192,327184,1,0,0:0:0:0:
256,192,327244,1,8,0:0:0:0:
256,192,327484,1,0,0:0:0:0:
256,192,327604,1,8,0:0:0:0:
256,192,327844,1,0,0:0:0:0:
256,192,327964,1,0,0:0:0:0:
256,192,328204,1,0,0:0:0:0:
256,192,328324,1,0,0:0:0:0:
256,192,328444,1,0,0:0:0:0:
256,192,328564,1,12,0:0:0:0:
256,192,328684,1,0,0:0:0:0:
256,192,328744,1,0,0:0:0:0:
256,192,328804,1,8,0:0:0:0:
256,192,328864,1,8,0:0:0:0:
256,192,328924,1,0,0:0:0:0:
256,192,328984,1,0,0:0:0:0:
256,192,329044,1,0,0:0:0:0:
256,192,329164,1,8,0:0:0:0:
256,192,329284,1,8,0:0:0:0:
256,192,329404,1,0,0:0:0:0:
256,192,329464,1,0,0:0:0:0:
256,192,329524,1,8,0:0:0:0:
256,192,329584,1,8,0:0:0:0:
256,192,329644,1,0,0:0:0:0:
256,192,329764,1,8,0:0:0:0:
256,192,329884,1,0,0:0:0:0:
256,192,329944,1,0,0:0:0:0:
256,192,330004,1,8,0:0:0:0:
256,192,330124,1,0,0:0:0:0:
256,192,330244,1,8,0:0:0:0:
256,192,330364,1,0,0:0:0:0:
256,192,330484,1,8,0:0:0:0:
256,192,330544,1,8,0:0:0:0:
256,192,330604,1,0,0:0:0:0:
256,192,330664,1,0,0:0:0:0:
256,192,330724,1,8,0:0:0:0:
256,192,330784,1,0,0:0:0:0:
256,192,330844,1,8,0:0:0:0:
256,192,330904,1,8,0:0:0:0:
256,192,330964,1,0,0:0:0:0:
256,192,331084,1,8,0:0:0:0:
256,192,331204,1,8,0:0:0:0:
256,192,331324,1,0,0:0:0:0:
256,192,331384,1,0,0:0:0:0:
256,192,331444,1,8,0:0:0:0:
256,192,331564,1,0,0:0:0:0:
256,192,331684,1,8,0:0:0:0:
256,192,331804,1,8,0:0:0:0:
256,192,331924,1,8,0:0:0:0:
256,192,332044,1,0,0:0:0:0:
256,192,332104,1,0,0:0:0:0:
256,192,332164,1,8,0:0:0:0:
256,192,332224,1,8,0:0:0:0:
256,192,332284,1,0,0:0:0:0:
256,192,332404,1,8,0:0:0:0:
256,192,332524,1,0,0:0:0:0:
256,192,332584,1,0,0:0:0:0:
256,192,332644,1,8,0:0:0:0:
256,192,332704,1,0,0:0:0:0:
256,192,332764,1,8,0:0:0:0:
256,192,332824,1,8,0:0:0:0:
256,192,332884,1,8,0:0:0:0:
256,192,333004,1,0,0:0:0:0:
256,192,333064,1,0,0:0:0:0:
256,192,333124,1,8,0:0:0:0:
256,192,333244,1,0,0:0:0:0:
256,192,333364,1,8,0:0:0:0:
256,192,333424,1,8,0:0:0:0:
256,192,333484,1,0,0:0:0:0:
256,192,333604,1,8,0:0:0:0:
256,192,333724,1,0,0:0:0:0:
256,192,333784,1,0,0:0:0:0:
256,192,333844,1,8,0:0:0:0:
256,192,333904,1,0,0:0:0:0:
256,192,333964,1,0,0:0:0:0:
256,192,334084,1,8,0:0:0:0:
256,192,334204,1,0,0:0:0:0:
256,192,334324,1,8,0:0:0:0:
256,192,334384,1,0,0:0:0:0:
256,192,334444,1,8,0:0:0:0:
256,192,334504,1,8,0:0:0:0:
256,192,334564,1,0,0:0:0:0:
256,192,334684,1,8,0:0:0:0:
256,192,334804,1,8,0:0:0:0:
256,192,334924,1,0,0:0:0:0:
256,192,334984,1,0,0:0:0:0:
256,192,335044,1,8,0:0:0:0:
256,192,335104,1,8,0:0:0:0:
256,192,335164,1,0,0:0:0:0:
256,192,335224,1,0,0:0:0:0:
256,192,335284,1,8,0:0:0:0:
256,192,335404,1,0,0:0:0:0:
256,192,335524,1,8,0:0:0:0:
256,192,335644,1,0,0:0:0:0:
256,192,335704,1,0,0:0:0:0:
256,192,335764,1,8,0:0:0:0:
256,192,335794,1,8,0:0:0:0:
256,192,335884,1,0,0:0:0:0:
256,192,336004,1,8,0:0:0:0:
256,192,336124,1,0,0:0:0:0:
256,192,336244,1,12,0:0:0:0:
256,192,336484,1,0,0:0:0:0:
256,192,336544,1,0,0:0:0:0:
256,192,336604,1,8,0:0:0:0:
256,192,336664,1,0,0:0:0:0:
256,192,336724,1,8,0:0:0:0:
256,192,336844,1,0,0:0:0:0:
256,192,336964,1,8,0:0:0:0:
256,192,337084,1,0,0:0:0:0:
256,192,337144,1,0,0:0:0:0:
256,192,337204,1,8,0:0:0:0:
256,192,337264,1,8,0:0:0:0:
256,192,337324,1,0,0:0:0:0:
256,192,337444,1,8,0:0:0:0:
256,192,337564,1,0,0:0:0:0:
256,192,337684,1,8,0:0:0:0:
256,192,337744,1,0,0:0:0:0:
256,192,337804,1,0,0:0:0:0:
256,192,337924,1,8,0:0:0:0:
256,192,338044,1,0,0:0:0:0:
256,192,338164,1,8,0:0:0:0:
256,192,338224,1,8,0:0:0:0:
256,192,338284,1,0,0:0:0:0:
256,192,338344,1,0,0:0:0:0:
256,192,338404,1,8,0:0:0:0:
256,192,338524,1,0,0:0:0:0:
256,192,338644,1,8,0:0:0:0:
256,192,338764,1,8,0:0:0:0:
256,192,338884,1,0,0:0:0:0:
256,192,339124,1,8,0:0:0:0:
256,192,339244,1,0,0:0:0:0:
256,192,339484,1,0,0:0:0:0:
256,192,339604,1,8,0:0:0:0:
256,192,339724,1,0,0:0:0:0:
256,192,339784,1,8,0:0:0:0:
256,192,339844,1,0,0:0:0:0:
256,192,339964,1,0,0:0:0:0:
256,192,340084,1,8,0:0:0:0:
256,192,340204,1,8,0:0:0:0:
256,192,340324,1,0,0:0:0:0:
256,192,340384,1,0,0:0:0:0:
256,192,340444,1,8,0:0:0:0:
256,192,340504,1,0,0:0:0:0:
256,192,340564,1,8,0:0:0:0:
256,192,340684,1,0,0:0:0:0:
256,192,340804,1,0,0:0:0:0:
256,192,340924,1,8,0:0:0:0:
256,192,340984,1,0,0:0:0:0:
256,192,341044,1,8,0:0:0:0:
256,192,341164,1,0,0:0:0:0:
256,192,341284,1,0,0:0:0:0:
256,192,341524,1,8,0:0:0:0:
256,192,341644,1,8,0:0:0:0:
256,192,341764,1,0,0:0:0:0:
256,192,341884,1,8,0:0:0:0:
256,192,341944,1,0,0:0:0:0:
256,192,342004,1,8,0:0:0:0:
256,192,342064,1,8,0:0:0:0:
256,192,342124,1,0,0:0:0:0:
256,192,342244,1,8,0:0:0:0:
256,192,342364,1,0,0:0:0:0:
256,192,342484,1,8,0:0:0:0:
256,192,342604,1,0,0:0:0:0:
256,192,342664,1,8,0:0:0:0:
256,192,342724,1,0,0:0:0:0:
256,192,342844,1,8,0:0:0:0:
256,192,342964,1,8,0:0:0:0:
256,192,343204,1,0,0:0:0:0:
256,192,343324,1,8,0:0:0:0:
256,192,343444,1,8,0:0:0:0:
256,192,343564,1,0,0:0:0:0:
256,192,343624,1,0,0:0:0:0:
256,192,343684,1,8,0:0:0:0:
256,192,343744,1,0,0:0:0:0:
256,192,343804,1,8,0:0:0:0:
256,192,343924,1,0,0:0:0:0:
256,192,344044,1,8,0:0:0:0:
256,192,344164,1,0,0:0:0:0:
256,192,344284,1,8,0:0:0:0:
256,192,344344,1,0,0:0:0:0:
256,192,344404,1,8,0:0:0:0:
256,192,344464,1,8,0:0:0:0:
256,192,344524,1,0,0:0:0:0:
256,192,344644,1,8,0:0:0:0:
256,192,344764,1,0,0:0:0:0:
256,192,344884,1,8,0:0:0:0:
256,192,345004,1,0,0:0:0:0:
256,192,345124,1,8,0:0:0:0:
256,192,345244,1,8,0:0:0:0:
256,192,345364,1,8,0:0:0:0:
256,192,345484,1,0,0:0:0:0:
256,192,345544,1,0,0:0:0:0:
256,192,345604,1,8,0:0:0:0:
256,192,345664,1,8,0:0:0:0:
256,192,345724,1,0,0:0:0:0:
256,192,345784,1,0,0:0:0:0:
256,192,345844,1,8,0:0:0:0:
256,192,345964,1,0,0:0:0:0:
256,192,346084,1,8,0:0:0:0:
256,192,346204,1,0,0:0:0:0:
256,192,346324,1,8,0:0:0:0:
256,192,346444,1,0,0:0:0:0:
256,192,346504,1,0,0:0:0:0:
256,192,346564,1,8,0:0:0:0:
256,192,346684,1,0,0:0:0:0:
256,192,346804,1,8,0:0:0:0:
256,192,346924,1,0,0:0:0:0:
256,192,347164,1,8,0:0:0:0:
256,192,347284,1,8,0:0:0:0:
256,192,347404,1,0,0:0:0:0:
256,192,347524,1,8,0:0:0:0:
256,192,347584,1,0,0:0:0:0:
256,192,347644,1,8,0:0:0:0:
256,192,347704,1,8,0:0:0:0:
256,192,347764,1,0,0:0:0:0:
256,192,347884,1,8,0:0:0:0:
256,192,348004,1,0,0:0:0:0:
256,192,348124,1,0,0:0:0:0:
256,192,348184,1,0,0:0:0:0:
256,192,348244,1,8,0:0:0:0:
256,192,348304,1,8,0:0:0:0:
256,192,348364,1,0,0:0:0:0:
256,192,348484,1,8,0:0:0:0:
256,192,348604,1,0,0:0:0:0:
256,192,348724,1,8,0:0:0:0:
256,192,348844,1,0,0:0:0:0:
256,192,348964,1,8,0:0:0:0:
256,192,349024,1,0,0:0:0:0:
256,192,349084,1,8,0:0:0:0:
256,192,349204,1,0,0:0:0:0:
256,192,349324,1,8,0:0:0:0:
256,192,349444,1,8,0:0:0:0:
256,192,349564,1,0,0:0:0:0:
256,192,349624,1,0,0:0:0:0:
256,192,349684,1,8,0:0:0:0:
256,192,349924,1,0,0:0:0:0:
256,192,350044,1,0,0:0:0:0:
256,192,350164,1,8,0:0:0:0:
256,192,350284,1,0,0:0:0:0:
256,192,350344,1,0,0:0:0:0:
256,192,350404,1,8,0:0:0:0:
256,192,350464,1,0,0:0:0:0:
256,192,350524,1,0,0:0:0:0:
256,192,350644,1,8,0:0:0:0:
256,192,350764,1,0,0:0:0:0:
256,192,350884,1,8,0:0:0:0:
256,192,350944,1,0,0:0:0:0:
256,192,351004,1,8,0:0:0:0:
256,192,351064,1,8,0:0:0:0:
256,192,351124,1,0,0:0:0:0:
256,192,351244,1,8,0:0:0:0:
256,192,351364,1,0,0:0:0:0:
256,192,351484,1,8,0:0:0:0:
256,192,351604,1,4,0:0:0:0:
256,192,351844,1,4,0:0:0:0:
256,192,352084,1,8,0:0:0:0:
256,192,352114,1,8,0:0:0:0:
256,192,352324,1,4,0:0:0:0:
256,192,352564,1,12,0:0:0:0:
256,192,352804,1,8,0:0:0:0:
256,192,352864,1,8,0:0:0:0:
256,192,352924,1,0,0:0:0:0:
256,192,352984,1,8,0:0:0:0:
256,192,353044,1,0,0:0:0:0:
256,192,353284,1,0,0:0:0:0:
256,192,353344,1,0,0:0:0:0:
256,192,353404,1,0,0:0:0:0:
256,192,353464,1,0,0:0:0:0:
256,192,353524,1,8,0:0:0:0:
256,192,353764,1,8,0:0:0:0:
256,192,353824,1,0,0:0:0:0:
256,192,353884,1,8,0:0:0:0:
256,192,353944,1,8,0:0:0:0:
256,192,354004,1,0,0:0:0:0:
256,192,354124,1,0,0:0:0:0:
256,192,354244,1,8,0:0:0:0:
256,192,354484,1,8,0:0:0:0:
256,192,354724,1,0,0:0:0:0:
256,192,354784,1,0,0:0:0:0:
256,192,354844,1,0,0:0:0:0:
256,192,354904,1,0,0:0:0:0:
256,192,354964,1,8,0:0:0:0:
256,192,355204,1,0,0:0:0:0:
256,192,355264,1,0,0:0:0:0:
256,192,355324,1,0,0:0:0:0:
256,192,355384,1,0,0:0:0:0:
256,192,355444,1,8,0:0:0:0:
256,192,355504,1,8,0:0:0:0:
256,192,355564,1,0,0:0:0:0:
256,192,355624,1,0,0:0:0:0:
256,192,355684,1,0,0:0:0:0:
256,192,355744,1,0,0:0:0:0:
256,192,355804,1,0,0:0:0:0:
256,192,355864,1,0,0:0:0:0:
256,192,355924,1,8,0:0:0:0:
256,192,355984,1,0,0:0:0:0:
256,192,356044,1,0,0:0:0:0:
256,192,356104,1,0,0:0:0:0:
256,192,356164,1,0,0:0:0:0:
256,192,356224,1,0,0:0:0:0:
256,192,356284,1,0,0:0:0:0:
256,192,356344,1,0,0:0:0:0:
256,192,356404,1,8,0:0:0:0:
256,192,356464,1,8,0:0:0:0:
256,192,356524,1,0,0:0:0:0:
256,192,356584,1,0,0:0:0:0:
256,192,356644,1,0,0:0:0:0:
256,192,356704,1,0,0:0:0:0:
256,192,356764,1,0,0:0:0:0:
256,192,356824,1,0,0:0:0:0:
256,192,356884,1,12,0:0:0:0:
256,192,357004,1,4,0:0:0:0:
256,192,357364,1,4,0:0:0:0:
256,192,357484,1,8,0:0:0:0:
256,192,357544,1,8,0:0:0:0:
256,192,357604,1,0,0:0:0:0:
256,192,357724,1,8,0:0:0:0:
256,192,357844,1,0,0:0:0:0:
256,192,357904,1,0,0:0:0:0:
256,192,357964,1,8,0:0:0:0:
256,192,358084,1,0,0:0:0:0:
256,192,358204,1,8,0:0:0:0:
256,192,358324,1,0,0:0:0:0:
256,192,358444,1,8,0:0:0:0:
256,192,358504,1,0,0:0:0:0:
256,192,358564,1,8,0:0:0:0:
256,192,358624,1,8,0:0:0:0:
256,192,358684,1,0,0:0:0:0:
256,192,358744,1,0,0:0:0:0:
256,192,358804,1,8,0:0:0:0:
256,192,358924,1,0,0:0:0:0:
256,192,359044,1,8,0:0:0:0:
256,192,359104,1,0,0:0:0:0:
256,192,359164,1,0,0:0:0:0:
256,192,359224,1,0,0:0:0:0:
256,192,359284,1,8,0:0:0:0:
256,192,359344,1,8,0:0:0:0:
256,192,359404,1,0,0:0:0:0:
256,192,359464,1,8,0:0:0:0:
256,192,359524,1,0,0:0:0:0:
256,192,359644,1,8,0:0:0:0:
256,192,359764,1,0,0:0:0:0:
256,192,359824,1,0,0:0:0:0:
256,192,359884,1,8,0:0:0:0:
256,192,360004,1,0,0:0:0:0:
256,192,360124,1,8,0:0:0:0:
256,192,360244,1,0,0:0:0:0:
256,192,360364,1,8,0:0:0:0:
256,192,360484,1,0,0:0:0:0:
256,192,360544,1,0,0:0:0:0:
256,192,360604,1,8,0:0:0:0:
256,192,360664,1,0,0:0:0:0:
256,192,360724,1,8,0:0:0:0:
256,192,360784,1,8,0:0:0:0:
256,192,360844,1,0,0:0:0:0:
256,192,360904,1,0,0:0:0:0:
256,192,360964,1,8,0:0:0:0:
256,192,361024,1,8,0:0:0:0:
256,192,361084,1,8,0:0:0:0:
256,192,361144,1,8,0:0:0:0:
256,192,361204,1,4,0:0:0:0:
256,192,361324,1,8,0:0:0:0:
256,192,361444,1,0,0:0:0:0:
256,192,361564,1,8,0:0:0:0:
256,192,361624,1,0,0:0:0:0:
256,192,361684,1,0,0:0:0:0:
256,192,361744,1,0,0:0:0:0:
256,192,361804,1,8,0:0:0:0:
256,192,361924,1,0,0:0:0:0:
256,192,362044,1,8,0:0:0:0:
256,192,362164,1,0,0:0:0:0:
256,192,362284,1,8,0:0:0:0:
256,192,362404,1,0,0:0:0:0:
256,192,362464,1,0,0:0:0:0:
256,192,362524,1,8,0:0:0:0:
256,192,362584,1,8,0:0:0:0:
256,192,362644,1,0,0:0:0:0:
256,192,362764,1,8,0:0:0:0:
256,192,362884,1,0,0:0:0:0:
256,192,362944,1,0,0:0:0:0:
256,192,363004,1,8,0:0:0:0:
256,192,363124,1,0,0:0:0:0:
256,192,363244,1,8,0:0:0:0:
256,192,363364,1,0,0:0:0:0:
256,192,363484,1,8,0:0:0:0:
256,192,363604,1,0,0:0:0:0:
256,192,363684,1,0,0:0:0:0:
256,192,363764,1,0,0:0:0:0:
256,192,363844,1,8,0:0:0:0:
256,192,363924,1,8,0:0:0:0:
256,192,364004,1,8,0:0:0:0:
256,192,364084,1,0,0:0:0:0:
256,192,364164,1,0,0:0:0:0:
256,192,364244,1,8,0:0:0:0:
256,192,364324,1,0,0:0:0:0:
256,192,364404,1,0,0:0:0:0:
256,192,364484,1,0,0:0:0:0:
256,192,364564,1,8,0:0:0:0:
256,192,364644,1,8,0:0:0:0:
256,192,364724,1,8,0:0:0:0:
256,192,364804,1,0,0:0:0:0:
256,192,364884,1,0,0:0:0:0:
256,192,364964,1,0,0:0:0:0:
256,192,365044,1,12,0:0:0:0:
256,192,365164,1,0,0:0:0:0:
256,192,365284,1,8,0:0:0:0:
256,192,365404,1,0,0:0:0:0:
256,192,365464,1,0,0:0:0:0:
256,192,365524,1,8,0:0:0:0:
256,192,365584,1,0,0:0:0:0:
256,192,365644,1,8,0:0:0:0:
256,192,365764,1,0,0:0:0:0:
256,192,365884,1,8,0:0:0:0:
256,192,365944,1,0,0:0:0:0:
256,192,366004,1,8,0:0:0:0:
256,192,366064,1,8,0:0:0:0:
256,192,366124,1,0,0:0:0:0:
256,192,366244,1,8,0:0:0:0:
256,192,366364,1,0,0:0:0:0:
256,192,366484,1,8,0:0:0:0:
256,192,366604,1,0,0:0:0:0:
256,192,366664,1,0,0:0:0:0:
256,192,366724,1,8,0:0:0:0:
256,192,366784,1,8,0:0:0:0:
256,192,366844,1,0,0:0:0:0:
256,192,366964,1,8,0:0:0:0:
256,192,367084,1,8,0:0:0:0:
256,192,367204,1,0,0:0:0:0:
256,192,367264,1,0,0:0:0:0:
256,192,367324,1,8,0:0:0:0:
256,192,367384,1,0,0:0:0:0:
256,192,367444,1,8,0:0:0:0:
256,192,367504,1,8,0:0:0:0:
256,192,367564,1,0,0:0:0:0:
256,192,367684,1,8,0:0:0:0:
256,192,367804,1,0,0:0:0:0:
256,192,367924,1,8,0:0:0:0:
256,192,368044,1,0,0:0:0:0:
256,192,368104,1,0,0:0:0:0:
256,192,368164,1,8,0:0:0:0:
256,192,368224,1,8,0:0:0:0:
256,192,368284,1,0,0:0:0:0:
256,192,368344,1,0,0:0:0:0:
256,192,368404,1,8,0:0:0:0:
256,192,368464,1,0,0:0:0:0:
256,192,368524,1,0,0:0:0:0:
256,192,368584,1,0,0:0:0:0:
256,192,368644,1,8,0:0:0:0:
256,192,368704,1,8,0:0:0:0:
256,192,368764,1,8,0:0:0:0:
256,192,368824,1,8,0:0:0:0:
256,192,368884,1,4,0:0:0:0:
256,192,369004,1,8,0:0:0:0:
256,192,369124,1,0,0:0:0:0:
256,192,369244,1,8,0:0:0:0:
256,192,369304,1,8,0:0:0:0:
256,192,369364,1,0,0:0:0:0:
256,192,369424,1,0,0:0:0:0:
256,192,369484,1,8,0:0:0:0:
256,192,369604,1,0,0:0:0:0:
256,192,369724,1,8,0:0:0:0:
256,192,369844,1,8,0:0:0:0:
256,192,369964,1,0,0:0:0:0:
256,192,370024,1,0,0:0:0:0:
256,192,370084,1,8,0:0:0:0:
256,192,370144,1,0,0:0:0:0:
256,192,370204,1,8,0:0:0:0:
256,192,370324,1,0,0:0:0:0:
256,192,370444,1,8,0:0:0:0:
256,192,370564,1,0,0:0:0:0:
256,192,370684,1,8,0:0:0:0:
256,192,370804,1,0,0:0:0:0:
256,192,370884,1,0,0:0:0:0:
256,192,370964,1,8,0:0:0:0:
256,192,371044,1,8,0:0:0:0:
256,192,371124,1,0,0:0:0:0:
256,192,371204,1,0,0:0:0:0:
256,192,371284,1,8,0:0:0:0:
256,192,371364,1,0,0:0:0:0:
256,192,371444,1,0,0:0:0:0:
256,192,371524,1,0,0:0:0:0:
256,192,371604,1,8,0:0:0:0:
256,192,371684,1,8,0:0:0:0:
256,192,371764,1,0,0:0:0:0:
256,192,371844,1,0,0:0:0:0:
256,192,371924,1,8,0:0:0:0:
256,192,372004,1,0,0:0:0:0:
256,192,372084,1,0,0:0:0:0:
256,192,372164,1,0,0:0:0:0:
256,192,372244,1,8,0:0:0:0:
256,192,372324,1,8,0:0:0:0:
256,192,372404,1,0,0:0:0:0:
256,192,372484,1,0,0:0:0:0:
256,192,372564,1,8,0:0:0:0:
256,192,372644,1,8,0:0:0:0:
256,192,372724,1,4,0:0:0:0:
256,192,372844,1,8,0:0:0:0:
256,192,372964,1,0,0:0:0:0:
256,192,373084,1,8,0:0:0:0:
256,192,373204,1,8,0:0:0:0:
256,192,373324,1,0,0:0:0:0:
256,192,373384,1,0,0:0:0:0:
256,192,373444,1,8,0:0:0:0:
256,192,373504,1,0,0:0:0:0:
256,192,373564,1,0,0:0:0:0:
256,192,373624,1,0,0:0:0:0:
256,192,373684,1,8,0:0:0:0:
256,192,373804,1,0,0:0:0:0:
256,192,373924,1,8,0:0:0:0:
256,192,373984,1,8,0:0:0:0:
256,192,374044,1,0,0:0:0:0:
256,192,374104,1,0,0:0:0:0:
256,192,374164,1,8,0:0:0:0:
256,192,374284,1,0,0:0:0:0:
256,192,374404,1,8,0:0:0:0:
256,192,374464,1,8,0:0:0:0:
256,192,374524,1,0,0:0:0:0:
256,192,374584,1,0,0:0:0:0:
256,192,374644,1,8,0:0:0:0:
256,192,374704,1,8,0:0:0:0:
256,192,374764,1,0,0:0:0:0:
256,192,374824,1,8,0:0:0:0:
256,192,374884,1,0,0:0:0:0:
256,192,375004,1,8,0:0:0:0:
256,192,375124,1,8,0:0:0:0:
256,192,375244,1,0,0:0:0:0:
256,192,375364,1,0,0:0:0:0:
256,192,375484,1,8,0:0:0:0:
256,192,375544,1,0,0:0:0:0:
256,192,375604,1,8,0:0:0:0:
256,192,375724,1,0,0:0:0:0:
256,192,375844,1,8,0:0:0:0:
256,192,375964,1,8,0:0:0:0:
256,192,376084,1,8,0:0:0:0:
256,192,376204,1,0,0:0:0:0:
256,192,376324,1,8,0:0:0:0:
256,192,376384,1,8,0:0:0:0:
256,192,376444,1,0,0:0:0:0:
256,192,376504,1,0,0:0:0:0:
256,192,376564,1,12,0:0:0:0:
256,192,376684,1,0,0:0:0:0:
256,192,376804,1,0,0:0:0:0:
256,192,376924,1,8,0:0:0:0:
256,192,376984,1,8,0:0:0:0:
256,192,377044,1,8,0:0:0:0:
256,192,377164,1,0,0:0:0:0:
256,192,377284,1,0,0:0:0:0:
256,192,377404,1,8,0:0:0:0:
256,192,377464,1,0,0:0:0:0:
256,192,377524,1,8,0:0:0:0:
256,192,377584,1,8,0:0:0:0:
256,192,377644,1,0,0:0:0:0:
256,192,377764,1,8,0:0:0:0:
256,192,377884,1,0,0:0:0:0:
256,192,378004,1,8,0:0:0:0:
256,192,378124,1,0,0:0:0:0:
256,192,378184,1,0,0:0:0:0:
256,192,378244,1,8,0:0:0:0:
256,192,378304,1,0,0:0:0:0:
256,192,378364,1,8,0:0:0:0:
256,192,378424,1,8,0:0:0:0:
256,192,378484,1,0,0:0:0:0:
256,192,378604,1,8,0:0:0:0:
256,192,378724,1,0,0:0:0:0:
256,192,378784,1,0,0:0:0:0:
256,192,378844,1,8,0:0:0:0:
256,192,378964,1,4,0:0:0:0:
256,192,382084,5,12,0:0:0:0:
256,192,382324,1,0,0:0:0:0:
256,192,382444,1,8,0:0:0:0:
256,192,382564,1,8,0:0:0:0:
256,192,382684,1,0,0:0:0:0:
256,192,382744,1,0,0:0:0:0:
256,192,382804,1,8,0:0:0:0:
256,192,382864,1,0,0:0:0:0:
256,192,382924,1,0,0:0:0:0:
256,192,383044,1,8,0:0:0:0:
256,192,383164,1,0,0:0:0:0:
256,192,383284,1,8,0:0:0:0:
256,192,383404,1,0,0:0:0:0:
256,192,383524,1,8,0:0:0:0:
256,192,383584,1,8,0:0:0:0:
256,192,383644,1,0,0:0:0:0:
256,192,383704,1,0,0:0:0:0:
256,192,383764,1,8,0:0:0:0:
256,192,383824,1,0,0:0:0:0:
256,192,383884,1,0,0:0:0:0:
256,192,383944,1,0,0:0:0:0:
256,192,384004,1,8,0:0:0:0:
256,192,384064,1,8,0:0:0:0:
256,192,384124,1,8,0:0:0:0:
256,192,384184,1,8,0:0:0:0:
256,192,384244,1,4,0:0:0:0:
256,192,384364,1,8,0:0:0:0:
256,192,384484,1,0,0:0:0:0:
256,192,384604,1,8,0:0:0:0:
256,192,384724,1,0,0:0:0:0:
256,192,384784,1,0,0:0:0:0:
256,192,384844,1,8,0:0:0:0:
256,192,384964,1,0,0:0:0:0:
256,192,385084,1,8,0:0:0:0:
256,192,385144,1,0,0:0:0:0:
256,192,385204,1,0,0:0:0:0:
256,192,385324,1,8,0:0:0:0:
256,192,385444,1,0,0:0:0:0:
256,192,385504,1,0,0:0:0:0:
256,192,385564,1,8,0:0:0:0:
256,192,385624,1,8,0:0:0:0:
256,192,385684,1,0,0:0:0:0:
256,192,385804,1,8,0:0:0:0:
256,192,385924,1,0,0:0:0:0:
256,192,385984,1,0,0:0:0:0:
256,192,386044,1,8,0:0:0:0:
256,192,386164,1,0,0:0:0:0:
256,192,386244,1,0,0:0:0:0:
256,192,386324,1,0,0:0:0:0:
256,192,386404,1,8,0:0:0:0:
256,192,386484,1,8,0:0:0:0:
256,192,386564,1,8,0:0:0:0:
256,192,386644,1,0,0:0:0:0:
256,192,386724,1,0,0:0:0:0:
256,192,386804,1,0,0:0:0:0:
256,192,386884,1,8,0:0:0:0:
256,192,386964,1,0,0:0:0:0:
256,192,387044,1,0,0:0:0:0:
256,192,387124,1,8,0:0:0:0:
256,192,387204,1,8,0:0:0:0:
256,192,387284,1,8,0:0:0:0:
256,192,387364,1,0,0:0:0:0:
256,192,387444,1,0,0:0:0:0:
256,192,387524,1,0,0:0:0:0:
256,192,387604,1,8,0:0:0:0:
256,192,387684,1,8,0:0:0:0:
256,192,387764,1,8,0:0:0:0:
256,192,387844,1,0,0:0:0:0:
256,192,387924,1,8,0:0:0:0:
256,192,388004,1,8,0:0:0:0:
256,192,388084,1,0,0:0:0:0:
256,192,388144,1,0,0:0:0:0:
256,192,388204,1,8,0:0:0:0:
256,192,388264,1,8,0:0:0:0:
256,192,388324,1,0,0:0:0:0:
256,192,388384,1,0,0:0:0:0:
256,192,388444,1,8,0:0:0:0:
256,192,388504,1,0,0:0:0:0:
256,192,388564,1,0,0:0:0:0:
256,192,388684,1,8,0:0:0:0:
256,192,388744,1,0,0:0:0:0:
256,192,388804,1,8,0:0:0:0:
256,192,388864,1,8,0:0:0:0:
256,192,388924,1,0,0:0:0:0:
256,192,388984,1,0,0:0:0:0:
256,192,389044,1,8,0:0:0:0:
256,192,389104,1,8,0:0:0:0:
256,192,389164,1,0,0:0:0:0:
256,192,389224,1,0,0:0:0:0:
256,192,389284,1,0,0:0:0:0:
256,192,389344,1,0,0:0:0:0:
256,192,389404,1,8,0:0:0:0:
256,192,389464,1,8,0:0:0:0:
256,192,389524,1,0,0:0:0:0:
256,192,389644,1,8,0:0:0:0:
256,192,389704,1,0,0:0:0:0:
256,192,389764,1,0,0:0:0:0:
256,192,389824,1,0,0:0:0:0:
256,192,389884,1,8,0:0:0:0:
256,192,389944,1,8,0:0:0:0:
256,192,390004,1,0,0:0:0:0:
256,192,390064,1,0,0:0:0:0:
256,192,390124,1,8,0:0:0:0:
256,192,390184,1,0,0:0:0:0:
256,192,390244,1,8,0:0:0:0:
256,192,390304,1,8,0:0:0:0:
256,192,390364,1,0,0:0:0:0:
256,192,390424,1,0,0:0:0:0:
256,192,390484,1,8,0:0:0:0:
256,192,390604,1,0,0:0:0:0:
256,192,390724,1,0,0:0:0:0:
256,192,390784,1,0,0:0:0:0:
256,192,390844,1,8,0:0:0:0:
256,192,390904,1,8,0:0:0:0:
256,192,390964,1,0,0:0:0:0:
256,192,391024,1,0,0:0:0:0:
256,192,391084,1,0,0:0:0:0:
256,192,391144,1,0,0:0:0:0:
256,192,391204,1,8,0:0:0:0:
256,192,391264,1,0,0:0:0:0:
256,192,391324,1,0,0:0:0:0:
256,192,391384,1,0,0:0:0:0:
256,192,391444,1,8,0:0:0:0:
256,192,391504,1,0,0:0:0:0:
256,192,391564,1,8,0:0:0:0:
256,192,391624,1,8,0:0:0:0:
256,192,391684,1,0,0:0:0:0:
256,192,391744,1,0,0:0:0:0:
256,192,391804,1,0,0:0:0:0:
256,192,391864,1,0,0:0:0:0:
256,192,391924,1,8,0:0:0:0:
256,192,392044,1,0,0:0:0:0:
256,192,392164,1,8,0:0:0:0:
256,192,392224,1,0,0:0:0:0:
256,192,392284,1,0,0:0:0:0:
256,192,392344,1,0,0:0:0:0:
256,192,392404,1,8,0:0:0:0:
256,192,392464,1,8,0:0:0:0:
256,192,392524,1,0,0:0:0:0:
256,192,392584,1,8,0:0:0:0:
256,192,392644,1,0,0:0:0:0:
256,192,392704,1,0,0:0:0:0:
256,192,392764,1,8,0:0:0:0:
256,192,392824,1,8,0:0:0:0:
256,192,392884,1,0,0:0:0:0:
256,192,392944,1,0,0:0:0:0:
256,192,393004,1,0,0:0:0:0:
256,192,393064,1,0,0:0:0:0:
256,192,393124,1,8,0:0:0:0:
256,192,393184,1,0,0:0:0:0:
256,192,393244,1,0,0:0:0:0:
256,192,393304,1,0,0:0:0:0:
256,192,393364,1,8,0:0:0:0:
256,192,393424,1,0,0:0:0:0:
256,192,393484,1,8,0:0:0:0:
256,192,393544,1,8,0:0:0:0:
256,192,393604,1,0,0:0:0:0:
256,192,393664,1,0,0:0:0:0:
256,192,393724,1,8,0:0:0:0:
256,192,393784,1,8,0:0:0:0:
256,192,393844,1,0,0:0:0:0:
256,192,393964,1,0,0:0:0:0:
256,192,394024,1,0,0:0:0:0:
256,192,394084,1,8,0:0:0:0:
256,192,394144,1,8,0:0:0:0:
256,192,394204,1,0,0:0:0:0:
256,192,394264,1,0,0:0:0:0:
256,192,394324,1,8,0:0:0:0:
256,192,394384,1,8,0:0:0:0:
256,192,394444,1,8,0:0:0:0:
256,192,394564,1,0,0:0:0:0:
256,192,394624,1,8,0:0:0:0:
256,192,394684,1,8,0:0:0:0:
256,192,394744,1,8,0:0:0:0:
256,192,394804,1,0,0:0:0:0:
256,192,394924,1,0,0:0:0:0:
256,192,394984,1,0,0:0:0:0:
256,192,395044,1,8,0:0:0:0:
256,192,395104,1,8,0:0:0:0:
256,192,395164,1,0,0:0:0:0:
256,192,395284,1,8,0:0:0:0:
256,192,395344,1,8,0:0:0:0:
256,192,395404,1,8,0:0:0:0:
256,192,395464,1,8,0:0:0:0:
256,192,395524,1,0,0:0:0:0:
256,192,395584,1,0,0:0:0:0:
256,192,395644,1,0,0:0:0:0:
256,192,395704,1,0,0:0:0:0:
256,192,395764,1,12,0:0:0:0:
256,192,395884,1,0,0:0:0:0:
256,192,396004,1,8,0:0:0:0:
256,192,396124,1,8,0:0:0:0:
256,192,396184,1,0,0:0:0:0:
256,192,396244,1,8,0:0:0:0:
256,192,396304,1,8,0:0:0:0:
256,192,396364,1,0,0:0:0:0:
256,192,396424,1,0,0:0:0:0:
256,192,396484,1,8,0:0:0:0:
256,192,396544,1,0,0:0:0:0:
256,192,396604,1,0,0:0:0:0:
256,192,396664,1,0,0:0:0:0:
256,192,396724,1,8,0:0:0:0:
256,192,396844,1,0,0:0:0:0:
256,192,396904,1,0,0:0:0:0:
256,192,396964,1,8,0:0:0:0:
256,192,397024,1,0,0:0:0:0:
256,192,397084,1,8,0:0:0:0:
256,192,397144,1,8,0:0:0:0:
256,192,397204,1,0,0:0:0:0:
256,192,397264,1,0,0:0:0:0:
256,192,397324,1,0,0:0:0:0:
256,192,397384,1,0,0:0:0:0:
256,192,397444,1,8,0:0:0:0:
256,192,397564,1,0,0:0:0:0:
256,192,397624,1,0,0:0:0:0:
256,192,397684,1,8,0:0:0:0:
256,192,397804,1,0,0:0:0:0:
256,192,397924,1,8,0:0:0:0:
256,192,397984,1,8,0:0:0:0:
256,192,398044,1,0,0:0:0:0:
256,192,398104,1,0,0:0:0:0:
256,192,398164,1,8,0:0:0:0:
256,192,398224,1,0,0:0:0:0:
256,192,398284,1,0,0:0:0:0:
256,192,398344,1,0,0:0:0:0:
256,192,398404,1,8,0:0:0:0:
256,192,398464,1,8,0:0:0:0:
256,192,398524,1,0,0:0:0:0:
256,192,398584,1,0,0:0:0:0:
256,192,398644,1,8,0:0:0:0:
256,192,398764,1,0,0:0:0:0:
256,192,398884,1,8,0:0:0:0:
256,192,398944,1,0,0:0:0:0:
256,192,399004,1,8,0:0:0:0:
256,192,399064,1,8,0:0:0:0:
256,192,399124,1,0,0:0:0:0:
256,192,399184,1,0,0:0:0:0:
256,192,399244,1,0,0:0:0:0:
256,192,399304,1,0,0:0:0:0:
256,192,399364,1,8,0:0:0:0:
256,192,399424,1,8,0:0:0:0:
256,192,399484,1,0,0:0:0:0:
256,192,399544,1,0,0:0:0:0:
256,192,399604,1,12,0:0:0:0:
256,192,399724,1,0,0:0:0:0:
256,192,399844,1,8,0:0:0:0:
256,192,399904,1,8,0:0:0:0:
256,192,399964,1,0,0:0:0:0:
256,192,400024,1,0,0:0:0:0:
256,192,400084,1,8,0:0:0:0:
256,192,400144,1,8,0:0:0:0:
256,192,400204,1,0,0:0:0:0:
256,192,400264,1,8,0:0:0:0:
256,192,400324,1,0,0:0:0:0:
256,192,400384,1,0,0:0:0:0:
256,192,400444,1,8,0:0:0:0:
256,192,400504,1,0,0:0:0:0:
256,192,400564,1,8,0:0:0:0:
256,192,400684,1,0,0:0:0:0:
256,192,400804,1,8,0:0:0:0:
256,192,400864,1,0,0:0:0:0:
256,192,400924,1,0,0:0:0:0:
256,192,400984,1,0,0:0:0:0:
256,192,401044,1,8,0:0:0:0:
256,192,401104,1,8,0:0:0:0:
256,192,401164,1,0,0:0:0:0:
256,192,401224,1,8,0:0:0:0:
256,192,401284,1,0,0:0:0:0:
256,192,401404,1,0,0:0:0:0:
256,192,401524,1,8,0:0:0:0:
256,192,401644,1,0,0:0:0:0:
256,192,401704,1,0,0:0:0:0:
256,192,401764,1,8,0:0:0:0:
256,192,401824,1,0,0:0:0:0:
256,192,401884,1,8,0:0:0:0:
256,192,402004,1,0,0:0:0:0:
256,192,402064,1,0,0:0:0:0:
256,192,402124,1,8,0:0:0:0:
256,192,402184,1,0,0:0:0:0:
256,192,402244,1,8,0:0:0:0:
256,192,402304,1,0,0:0:0:0:
256,192,402364,1,8,0:0:0:0:
256,192,402424,1,8,0:0:0:0:
256,192,402484,1,0,0:0:0:0:
256,192,402544,1,0,0:0:0:0:
256,192,402604,1,8,0:0:0:0:
256,192,402664,1,8,0:0:0:0:
256,192,402724,1,8,0:0:0:0:
256,192,402784,1,8,0:0:0:0:
256,192,402844,1,0,0:0:0:0:
256,192,402964,1,0,0:0:0:0:
256,192,403024,1,0,0:0:0:0:
256,192,403084,1,8,0:0:0:0:
256,192,403144,1,0,0:0:0:0:
256,192,403204,1,8,0:0:0:0:
