osu file format v14

[General]
AudioFilename: audio.mp3
AudioLeadIn: 0
PreviewTime: 59927
Countdown: 0
SampleSet: Soft
StackLeniency: 0
Mode: 0
LetterboxInBreaks: 0
WidescreenStoryboard: 0

[Editor]
Bookmarks: 1668,3918,10775,19347,33061,46346,60061,89203,102918,114061,116632,164846,171489,185203,198918,246910,270374
DistanceSpacing: 2.9
BeatDivisor: 8
GridSize: 32
TimelineZoom: 3.899998

[Metadata]
Title:Fragments (feat. Lukas Magyar & Mark Holcomb)
TitleUnicode:Fragments (feat. Lukas Magyar & Mark Holcomb)
Artist:Jason Richardson
ArtistUnicode:Jason Richardson
Creator:Celektus
Version:Insane
Source:
Tags:english male vocals rock heavy metal metalcore djent modern prog orchestra symphonic I progressive Luke Holland
BeatmapID:3264473
BeatmapSetID:1594210

[Difficulty]
HPDrainRate:5
CircleSize:4
OverallDifficulty:8
ApproachRate:9
SliderMultiplier:2
SliderTickRate:1

[Events]
//Background and Video events
0,0,"aoi-ogata-hate-skull22 (1).jpg",0,0
//Break Periods
//Storyboard Layer 0 (Background)
//Storyboard Layer 1 (Fail)
//Storyboard Layer 2 (Pass)
//Storyboard Layer 3 (Foreground)
//Storyboard Layer 4 (Overlay)
//Storyboard Sound Samples

[TimingPoints]
35,428.571428571429,4,2,3,40,1,0
142,-100,4,2,2,40,0,0
249,-133.333333333333,4,2,2,40,0,0
1642,-133.333333333333,4,2,2,70,0,0
3677,-100,2,2,4,70,0,0
3892,428.571428571429,4,2,1,70,1,0
3892,-90.9090909090909,4,2,1,70,0,0
10106,-181.818181818182,4,2,1,70,0,0
10749,-83.3333333333333,4,2,1,70,0,0
14713,-117.647058823529,4,2,1,70,0,0
14980,-117.647058823529,4,2,1,5,0,0
15034,-117.647058823529,4,2,1,70,0,0
15301,-117.647058823529,4,2,1,5,0,0
15356,-117.647058823529,4,2,1,70,0,0
15892,-90.9090909090909,4,2,1,70,0,0
17820,-362.818181818182,4,2,1,70,0,0
19051,-362.818181818182,4,2,1,5,0,0
19106,-362.818181818182,4,2,1,70,0,0
19320,-66.6666666666667,4,2,1,70,0,0
20392,-90.9090909090909,4,2,1,70,0,0
23284,-66.6666666666667,4,2,1,70,0,0
25534,-83.3333333333333,4,2,1,70,0,0
27034,-90.9090909090909,4,2,1,70,0,0
29392,-117.647058823529,4,2,1,70,0,0
31320,-76.9230769230769,4,2,1,70,0,0
32820,-50,4,2,1,70,0,0
33034,-66.6666666666667,4,2,1,70,0,0
33892,-90.9090909090909,4,2,1,70,0,0
36999,-66.6666666666667,4,2,1,70,0,0
39249,-83.3333333333333,4,2,1,70,0,0
40963,-90.9090909090909,4,2,1,70,0,0
43106,-117.647058823529,4,2,1,70,0,0
45034,-76.9230769230769,3,2,1,70,0,0
46320,428.571428571429,4,2,1,70,1,0
46320,-66.6666666666667,4,2,1,70,0,0
46534,-133.333333333333,4,2,1,70,0,0
47391,-66.6666666666667,4,2,1,70,0,0
47605,-133.333333333333,4,2,1,70,0,0
48462,-50,4,2,1,70,0,0
49212,-100,4,2,1,70,0,0
49534,-66.6666666666667,4,2,1,70,0,0
49748,-200,4,2,1,70,0,0
50070,-66.6666666666667,4,2,1,70,0,0
50284,-133.333333333333,4,2,1,70,0,0
50820,-50,4,2,1,70,0,0
51141,-66.6666666666667,4,2,1,70,0,0
51355,-133.333333333333,4,2,1,70,0,0
51677,-66.6666666666667,4,2,1,70,0,0
51891,-133.333333333333,4,2,1,70,0,0
53177,-66.6666666666667,4,2,1,70,0,0
53391,-133.333333333333,4,2,1,70,0,0
54248,-66.6666666666667,4,2,1,70,0,0
54462,-133.333333333333,4,2,1,70,0,0
55320,-50,4,2,1,70,0,0
56070,-100,4,2,1,70,0,0
56391,-66.6666666666667,4,2,1,70,0,0
56605,-100,4,2,1,70,0,0
56927,-66.6666666666667,4,2,1,70,0,0
57677,-50,4,2,1,70,0,0
57998,-66.6666666666667,4,2,1,70,0,0
58212,-133.333333333333,4,2,1,70,0,0
58534,-66.6666666666667,4,2,1,70,0,0
58748,-133.333333333333,4,2,1,70,0,0
59284,-66.6666666666667,4,2,1,70,0,0
60034,-133.333333333333,4,2,1,80,0,1
60891,-50,4,2,1,80,0,1
61748,-133.333333333333,4,2,1,80,0,1
63891,-66.6666666666667,4,2,1,80,0,1
66034,-50,4,2,1,80,0,1
66891,-133.333333333333,4,2,1,80,0,1
76105,-66.6666666666667,4,2,1,80,0,1
76320,-133.333333333333,4,2,1,80,0,1
77820,-66.6666666666667,4,2,1,80,0,1
78034,-133.333333333333,4,2,1,80,0,1
78677,-66.6666666666667,4,2,1,80,0,1
80605,-133.333333333333,4,2,1,80,0,1
81462,-50,4,2,1,80,0,1
82320,-133.333333333333,4,2,1,80,0,1
85748,-133.333333333333,4,2,3,80,0,1
86177,-133.333333333333,4,2,1,80,0,1
87677,-66.6666666666667,4,2,1,70,0,0
87891,-133.333333333333,4,2,1,70,0,0
88212,-66.6666666666667,4,2,1,70,0,0
88427,-133.333333333333,4,2,1,70,0,0
88748,-66.6666666666667,4,2,1,70,0,0
89177,-117.647058823529,4,2,1,70,0,0
94320,-79.9999999999999,4,2,1,70,0,0
95391,-79.9999999999999,4,2,3,70,0,0
96141,-117.647058823529,4,2,2,70,0,0
102891,-105.263157894737,4,2,2,70,0,0
106855,-105.263157894737,4,2,1,70,0,0
108034,-105.263157894737,4,2,2,70,0,0
108569,-105.263157894737,4,2,1,70,0,0
114141,-66.6666666666667,4,2,1,70,0,0
115962,-66.6666666666667,4,2,3,70,0,0
116034,-66.6666666666667,4,2,1,70,0,0
116605,-133.333333333333,4,2,1,80,0,1
117462,-50,4,2,1,80,0,1
118320,-133.333333333333,4,2,1,80,0,1
120462,-66.6666666666667,4,2,1,80,0,1
122605,-50,4,2,1,80,0,1
123462,-133.333333333333,4,2,1,80,0,1
132677,-66.6666666666667,4,2,1,80,0,1
132891,-133.333333333333,4,2,1,80,0,1
134391,-66.6666666666667,4,2,1,80,0,1
134605,-133.333333333333,4,2,1,80,0,1
135248,-66.6666666666667,4,2,1,80,0,1
137177,-133.333333333333,4,2,1,80,0,1
138034,-50,4,2,1,80,0,1
138891,-133.333333333333,4,2,1,80,0,1
144248,-133.333333333333,4,2,4,60,0,0
144462,428.571428571429,4,2,2,80,1,0
144462,-200,4,2,2,80,0,0
145320,-100,4,2,2,80,0,0
145534,-200,4,2,2,80,0,0
145962,-100,4,2,2,80,0,0
146177,-200,4,2,2,80,0,0
146605,-100,4,2,2,80,0,0
147248,-200,4,2,2,80,0,0
147677,-100,4,2,2,80,0,0
147891,-200,4,2,2,80,0,0
151105,-100,4,2,2,80,0,0
151748,-200,4,2,2,80,0,0
152177,-100,4,2,2,80,0,0
152391,-200,4,2,2,80,0,0
154534,-100,4,2,2,80,0,0
154748,-300.00300003,4,2,2,80,0,0
157962,-300.00300003,4,2,4,80,0,0
158177,-50,4,2,2,80,0,0
158712,-200,4,2,2,80,0,0
159677,-100,4,2,2,80,0,0
159891,-200,4,2,2,80,0,0
160320,-100,4,2,2,80,0,0
160962,-200,4,2,2,80,0,0
161391,-100,4,2,2,80,0,0
161605,-200,4,2,2,80,0,0
163105,-100,4,2,2,80,0,0
163320,-200,4,2,2,80,0,0
163748,-50,4,2,2,80,0,0
164391,-150.000000000002,4,2,2,80,0,0
165034,-200,4,2,2,80,0,0
165891,-100,4,2,2,80,0,0
166105,-200,4,2,2,80,0,0
166534,-100,4,2,2,80,0,0
166748,-200,4,2,2,80,0,0
167177,-100,4,2,2,80,0,0
167820,-200,4,2,2,80,0,0
168248,-100,4,2,2,80,0,0
168462,-200,4,2,2,80,0,0
169962,-100,4,2,2,80,0,0
170177,-200,4,2,2,80,0,0
171462,428.571428571429,4,2,2,70,1,0
171462,-66.6666666666667,4,2,2,70,0,0
171677,-133.333333333333,4,2,2,70,0,0
171891,-133.333333333333,4,2,1,70,0,0
172534,-66.6666666666667,4,2,1,70,0,0
172748,-133.333333333333,4,2,1,70,0,0
173605,-50,4,2,1,70,0,0
174355,-100,4,2,1,70,0,0
174677,-66.6666666666667,4,2,1,70,0,0
174891,-200,4,2,1,70,0,0
175212,-66.6666666666667,4,2,1,70,0,0
175427,-133.333333333333,4,2,1,70,0,0
175962,-50,4,2,1,70,0,0
176284,-66.6666666666667,4,2,1,70,0,0
176498,-133.333333333333,4,2,1,70,0,0
176820,-66.6666666666667,4,2,1,70,0,0
177034,-133.333333333333,4,2,1,70,0,0
178319,-66.6666666666667,4,2,1,70,0,0
178533,-133.333333333333,4,2,1,70,0,0
179390,-66.6666666666667,4,2,1,70,0,0
179604,-133.333333333333,4,2,1,70,0,0
180462,-50,4,2,1,70,0,0
181212,-100,4,2,1,70,0,0
181748,-200,4,2,1,70,0,0
182070,-66.6666666666667,4,2,1,70,0,0
182284,-133.333333333333,4,2,1,70,0,0
182820,-50,4,2,1,70,0,0
183141,-66.6666666666667,4,2,1,70,0,0
183355,-133.333333333333,4,2,1,70,0,0
183677,-66.6666666666667,4,2,1,70,0,0
183891,-133.333333333333,4,2,1,70,0,0
184748,-66.6666666666667,4,2,1,70,0,0
185177,-200,4,2,1,30,0,0
188391,-200,4,2,2,30,0,0
193641,-200,4,2,2,5,0,0
193748,-200,4,2,2,30,0,0
194498,-200,4,2,2,5,0,0
194605,-200,4,2,2,30,0,0
195355,-200,4,2,2,5,0,0
195462,-200,4,2,2,30,0,0
196320,-200,4,2,1,30,0,0
197176,-200,4,2,1,40,0,0
197604,-200,4,2,1,42,0,0
198033,-200,4,2,1,44,0,0
198462,-200,4,2,1,46,0,0
198891,-111.111111111111,4,2,1,50,0,0
210891,-83.3333333333333,4,2,1,50,0,0
211534,-166.666666666667,4,2,1,50,0,0
212391,-166.666666666667,4,2,3,50,0,0
212605,-111.111111111111,4,2,1,50,0,0
216462,-166.666666666666,4,2,1,50,0,0
216891,-111.111111111111,4,2,1,50,0,0
238339,428.571428571429,4,2,1,50,1,0
240053,-400,4,2,5,40,0,0
244981,-400,4,2,5,20,0,0
245839,-400,4,2,5,30,0,0
246160,-400,4,2,5,40,0,0
246481,-400,4,2,5,50,0,0
246803,-400,4,2,5,60,0,0
246910,-400,4,2,5,40,0,0
248624,-400,4,2,5,30,0,0
253767,-500,4,2,5,30,0,0
255463,-500,4,2,2,23,0,0
257177,-500,4,2,1,21,0,0
258892,-500,4,2,2,19,0,0
260606,-500,4,2,1,17,0,0
262320,-500,4,2,2,15,0,0
264035,-500,4,2,1,13,0,0
265749,-500,4,2,2,11,0,0
267463,-500,4,2,1,9,0,0
269177,-500,4,2,2,7,0,0
270347,-500,4,2,2,5,0,0

[Colours]
Combo1 : 200,219,234
Combo2 : 169,113,202
Combo3 : 88,108,163
Combo4 : 168,72,118

[HitObjects]
100,0,35,5,6,3:2:0:0:
99,6,142,1,0,2:0:0:0:
98,12,249,2,0,L|96:30,2,18.75,0|0|0,2:0|2:0|2:0,2:0:0:0:
93,123,463,2,0,L|130:119,1,37.5000000000001,2|0,2:0|2:0,2:0:0:0:
230,100,677,1,0,2:0:0:0:
231,106,785,2,0,L|268:102,1,37.5000000000001,2|0,2:0|2:0,2:0:0:0:
368,83,999,1,0,2:0:0:0:
369,89,1106,2,0,L|406:85,1,37.5000000000001,2|0,2:0|2:0,2:0:0:0:
512,35,1320,5,2,3:0:0:0:
508,72,1427,1,0,3:2:0:0:
505,109,1535,1,0,3:2:0:0:
502,147,1642,6,0,L|494:229,1,75.0000000000002,14|8,1:2|1:2,2:0:0:0:
512,248,1963,1,0,3:2:0:0:
396,192,2177,2,0,L|372:190,2,25.0000000000001,0|0|0,3:2|1:2|1:2,2:0:0:0:
272,203,2392,2,0,L|247:206,2,25.0000000000001,0|0|8,1:2|1:2|3:0,2:0:0:0:
155,246,2606,2,0,L|132:256,2,25.0000000000001,8|0|0,3:0|1:2|1:2,2:0:0:0:
53,317,2820,2,0,L|33:332,2,25.0000000000001,0|0|0,3:2|3:2|3:2,2:0:0:0:
138,374,3035,5,8,1:2:0:0:
139,379,3177,1,8,1:2:0:0:
140,384,3320,1,8,1:2:0:0:
419,291,3677,1,12,1:2:0:0:
419,291,3892,6,0,L|413:354,2,55,6|0|0,3:2|2:0|2:0,2:0:0:0:
512,333,4213,1,0,3:2:0:0:
512,361,4320,2,0,B|458:379|458:379|403:375,1,110,10|0,1:2|2:0,2:0:0:0:
316,309,4642,2,0,B|263:305|263:305|210:324,1,110,10|0,1:2|2:0,2:0:0:0:
117,366,4963,2,0,B|63:384|63:384|8:380,1,110,10|0,1:2|2:0,2:0:0:0:
0,187,5392,5,2,3:2:0:0:
5,233,5499,1,2,3:2:0:0:
8,279,5606,1,2,3:2:0:0:
8,279,5927,5,2,3:2:0:0:
11,233,6034,1,0,3:2:0:0:
16,187,6142,2,0,L|20:132,1,55,10|0,1:2|3:2,2:0:0:0:
121,150,6356,1,0,3:2:0:0:
116,104,6463,2,0,L|111:49,1,55,10|0,1:2|3:2,2:0:0:0:
228,0,6677,1,0,3:2:0:0:
223,46,6784,2,0,L|218:101,1,55,10|0,1:2|2:0,2:0:0:0:
186,328,7106,5,2,3:2:0:0:
183,282,7213,1,0,2:0:0:0:
178,236,7320,1,2,3:2:0:0:
180,230,7642,5,2,3:2:0:0:
185,276,7749,1,0,3:2:0:0:
188,322,7856,1,10,1:2:0:0:
188,322,8177,1,10,1:2:0:0:
187,328,8499,2,0,B|237:355|237:355|291:360,1,110,10|0,1:2|2:0,2:0:0:0:
387,322,8820,6,0,L|381:267,1,55,2|0,3:2|2:0,2:0:0:0:
289,181,9034,1,2,3:2:0:0:
288,176,9142,2,0,L|282:239,1,55,0|0,1:2|1:2,2:0:0:0:
382,267,9356,1,2,3:2:0:0:
381,261,9463,2,0,L|431:238,2,55,8|2|0,1:2|3:2|3:2,2:0:0:0:
363,105,9784,2,0,L|408:137,2,55,8|8|4,3:0|3:0|3:0,2:0:0:0:
512,86,10106,2,0,L|402:95,1,110,2|8,2:3|1:2,2:0:0:0:
403,95,10749,6,0,L|408:35,2,60,6|2|2,3:2|2:0|2:0,2:0:0:0:
313,23,11070,1,2,3:2:0:0:
303,53,11177,2,0,L|247:29,2,60,10|0|0,1:2|2:0|3:2,2:0:0:0:
232,135,11499,2,0,L|191:180,2,60,10|0|0,1:2|2:0|2:0,2:0:0:0:
288,227,11820,2,0,L|319:279,1,60,10|0,1:2|2:0,2:0:0:0:
232,319,12034,2,0,L|191:364,1,60,2|0,2:3|2:0,2:0:0:0:
127,294,12249,5,2,3:2:0:0:
99,282,12356,1,0,2:0:0:0:
71,270,12463,2,0,L|76:209,1,60,2|2,3:2|1:2,2:0:0:0:
118,118,12677,1,2,1:2:0:0:
116,98,12784,1,0,3:2:0:0:
114,78,12892,1,0,3:2:0:0:
113,58,12999,2,0,L|174:53,1,60,10|0,1:2|3:2,2:0:0:0:
232,135,13213,1,0,3:2:0:0:
231,155,13320,2,0,L|292:160,1,60,10|0,1:2|3:2,2:0:0:0:
350,78,13534,1,0,3:2:0:0:
349,58,13642,2,0,L|410:53,1,60,10|0,1:2|2:0,2:0:0:0:
453,145,13963,6,0,L|514:150,2,60,2|2|2,3:2|2:0|3:2,2:0:0:0:
377,214,14284,2,0,L|382:275,1,60,2|2,2:0|2:0,2:0:0:0:
468,329,14499,1,2,3:2:0:0:
470,349,14606,1,2,3:2:0:0:
471,369,14713,6,0,L|365:376,1,106.25,10|0,1:2|2:0,2:0:0:0:
336,365,15034,2,0,L|230:372,1,106.25,10|0,1:2|2:0,2:0:0:0:
201,384,15356,2,0,L|73:375,1,127.5,10|2,1:2|3:2,2:0:0:0:
71,355,15784,5,0,2:0:0:0:
69,335,15892,2,0,L|63:271,3,55,2|2|2|2,3:2|1:2|1:2|3:2,2:0:0:0:
10,194,16320,1,10,1:2:0:0:
8,175,16427,1,2,3:2:0:0:
6,157,16534,1,2,3:2:0:0:
5,139,16642,1,8,3:0:0:0:
3,120,16749,1,0,3:0:0:0:
2,102,16856,1,0,3:0:0:0:
0,84,16963,1,2,2:3:0:0:
0,84,17820,6,0,L|3:56,1,27.5620145326986,2|2,2:0|2:0,2:0:0:0:
0,36,18249,2,0,L|3:9,1,27.5620145326986,2|2,2:0|2:0,2:0:0:0:
11,0,18570,1,0,2:0:0:0:
15,11,18784,2,0,L|11:45,1,34.4525181658732,2|0,2:0|2:0,2:0:0:0:
0,84,19106,1,10,1:2:0:0:
154,0,19320,6,0,B|100:52|100:52|112:202,1,225,6|0,3:2|3:2,2:0:0:0:
212,181,19749,2,0,B|265:233|265:233|253:383,1,225,10|0,1:2|3:2,2:0:0:0:
154,362,20177,5,0,3:2:0:0:
355,384,20392,2,0,L|364:274,1,110,2|0,3:2|2:0,2:0:0:0:
354,175,20713,1,2,1:2:0:0:
348,173,20820,2,0,L|353:118,1,55,0|0,3:2|2:0,2:0:0:0:
255,60,21034,2,0,L|246:170,1,110,2|0,3:2|1:2,2:0:0:0:
364,280,21356,1,2,3:2:0:0:
364,274,21463,2,0,L|419:279,1,55,8|0,1:2|2:0,2:0:0:0:
461,186,21677,5,2,3:2:0:0:
457,144,21784,1,2,3:2:0:0:
453,103,21892,1,2,3:2:0:0:
450,62,21999,1,2,3:2:0:0:
446,21,22106,2,0,P|370:41|353:117,1,165,2|2,3:2|1:2,2:0:0:0:
431,197,22534,2,0,L|436:252,1,55,0|0,3:2|1:2,2:0:0:0:
512,361,22749,6,0,L|347:346,1,165,2|0,3:2|3:2,2:0:0:0:
252,383,23177,1,8,1:2:0:0:
229,351,23284,2,0,L|242:201,1,150,2|0,3:2|2:0,2:0:0:0:
254,84,23606,6,0,L|117:147,1,150,2|0,3:2|1:2,2:0:0:0:
10,195,23927,2,0,L|133:281,1,150,2|0,3:2|1:2,2:0:0:0:
229,351,24249,2,0,L|235:276,1,75,2|0,3:2|1:2,2:0:0:0:
246,175,24463,2,0,L|252:100,2,75,2|0|0,3:2|1:2|1:2,2:0:0:0:
354,68,24784,1,2,3:2:0:0:
353,117,24892,5,10,1:2:0:0:
369,127,24999,1,2,3:2:0:0:
387,140,25106,1,2,3:2:0:0:
405,152,25213,1,8,3:0:0:0:
422,165,25320,1,8,3:0:0:0:
440,177,25427,1,4,3:0:0:0:
457,190,25534,2,0,L|505:224,2,60,2|0|2,2:3|2:0|2:0,2:0:0:0:
457,190,25963,1,8,1:2:0:0:
445,384,26177,5,2,3:2:0:0:
449,336,26284,2,0,L|390:341,1,60,2|0,2:0|1:2,2:0:0:0:
289,267,26499,1,2,3:2:0:0:
293,315,26606,2,0,L|173:304,1,120,10|2,1:2|2:0,2:0:0:0:
102,378,26927,1,0,3:2:0:0:
101,384,27034,2,0,L|46:379,1,55,2|0,3:2|1:2,2:0:0:0:
0,281,27249,6,0,L|164:267,1,165,0|0,3:2|1:2,2:0:0:0:
192,169,27677,2,0,L|246:173,1,55,2|0,3:2|1:2,2:0:0:0:
290,81,27892,2,0,L|343:95,1,55,0|0,3:2|1:2,2:0:0:0:
402,11,28106,1,2,1:2:0:0:
426,22,28213,1,0,3:2:0:0:
451,34,28320,1,8,1:2:0:0:
511,182,28534,5,2,3:2:0:0:
469,186,28642,1,2,3:2:0:0:
428,190,28749,1,2,3:2:0:0:
387,193,28856,1,2,3:2:0:0:
346,196,28963,2,0,P|302:229|287:281,1,110,2|2,3:2|2:3,2:0:0:0:
490,384,29392,6,0,L|486:341,1,42.5000000000002,2|0,3:2|2:0,2:0:0:0:
388,300,29606,2,0,L|380:384,1,85.0000000000003,2|0,3:2|2:0,2:0:0:0:
238,377,29927,1,2,3:2:0:0:
194,384,30034,2,0,L|181:257,1,127.5,8|0,1:2|1:2,2:0:0:0:
90,152,30463,2,0,L|82:236,1,85.0000000000003,2|0,3:2|2:0,2:0:0:0:
8,381,30784,2,0,L|0:297,1,85.0000000000003,2|0,3:2|2:0,2:0:0:0:
82,237,31106,5,2,3:2:0:0:
86,194,31213,1,2,1:2:0:0:
90,152,31320,2,0,L|96:87,1,65,2|2,3:2|1:2,2:0:0:0:
24,16,31534,2,0,L|57:14,1,32.4999985122681,2|0,1:2|3:2,0:2:0:0:
23,8,31642,2,0,L|55:5,1,32.4999985122681,2|2,3:2|0:3,0:2:0:0:
23,0,31749,6,0,L|17:65,1,65,10|0,1:2|3:2,2:0:0:0:
90,152,31963,1,0,3:2:0:0:
93,119,32070,1,6,3:0:0:0:
96,87,32177,2,0,L|161:81,1,65,0|0,3:2|3:2,2:0:0:0:
246,4,32392,2,0,L|311:0,1,65,2|10,2:3|1:2,2:0:0:0:
311,0,32820,2,0,L|313:32,4,25,10|0|0|0|0,1:2|2:0|2:0|2:0|2:0,2:0:0:0:
358,0,33034,6,0,B|412:52|412:52|400:202,1,225,6|0,3:2|3:2,2:0:0:0:
300,181,33463,2,0,B|247:233|247:233|259:383,1,225,10|0,1:2|1:2,2:0:0:0:
367,360,33892,6,0,L|259:382,1,110,2|0,3:2|1:2,2:0:0:0:
157,383,34213,2,0,L|148:274,1,110,2|0,3:2|1:2,2:0:0:0:
164,173,34534,2,0,L|159:118,1,55,2|0,3:2|2:0,2:0:0:0:
257,60,34749,2,0,L|266:170,1,110,6|0,3:2|1:2,2:0:0:0:
148,280,35070,1,2,3:2:0:0:
148,274,35177,2,0,L|93:279,1,55,8|0,1:2|2:0,2:0:0:0:
51,186,35392,5,2,3:2:0:0:
55,144,35499,1,2,3:2:0:0:
59,103,35606,1,6,3:2:0:0:
62,62,35713,1,6,3:2:0:0:
66,21,35820,2,0,P|142:41|159:117,1,165,2|0,3:2|1:2,2:0:0:0:
81,197,36249,2,0,L|76:252,1,55,2|0,3:2|1:2,2:0:0:0:
0,361,36463,6,0,L|165:346,1,165,2|0,3:2|3:2,2:0:0:0:
260,383,36892,1,10,1:2:0:0:
283,351,36999,2,0,L|270:201,1,150,0|0,3:2|1:2,2:0:0:0:
258,84,37320,6,0,L|395:147,1,150,2|0,3:2|1:2,2:0:0:0:
502,195,37642,2,0,L|379:281,1,150,2|0,3:2|1:2,2:0:0:0:
283,351,37963,2,0,L|277:276,1,75,2|0,3:2|2:0,2:0:0:0:
266,175,38177,2,0,L|260:100,2,75,6|0|0,3:2|1:2|1:2,2:0:0:0:
158,68,38499,1,2,3:2:0:0:
159,117,38606,5,10,1:2:0:0:
143,127,38713,1,2,2:0:0:0:
125,140,38820,1,2,3:2:0:0:
107,152,38927,1,4,3:0:0:0:
90,165,39034,1,0,3:2:0:0:
72,177,39142,1,0,3:2:0:0:
55,190,39249,2,0,L|7:224,2,60,2|0|2,2:3|2:0|2:3,2:0:0:0:
55,190,39677,1,8,1:2:0:0:
67,384,39892,5,6,3:2:0:0:
63,336,39999,2,0,L|122:341,1,60,2|0,2:0|3:2,2:0:0:0:
223,267,40213,1,2,3:2:0:0:
219,315,40320,2,0,L|339:304,1,120,10|2,1:2|2:0,2:0:0:0:
410,378,40642,1,0,3:2:0:0:
411,384,40749,2,0,L|470:378,1,60,2|0,3:2|1:2,2:0:0:0:
512,281,40963,6,0,L|348:267,1,165,0|0,3:2|1:2,2:0:0:0:
320,169,41392,2,0,L|266:173,1,55,0|2,3:2|1:2,2:0:0:0:
222,81,41606,2,0,L|169:95,1,55,0|0,3:2|1:2,2:0:0:0:
110,11,41820,1,2,1:2:0:0:
86,22,41927,1,0,3:2:0:0:
61,34,42034,1,8,1:2:0:0:
1,182,42249,5,2,3:2:0:0:
43,186,42356,1,2,3:2:0:0:
84,190,42463,1,2,3:2:0:0:
125,193,42570,1,2,3:2:0:0:
165,196,42677,2,0,P|209:228|224:280,1,110,2|2,3:2|2:3,2:0:0:0:
22,384,43106,6,0,L|26:341,1,42.5000000000002,2|0,3:2|1:2,2:0:0:0:
124,300,43320,2,0,L|132:384,1,85.0000000000003,2|0,3:2|1:2,2:0:0:0:
274,377,43642,1,2,3:2:0:0:
318,384,43749,1,8,1:2:0:0:
274,377,43856,1,2,3:2:0:0:
422,152,44177,2,0,L|430:236,1,85.0000000000003,2|0,3:2|1:2,2:0:0:0:
504,381,44499,2,0,L|512:297,1,85.0000000000003,0|0,3:2|2:0,2:0:0:0:
430,237,44820,5,2,3:2:0:0:
426,194,44927,1,2,1:2:0:0:
422,152,45034,2,0,L|416:87,1,65,2|2,3:2|1:2,2:0:0:0:
363,0,45248,1,2,1:2:0:0:
327,24,45355,1,2,3:2:0:0:
293,49,45462,2,0,L|239:86,1,65,10|0,1:2|3:2,2:0:0:0:
329,240,45676,5,10,1:2:0:0:
289,221,45784,1,8,1:2:0:0:
251,204,45891,2,0,L|191:176,1,65,8|0,1:2|3:2,2:0:0:0:
137,89,46105,1,8,3:0:0:0:
136,95,46212,1,4,3:0:0:0:
135,101,46320,6,0,L|60:107,1,75,2|0,3:2|2:0,2:0:0:0:
0,205,46534,2,0,L|75:211,1,75.0000000000002,2|2,3:2|2:0,2:0:0:0:
76,216,46855,1,2,3:2:0:0:
156,273,47070,1,2,3:2:0:0:
156,278,47177,1,8,1:2:0:0:
52,380,47391,2,0,L|127:374,1,75,2|0,3:2|1:2,2:0:0:0:
254,309,47605,2,0,L|248:384,1,75.0000000000002,2|2,3:2|1:2,2:0:0:0:
254,382,47927,1,2,1:2:0:0:
329,240,48141,2,0,L|326:202,2,37.5000000000001,2|0|0,3:2|2:0|1:2,2:0:0:0:
356,376,48462,6,0,L|456:384,1,100,2|0,3:2|2:0,2:0:0:0:
512,279,48677,2,0,L|412:286,1,100,2|0,3:2|2:0,2:0:0:0:
326,202,48891,1,8,1:2:0:0:
329,240,48998,1,6,3:2:0:0:
474,179,49212,2,0,L|424:175,1,50,2|0,3:2|2:0,2:0:0:0:
425,175,49534,6,0,L|419:100,1,75,2|0,3:2|2:0,2:0:0:0:
512,5,49748,2,0,L|508:54,1,50,2|0,3:2|1:2,2:0:0:0:
509,60,50070,2,0,L|434:66,1,75,2|0,3:2|2:0,2:0:0:0:
311,26,50284,2,0,L|317:101,1,75.0000000000002,2|0,3:2|1:2,2:0:0:0:
326,202,50605,1,8,1:2:0:0:
326,202,50820,6,0,B|220:206|258:120|152:124,1,200,2|0,3:2|2:0,2:0:0:0:
0,54,51141,2,0,L|75:60,1,75,2|0,3:2|2:0,2:0:0:0:
152,124,51355,2,0,L|146:199,1,75.0000000000002,2|0,3:2|1:2,2:0:0:0:
146,204,51677,2,0,L|71:198,1,75,2|0,3:2|1:2,2:0:0:0:
0,271,51891,2,0,L|6:346,1,75.0000000000002,2|0,3:2|1:2,2:0:0:0:
147,380,52212,1,2,3:2:0:0:
100,384,52320,1,8,1:2:0:0:
147,380,52427,2,0,L|141:305,1,75.0000000000002,2|0,3:2|1:2,2:0:0:0:
136,306,52748,1,2,3:2:0:0:
302,288,52962,5,2,3:2:0:0:
339,285,53070,1,2,3:2:0:0:
377,283,53177,2,0,L|452:277,1,75,6|0,3:2|2:0,2:0:0:0:
512,179,53391,2,0,L|437:173,1,75.0000000000002,2|2,3:2|2:0,2:0:0:0:
436,168,53712,1,2,3:2:0:0:
356,111,53927,1,2,3:2:0:0:
356,106,54034,1,8,1:2:0:0:
460,4,54248,2,0,L|385:10,1,75,2|0,3:2|2:0,2:0:0:0:
258,75,54462,2,0,L|264:0,1,75.0000000000002,2|2,3:2|2:0,2:0:0:0:
258,2,54784,1,2,3:2:0:0:
183,144,54998,1,2,3:2:0:0:
156,8,55320,6,0,L|56:0,1,100,6|0,2:0|3:2,2:0:0:0:
0,105,55534,2,0,L|100:98,1,100,8|4,2:3|2:3,2:0:0:0:
186,182,55748,1,10,1:2:0:0:
183,144,55855,1,4,2:0:0:0:
0,105,56070,2,0,L|100:98,1,100,2|0,3:2|2:0,2:0:0:0:
87,209,56391,6,0,L|93:284,1,75,6|0,2:0|3:2,2:0:0:0:
0,379,56605,2,0,L|4:330,1,50,8|8,3:0|3:0,2:0:0:0:
3,324,56927,2,0,L|78:318,1,75,6|0,2:0|3:2,2:0:0:0:
201,358,57141,2,0,L|195:283,1,75,4|4,3:0|3:0,2:0:0:0:
186,182,57462,1,8,1:2:0:0:
186,182,57677,6,0,B|292:178|254:264|360:260,1,200,2|0,3:2|2:0,2:0:0:0:
512,330,57998,2,0,L|437:324,1,75,2|0,3:2|2:0,2:0:0:0:
360,260,58212,2,0,L|366:185,1,75.0000000000002,2|0,3:2|2:0,2:0:0:0:
366,180,58534,2,0,L|441:186,1,75,2|0,3:2|2:0,2:0:0:0:
512,113,58748,2,0,L|506:38,1,75.0000000000002,2|0,3:2|2:0,2:0:0:0:
365,4,59070,1,2,3:2:0:0:
412,0,59177,1,8,1:2:0:0:
365,4,59284,6,0,L|371:79,2,75,2|8|4,3:2|3:0|3:0,2:0:0:0:
281,112,59605,1,2,3:2:0:0:
275,112,59712,1,0,3:2:0:0:
270,113,59820,1,8,1:2:0:0:
265,169,59927,1,8,1:2:0:0:
260,225,60034,6,0,B|208:251|208:251|153:255,2,112.5,6|2|2,3:2|3:2|3:2,2:0:0:0:
33,384,60891,2,0,L|59:85,1,300,10|2,1:2|3:2,2:0:0:0:
152,192,61320,2,0,L|351:175,1,200,0|2,2:0|3:2,2:0:0:0:
322,384,61748,6,0,B|324:326|324:326|348:276,2,112.5,2|2|2,3:2|3:2|3:2,2:0:0:0:
484,162,62605,2,0,B|481:220|481:220|456:268,2,112.5,10|2|2,1:2|3:2|3:2,2:0:0:0:
315,140,63462,5,6,3:2:0:0:
315,140,63677,1,2,1:2:0:0:
338,112,63784,1,0,3:2:0:0:
337,106,63891,2,0,P|369:87|406:80,1,75,2|0,1:2|1:0,2:0:0:0:
512,154,64105,2,0,P|511:191|499:226,1,75,2|0,3:2|2:0,2:0:0:0:
347,277,64320,6,0,P|281:243|227:191,1,150,10|2,1:2|1:2,2:0:0:0:
121,180,64641,2,0,P|69:234|36:301,1,150,0|0,3:2|1:2,2:0:0:0:
148,300,64962,2,0,P|215:332|268:384,1,150,2|0,3:2|3:2,2:0:0:0:
280,242,65284,5,0,1:2:0:0:
251,218,65391,1,2,1:2:0:0:
227,191,65498,2,0,P|222:116|242:44,1,150,0|0,3:2|1:2,2:0:0:0:
333,0,65820,1,0,3:2:0:0:
386,291,66034,6,0,P|376:192|337:101,1,200,14|0,1:2|1:2,2:0:0:0:
464,3,66355,2,0,L|455:102,1,100,6|0,3:2|2:0,2:0:0:0:
512,248,66570,1,0,3:2:0:0:
486,283,66677,2,0,L|388:292,1,100,10|0,1:2|2:0,2:0:0:0:
334,384,66891,6,0,B|293:342|293:342|242:320,2,112.5,6|2|2,3:2|3:2|3:2,2:0:0:0:
44,228,67748,2,0,B|85:269|85:269|136:289,2,112.5,10|2|2,1:2|3:2|3:2,2:0:0:0:
276,123,68605,2,0,B|233:163|233:163|214:213,2,112.5,2|2|2,3:2|3:2|3:2,2:0:0:0:
244,321,69462,1,10,1:2:0:0:
45,230,69677,5,0,3:0:0:0:
47,224,69784,1,2,3:2:0:0:
223,103,69998,1,0,3:0:0:0:
229,101,70105,1,2,3:2:0:0:
117,330,70320,5,6,3:2:0:0:
122,334,70427,1,0,3:0:0:0:
300,207,70641,1,2,3:2:0:0:
296,202,70748,1,0,3:0:0:0:
97,112,70962,1,2,3:2:0:0:
103,111,71070,1,0,3:0:0:0:
109,110,71177,5,14,1:2:0:0:
352,89,71498,1,2,3:2:0:0:
499,298,71820,1,2,3:2:0:0:
334,377,72034,5,2,3:0:0:0:
333,383,72141,1,0,3:2:0:0:
313,359,72248,1,8,1:2:0:0:
288,339,72355,1,8,1:2:0:0:
287,345,72462,1,0,3:2:0:0:
286,351,72570,1,0,3:2:0:0:
266,327,72677,1,8,3:0:0:0:
241,307,72784,1,0,3:2:0:0:
244,321,72891,6,0,L|206:324,1,37.5000000000001,8|0,1:2|3:2,2:0:0:0:
105,384,73105,1,0,3:2:0:0:
91,379,73212,2,0,L|106:345,1,37.5000000000001,8|0,1:2|3:2,2:0:0:0:
105,227,73427,1,0,3:2:0:0:
104,233,73534,1,8,1:2:0:0:
53,209,73641,1,8,1:2:0:0:
2,185,73748,6,0,B|59:179|59:179|108:153,2,112.5,6|2|2,3:2|3:2|3:2,2:0:0:0:
198,107,74605,2,0,B|246:81|246:81|303:76,2,112.5,14|2|2,1:2|3:2|3:2,2:0:0:0:
316,237,75462,6,0,B|281:221|281:221|244:219,1,75.0000000000002,2|0,3:0|2:0,2:0:0:0:
198,107,75784,2,0,B|228:85|228:85|247:54,1,75.0000000000002,2|0,3:2|2:0,2:0:0:0:
369,69,76105,2,0,B|372:106|372:106|388:138,1,75,2|0,3:2|2:0,2:0:0:0:
316,237,76320,6,0,B|353:244|353:244|389:235,1,75.0000000000002,10|0,1:2|2:0,2:0:0:0:
369,69,76641,2,0,B|356:34|356:34|332:7,1,75.0000000000002,2|2,3:2|3:2,2:0:0:0:
198,107,76962,1,10,1:2:0:0:
173,135,77070,1,10,1:2:0:0:
160,170,77177,6,0,B|179:202|179:202|208:225,1,75.0000000000002,6|0,3:2|2:0,2:0:0:0:
181,343,77498,2,0,B|143:343|143:343|109:357,1,75.0000000000002,2|0,3:2|2:0,2:0:0:0:
20,276,77820,2,0,B|38:243|38:243|42:207,1,75,2|0,3:2|2:0,2:0:0:0:
160,170,78034,6,0,B|133:143|133:143|100:129,1,75.0000000000002,10|0,1:2|2:0,2:0:0:0:
20,276,78355,2,0,B|10:312|10:312|14:348,1,75.0000000000002,2|0,3:2|2:0,2:0:0:0:
181,343,78677,2,0,B|216:333|216:333|245:311,1,75,2|0,3:2|2:0,2:0:0:0:
390,236,78891,5,4,3:2:0:0:
369,250,78998,1,8,3:0:0:0:
354,270,79105,1,4,3:0:0:0:
346,293,79212,5,8,1:2:0:0:
348,318,79320,1,0,3:2:0:0:
342,342,79427,1,8,3:0:0:0:
331,364,79534,2,0,L|405:370,1,75,0|0,2:0|3:2,2:0:0:0:
496,379,79748,5,8,1:2:0:0:
495,373,79855,1,0,3:2:0:0:
490,317,79962,1,8,1:2:0:0:
485,260,80070,1,8,1:2:0:0:
480,204,80177,5,8,1:2:0:0:
479,198,80284,1,0,3:2:0:0:
478,192,80391,1,8,3:0:0:0:
477,186,80498,1,4,3:0:0:0:
472,128,80605,6,0,B|414:123|414:123|362:139,2,112.5,6|2|2,3:2|3:2|3:2,2:0:0:0:
214,4,81462,2,0,L|241:302,1,300,10|0,1:2|3:2,2:0:0:0:
343,294,81891,2,0,L|326:95,1,200,2|0,2:0|3:2,2:0:0:0:
113,0,82320,6,0,B|118:57|118:57|100:110,2,112.5,2|0|0,3:2|3:2|3:2,2:0:0:0:
197,214,83177,2,0,B|192:156|192:156|211:106,1,112.5,8|0,1:2|3:2,2:0:0:0:
20,251,83820,1,8,1:2:0:0:
39,298,83927,1,8,1:2:0:0:
60,344,84034,6,0,B|110:361|110:361|168:357,2,112.5,6|0|0,3:2|3:2|3:2,2:0:0:0:
378,331,84891,2,0,B|326:313|326:313|269:318,2,112.5,10|0|0,1:2|3:2|3:2,2:0:0:0:
229,200,85748,5,6,3:2:0:0:
229,200,85962,1,0,1:2:0:0:
253,201,86070,1,0,3:2:0:0:
277,208,86177,1,8,3:0:0:0:
299,220,86284,1,8,1:2:0:0:
301,226,86391,2,0,B|334:242,2,37.5000000000001,0|0|0,3:2|1:0|1:0,2:0:0:0:
434,315,86712,1,0,3:2:0:0:
431,277,86820,2,0,B|428:240,1,37.5000000000001,8|0,1:2|3:2,2:0:0:0:
335,125,87034,1,8,1:2:0:0:
388,121,87141,1,4,3:0:0:0:
440,117,87248,2,0,B|476:113,1,37.5000000000001,8|8,3:0|3:0,2:0:0:0:
55,6,87677,6,0,L|130:12,1,75,10|0,1:2|1:0,2:0:0:0:
231,26,87891,2,0,L|225:101,1,75.0000000000002,8|0,3:0|1:0,2:0:0:0:
225,106,88212,2,0,L|150:112,1,75,10|0,1:2|1:0,2:0:0:0:
49,126,88427,2,0,L|55:201,1,75.0000000000002,8|0,3:0|1:0,2:0:0:0:
55,206,88748,2,0,L|130:212,1,75,10|0,1:2|1:0,2:0:0:0:
129,217,88962,1,10,1:2:0:0:
126,250,89070,1,8,1:2:0:0:
123,284,89177,6,0,P|84:302|42:302,1,85.0000000000003,6|0,3:2|1:0,2:0:0:0:
46,338,89498,2,0,P|50:357|49:380,1,42.5000000000002,0|0,3:2|2:0,2:0:0:0:
216,384,89820,1,0,3:2:0:0:
216,374,89927,1,0,3:2:0:0:
217,363,90034,2,0,L|224:278,3,85.0000000000003,10|2|2|2,1:2|2:0|2:3|2:0,2:0:0:0:
391,139,90891,6,0,P|352:157|310:157,1,85.0000000000003,0|0,3:2|1:2,2:0:0:0:
314,193,91212,2,0,P|318:213|317:235,1,42.5000000000002,2|0,3:2|2:0,2:0:0:0:
318,377,91534,1,0,3:2:0:0:
328,377,91641,1,0,3:2:0:0:
339,378,91748,2,0,P|383:384|424:385,1,85.0000000000003,8|0,1:2|1:0,2:0:0:0:
455,384,92070,2,0,P|448:339|448:299,1,85.0000000000003,0|0,1:0|1:0,2:0:0:0:
447,267,92391,2,0,P|469:271|489:270,1,42.5000000000002,0|0,1:0|3:2,2:0:0:0:
498,256,92605,5,0,3:2:0:0:
489,235,92712,1,8,3:0:0:0:
485,214,92820,1,8,3:0:0:0:
484,193,92927,1,0,3:2:0:0:
487,172,93034,1,2,2:0:0:0:
490,152,93141,1,4,3:0:0:0:
491,131,93248,1,4,3:0:0:0:
487,109,93355,1,0,3:2:0:0:
478,90,93462,1,10,1:2:0:0:
478,90,93677,6,0,L|480:58,3,21.2500000000001,0|0|0|0,2:0|2:0|2:0|2:0,2:0:0:0:
487,109,93891,2,0,P|491:136|488:165,2,56.6666666666669,2|2|2,2:3|2:3|2:3,2:0:0:0:
381,36,94320,6,0,P|322:56|264:37,1,125,2|0,3:2|1:0,2:0:0:0:
109,0,94641,2,0,P|155:41|168:100,1,125,2|0,3:2|2:0,2:0:0:0:
224,192,94962,1,2,3:2:0:0:
243,168,95070,1,0,3:2:0:0:
270,151,95177,1,8,1:2:0:0:
168,101,95391,5,4,1:2:0:0:
53,83,95605,2,0,P|-10:148|3:237,1,187.5,6|0,3:2|3:2,2:0:0:0:
28,262,96034,1,0,3:2:0:0:
57,276,96141,2,0,P|78:279|99:279,1,42.5000000000002,2|2,2:3|2:0,2:0:0:0:
224,192,96355,1,0,3:2:0:0:
210,221,96462,2,0,P|206:242|206:263,1,42.5000000000002,8|0,3:0|2:0,2:0:0:0:
98,300,96677,1,0,3:2:0:0:
97,321,96784,1,0,3:2:0:0:
95,342,96891,5,14,1:2:0:0:
95,342,97105,2,0,P|116:346|137:345,2,42.5000000000002,2|0|0,1:2|1:2|2:0,2:0:0:0:
165,362,97427,2,0,P|185:365|207:365,1,42.5000000000002,0|2,1:2|1:2,2:0:0:0:
295,313,97641,1,0,3:2:0:0:
324,299,97748,2,0,P|327:318|327:341,2,42.5000000000002,0|0|0,3:2|2:0|1:2,2:0:0:0:
420,384,98070,2,0,P|419:364|423:342,2,42.5000000000002,0|2|0,3:2|2:0|2:0,2:0:0:0:
512,306,98391,1,2,3:2:0:0:
510,284,98498,1,0,3:2:0:0:
508,263,98605,5,8,1:2:0:0:
423,341,98820,1,0,3:2:0:0:
327,256,99034,2,0,P|325:276|324:298,2,42.5000000000002,0|0|0,3:2|1:2|1:2,2:0:0:0:
401,187,99355,5,0,3:2:0:0:
423,185,99462,1,2,3:2:0:0:
444,183,99570,1,8,1:2:0:0:
441,69,99784,1,8,1:2:0:0:
470,83,99891,2,0,P|489:86|512:86,2,42.5000000000002,2|0|0,3:2|2:0|2:0,2:0:0:0:
364,0,100212,1,0,3:2:0:0:
342,2,100320,1,10,1:2:0:0:
321,4,100427,2,0,L|279:7,2,42.5000000000002,0|0|0,3:2|1:2|1:2,2:0:0:0:
282,102,100748,2,0,L|240:105,1,42.5000000000002,2|0,3:2|1:2,2:0:0:0:
245,207,100962,2,0,L|203:210,1,42.5000000000002,0|0,3:2|1:2,2:0:0:0:
208,312,101177,2,0,L|166:315,2,42.5000000000002,0|0|0,3:2|1:2|1:2,2:0:0:0:
98,383,101498,5,0,3:2:0:0:
92,382,101605,1,8,3:0:0:0:
78,353,101712,1,8,1:2:0:0:
64,324,101820,2,0,P|60:303|60:282,2,42.5000000000002,10|0|2,1:2|1:2|1:2,2:0:0:0:
102,195,102141,1,0,3:2:0:0:
81,169,102248,1,10,1:2:0:0:
75,170,102355,1,0,3:2:0:0:
55,145,102462,1,8,1:2:0:0:
49,145,102570,1,0,3:2:0:0:
29,120,102677,5,10,1:2:0:0:
32,77,102784,1,8,1:2:0:0:
36,35,102891,6,0,P|70:9|123:0,1,94.9999999999998,0|2,3:2|1:2,2:0:0:0:
247,15,103212,1,0,3:2:0:0:
243,57,103320,2,0,L|238:104,1,47.4999999999999,2|0,1:3|1:2,2:0:0:0:
203,210,103534,1,2,3:2:0:0:
224,208,103641,1,0,3:2:0:0:
245,206,103748,1,2,1:3:0:0:
349,29,103962,5,0,3:2:0:0:
345,71,104070,1,8,1:2:0:0:
341,113,104177,2,0,L|336:160,1,47.4999999999999,2|0,2:3|3:2,2:0:0:0:
343,262,104391,1,8,3:0:0:0:
439,169,104605,6,0,L|434:216,2,47.4999999999999,0|0|0,3:2|1:2|1:2,2:0:0:0:
512,273,104927,1,0,3:2:0:0:
508,315,105034,2,0,L|503:362,1,47.4999999999999,2|0,1:3|1:2,2:0:0:0:
400,358,105248,5,0,3:2:0:0:
358,362,105355,1,0,3:2:0:0:
316,366,105462,2,0,L|269:371,1,47.4999999999999,10|4,3:0|3:0,2:0:0:0:
343,262,105677,5,2,3:2:0:0:
301,266,105784,1,4,2:3:0:0:
259,270,105891,2,0,L|212:275,1,47.4999999999999,2|0,2:3|3:2,2:0:0:0:
168,384,106105,1,10,1:2:0:0:
194,175,106320,6,0,P|199:153|199:128,2,47.4999999999999,0|0|0,3:2|2:0|2:0,2:0:0:0:
111,286,106641,1,0,3:2:0:0:
69,290,106748,2,0,L|22:295,1,47.4999999999999,2|2,2:3|2:3,2:0:0:0:
0,186,106962,1,2,3:2:0:0:
23,188,107070,1,0,3:2:0:0:
47,191,107177,1,12,1:2:0:0:
23,95,107391,5,6,3:2:0:0:
0,0,107605,2,0,L|47:5,2,47.4999999999999,4|0|2,3:2|1:2|1:2,2:0:0:0:
136,39,107927,1,0,3:2:0:0:
178,35,108034,2,0,L|225:30,1,47.4999999999999,2|0,3:0|2:0,2:0:0:0:
293,106,108248,1,0,2:0:0:0:
335,102,108355,1,0,3:2:0:0:
377,98,108462,2,0,L|424:93,1,47.4999999999999,2|2,2:3|2:3,2:0:0:0:
512,146,108677,5,2,3:2:0:0:
508,188,108784,1,0,3:2:0:0:
504,230,108891,2,0,L|499:277,1,47.4999999999999,10|4,1:2|3:2,2:0:0:0:
406,378,109212,1,2,2:0:0:0:
407,384,109320,1,4,3:2:0:0:
407,384,109641,1,0,3:2:0:0:
403,342,109748,6,0,L|398:295,2,47.4999999999999,4|0|2,3:2|2:0|2:0,2:0:0:0:
316,245,110070,2,0,L|321:198,2,47.4999999999999,6|0|0,3:2|2:0|2:0,2:0:0:0:
234,294,110391,1,2,3:2:0:0:
236,317,110498,1,0,3:2:0:0:
239,341,110605,5,12,1:2:0:0:
239,341,110820,2,0,P|214:341|192:336,2,47.4999999999999,0|0|0,1:2|1:2|2:0,2:0:0:0:
105,377,111141,2,0,P|82:381|58:382,1,47.4999999999999,0|0,1:2|1:2,2:0:0:0:
0,273,111355,1,0,3:2:0:0:
42,277,111462,2,0,P|66:281|89:282,2,47.4999999999999,0|0|0,3:2|1:2|1:2,2:0:0:0:
167,223,111784,2,0,P|167:200|162:177,2,47.4999999999999,0|0|0,3:2|1:2|1:2,2:0:0:0:
65,178,112105,5,2,3:2:0:0:
67,155,112212,1,0,3:2:0:0:
70,131,112320,2,0,P|73:103|79:84,1,47.4999999999999,10|0,1:2|2:0,2:0:0:0:
186,0,112534,2,0,P|163:4|139:5,3,47.4999999999999,2|0|0|0,1:2|1:2|2:0|1:2,2:0:0:0:
260,151,112962,5,2,1:2:0:0:
262,128,113070,1,0,3:2:0:0:
265,104,113177,2,0,P|268:76|273:58,1,47.4999999999999,0|0,3:2|2:0,2:0:0:0:
365,0,113391,1,4,3:0:0:0:
370,47,113498,2,0,P|372:67|378:95,3,47.4999999999999,8|0|0|2,1:2|2:0|2:0|2:0,2:0:0:0:
512,145,113927,5,0,3:2:0:0:
468,138,114034,1,14,1:2:0:0:
512,145,114141,2,0,L|504:219,2,75,0|0|0,3:2|1:2|1:2,2:0:0:0:
512,317,114462,2,0,L|438:309,1,75,0|0,3:2|1:2,2:0:0:0:
348,243,114677,2,0,L|340:317,1,75,0|0,3:2|1:2,2:0:0:0:
262,384,114891,2,0,L|188:376,1,75,0|0,3:2|2:0,2:0:0:0:
120,300,115105,5,0,1:2:0:0:
118,294,115212,1,0,2:0:0:0:
74,301,115320,2,0,L|0:309,2,75,8|0|0,1:2|2:0|1:2,2:0:0:0:
0,214,115641,1,0,2:0:0:0:
7,170,115748,2,0,L|15:96,1,75,8|0,1:2|2:0,2:0:0:0:
99,39,115962,2,0,L|173:31,2,75,4|0|0,3:2|2:0|1:2,2:0:0:0:
260,84,116284,2,0,L|252:157,1,75,8|0,1:2|1:2,2:0:0:0:
252,159,116605,6,0,B|304:133|304:133|359:129,2,112.5,6|2|2,3:2|3:2|3:2,2:0:0:0:
479,0,117462,2,0,L|453:299,1,300,10|2,1:2|3:2,2:0:0:0:
356,361,117891,2,0,L|339:162,1,200,0|2,2:0|3:2,2:0:0:0:
190,0,118320,6,0,B|188:58|188:58|164:108,2,112.5,2|2|2,3:2|3:2|3:2,2:0:0:0:
0,230,119177,2,0,B|52:203|52:203|106:200,2,112.5,10|2|2,1:2|3:2|3:2,2:0:0:0:
197,244,120034,5,6,3:2:0:0:
197,244,120248,1,2,1:2:0:0:
174,272,120355,1,0,3:2:0:0:
175,278,120462,2,0,P|143:297|106:304,1,75,2|0,1:2|1:0,2:0:0:0:
0,230,120677,2,0,P|1:193|13:158,1,75,2|0,3:2|2:0,2:0:0:0:
165,107,120891,6,0,P|231:141|285:193,1,150,10|2,1:2|1:2,2:0:0:0:
390,283,121212,2,0,P|386:208|404:136,1,150,0|0,3:2|1:2,2:0:0:0:
429,0,121534,2,0,P|367:42|295:62,1,150,2|0,3:2|3:2,2:0:0:0:
232,142,121855,5,0,1:2:0:0:
261,166,121962,1,2,1:2:0:0:
285,193,122070,2,0,P|290:268|270:340,1,150,0|0,3:2|1:2,2:0:0:0:
179,384,122391,1,0,3:2:0:0:
126,92,122605,6,0,L|144:292,1,200,14|0,1:2|1:2,2:0:0:0:
33,384,122927,2,0,L|42:285,1,100,6|0,3:2|2:0,2:0:0:0:
141,254,123141,1,0,3:2:0:0:
135,192,123248,2,0,L|126:94,1,100,10|0,1:2|2:0,2:0:0:0:
178,0,123462,6,0,B|219:42|219:42|270:64,2,112.5,6|2|2,3:2|3:2|3:2,2:0:0:0:
474,46,124320,2,0,B|418:61|418:61|376:95,2,112.5,10|2|2,1:2|3:2|3:2,2:0:0:0:
289,279,125177,2,0,B|306:223|306:223|298:170,2,112.5,2|2|2,3:2|3:2|3:2,2:0:0:0:
189,192,126034,1,10,1:2:0:0:
444,170,126248,5,0,3:0:0:0:
442,174,126355,1,2,3:2:0:0:
310,265,126570,1,0,3:0:0:0:
306,266,126677,1,2,3:2:0:0:
417,38,126891,5,6,3:2:0:0:
411,33,126998,1,0,3:0:0:0:
189,192,127212,1,2,3:2:0:0:
194,198,127320,1,0,3:0:0:0:
450,310,127534,1,2,3:2:0:0:
444,311,127641,1,0,3:0:0:0:
438,313,127748,5,14,1:2:0:0:
270,115,128070,1,2,3:2:0:0:
13,86,128391,1,2,3:2:0:0:
178,7,128605,5,2,3:0:0:0:
179,1,128712,1,0,3:2:0:0:
199,25,128820,1,8,1:2:0:0:
224,45,128927,1,8,1:2:0:0:
225,39,129034,1,0,3:2:0:0:
226,33,129141,1,0,3:2:0:0:
246,57,129248,1,8,3:0:0:0:
271,77,129355,1,0,3:2:0:0:
268,63,129462,6,0,L|306:60,1,37.5000000000001,8|0,1:2|3:2,2:0:0:0:
407,0,129677,1,0,3:2:0:0:
421,5,129784,2,0,L|406:39,1,37.5000000000001,8|0,1:2|3:2,2:0:0:0:
407,157,129998,1,0,3:2:0:0:
408,151,130105,1,8,1:2:0:0:
459,175,130212,1,8,1:2:0:0:
510,199,130320,6,0,B|453:205|453:205|404:231,2,112.5,6|2|2,3:2|3:2|3:2,2:0:0:0:
288,384,131177,2,0,B|312:332|312:332|314:277,2,112.5,14|2|2,1:2|3:2|3:2,2:0:0:0:
196,147,132034,6,0,B|218:178|218:178|249:198,1,75.0000000000002,2|0,3:0|2:0,2:0:0:0:
314,277,132355,2,0,B|277:281|277:281|245:298,1,75.0000000000002,2|0,3:2|2:0,2:0:0:0:
143,315,132677,2,0,B|159:281|159:281|161:245,1,75,2|0,3:2|2:0,2:0:0:0:
196,147,132891,6,0,B|159:140|159:140|124:148,1,75.0000000000002,10|0,1:2|2:0,2:0:0:0:
143,315,133212,2,0,B|156:350|156:350|180:377,1,75.0000000000002,2|2,3:2|3:2,2:0:0:0:
314,277,133534,1,10,1:2:0:0:
339,249,133641,1,10,1:2:0:0:
352,214,133748,6,0,B|352:176|352:176|338:142,1,75.0000000000002,6|0,3:2|2:0,2:0:0:0:
331,41,134070,2,0,B|364:59|364:59|400:64,1,75.0000000000002,2|0,3:2|2:0,2:0:0:0:
492,108,134391,2,0,B|460:127|460:127|438:156,1,75,2|0,3:2|2:0,2:0:0:0:
352,214,134605,6,0,B|379:241|379:241|412:255,1,75.0000000000002,10|0,1:2|2:0,2:0:0:0:
492,108,134927,2,0,B|502:72|502:72|498:36,1,75.0000000000002,2|0,3:2|2:0,2:0:0:0:
331,41,135248,2,0,B|296:51|296:51|267:73,1,75,2|0,3:2|2:0,2:0:0:0:
122,148,135462,5,4,3:2:0:0:
143,134,135570,1,8,3:0:0:0:
158,114,135677,1,4,3:0:0:0:
166,91,135784,5,8,1:2:0:0:
164,66,135891,1,0,3:2:0:0:
170,42,135998,1,8,3:0:0:0:
181,20,136105,2,0,L|107:14,1,75,0|0,2:0|3:2,2:0:0:0:
5,0,136320,5,8,1:2:0:0:
6,6,136427,1,0,3:2:0:0:
11,62,136534,1,8,1:2:0:0:
16,119,136641,1,8,1:2:0:0:
21,175,136748,5,8,1:2:0:0:
22,181,136855,1,0,3:2:0:0:
23,187,136962,1,8,3:0:0:0:
24,193,137070,1,4,3:0:0:0:
29,250,137177,6,0,B|87:255|87:255|140:238,2,112.5,6|2|2,3:2|3:2|3:2,2:0:0:0:
298,380,138034,2,0,L|-1:355,1,300,10|0,1:2|3:2,2:0:0:0:
29,250,138462,2,0,L|228:267,1,200,0|0,2:0|3:2,2:0:0:0:
331,384,138891,6,0,B|326:327|326:327|344:274,2,112.5,2|0|0,3:2|3:2|3:2,2:0:0:0:
492,133,139748,2,0,B|444:167|444:167|391:176,2,112.5,8|0|8,1:2|3:2|1:2,2:0:0:0:
473,86,140498,1,8,1:2:0:0:
452,40,140605,6,0,B|399:50|399:50|351:83,2,112.5,6|0|0,3:2|3:2|3:2,2:0:0:0:
155,0,141462,2,0,B|191:41|191:41|243:66,2,112.5,10|0|0,1:2|3:2|3:2,2:0:0:0:
283,184,142320,5,6,3:2:0:0:
283,184,142534,1,0,1:2:0:0:
259,183,142641,1,0,3:2:0:0:
235,176,142748,1,8,3:0:0:0:
213,164,142855,1,8,1:2:0:0:
211,158,142962,2,0,B|178:142,2,37.5000000000001,0|0|0,3:2|1:0|1:0,2:0:0:0:
78,69,143284,1,0,3:2:0:0:
81,107,143391,2,0,B|84:144,1,37.5000000000001,8|0,1:2|3:2,2:0:0:0:
177,259,143605,1,8,1:2:0:0:
124,263,143712,1,4,3:0:0:0:
72,267,143820,2,0,B|35:270,1,37.5000000000001,8|8,3:0|3:0,2:0:0:0:
72,267,144248,5,12,2:0:0:0:
72,267,144462,2,0,L|76:316,1,50,2|0,3:2|2:0,2:0:0:0:
76,322,144784,1,2,3:2:0:0:
76,328,144891,2,0,L|80:377,1,50,10|0,1:2|2:0,2:0:0:0:
86,377,145212,1,2,3:2:0:0:
92,377,145320,2,0,L|141:373,1,50,2|0,3:2|2:0,2:0:0:0:
209,295,145534,2,0,L|258:291,1,50,2|0,3:2|2:0,2:0:0:0:
328,366,145962,6,0,L|376:369,1,50,2|0,3:2|2:0,2:0:0:0:
457,305,146177,2,0,L|505:309,1,50,2|0,3:2|2:0,2:0:0:0:
507,304,146498,1,2,3:2:0:0:
508,298,146605,2,0,L|512:249,1,50,10|0,1:2|2:0,2:0:0:0:
418,212,146820,1,2,3:2:0:0:
418,199,146927,1,2,3:2:0:0:
419,187,147034,1,2,3:2:0:0:
420,174,147141,1,2,3:2:0:0:
421,162,147248,2,0,L|425:113,1,50,2|0,3:2|2:0,2:0:0:0:
508,9,147677,6,0,L|512:58,1,50,2|0,3:2|2:0,2:0:0:0:
425,112,147891,2,0,L|376:116,1,50,2|0,3:2|2:0,2:0:0:0:
369,117,148212,1,2,3:2:0:0:
330,92,148320,1,10,1:2:0:0:
324,92,148427,2,0,L|275:96,1,50,2|0,3:2|2:0,2:0:0:0:
241,0,148748,2,0,L|192:4,1,50,2|0,3:2|2:0,2:0:0:0:
172,105,149070,2,0,L|123:109,1,50,2|0,3:2|2:0,2:0:0:0:
116,109,149391,1,2,3:2:0:0:
110,109,149498,2,0,L|61:113,1,50,2|0,3:2|2:0,2:0:0:0:
54,113,149820,1,2,3:2:0:0:
54,113,150034,5,10,1:2:0:0:
49,162,150141,1,0,3:2:0:0:
45,212,150248,1,0,3:2:0:0:
41,262,150355,5,8,3:0:0:0:
86,241,150462,1,0,3:2:0:0:
132,224,150570,1,0,3:2:0:0:
179,206,150677,1,8,3:0:0:0:
226,188,150784,5,2,3:2:0:0:
221,237,150891,1,0,3:2:0:0:
217,287,150998,1,2,3:2:0:0:
213,337,151105,2,0,L|262:341,1,50,2|0,3:0|3:2,2:0:0:0:
356,384,151320,2,0,L|405:379,1,50,2|0,3:0|3:2,2:0:0:0:
512,300,151534,2,0,L|463:296,1,50,2|0,3:0|3:2,2:0:0:0:
321,257,151748,6,0,L|371:253,1,50,10|0,1:2|2:0,2:0:0:0:
370,247,152070,1,2,3:2:0:0:
370,241,152177,2,0,L|365:191,1,50,2|0,3:2|2:0,2:0:0:0:
467,194,152391,2,0,L|462:144,1,50,2|0,3:2|2:0,2:0:0:0:
512,47,152820,5,0,3:2:0:0:
512,47,153034,2,0,L|462:42,1,50,2|0,3:2|2:0,2:0:0:0:
456,42,153355,1,0,3:2:0:0:
450,42,153462,1,10,1:2:0:0:
359,90,153677,1,0,3:2:0:0:
346,88,153784,1,0,3:2:0:0:
334,87,153891,1,0,3:2:0:0:
321,86,153998,1,0,3:2:0:0:
309,85,154105,2,0,L|259:80,1,50,2|0,3:2|2:0,2:0:0:0:
196,0,154534,6,0,L|146:5,1,50,0|0,3:2|2:0,2:0:0:0:
49,36,154748,2,0,L|-1:41,1,49.9995000000001,2|0,3:2|3:2,2:0:0:0:
0,92,155177,1,10,1:2:0:0:
0,34,155284,2,0,L|49:29,1,49.9995000000001,2|2,3:2|3:2,2:0:0:0:
161,112,155927,2,0,L|112:117,1,49.9995000000001,2|2,3:2|3:2,2:0:0:0:
63,206,156462,2,0,L|14:210,1,49.9995000000001,2|0,3:2|3:2,2:0:0:0:
9,259,156891,5,10,1:2:0:0:
5,308,156998,1,10,1:2:0:0:
5,314,157105,1,0,3:2:0:0:
5,320,157212,1,0,3:2:0:0:
54,324,157320,5,10,1:2:0:0:
60,324,157427,1,0,3:2:0:0:
109,328,157534,1,10,1:2:0:0:
158,332,157641,1,10,1:2:0:0:
158,332,157962,1,12,1:2:0:0:
158,332,158177,6,0,L|357:351,1,200,6|0,3:2|1:2,2:0:0:0:
512,384,158498,1,0,3:2:0:0:
502,343,158605,1,10,1:2:0:0:
494,304,158712,2,0,L|444:299,1,50,2|0,3:2|1:2,2:0:0:0:
356,248,159034,2,0,L|306:243,1,50,2|0,3:2|1:2,2:0:0:0:
208,219,159355,2,0,L|158:214,1,50,2|0,3:2|1:2,2:0:0:0:
70,163,159677,2,0,L|20:158,1,50,2|0,3:2|1:2,2:0:0:0:
0,58,159891,6,0,L|50:53,1,50,2|0,3:2|1:2,2:0:0:0:
56,53,160212,1,2,3:2:0:0:
62,53,160320,2,0,L|112:48,1,50,8|0,1:2|1:2,2:0:0:0:
188,116,160534,1,2,3:2:0:0:
200,114,160641,1,2,3:2:0:0:
212,113,160748,1,2,3:2:0:0:
225,112,160855,1,2,3:2:0:0:
237,111,160962,2,0,L|287:106,1,50,2|0,3:2|2:0,2:0:0:0:
377,0,161391,6,0,L|372:50,1,50,2|0,3:2|1:2,2:0:0:0:
469,81,161605,2,0,L|464:131,1,50,2|0,3:2|1:2,2:0:0:0:
464,136,161927,1,2,3:2:0:0:
464,142,162034,1,10,1:2:0:0:
464,148,162141,2,0,L|459:198,1,50,2|0,3:2|1:2,2:0:0:0:
444,299,162462,2,0,L|439:349,1,50,2|0,3:2|1:2,2:0:0:0:
337,349,162784,2,0,L|287:344,1,50,2|0,3:2|1:2,2:0:0:0:
186,334,163105,2,0,L|136:329,1,50,2|0,3:2|1:2,2:0:0:0:
35,319,163320,2,0,L|40:269,1,50,2|0,3:2|1:2,2:0:0:0:
40,264,163641,1,2,3:2:0:0:
40,259,163748,6,0,L|30:159,2,100,10|0|0,1:2|3:2|3:2,2:0:0:0:
137,227,164070,2,0,L|128:128,2,100,4|0|0,3:2|3:2|3:2,2:0:0:0:
234,194,164391,2,0,L|328:163,1,99.9999999999987,4|0,2:0|2:0,2:0:0:0:
440,117,164820,5,10,1:2:0:0:
440,117,165034,2,0,L|436:68,1,50,2|0,3:2|2:0,2:0:0:0:
436,62,165355,1,2,3:2:0:0:
436,56,165462,2,0,L|432:7,1,50,10|0,1:2|2:0,2:0:0:0:
426,7,165784,1,2,3:2:0:0:
420,7,165891,2,0,L|371:11,1,50,2|0,3:2|2:0,2:0:0:0:
303,89,166105,2,0,L|254:93,1,50,2|0,3:2|2:0,2:0:0:0:
184,18,166534,6,0,L|136:15,1,50,2|0,3:2|2:0,2:0:0:0:
55,79,166748,2,0,L|7:75,1,50,2|0,3:2|2:0,2:0:0:0:
5,80,167070,1,2,3:2:0:0:
4,86,167177,2,0,L|0:135,1,50,10|0,1:2|2:0,2:0:0:0:
94,172,167391,1,2,3:2:0:0:
94,185,167498,1,2,3:2:0:0:
93,197,167605,1,2,3:2:0:0:
92,210,167712,1,2,3:2:0:0:
91,222,167820,2,0,L|87:271,1,50,2|0,3:2|2:0,2:0:0:0:
4,375,168248,6,0,L|0:326,1,50,2|0,3:2|2:0,2:0:0:0:
87,272,168462,2,0,L|136:268,1,50,2|0,3:2|2:0,2:0:0:0:
143,267,168784,1,2,3:2:0:0:
182,292,168891,1,10,1:2:0:0:
188,292,168998,2,0,L|237:288,1,50,2|0,3:2|2:0,2:0:0:0:
271,384,169320,2,0,L|320:380,1,50,2|0,3:2|2:0,2:0:0:0:
340,279,169641,2,0,L|389:275,1,50,2|0,3:2|2:0,2:0:0:0:
423,371,169962,2,0,L|472:367,1,50,2|0,3:2|2:0,2:0:0:0:
512,273,170177,2,0,L|508:224,1,50,2|0,3:2|2:0,2:0:0:0:
507,217,170498,1,2,3:2:0:0:
512,183,170605,5,10,1:2:0:0:
462,179,170712,1,0,3:2:0:0:
412,175,170820,1,2,3:2:0:0:
362,170,170927,5,10,1:2:0:0:
390,128,171034,1,6,3:2:0:0:
418,87,171141,1,2,3:2:0:0:
448,46,171248,1,8,3:0:0:0:
412,73,171355,1,10,1:2:0:0:
377,101,171462,6,0,L|452:107,1,75,6|0,3:2|2:0,2:0:0:0:
512,205,171677,2,0,L|504:279,1,75.0000000000002,2|2,3:2|2:3,2:0:0:0:
509,281,171998,1,2,3:2:0:0:
356,273,172212,1,2,3:2:0:0:
356,278,172320,1,8,1:2:0:0:
460,380,172534,2,0,L|385:374,1,75,2|0,3:2|1:2,2:0:0:0:
253,384,172748,2,0,L|259:309,1,75.0000000000002,2|2,3:2|1:2,2:0:0:0:
253,311,173070,1,2,3:2:0:0:
186,202,173284,2,0,L|183:240,2,37.5000000000001,2|0|0,3:2|1:2|1:2,2:0:0:0:
156,376,173605,6,0,L|56:384,1,100,2|0,3:2|2:0,2:0:0:0:
0,279,173820,2,0,L|7:179,1,100,2|0,3:2|2:0,2:0:0:0:
186,202,174034,1,8,1:2:0:0:
183,240,174141,1,2,3:2:0:0:
156,376,174355,2,0,L|152:326,1,50,2|0,3:2|2:0,2:0:0:0:
98,133,174677,6,0,L|104:58,1,75,2|0,3:2|1:2,2:0:0:0:
259,51,174891,2,0,L|263:2,1,50,2|0,3:2|1:2,2:0:0:0:
262,7,175212,2,0,L|187:0,1,75,2|0,3:2|2:0,2:0:0:0:
74,30,175427,2,0,L|66:104,1,75.0000000000002,2|0,3:2|1:2,2:0:0:0:
186,202,175748,1,8,1:2:0:0:
186,202,175962,6,0,B|160:147|281:128|346:147,1,200,2|0,3:2|1:2,2:0:0:0:
512,54,176284,2,0,L|437:60,1,75,2|0,3:2|2:0,2:0:0:0:
361,167,176498,2,0,L|436:161,1,75.0000000000002,2|0,3:2|1:2,2:0:0:0:
438,168,176820,2,0,L|513:162,1,75,2|0,3:2|1:2,2:0:0:0:
512,264,177034,2,0,L|437:271,1,75.0000000000002,2|0,3:2|1:2,2:0:0:0:
347,384,177355,1,2,3:2:0:0:
393,379,177462,1,8,1:2:0:0:
347,384,177570,2,0,L|339:309,1,75.0000000000002,2|0,3:2|1:2,2:0:0:0:
344,309,177891,1,2,3:2:0:0:
210,288,178105,5,10,1:2:0:0:
173,285,178212,1,10,1:2:0:0:
135,283,178319,2,0,L|60:277,1,75,6|0,3:2|2:0,2:0:0:0:
0,179,178533,2,0,L|7:104,1,75.0000000000002,2|2,3:2|2:3,2:0:0:0:
3,103,178854,1,2,3:2:0:0:
156,111,179070,1,2,3:2:0:0:
156,106,179176,1,8,1:2:0:0:
52,4,179390,2,0,L|127:10,1,75,2|0,3:2|1:2,2:0:0:0:
259,0,179604,2,0,L|253:75,1,75.0000000000002,2|2,3:2|1:2,2:0:0:0:
259,73,179926,1,2,3:2:0:0:
326,182,180140,2,0,L|329:144,2,37.5000000000001,2|0|0,3:2|1:2|1:2,2:0:0:0:
356,8,180462,6,0,L|456:0,1,100,6|0,2:0|2:0,2:0:0:0:
512,105,180677,2,0,L|412:98,1,100,4|0,2:0|2:0,2:0:0:0:
326,182,180891,1,10,1:2:0:0:
329,144,180998,1,2,3:2:0:0:
512,105,181212,2,0,L|412:98,1,100,6|0,3:2|2:0,2:0:0:0:
425,209,181534,5,10,1:2:0:0:
422,246,181641,1,8,1:2:0:0:
419,283,181748,2,0,L|415:332,1,50,4|0,3:2|2:0,2:0:0:0:
415,339,182070,2,0,L|490:345,1,75,2|0,3:2|2:0,2:0:0:0:
311,358,182284,2,0,L|236:352,1,75.0000000000002,2|0,3:2|2:0,2:0:0:0:
152,260,182605,1,8,1:2:0:0:
152,260,182820,6,0,B|258:264|220:178|326:182,1,200,2|0,3:2|2:0,2:0:0:0:
266,86,183141,2,0,L|191:92,1,75,2|0,3:2|2:0,2:0:0:0:
152,260,183355,2,0,L|146:185,1,75.0000000000002,2|0,3:2|2:0,2:0:0:0:
146,180,183677,2,0,L|71:186,1,75,2|0,3:2|2:0,2:0:0:0:
0,113,183891,2,0,L|6:38,1,75.0000000000002,2|0,3:2|2:0,2:0:0:0:
147,4,184212,1,2,3:2:0:0:
100,0,184320,1,8,1:2:0:0:
147,4,184427,6,0,L|141:79,1,75.0000000000002,2|2,3:2|2:0,2:0:0:0:
247,169,184748,2,0,L|241:94,1,75,2|0,3:2|2:0,2:0:0:0:
351,0,184962,1,8,3:0:0:0:
346,56,185070,1,4,3:0:0:0:
341,112,185177,6,0,B|353:132|353:132|353:162|353:162|385:193|361:233|324:235|324:235|366:233|378:278|352:306|352:306|381:277|421:299|424:335|424:335|423:294|468:282|495:307|495:307|465:279|488:239|526:237|526:237|484:238|472:193|497:166|497:166|468:196|428:172|428:138,1,750,4|2,3:2|2:3,2:0:0:0:
365,17,188498,1,2,2:3:0:0:
349,14,188605,6,0,B|314:11|283:23|261:53|261:53|227:55|196:43|174:14|174:14|140:10|108:22|87:52|87:52|53:54|21:43|0:13|0:13|-2:46|9:77|39:99|39:99|41:133|29:165|0:186|0:186,1,600,2|2,2:3|2:0,2:0:0:0:
152,128,191605,1,2,2:0:0:0:
211,384,192034,6,0,B|206:348|219:314|246:296|246:296|213:281|191:254|187:220|187:220|158:241|124:248|94:234|94:234|100:268|74:305,1,375,2|0,2:0|2:0,2:0:0:0:
75,324,193748,6,0,P|162:320|246:296,1,175,2|0,2:0|2:0,2:0:0:0:
240,298,194605,2,0,P|321:331|392:382,1,175,2|0,2:0|2:0,2:0:0:0:
392,376,195462,2,0,P|458:318|508:247,1,175,2|0,2:0|2:0,2:0:0:0:
508,234,196320,6,0,L|506:217,5,16.6666666666667,2|0|0|0|0|0,2:3|2:0|2:0|2:0|2:0|2:0,2:0:0:0:
428,139,196748,2,0,L|430:105,3,33.3333333333333,2|2|2|2,2:3|2:3|2:3|2:3,2:0:0:0:
512,44,197320,5,0,3:0:0:0:
445,5,197462,1,0,3:0:0:0:
356,0,197605,2,0,L|359:43,2,33.3333333333333,2|0|0,2:3|2:0|2:0,2:0:0:0:
265,69,198034,6,0,L|263:85,1,16.6666666666667,2|0,2:3|2:0,2:0:0:0:
321,169,198177,2,0,L|319:185,1,16.6666666666667,0|0,2:0|2:0,2:0:0:0:
208,169,198320,2,0,L|203:185,1,16.6666666666667,0|0,2:0|2:0,2:0:0:0:
245,277,198462,5,2,2:3:0:0:
143,266,198605,1,2,2:3:0:0:
185,360,198748,1,2,2:3:0:0:
82,349,198891,6,0,P|51:316|40:273,1,90.0000000000001,6|0,3:2|2:0,2:0:0:0:
188,192,199320,2,0,P|174:234|143:266,1,90.0000000000001,0|0,3:0|2:0,2:0:0:0:
43,169,199748,2,0,P|65:172|86:180,1,45.0000000000001,0|0,3:0|2:0,2:0:0:0:
188,192,199962,2,0,P|179:171|176:149,1,45.0000000000001,0|0,2:0|2:0,2:0:0:0:
135,55,200177,1,0,3:0:0:0:
135,55,200391,2,0,P|121:72|103:86,1,45.0000000000001,2|0,2:3|2:0,2:0:0:0:
312,25,200605,6,0,P|279:55|236:66,1,90.0000000000001,2|0,1:2|2:0,2:0:0:0:
188,192,200927,2,0,P|249:168|311:192,1,135,2|0,1:2|1:0,2:0:0:0:
311,192,201677,2,0,P|327:150|360:120,2,90.0000000000001,0|2|0,2:0|2:0|1:0,2:0:0:0:
478,275,202212,1,0,1:0:0:0:
478,269,202320,6,0,P|452:232|413:211,1,90.0000000000001,0|0,3:2|2:0,2:0:0:0:
344,333,202641,2,0,P|364:323|382:309,2,45.0000000000001,2|2|2,2:0|3:2|2:0,2:0:0:0:
311,192,202962,2,0,P|309:214|312:236,1,45.0000000000001,2|2,2:0|2:0,2:0:0:0:
255,384,203177,2,0,P|234:376|216:364,1,45.0000000000001,2|0,3:2|2:0,2:0:0:0:
115,239,203391,2,0,P|132:225|152:215,1,45.0000000000001,0|0,2:0|2:0,2:0:0:0:
312,236,203605,1,2,3:2:0:0:
312,237,203820,2,0,P|309:215|311:193,1,45.0000000000001,2|0,2:3|2:0,2:0:0:0:
255,384,204034,6,0,P|215:363|190:326,1,90.0000000000001,0|0,1:0|2:0,2:0:0:0:
153,215,204355,2,0,P|93:242|30:223,1,135,0|0,1:0|1:0,2:0:0:0:
30,223,205105,5,2,2:0:0:0:
53,205,205212,1,2,2:0:0:0:
69,180,205320,1,2,2:0:0:0:
74,151,205427,1,2,2:0:0:0:
67,122,205534,1,2,2:0:0:0:
49,98,205641,1,2,2:0:0:0:
22,85,205748,6,0,P|60:60|104:58,1,90.0000000000001,2|0,3:2|2:0,2:0:0:0:
274,18,206177,2,0,P|253:58|216:82,1,90.0000000000001,0|0,3:0|2:0,2:0:0:0:
153,215,206605,2,0,P|165:196|172:175,1,45.0000000000001,0|0,3:0|2:0,2:0:0:0:
254,57,206820,2,0,P|237:72|217:82,1,45.0000000000001,0|0,2:0|2:0,2:0:0:0:
311,192,207034,1,0,3:0:0:0:
311,192,207248,2,0,P|294:176|274:166,1,45.0000000000001,2|0,2:3|2:0,2:0:0:0:
429,19,207462,6,0,P|397:50|354:62,1,90.0000000000001,2|0,1:2|2:0,2:0:0:0:
311,192,207784,2,0,P|370:163|432:184,1,135,0|0,1:0|1:0,2:0:0:0:
432,184,208534,2,0,P|392:164|348:167,2,90.0000000000001,2|2|2,2:0|2:0|2:0,2:0:0:0:
505,356,209177,6,0,P|511:311|495:269,1,90.0000000000001,2|0,3:2|2:0,2:0:0:0:
328,287,209605,2,0,P|363:313|407:321,1,90.0000000000001,0|0,3:0|2:0,2:0:0:0:
432,184,210034,2,0,P|415:199|403:217,1,45.0000000000001,0|0,3:0|2:0,2:0:0:0:
328,287,210248,2,0,P|308:297|291:312,1,45.0000000000001,0|0,2:0|2:0,2:0:0:0:
200,359,210462,1,0,3:0:0:0:
200,359,210677,2,0,P|178:363|158:373,1,45.0000000000001,2|0,2:3|2:0,2:0:0:0:
172,174,210891,6,0,P|167:228|220:239,1,120,10|0,1:2|2:0,2:0:0:0:
179,254,211212,1,0,1:0:0:0:
137,271,211320,1,2,2:0:0:0:
95,287,211427,1,0,2:0:0:0:
53,303,211534,2,0,P|23:337|2:377,1,89.9999999999998,2|0,1:2|2:0,2:0:0:0:
9,376,211962,2,0,P|21:350|39:325,1,59.9999999999999,2|2,1:2|2:0,2:0:0:0:
5,214,212391,5,4,2:0:0:0:
0,156,212498,1,4,2:0:0:0:
0,98,212605,6,0,P|27:61|67:43,1,90.0000000000001,6|0,3:2|2:0,2:0:0:0:
173,174,213034,2,0,P|129:167|92:142,1,90.0000000000001,0|2,3:0|2:0,2:0:0:0:
168,21,213355,1,2,2:0:0:0:
169,27,213462,2,0,P|169:49|165:71,1,45.0000000000001,2|0,3:2|2:0,2:0:0:0:
173,174,213677,2,0,P|192:161|213:154,1,45.0000000000001,0|0,2:0|2:0,2:0:0:0:
297,97,213891,1,0,3:0:0:0:
297,97,214105,2,0,P|278:87|261:71,1,45.0000000000001,2|0,2:3|2:0,2:0:0:0:
431,183,214320,6,0,P|388:174|345:186,1,90.0000000000001,0|0,1:0|2:0,2:0:0:0:
370,0,214641,2,0,P|397:59|458:85,2,135,0|0|0,1:2|1:0|2:0,2:0:0:0:
376,0,215391,1,2,2:0:0:0:
376,0,215605,2,0,P|416:18|445:52,1,90.0000000000001,2|0,2:0|2:0,2:0:0:0:
431,183,216034,6,0,P|391:206|370:245,1,90.0000000000001,0|0,3:2|2:0,2:0:0:0:
285,384,216462,2,0,P|293:340|283:297,1,90.0000000000004,2|0,3:2|2:0,2:0:0:0:
273,282,216891,2,0,P|265:261|262:239,1,45.0000000000001,0|0,3:0|2:0,2:0:0:0:
285,384,217105,2,0,P|264:375|242:372,1,45.0000000000001,0|0,2:0|2:0,2:0:0:0:
148,331,217320,1,2,3:2:0:0:
147,331,217534,2,0,P|165:316|178:298,1,45.0000000000001,2|0,2:3|2:0,2:0:0:0:
1,291,217748,6,0,P|35:320|50:361,1,90.0000000000001,0|0,1:0|2:0,2:0:0:0:
122,213,218070,2,0,P|57:206|16:155,2,135,0|0|0,1:0|1:0|2:0,2:0:0:0:
121,206,218820,2,0,P|99:209|77:206,1,45.0000000000001,2|2,2:0|2:0,2:0:0:0:
37,47,219034,1,2,2:0:0:0:
50,29,219141,1,2,2:0:0:0:
67,14,219248,1,2,2:0:0:0:
87,4,219355,1,2,2:0:0:0:
110,0,219462,6,0,P|111:45|134:83,1,90.0000000000001,2|2,3:2|2:0,2:0:0:0:
295,35,219891,2,0,P|255:15|210:14,1,90.0000000000001,2|0,3:2|2:0,2:0:0:0:
209,154,220320,2,0,P|222:136|231:115,1,45.0000000000001,0|0,3:0|2:0,2:0:0:0:
295,35,220534,2,0,P|304:55|317:73,1,45.0000000000001,0|0,2:0|2:0,2:0:0:0:
355,168,220748,1,0,3:0:0:0:
355,168,220962,2,0,P|332:165|310:168,1,45.0000000000001,2|2,2:3|2:0,2:0:0:0:
121,206,221177,6,0,P|151:238|193:252,1,90.0000000000001,2|2,1:2|2:0,2:0:0:0:
293,340,221498,2,0,P|290:318|283:297,2,45.0000000000001,2|2|2,1:2|2:0|2:0,2:0:0:0:
412,300,221820,2,0,P|398:282|381:267,2,45.0000000000001,2|2|2,1:2|2:0|2:0,2:0:0:0:
494,213,222177,2,0,P|468:198|439:193,1,60.0000000000001,2|2,2:0|2:0,2:0:0:0:
311,168,222462,2,0,P|333:171|355:168,1,45.0000000000001,2|0,2:0|2:0,2:0:0:0:
415,116,222677,2,0,P|429:111|444:108,2,30,2|2|2,1:2|2:0|2:0,2:0:0:0:
356,168,222891,5,2,3:2:0:0:
341,170,222962,1,2,2:0:0:0:
326,171,223034,1,2,2:0:0:0:
312,168,223105,2,0,P|308:123|327:83,1,90.0000000000001,2|0,2:0|3:0,2:0:0:0:
118,0,223534,1,2,1:2:0:0:
209,154,223748,2,0,P|187:147|168:135,1,45.0000000000001,2|0,3:2|2:0,2:0:0:0:
118,0,223962,2,0,P|123:21|122:44,1,45.0000000000001,0|0,2:0|2:0,2:0:0:0:
31,156,224177,1,0,3:0:0:0:
31,156,224391,2,0,P|47:140|67:130,1,45.0000000000001,2|0,2:3|2:0,2:0:0:0:
60,355,224605,6,0,P|39:316|2:291,1,90.0000000000001,0|0,1:0|2:0,2:0:0:0:
31,156,224927,2,0,P|65:211|129:226,1,135,0|2,1:0|1:2,2:0:0:0:
341,170,225462,1,2,2:0:0:0:
327,168,225570,1,2,2:0:0:0:
312,168,225677,2,0,P|292:178|275:193,1,45.0000000000001,2|2,2:0|2:0,2:0:0:0:
218,277,225891,1,10,1:2:0:0:
219,298,225998,1,2,3:2:0:0:
221,321,226105,1,10,3:0:0:0:
223,343,226212,1,8,1:2:0:0:
225,366,226320,6,0,P|266:383|310:379,1,90.0000000000001,6|0,3:2|2:0,2:0:0:0:
429,233,226748,2,0,P|394:260|374:301,1,90.0000000000001,0|0,3:0|2:0,2:0:0:0:
491,384,227177,2,0,P|480:364|465:347,1,45.0000000000001,0|0,3:0|2:0,2:0:0:0:
266,382,227391,2,0,P|288:383|310:379,1,45.0000000000001,0|0,2:0|2:0,2:0:0:0:
429,233,227605,1,2,3:2:0:0:
429,232,227820,2,0,P|409:244|393:260,1,45.0000000000001,2|0,2:3|2:0,2:0:0:0:
492,87,228034,6,0,P|492:132|512:172,1,90.0000000000001,2|0,1:2|2:0,2:0:0:0:
365,151,228355,2,0,P|389:90|364:29,1,135,0|2,1:0|1:2,2:0:0:0:
212,0,228891,5,2,1:2:0:0:
238,14,228998,1,2,1:2:0:0:
258,36,229105,1,2,1:2:0:0:
270,64,229212,5,2,2:0:0:0:
243,78,229320,1,2,1:2:0:0:
223,100,229427,1,2,1:2:0:0:
211,128,229534,5,2,2:0:0:0:
237,142,229641,1,2,1:2:0:0:
257,164,229748,6,0,P|265:208|250:250,1,90.0000000000001,2|2,3:2|2:0,2:0:0:0:
80,236,230177,2,0,P|114:208|158:198,1,90.0000000000001,2|0,3:2|2:0,2:0:0:0:
189,335,230605,2,0,P|172:320|158:302,1,45.0000000000001,0|0,3:0|2:0,2:0:0:0:
80,236,230820,2,0,P|76:258|66:278,1,45.0000000000001,0|0,2:0|2:0,2:0:0:0:
50,381,231034,1,0,3:0:0:0:
50,381,231248,2,0,P|71:374|93:372,1,45.0000000000001,2|2,2:3|2:0,2:0:0:0:
158,198,231462,5,2,1:2:0:0:
0,169,231677,1,2,2:0:0:0:
18,156,231784,1,0,1:0:0:0:
32,139,231891,2,0,P|47:113|57:84,1,60.0000000000001,2|2,2:0|2:0,2:0:0:0:
117,0,232177,1,2,2:0:0:0:
120,5,232320,2,0,P|150:4|180:0,1,60.0000000000001,2|2,2:0|2:0,2:0:0:0:
286,5,232605,1,0,2:0:0:0:
280,9,232748,2,0,P|281:52|318:74,1,89.9999972534181,2|0,2:0|1:0,2:0:0:0:
331,67,233070,5,0,1:0:0:0:
343,59,233177,2,0,P|327:101|334:145,1,90.0000000000001,2|2,3:2|2:0,2:0:0:0:
501,159,233605,2,0,P|471:125|430:108,1,90.0000000000001,2|0,3:2|2:0,2:0:0:0:
375,235,234034,2,0,P|394:223|410:208,1,45.0000000000001,0|0,3:0|2:0,2:0:0:0:
501,159,234248,2,0,P|500:181|506:203,1,45.0000000000001,0|0,2:0|2:0,2:0:0:0:
506,306,234462,1,2,3:2:0:0:
506,306,234677,2,0,P|486:295|464:289,1,45.0000000000001,2|0,2:3|2:0,2:0:0:0:
279,384,234891,5,10,1:2:0:0:
279,384,235212,1,10,1:2:0:0:
506,306,235534,2,0,P|486:295|464:289,1,45.0000000000001,0|0,1:0|2:0,2:0:0:0:
374,235,235748,5,2,2:0:0:0:
312,265,235891,1,2,2:0:0:0:
245,286,236034,1,2,2:0:0:0:
176,298,236177,5,2,2:0:0:0:
118,258,236320,1,2,2:0:0:0:
66,211,236462,1,2,2:0:0:0:
21,157,236605,6,0,P|26:112|52:75,1,90.0000000000001,2|2,3:2|2:0,2:0:0:0:
207,135,237034,2,0,P|165:151|121:148,1,90.0000000000001,2|0,3:2|2:0,2:0:0:0:
131,11,237462,2,0,P|142:29|150:51,1,45.0000000000001,2|2,3:2|2:0,2:0:0:0:
207,135,237677,2,0,P|217:114|232:98,1,45.0000000000001,0|0,2:0|2:0,2:0:0:0:
278,7,237891,1,2,3:2:0:0:
278,7,238105,2,0,P|255:7|233:2,1,45.0000000000001,2|0,2:3|2:0,2:0:0:0:
305,164,238339,5,2,1:3:0:0:
305,169,238660,1,0,1:0:0:0:
305,175,238981,1,0,1:0:0:0:
305,181,239303,1,0,1:0:0:0:
305,187,239624,1,0,1:0:0:0:
305,187,240053,6,0,L|310:261,2,75,4|4|4,1:2|2:3|2:3,2:0:0:0:
305,187,241767,1,4,2:3:0:0:
207,197,243053,5,4,2:3:0:0:
207,197,243481,2,0,L|201:123,2,75,4|4|4,2:3|1:3|2:3,2:0:0:0:
258,29,244981,1,4,2:3:0:0:
153,1,245196,5,4,2:3:0:0:
147,0,245303,1,4,2:3:0:0:
84,62,245517,1,4,1:3:0:0:
73,65,245624,1,4,1:3:0:0:
46,146,245839,1,4,1:3:0:0:
35,155,245946,1,4,1:3:0:0:
47,242,246160,1,4,1:3:0:0:
41,257,246267,1,4,1:3:0:0:
91,328,246481,1,4,1:3:0:0:
93,350,246589,1,4,1:3:0:0:
179,356,246803,1,4,1:3:0:0:
191,383,246910,6,0,L|197:309,2,75,4|4|4,2:0|2:3|1:3,2:0:0:0:
191,383,248624,1,4,2:3:0:0:
192,377,249053,1,4,2:3:0:0:
320,377,249696,5,4,2:3:0:0:
321,383,249910,1,4,1:3:0:0:
321,383,250339,2,0,L|315:309,2,75,4|4|4,2:3|1:3|2:3,2:0:0:0:
376,217,251839,1,4,2:3:0:0:
359,383,252053,5,6,2:3:0:0:
334,312,252196,1,6,2:3:0:0:
428,322,252374,1,6,1:3:0:0:
439,319,252481,1,4,1:3:0:0:
466,238,252696,1,4,1:3:0:0:
477,229,252803,1,4,1:3:0:0:
465,142,253017,1,4,1:3:0:0:
471,127,253124,1,4,1:3:0:0:
421,56,253339,1,4,1:3:0:0:
419,34,253446,1,4,1:3:0:0:
333,28,253660,1,4,1:3:0:0:
327,0,253767,6,0,B|292:7|268:31|267:60|267:60|267:59|267:59|278:86|308:97|332:86|332:86|332:86|332:86|310:71|278:79|265:104|265:104|265:104|265:104|263:131|285:156|314:157|314:157|314:156|314:156|298:133|266:125|243:142|243:142|244:143|244:143|231:166|242:198|268:209|268:209|266:208|266:208|263:181|238:163|209:166|209:166|210:165|210:165|187:183|183:216|201:237|201:237|201:237|201:237|209:209|194:181|165:174|165:174|165:174|165:174|139:180|120:206|128:234|128:234|131:234|131:234|149:214|147:181|125:163|125:163|125:163|125:163|98:156|70:174|65:202|65:202|66:202|66:202|91:191|103:161|92:135|92:135|93:135|93:135|69:120|37:123|21:147|21:147|23:147|23:147|50:147|74:126|73:97|73:97|74:98|74:98|63:72|31:62|6:76|6:76|9:78|9:78|32:89|63:79|74:53|74:53|75:55|75:55|75:26|50:5|22:7|22:7|23:7|23:7|41:28|71:32|94:14,1,1550,4|0,2:0|2:0,2:0:0:0:
