osu file format v14

[General]
AudioFilename: audio.mp3
AudioLeadIn: 0
PreviewTime: 33118
Countdown: 0
SampleSet: None
StackLeniency: 0.5
Mode: 0
LetterboxInBreaks: 0
WidescreenStoryboard: 0

[Editor]
Bookmarks: 4360
DistanceSpacing: 1.3
BeatDivisor: 4
GridSize: 8
TimelineZoom: 5.099998

[Metadata]
Title:Pokemon Theme (TV Size)
TitleUnicode:Pokémon Theme (TV Size)
Artist:Jason Paige
ArtistUnicode:Jason Paige
Creator:matthewrigaud11
Version:Sylas' Hard
Source:Pokémon: Indigo League
Tags:TheKoala Sylas gotta catch 'em all Pocket Monsters ポケットモンスター Poketto Monsuta 2.B.A. Master soundtrack English adaptation
BeatmapID:1695984
BeatmapSetID:807345

[Difficulty]
HPDrainRate:5
CircleSize:3.8
OverallDifficulty:6
ApproachRate:8
SliderMultiplier:1.4
SliderTickRate:1

[Events]
//Background and Video events
0,0,"bg.jpg",0,0
//Break Periods
//Storyboard Layer 0 (Background)
//Storyboard Layer 1 (Fail)
//Storyboard Layer 2 (Pass)
//Storyboard Layer 3 (Foreground)
//Storyboard Sound Samples

[TimingPoints]
636,413.793103448276,4,3,0,65,1,0
636,-133.333333333333,4,3,0,65,0,0
4360,-133.333333333333,4,3,1,50,0,0
4463,-133.333333333333,4,3,1,60,0,0
4567,-133.333333333333,4,3,1,70,0,0
4670,-133.333333333333,4,3,1,80,0,0
4773,-133.333333333333,4,3,1,90,0,0
4980,-100,4,3,0,65,0,0
5187,-100,4,3,1,65,0,0
6636,-133.333333333333,4,3,1,65,0,0
7049,-117.647058823529,4,3,1,65,0,0
10877,-117.647058823529,4,3,1,5,0,0
10980,-117.647058823529,4,3,1,65,0,0
13153,-117.647058823529,4,3,1,5,0,0
13256,-117.647058823529,4,3,1,65,0,0
13567,-117.647058823529,4,3,1,5,0,0
13670,-117.647058823529,4,3,1,65,0,0
17187,-105.263157894737,4,3,1,65,0,0
17808,-95.238095238095,4,3,1,65,0,0
18429,-86.9565217391304,4,3,1,65,0,0
18842,-111.111111111111,4,3,1,65,0,0
20084,-111.111111111111,4,3,1,65,0,0
20187,-111.111111111111,4,3,1,65,0,0
20911,-90.9090909090909,4,3,1,65,0,0
21532,-100,4,3,0,65,0,0
21739,-100,4,3,1,65,0,0
22567,-90.9090909090909,4,3,1,65,0,0
23187,-100,4,3,0,65,0,0
23601,-100,4,3,1,65,0,0
24015,-90.9090909090909,4,3,1,65,0,0
25049,-100,4,3,0,65,0,0
25256,-100,4,3,1,65,0,0
25877,-90.9090909090909,4,3,1,65,0,0
26394,-90.9090909090909,4,3,1,5,0,0
26498,-90.9090909090909,4,3,1,65,0,0
26808,-90.9090909090909,4,3,1,5,0,0
26911,-90.9090909090909,4,3,1,65,0,0
28360,-100,4,3,0,65,0,0
28567,-100,4,3,1,65,0,0
29187,-90.9090909090909,4,3,1,65,0,0
29394,-90.9090909090909,4,3,1,65,0,0
30015,-90.9090909090909,4,3,1,65,0,0
30429,-111.111111111111,4,3,1,65,0,0
31049,-90.9090909090909,4,3,1,65,0,0
31670,-83.3333333333333,4,3,1,65,0,0
32291,-111.111111111111,4,3,1,70,0,0
33739,-83.3333333333333,4,3,1,85,0,1
36946,-83.3333333333333,4,3,1,5,0,1
37049,-83.3333333333333,4,3,1,85,0,1
38808,-83.3333333333333,4,3,1,5,0,1
38911,-83.3333333333333,4,3,1,85,0,1
40670,-83.3333333333333,4,3,1,5,0,1
40773,-83.3333333333333,4,3,1,85,0,1
43670,-90.9090909090909,4,3,1,85,0,1
44291,-83.3333333333333,4,3,1,85,0,1
44911,-76.9230769230769,4,3,1,85,0,1
45325,-90.9090909090909,4,3,1,85,0,1
50187,-90.9090909090909,4,3,1,5,0,1
50291,-90.9090909090909,4,3,1,85,0,1
52049,-90.9090909090909,4,3,1,5,0,1
52153,-90.9090909090909,4,3,1,85,0,1
53498,-90.9090909090909,4,3,1,5,0,1
53601,-90.9090909090909,4,3,1,85,0,1
55256,410.958904109589,4,3,1,85,1,1
56694,-90.9090909090909,4,3,0,85,0,1
56899,415.22491349481,4,3,0,85,1,1
56902,-88.4955752212389,4,3,1,85,0,1
57521,444.444444444444,4,3,0,85,1,1
57521,-87.260034904014,4,3,0,85,0,1
57965,-87.260034904014,4,3,1,85,0,1
58154,415.22491349481,4,3,0,85,1,1
58154,-76.9230769230769,4,3,0,85,0,1
58569,415.22491349481,4,3,0,85,1,1
58776,-90.9090909090909,4,3,0,85,0,1
60220,413.793103448276,4,3,1,85,1,1
60840,-99.009900990099,4,3,1,85,0,1
61036,428.571428571429,4,3,0,85,1,1
61038,-100.502512562814,4,3,0,85,0,1
62185,413.793103448276,4,3,0,85,1,0
62185,-83.3333333333333,4,3,0,85,0,0

[Colours]
Combo1 : 43,43,255
Combo2 : 255,4,4

[HitObjects]
57,118,636,38,0,B|72:73|93:52|144:20|199:-2|313:27|328:126|316:194|292:252|248:298|156:292|99:280|69:244|51:194|54:147|54:147|148:152|148:152|163:145|163:145|163:160|163:160|178:153|178:153|253:157,1,892.500034046174,4|0,0:1|0:0,0:0:0:0:
382,232,4360,5,8,2:3:0:0:
381,258,4463,1,8,0:3:0:0:
380,284,4567,1,8,0:3:0:0:
379,310,4670,1,8,0:3:0:0:
379,336,4773,1,8,0:3:0:0:
291,347,4980,2,0,L|215:351,1,70,8|4,0:0|0:0,0:0:0:0:
123,360,5394,1,4,0:0:0:0:
123,360,5808,5,4,0:0:0:0:
190,325,6015,1,4,0:0:0:0:
96,287,6222,1,0,0:0:0:0:
196,249,6429,1,4,2:3:0:0:
77,212,6636,1,8,0:0:0:0:
77,212,6739,1,8,0:3:0:0:
77,212,6842,1,8,0:3:0:0:
193,166,7049,6,0,P|221:158|316:194,1,119.000002269745,4|0,2:1|2:0,0:0:0:0:
360,267,7670,2,0,L|355:352,1,59.5000011348725,2|0,2:0|2:0,0:0:0:0:
404,176,8084,2,0,L|397:57,1,119.000002269745,2|2,2:0|2:0,0:0:0:0:
483,110,8704,1,0,2:0:0:0:
324,123,8911,6,0,L|205:130,1,119.000002269745,2|2,2:0|2:0,0:0:0:0:
148,46,9532,2,0,L|223:50,1,59.5000011348725,2|0,2:0|2:0,0:0:0:0:
83,95,9946,5,4,2:1:0:0:
73,14,10153,1,0,2:0:0:0:
158,127,10360,1,4,2:1:0:0:
8,62,10567,6,0,P|0:101|27:156,1,89.2500017023087,2|0,2:0|0:0,0:0:0:0:
28,160,10980,2,0,L|25:226,1,59.5000011348725,2|0,2:0|2:0,0:0:0:0:
105,254,11394,2,0,L|102:194,1,59.5000011348725,2|0,2:0|2:0,0:0:0:0:
5,296,11808,2,0,P|34:263|125:264,1,119.000002269745,2|2,2:0|2:0,0:0:0:0:
109,258,12636,1,2,2:0:0:0:
195,253,12842,6,0,P|224:286|287:293,1,89.2500017023087,4|0,2:1|0:0,0:0:0:0:
286,288,13256,2,0,P|315:255|378:248,1,89.2500017023087,4|0,2:1|0:0,0:0:0:0:
381,253,13670,1,4,2:1:0:0:
478,335,13877,6,0,P|471:280|474:200,1,119.000002269745,4|2,2:1|2:0,0:0:0:0:
484,117,14498,1,0,2:0:0:0:
391,153,14704,2,0,L|266:162,1,119.000002269745,2|2,2:0|2:0,0:0:0:0:
242,85,15325,1,0,2:0:0:0:
242,85,15532,6,0,P|240:117|253:205,1,119.000002269745,4|2,2:1|2:0,0:0:0:0:
156,139,16153,2,0,L|31:148,1,119.000002269745,0|0,2:0|2:0,0:0:0:0:
84,62,16773,2,0,L|155:56,1,59.5000011348725,2|0,2:0|2:0,0:0:0:0:
272,161,17187,22,0,P|259:93|264:24,1,132.999996448517,4|0,2:1|2:0,0:0:0:0:
388,82,17808,2,0,P|392:172|374:261,1,146.999995513916,4|0,2:1|2:0,0:0:0:0:
210,263,18429,2,0,P|198:177|204:92,1,161.000003070831,4|2,2:1|2:0,0:0:0:0:
344,156,19049,38,0,L|340:232,1,62.9999980773926,0|2,2:0|2:0,0:0:0:0:
418,249,19463,2,0,L|422:180,1,62.9999980773926,0|2,2:0|2:0,0:0:0:0:
347,78,19877,21,4,2:1:0:0:
502,184,20084,1,8,2:3:0:0:
338,282,20291,2,0,L|345:137,1,125.999996154785,4|0,2:1|2:3,0:0:0:0:
235,210,20911,6,0,P|193:198|88:256,1,154.000004699707,8|0,2:3|2:0,0:0:0:0:
78,327,21532,1,8,0:0:0:0:
14,268,21739,1,4,0:0:0:0:
97,241,21946,1,0,0:0:0:0:
0,350,22153,6,0,P|64:347|146:368,1,140,0|8,2:0|2:3,0:0:0:0:
300,287,22773,2,0,P|263:299|217:305,1,77.0000023498536,0|0,2:0|2:0,0:0:0:0:
145,266,23187,5,4,0:1:0:0:
242,221,23394,1,8,2:3:0:0:
156,182,23601,1,4,2:3:0:0:
232,138,23808,5,0,2:0:0:0:
232,138,24015,2,0,P|269:126|307:126,1,77.0000023498536,0|8,2:0|2:3,0:0:0:0:
397,171,24429,1,0,2:2:0:0:
313,36,24636,6,0,P|240:33|158:59,1,154.000004699707,0|8,2:0|2:3,0:0:0:0:
76,49,25256,2,0,P|149:71|217:69,1,140,0|0,0:0|2:0,0:0:0:0:
313,36,25877,1,8,2:3:0:0:
292,119,26084,6,0,P|284:173|308:232,1,115.50000352478,4|0,2:1|0:0,0:0:0:0:
321,246,26498,2,0,P|329:300|305:359,1,115.50000352478,4|0,2:1|2:0,2:0:0:0:
290,372,26911,1,4,2:1:0:0:
223,288,27118,6,0,L|110:294,1,77.0000023498536,4|0,2:1|2:0,0:0:0:0:
102,205,27532,2,0,L|215:211,1,77.0000023498536,8|0,2:3|2:0,0:0:0:0:
255,375,27946,2,0,L|81:384,1,154.000004699707,0|8,0:0|0:0,0:0:0:0:
0,352,28567,1,0,0:0:0:0:
75,239,28773,6,0,P|81:185|72:93,1,140,4|8,0:1|0:0,0:0:0:0:
108,7,29394,2,0,P|97:83|103:159,1,154.000004699707,0|0,0:0|0:0,0:0:0:0:
75,239,30015,1,8,2:3:0:0:
198,201,30222,1,8,2:3:0:0:
198,201,30325,1,8,2:3:0:0:
198,201,30429,6,0,P|260:200|339:212,1,125.999996154785,4|0,2:1|2:0,0:0:0:0:
208,281,31049,2,0,P|199:199|215:93,1,154.000004699707,4|0,2:1|2:0,0:0:0:0:
366,185,31670,2,0,P|269:202|184:199,1,167.999994873047,4|0,2:1|2:0,0:0:0:0:
295,91,32291,6,0,L|299:17,1,62.9999980773926,0|0,0:0|0:0,0:0:0:0:
377,39,32704,2,0,L|373:101,1,62.9999980773926
340,233,33118,5,0,0:0:0:0:
376,105,33325,1,8,0:0:0:0:
436,225,33532,1,0,0:1:0:0:
232,177,33739,6,0,L|37:184,1,167.999994873047,4|8,0:1|0:0,0:0:0:0:
143,94,34360,1,0,0:0:0:0:
148,261,34567,2,0,L|152:378,1,83.9999974365235,4|4,0:0|0:0,0:0:0:0:
232,177,34980,2,0,L|235:93,1,83.9999974365235,8|0,0:0|0:0,0:0:0:0:
248,301,35394,6,0,P|314:273|414:308,1,167.999994873047,4|8,0:0|0:0,0:0:0:0:
457,373,36015,2,0,P|429:307|464:207,1,167.999994873047
512,158,36636,2,0,P|469:173|379:138,1,125.999996154785,8|0,0:0|0:0,0:0:0:0:
374,126,37049,6,0,L|372:31,1,83.9999974365235,4|0,0:0|0:0,0:0:0:0:
271,88,37463,2,0,P|226:79|170:91,1,83.9999974365235,8|0,0:0|0:0,0:0:0:0:
82,36,37877,1,4,0:0:0:0:
193,89,38084,1,0,0:0:0:0:
65,113,38291,1,8,0:0:0:0:
208,180,38498,6,0,L|66:189,1,125.999996154785,0|0,0:0|0:0,0:0:0:0:
63,190,38911,2,0,P|73:233|66:272,1,83.9999974365235,0|8,0:0|0:0,0:0:0:0:
166,359,39325,2,0,P|156:316|163:277,1,83.9999974365235,0|4,0:0|0:0,0:0:0:0:
290,171,39739,1,4,0:0:0:0:
247,265,39946,1,8,0:0:0:0:
216,127,40153,1,8,0:0:0:0:
216,127,40256,1,8,0:0:0:0:
216,127,40360,6,0,P|251:93|340:102,1,125.999996154785,4|0,0:1|0:0,0:0:0:0:
345,111,40773,2,0,L|341:284,1,167.999994873047,8|4,0:0|0:0,0:0:0:0:
339,374,41394,1,4,0:0:0:0:
425,330,41601,2,0,L|538:332,1,83.9999974365235,8|0,0:0|0:0,0:0:0:0:
317,262,42015,6,0,L|132:266,1,167.999994873047,4|8,0:0|0:0,0:0:0:0:
68,325,42636,2,0,P|121:273|102:168,1,167.999994873047,0|0,0:0|0:0,0:0:0:0:
32,157,43256,2,0,P|27:196|44:241,1,83.9999974365235,8|0,0:0|0:0,0:0:0:0:
227,129,43670,6,0,P|179:87|87:113,1,154.000004699707,4|0,0:1|0:1,0:0:0:0:
225,220,44291,2,0,P|294:194|307:84,1,167.999994873047,4|0,0:1|0:0,0:0:0:0:
152,168,44911,2,0,P|137:243|222:314,1,181.999991668702,4|0,0:1|0:0,0:0:0:0:
357,290,45532,5,8,0:0:0:0:
301,217,45739,2,0,L|207:220,1,77.0000023498536,8|0,0:0|0:0,0:0:0:0:
396,207,46153,1,4,0:0:0:0:
269,304,46360,1,0,0:0:0:0:
400,211,46567,1,8,0:0:0:0:
236,142,46773,6,0,P|205:136|88:161,1,154.000004699707,4|0,0:1|0:0,0:0:0:0:
0,53,47394,2,0,P|50:70|104:66,1,77.0000023498536,8|0,0:0|0:0,0:0:0:0:
187,42,47808,1,4,0:0:0:0:
77,75,48015,1,4,0:0:0:0:
242,108,48222,2,0,P|292:90|346:94,1,77.0000023498536,8|0,0:0|0:0,0:0:0:0:
442,50,48636,6,0,P|415:121|429:220,1,154.000004699707,4|8,0:0|0:0,0:0:0:0:
512,300,49256,2,0,P|437:290|361:317,1,154.000004699707,0|4,0:0|0:0,0:0:0:0:
263,378,49877,2,0,P|283:325|285:245,1,115.50000352478,8|0,0:0|0:0,0:0:0:0:
290,241,50291,6,0,L|124:255,1,154.000004699707,4|8,0:0|0:0,0:0:0:0:
0,265,50911,1,0,0:0:0:0:
118,333,51118,1,4,0:0:0:0:
65,206,51325,1,0,0:0:0:0:
33,343,51532,1,8,0:0:0:0:
137,254,51739,6,0,L|262:243,1,115.50000352478
290,241,52153,2,0,P|277:199|280:162,1,77.0000023498536,0|8,0:0|0:0,0:0:0:0:
391,218,52567,2,0,P|392:256|379:292,1,77.0000023498536,0|4,0:0|0:0,0:0:0:0:
300,338,52980,1,0,0:0:0:0:
288,167,53187,2,0,P|340:139|408:136,1,115.50000352478,8|0,0:0|0:0,0:0:0:0:
424,138,53601,6,0,P|413:91|416:54,1,77.0000023498536,4|0,0:1|0:0,0:0:0:0:
503,94,54015,1,8,0:0:0:0:
331,97,54222,2,0,L|241:103,1,77.0000023498536,0|4,0:0|0:0,0:0:0:0:
414,62,54636,2,0,L|504:68,1,77.0000023498536,0|8,0:0|0:0,0:0:0:0:
264,27,55049,6,0,P|253:74|256:111,1,77.0000023498536,0|4,0:0|0:0,0:0:0:0:
344,174,55461,2,0,P|344:135|332:99,1,70,0|8,0:0|0:0,0:0:0:0:
219,212,55872,2,0,P|238:192|351:177,1,140,0|0,0:0|0:2,0:0:0:0:
407,257,56488,2,0,L|410:329,1,70,8|4,0:0|0:0,0:0:0:0:
152,295,56899,6,0,L|300:283,1,140,4|8,0:1|0:0,0:0:0:0:
86,243,57521,2,0,P|69:316|77:349,1,80.2200020686616,4|0,0:1|0:0,0:0:0:0:
137,376,57965,1,8,0:0:0:0:
137,376,58154,2,0,L|323:382,1,181.999991668702,4|0,0:1|0:0,0:0:0:0:
407,257,58776,5,8,0:0:0:0:
331,197,58984,2,0,L|236:204,1,77.0000023498536,8|0,0:0|0:0,0:0:0:0:
440,168,59399,1,8,0:0:0:0:
440,168,59607,1,0,0:0:0:0:
319,109,59814,1,4,0:0:0:0:
319,109,60022,1,4,0:0:0:0:
471,103,60220,6,0,P|428:117|341:90,1,140,4|8,0:1|3:3,0:0:0:0:
269,32,60840,2,0,P|226:18|139:45,1,140,4|0,0:1|3:3,0:0:0:0:
142,63,61357,5,4,0:0:0:0:
144,80,61464,1,4,0:0:0:0:
147,97,61571,1,4,0:0:0:0:
150,114,61678,1,4,0:0:0:0:
153,132,61786,1,4,0:0:0:0:
337,369,62185,5,4,0:1:0:0:
165,336,62391,1,4,0:1:0:0:
336,283,62598,2,0,P|395:278|435:282,1,83.9999974365235,4|0,0:1|0:0,0:0:0:0:
