osu file format v14

[General]
AudioFilename: audio.mp3
AudioLeadIn: 0
PreviewTime: 33118
Countdown: 0
SampleSet: None
StackLeniency: 0.7
Mode: 0
LetterboxInBreaks: 0
WidescreenStoryboard: 1

[Editor]
Bookmarks: 15118
DistanceSpacing: 1.3
BeatDivisor: 4
GridSize: 8
TimelineZoom: 3.099999

[Metadata]
Title:Pokemon Theme (TV Size)
TitleUnicode:Pokémon Theme (TV Size)
Artist:Jason Paige
ArtistUnicode:Jason Paige
Creator:matthewrigaud11
Version:Insane
Source:Pokémon: Indigo League
Tags:TheKoala Sylas gotta catch 'em all Pocket Monsters ポケットモンスター Poketto Monsuta 2.B.A. Master soundtrack English adaptation
BeatmapID:1940584
BeatmapSetID:807345

[Difficulty]
HPDrainRate:5.5
CircleSize:4
OverallDifficulty:8
ApproachRate:8.5
SliderMultiplier:1.7
SliderTickRate:1

[Events]
//Background and Video events
0,0,"bg.jpg",0,0
//Break Periods
//Storyboard Layer 0 (Background)
//Storyboard Layer 1 (Fail)
//Storyboard Layer 2 (Pass)
//Storyboard Layer 3 (Foreground)
//Storyboard Sound Samples

[TimingPoints]
636,413.793103448276,4,3,0,65,1,0
636,-90.9090909090909,4,3,0,65,0,0
4360,-86.9565217391304,4,3,1,50,0,0
4463,-86.9565217391304,4,3,1,60,0,0
4567,-86.9565217391304,4,3,1,70,0,0
4670,-86.9565217391304,4,3,1,80,0,0
4773,-86.9565217391304,4,3,1,90,0,0
4980,-86.9565217391304,4,3,0,65,0,0
6429,-86.9565217391304,4,3,1,65,0,0
21532,-86.9565217391304,4,3,0,65,0,0
21739,-86.9565217391304,4,3,1,65,0,0
23394,-86.9565217391304,4,3,0,65,0,0
23601,-86.9565217391304,4,3,1,65,0,0
25049,-86.9565217391304,4,3,0,65,0,0
25256,-86.9565217391304,4,3,1,65,0,0
28360,-86.9565217391304,4,3,0,65,0,0
28567,-86.9565217391304,4,3,1,65,0,0
28773,-86.9565217391304,4,2,1,65,0,0
32291,-86.9565217391304,4,3,1,70,0,0
32911,-86.9565217391304,4,3,1,65,0,0
33739,-76.9230769230769,4,3,1,85,0,1
36946,-76.9230769230769,4,3,1,5,0,1
37049,-76.9230769230769,4,3,1,85,0,1
38808,-76.9230769230769,4,3,1,5,0,1
38911,-76.9230769230769,4,3,1,85,0,1
40359,-74.0740740740741,4,3,1,85,0,1
40670,-74.0740740740741,4,3,1,5,0,1
40773,-74.0740740740741,4,3,1,85,0,1
40980,-74.0740740740741,4,3,1,85,0,1
41006,-74.0740740740741,4,3,1,85,0,1
41247,-74.0740740740741,4,3,1,85,0,1
43670,-74.0740740740741,4,3,1,85,0,1
44291,-74.0740740740741,4,3,1,85,0,1
44911,-74.0740740740741,4,3,1,85,0,1
45325,-100,4,3,1,85,0,1
46773,-74.0740740740741,4,3,1,85,0,1
46980,-100,4,3,1,85,0,1
47808,-80,4,3,1,85,0,1
52049,-80,4,3,1,5,0,1
52153,-80,4,3,1,85,0,1
53601,-80,4,3,1,85,0,1
53808,-80,4,3,1,85,0,1
53911,-80,4,3,1,85,0,1
55256,410.958904109589,4,3,0,85,1,1
55461,-80,4,3,1,85,0,1
55567,-80,4,3,1,85,0,1
56488,-80,4,3,1,85,0,1
56694,-80,4,3,0,85,0,1
56899,415.22491349481,4,3,0,85,1,1
56902,-64.8298217179903,4,3,1,85,0,1
57108,-63.2111251580278,4,3,1,85,0,1
57521,444.444444444444,4,3,0,85,1,1
57521,-66.6666666666667,4,3,0,85,0,1
57965,-66.6666666666667,4,3,1,85,0,1
58154,415.22491349481,4,3,0,85,1,1
58154,-83.3333333333333,4,3,0,85,0,1
58569,415.22491349481,4,3,0,85,1,1
58776,-100,4,3,0,85,0,1
59399,-100,4,3,0,85,0,1
60220,413.793103448276,4,3,0,85,1,1
60220,-80,4,3,0,85,0,1
60633,-76.103500761035,4,3,1,85,0,1
61036,428.571428571429,4,3,0,85,1,1
61252,-100,4,3,0,85,0,1
62185,413.793103448276,4,3,0,85,1,0

[Colours]
Combo1 : 43,43,255
Combo2 : 255,4,4

[HitObjects]
256,192,636,12,0,4153,0:0:0:0:
161,174,4360,5,8,2:3:0:0:
180,149,4463,1,8,2:3:0:0:
207,132,4566,1,8,2:3:0:0:
238,126,4670,1,8,2:3:0:0:
269,132,4773,1,8,2:3:0:0:
186,313,4980,5,8,2:3:0:0:
51,276,5187,2,0,P|51:204|37:150,1,97.7500018644333,4|4,2:3|2:3,0:0:0:0:
127,60,5808,5,4,2:3:0:0:
265,98,6015,2,0,P|264:169|273:220,1,97.7500018644333,4|0,2:3|2:3,0:0:0:0:
155,262,6429,2,0,P|156:191|147:140,1,97.7500018644333,4|8,2:3|2:3,0:0:0:0:
152,164,6739,1,8,2:3:0:0:
152,164,6842,1,8,2:3:0:0:
71,364,7049,6,0,B|185:340|269:353,1,195.500003728867,4|0,2:1|2:0,0:0:0:0:
414,376,7670,1,2,2:0:0:0:
414,376,7877,1,0,2:0:0:0:
361,226,8084,2,0,L|156:245,1,195.500003728867,2|2,2:0|2:0,3:0:0:0:
306,147,8704,1,0,2:0:0:0:
102,73,8911,2,0,P|222:89|309:47,1,195.500003728867,2|0,2:0|2:0,0:0:0:0:
424,225,9532,2,0,L|298:220,1,97.7500018644333,2|0,2:0|2:1,0:0:0:0:
108,354,9946,1,4,2:1:0:0:
196,211,10153,1,0,2:0:0:0:
44,200,10360,1,4,2:1:0:0:
271,318,10567,6,0,L|476:303,2,195.500003728867,2|2|2,2:0|2:0|2:0,2:0:0:0:
65,289,11601,1,0,2:0:0:0:
65,289,11808,2,0,P|152:284|186:243,1,97.7500018644333,2|0,2:0|2:0,2:0:0:0:
209,171,12222,2,0,P|122:176|87:217,1,97.7500018644333,2|0,2:0|2:0,2:0:0:0:
294,230,12636,1,2,2:0:0:0:
294,230,12842,2,0,B|328:124|251:141|293:26,2,195.500003728867,4|4|4,2:1|2:1|2:1,2:1:0:0:
215,180,13877,6,0,P|320:181|369:113,1,195.500003728867,4|2,2:1|2:0,2:0:0:0:
403,12,14498,1,0,2:0:0:0:
490,122,14704,2,0,L|469:343,1,195.500003728867,2|2,2:0|2:0,2:0:0:0:
360,247,15325,1,0,2:0:0:0:
204,372,15532,2,0,P|208:290|179:173,1,195.500003728867,4|2,2:1|2:2,2:2:0:0:
278,118,16153,1,0,2:0:0:0:
194,34,16360,2,0,L|59:50,1,97.7500018644333,2|0,2:0|2:0,0:0:0:0:
353,75,16773,2,0,L|482:62,1,97.7500018644333,2|0,2:0|2:0,0:0:0:0:
179,140,17187,6,0,P|144:251|195:324,1,195.500003728867,4|0,2:1|2:0,0:0:0:0:
295,360,17808,2,0,L|306:239,1,97.7500018644333,4|0,2:1|2:0,0:0:0:0:
279,171,18222,1,0,2:0:0:0:
432,365,18429,2,0,B|465:253|397:280|441:156,1,195.500003728867,4|2,2:1|2:0,0:0:0:0:
328,35,19049,1,0,2:0:0:0:
328,35,19256,2,0,L|337:150,1,97.7500018644333,2|0,2:0|2:0,2:0:0:0:
213,234,19670,2,0,P|221:131|234:107,1,97.7500018644333,2|4,2:0|2:3,2:0:0:0:
389,290,20084,1,8,2:3:0:0:
389,290,20187,1,0,2:3:0:0:
389,290,20291,6,0,L|168:321,1,195.500003728867,4|0,2:1|2:0,2:0:0:0:
219,138,20911,2,0,P|238:253|237:267,1,97.7500018644333,8|0,2:3|2:0,2:0:0:0:
247,52,21325,1,0,2:0:0:0:
47,136,21532,1,8,0:0:0:0:
138,13,21739,1,4,2:3:0:0:
268,67,21946,1,0,2:0:0:0:
67,129,22153,2,0,L|55:336,1,195.500003728867,0|8,2:0|2:3,0:0:0:0:
184,362,22773,2,0,P|199:265|161:177,1,195.500003728867,0|4,2:0|2:1,0:0:0:0:
75,91,23394,1,8,2:3:0:0:
38,252,23601,1,4,2:1:0:0:
228,137,23808,6,0,P|337:151|431:114,1,195.500003728867,0|8,2:0|2:3,0:0:0:0:
480,72,24429,1,0,2:2:0:0:
496,250,24636,2,0,L|291:240,1,195.500003728867,0|8,2:0|2:3,0:0:0:0:
164,348,25256,2,0,B|277:373|249:309|374:355,1,195.500003728867,0|0,2:0|2:0,0:0:0:0:
456,376,25877,1,8,2:3:0:0:
300,240,26084,2,0,L|94:255,2,195.500003728867,4|4|4,2:1|2:1|2:1,2:0:0:0:
376,176,27118,5,4,2:1:0:0:
376,176,27325,2,0,P|386:96|365:53,1,97.7500018644333,0|8,2:0|2:3,2:0:0:0:
272,14,27739,1,0,2:0:0:0:
170,79,27946,2,0,P|45:94|6:39,1,195.500003728867,0|8,2:0|2:3,2:0:0:0:
99,23,28567,1,0,2:0:0:0:
0,154,28773,2,0,P|98:186|196:155,1,195.500003728867,4|8,2:1|2:3,2:0:0:0:
288,122,29394,2,0,P|311:236|294:334,1,195.500003728867,0|0,2:0|2:0,2:0:0:0:
130,357,30015,1,8,2:3:0:0:
10,201,30222,1,8,2:3:0:0:
10,201,30325,1,8,2:3:0:0:
10,201,30429,6,0,P|125:196|203:160,1,195.500003728867,4|0,2:1|2:0,0:0:0:0:
20,277,31049,2,0,P|135:272|224:232,1,195.500003728867,4|0,2:1|2:0,0:0:0:0:
32,354,31670,2,0,P|151:345|232:312,1,195.500003728867,4|0,2:1|2:0,0:0:0:0:
294,236,32291,5,0,0:0:0:0:
474,292,32498,1,0,0:0:0:0:
286,365,32704,1,0,0:0:0:0:
401,173,32911,1,0,0:0:0:0:
380,378,33118,2,0,L|390:258,1,97.7500018644333,0|8,0:0|0:0,0:0:0:0:
159,210,33532,1,0,0:1:0:0:
159,210,33636,1,0,0:0:0:0:
159,210,33739,38,0,P|151:305|134:371,1,110.499994941712,4|0,0:1|0:0,0:0:0:0:
200,73,34153,1,8,0:0:0:0:
266,291,34360,1,0,0:0:0:0:
450,170,34567,1,4,0:0:0:0:
272,207,34774,1,4,0:0:0:0:
340,18,34980,2,0,L|356:174,1,110.499994941712,8|0,0:0|0:0,0:0:0:0:
138,267,35394,5,4,0:0:0:0:
111,92,35601,1,0,0:0:0:0:
200,356,35808,1,8,0:0:0:0:
243,125,36015,2,0,L|222:253,1,110.499994941712,0|4,0:0|0:0,0:0:0:0:
37,274,36429,1,4,0:0:0:0:
37,274,36636,2,0,P|128:275|172:257,1,110.499994941712,8|0,0:0|0:0,0:0:0:0:
327,194,37049,6,0,P|456:252|433:345,1,220.999989883423,4|8,0:0|0:0,0:0:0:0:
360,285,37670,1,0,0:0:0:0:
257,376,37877,2,0,L|102:361,1,110.499994941712,4|0,0:0|0:0,0:0:0:0:
251,293,38291,1,8,0:0:0:0:
251,293,38498,2,0,P|334:292|399:268,1,110.499994941712,0|4,0:0|0:0,0:0:0:0:
173,211,38911,2,0,P|118:221|63:218,1,110.499994941712,0|8,0:0|0:0,0:0:0:0:
293,142,39325,2,0,P|348:152|403:149,1,110.499994941712,0|4,0:0|0:0,0:0:0:0:
251,293,39739,1,4,0:0:0:0:
393,356,39946,1,8,0:0:0:0:
455,249,40153,5,8,0:0:0:0:
455,249,40256,1,8,0:0:0:0:
454,248,40360,2,0,P|397:244|343:226,1,114.750000437737,4|0,0:1|0:0,0:0:0:0:
146,340,40773,2,0,B|266:375|240:277|378:328,1,229.500000875473,8|4,0:0|0:0,0:0:0:0:
473,363,41394,1,4,0:0:0:0:
473,363,41601,2,0,L|492:183,1,114.750000437737,8|0,0:0|0:0,0:0:0:0:
166,109,42015,5,4,0:0:0:0:
271,143,42222,2,0,P|373:139|432:117,1,114.750000437737,0|8,0:0|0:0,0:0:0:0:
297,255,42636,2,0,P|156:227|98:293,1,229.500000875473
53,360,43256,1,8,0:0:0:0:
211,384,43463,1,0,0:0:0:0:
197,228,43670,6,0,L|181:-5,1,229.500000875473,4|0,0:1|0:1,0:0:0:0:
355,57,44291,2,0,L|339:290,1,229.500000875473,4|0,0:1|0:0,0:0:0:0:
45,139,44911,2,0,P|185:112|241:177,1,229.500000875473,4|0,0:1|0:0,0:0:0:0:
370,5,45532,6,0,L|292:11,1,42.5,8|0,0:0|0:0,0:0:0:0:
224,13,45739,1,8,0:0:0:0:
348,153,45946,1,0,0:0:0:0:
122,226,46153,1,4,0:0:0:0:
210,87,46360,1,0,0:0:0:0:
355,160,46567,1,8,0:0:0:0:
355,160,46670,1,0,0:0:0:0:
355,160,46773,6,0,B|389:269|319:272|351:400,1,229.500000875473,4|0,0:1|0:0,0:0:0:0:
477,234,47394,1,8,0:0:0:0:
477,234,47601,1,0,0:0:0:0:
334,283,47808,2,0,P|277:285|207:256,1,106.25,4|4,0:0|0:0,0:0:0:0:
93,244,48222,5,8,0:0:0:0:
119,91,48429,1,0,0:0:0:0:
158,326,48636,1,4,0:0:0:0:
274,159,48842,1,0,0:0:0:0:
49,175,49049,1,8,0:0:0:0:
247,292,49256,2,0,B|275:181|206:194|243:82,1,212.5
455,41,49877,2,0,L|440:182,1,106.25,8|0,0:0|0:0,0:0:0:0:
370,211,50187,1,0,0:0:0:0:
370,211,50291,6,0,P|356:123|372:78,1,106.25,4|0,0:0|0:0,0:0:0:0:
467,327,50704,2,0,L|337:343,1,106.25,8|0,0:0|0:0,0:0:0:0:
160,220,51118,1,4,0:0:0:0:
282,275,51325,1,0,0:0:0:0:
144,350,51532,1,8,0:0:0:0:
293,381,51739,6,0,L|280:249,1,106.25,0|4,0:0|0:0,0:0:0:0:
422,143,52153,2,0,P|434:217|413:268,1,106.25,0|8,0:0|0:0,0:0:0:0:
318,32,52567,1,0,0:0:0:0:
167,128,52773,1,4,0:0:0:0:
323,166,52980,1,4,0:0:0:0:
229,13,53187,1,8,0:0:0:0:
231,233,53394,1,0,0:0:0:0:
231,233,53498,1,0,0:0:0:0:
231,233,53601,1,4,0:1:0:0:
469,196,53809,6,0,L|363:204,1,106.25,0|8,0:0|0:0,0:0:0:0:
401,384,54223,2,0,P|422:269|417:250,1,106.25,0|4,0:0|0:0,0:0:0:0:
171,304,54636,2,0,P|285:322|306:314,1,106.25,4|8,0:0|0:0,0:0:0:0:
365,193,55049,5,0,0:0:0:0:
365,193,55153,1,0,0:0:0:0:
365,193,55256,1,4,0:0:0:0:
245,98,55461,2,0,P|242:188|256:232,1,106.25,0|8,0:0|0:0,0:0:0:0:
461,35,55872,2,0,P|349:17|319:26,2,106.25,0|4|4,0:1|0:0|0:0,0:0:0:0:
229,13,56488,1,8,0:0:0:0:
325,107,56694,1,4,0:0:0:0:
106,132,56899,5,4,0:1:0:0:
106,132,57106,2,0,P|166:154|242:141,1,131.11250605187,0|8,0:1|0:0,0:0:0:0:
426,243,57521,2,0,P|310:224|261:243,1,127.500004863739,4|0,0:1|0:0,0:0:0:0:
203,260,57965,1,8,0:0:0:0:
280,336,58154,6,0,P|318:244|246:167,1,203.999993774414,4|0,0:1|0:0,0:0:0:0:
172,138,58776,1,8,0:0:0:0:
172,138,58880,1,0,0:0:0:0:
172,138,58984,1,8,0:0:0:0:
58,226,59191,1,0,0:0:0:0:
171,214,59399,1,8,0:0:0:0:
319,320,59607,1,0,0:0:0:0:
206,312,59814,1,4,0:0:0:0:
337,217,60022,1,4,0:0:0:0:
337,217,60220,6,0,P|447:236|478:224,1,106.25,4|0,0:1|0:0,0:0:0:0:
224,109,60633,2,0,P|181:226|206:312,1,218.110002529352,8|2,0:0|0:2,0:0:0:0:
324,381,61250,1,0,0:0:0:0:
338,350,61357,1,4,0:0:0:0:
346,317,61464,1,4,0:0:0:0:
349,283,61571,1,4,0:0:0:0:
346,249,61678,1,4,0:0:0:0:
337,217,61786,1,4,0:0:0:0:
337,217,62185,5,4,0:1:0:0:
103,169,62391,1,4,0:1:0:0:
35,329,62598,2,0,P|115:332|154:320,1,85,4|0,0:1|0:0,0:0:0:0:
