osu file format v14

[General]
AudioFilename: audio.mp3
AudioLeadIn: 0
PreviewTime: 7296
Countdown: 0
SampleSet: Soft
StackLeniency: 0.7
Mode: 2
LetterboxInBreaks: 0
WidescreenStoryboard: 1

[Editor]
DistanceSpacing: 1
BeatDivisor: 8
GridSize: 4
TimelineZoom: 1.4

[Metadata]
Title:Clifford's Theme Song (TV Size)
TitleUnicode:Clifford's Theme Song (TV Size)
Artist:Jason Michael
ArtistUnicode:Jason Michael
Creator:Secre
Version:Salad
Source:Clifford the Big Red Dog
Tags:chickenbible blackbn blackbq Mutato Muzika Mark Mothersbaugh Josh Mancell PBS english cartoon op opening
BeatmapID:4161728
BeatmapSetID:1882550

[Difficulty]
HPDrainRate:2
CircleSize:0
OverallDifficulty:6.5
ApproachRate:6.5
SliderMultiplier:1.84
SliderTickRate:1

[Events]
//Background and Video events
0,0,"ame is emily elizabeth.jpg",0,0
Video,76,"fuwamoco.avi"
//Break Periods
//Storyboard Layer 0 (Background)
//Storyboard Layer 1 (Fail)
//Storyboard Layer 2 (Pass)
//Storyboard Layer 3 (Foreground)
//Storyboard Layer 4 (Overlay)
//Storyboard Sound Samples

[TimingPoints]
176,447.761194029851,4,2,2,50,1,0
7116,-100,4,2,3,50,0,0
7340,-100,4,2,2,60,0,0
14280,-100,4,2,3,60,0,0
14504,-100,4,2,2,60,0,0
21444,-100,4,2,3,60,0,0
21668,-100,4,2,2,60,0,0
28608,-100,4,2,3,60,0,0
28832,-100,4,2,2,60,0,0
35773,-100,4,2,3,60,0,0
35996,-100,4,2,2,60,0,0
42937,-100,4,2,3,60,0,0
43161,-100,4,2,2,60,0,0
50101,-100,4,2,3,60,0,0
50325,-100,4,2,2,60,0,0
57265,-100,4,2,3,60,0,0
57489,-100,4,2,2,60,0,0
58832,-100,4,2,2,30,0,0
59280,-100,4,2,2,15,0,0
59728,-100,4,2,2,5,0,0

[Colours]
Combo1 : 223,227,45
Combo2 : 220,63,67
Combo3 : 0,103,230
Combo4 : 20,205,44

[HitObjects]
341,190,176,6,0,L|143:181,1,184,0|10,1:0|0:0,0:0:0:0:
251,94,847,1,0,1:0:0:0:
69,182,1295,2,0,L|66:83,1,92,0|10,0:0|0:0,0:0:0:0:
256,91,1967,6,0,L|465:84,1,184,0|10,1:0|0:0,0:0:0:0:
350,179,2638,1,0,1:0:0:0:
180,100,3086,2,0,L|303:94,1,92,0|10,0:0|0:0,0:0:0:0:
456,93,3758,6,0,L|252:79,1,184,0|10,1:0|0:0,0:0:0:0:
272,80,4429,1,0,1:0:0:0:
454,99,4877,2,0,L|458:199,1,92,0|10,0:0|0:0,0:0:0:0:
275,231,5549,6,0,L|459:214,1,184,0|10,1:0|0:0,0:0:0:0:
364,136,6220,1,0,1:0:0:0:
174,143,6668,2,0,L|72:136,2,92,0|10|8,0:0|0:0|0:0,0:0:0:0:
362,159,7340,6,0,L|366:273,1,92
268,303,7787,1,10,0:0:0:0:
85,199,8235,2,0,L|294:192,1,184,0|10,0:0|0:0,0:0:0:0:
92,190,9131,6,0,L|90:83,1,92,0|0,1:0|0:0,0:0:0:0:
261,42,9802,1,0,1:0:0:0:
261,42,10250,1,0,0:0:0:0:
174,55,10474,2,0,L|174:164,1,92,10|0,0:0|0:0,0:0:0:0:
264,178,10922,6,0,L|478:172,1,184,0|10,1:0|0:0,0:0:0:0:
261,157,11817,2,0,L|156:151,1,92
169,151,12489,1,0,0:0:0:0:
265,152,12713,6,0,L|268:343,1,184,0|10,1:0|0:0,0:0:0:0:
176,350,13384,1,0,1:0:0:0:
354,195,13832,2,0,L|468:182,2,92,0|10|8,0:0|0:0|0:0,0:0:0:0:
157,205,14504,6,0,P|101:168|175:94,1,184,0|10,1:0|0:0,0:0:0:0:
337,109,15399,1,0,0:0:0:0:
246,122,15623,2,0,L|51:111,1,184
158,200,16295,6,0,L|279:190,1,92,0|0,1:0|0:0,0:0:0:0:
77,114,16967,1,0,1:0:0:0:
238,84,17414,2,0,L|113:65,2,92,0|10|0,0:0|0:0|0:0,0:0:0:0:
333,105,18086,6,0,L|340:232,1,92,0|0,1:0|0:0,0:0:0:0:
243,245,18534,2,0,L|139:237,1,92,10|0,0:0|1:0,0:0:0:0:
243,245,18981,2,0,L|357:233,1,92
334,235,19653,1,0,0:0:0:0:
241,192,19877,6,0,L|239:2,1,184,0|10,1:0|0:0,0:0:0:0:
333,6,20549,1,0,1:0:0:0:
159,147,20996,2,0,L|53:136,2,92,0|10|8,0:0|0:0|0:0,0:0:0:0:
350,167,21668,6,0,L|451:157,2,92,0|0|10,1:0|0:0|0:0,0:0:0:0:
253,187,22340,2,0,L|50:182,1,184,0|0,1:0|0:0,0:0:0:0:
171,240,23011,2,0,L|170:357,1,92,10|0,0:0|0:0,0:0:0:0:
79,349,23459,6,0,L|296:337,1,184,0|10,1:0|0:0,0:0:0:0:
171,261,24131,1,0,1:0:0:0:
77,197,24355,2,0,L|72:83,1,92
166,81,24802,1,10,0:0:0:0:
485,97,25250,6,0,L|489:232,1,92,0|0,1:0|0:0,0:0:0:0:
388,241,25698,1,10,0:0:0:0:
292,183,25922,2,0,L|486:169,1,184,0|0,1:0|0:0,0:0:0:0:
385,96,26593,1,10,0:0:0:0:
168,128,27041,5,0,1:0:0:0:
77,132,27265,1,0,0:0:0:0:
168,128,27488,1,10,0:0:0:0:
260,125,27712,1,0,1:0:0:0:
168,128,27937,2,0,L|172:326,1,184,0|10,0:0|0:0,0:0:0:0:
479,284,28832,6,0,L|484:167,1,92,0|0,1:0|0:0,0:0:0:0:
382,148,29280,1,10,0:0:0:0:
286,136,29504,2,0,P|199:143|188:262,1,184,0|0,1:0|0:0,0:0:0:0:
338,287,30399,1,0,0:0:0:0:
237,206,30623,6,0,L|138:187,2,92,0|0|10,1:0|0:0|0:0,0:0:0:0:
341,195,31295,1,0,1:0:0:0:
438,160,31519,2,0,L|437:51,1,92
341,195,31967,1,10,0:0:0:0:
39,129,32414,6,0,L|239:125,1,184,0|10,1:0|0:0,0:0:0:0:
235,115,33310,1,0,0:0:0:0:
143,140,33534,2,0,L|142:273,1,92,0|10,0:0|0:0,0:0:0:0:
235,280,33981,1,0,0:0:0:0:
443,249,34205,6,0,L|444:144,1,92,0|0,1:0|0:0,0:0:0:0:
140,231,34877,2,0,P|45:194|32:114,1,184,0|0,1:0|0:0,0:0:0:0:
31,122,35549,1,10,0:0:0:0:
363,119,35996,6,0,L|363:236,1,92,0|0,1:0|0:0,0:0:0:0:
267,239,36444,2,0,L|157:237,1,92,10|0,0:0|1:0,0:0:0:0:
267,239,36892,2,0,L|457:232,1,184,0|10,0:0|0:0,0:0:0:0:
356,152,37564,1,0,0:0:0:0:
250,131,37787,6,0,L|245:23,1,92,0|0,1:0|0:0,0:0:0:0:
351,18,38235,1,10,0:0:0:0:
245,67,38459,2,0,L|31:73,1,184,0|0,1:0|0:0,0:0:0:0:
158,139,39131,2,0,L|158:253,1,92,10|0,0:0|0:0,0:0:0:0:
356,281,39578,6,0,P|416:259|357:168,1,184,0|10,1:0|0:0,0:0:0:0:
205,158,40474,1,0,0:0:0:0:
385,142,40922,1,10,0:0:0:0:
59,211,41370,6,0,L|258:202,1,184,0|10,1:0|0:0,0:0:0:0:
242,202,42041,1,0,1:0:0:0:
61,122,42489,2,0,L|61:15,1,92,0|10,0:0|0:0,0:0:0:0:
150,15,42937,1,8,0:0:0:0:
340,108,43161,6,0,L|460:101,1,92,0|0,1:0|0:0,0:0:0:0:
340,108,43608,2,0,L|237:104,1,92,10|0,0:0|1:0,0:0:0:0:
340,108,44056,1,0,0:0:0:0:
422,132,44279,1,0,0:0:0:0:
424,218,44503,1,10,0:0:0:0:
343,246,44727,1,0,0:0:0:0:
247,195,44952,6,0,L|145:183,2,92,0|0|10,1:0|0:0|0:0,0:0:0:0:
350,217,45623,1,0,1:0:0:0:
183,119,46071,2,0,L|89:110,2,92,0|10|0,0:0|0:0|0:0,0:0:0:0:
381,108,46743,6,0,L|382:213,1,92,0|0,1:0|0:0,0:0:0:0:
286,240,47190,1,10,0:0:0:0:
119,243,47638,1,0,0:0:0:0:
208,186,47862,2,0,L|208:84,1,92,0|10,0:0|0:0,0:0:0:0:
118,88,48310,1,0,0:0:0:0:
207,84,48534,5,0,1:0:0:0:
298,81,48757,1,0,0:0:0:0:
132,87,49205,1,0,1:0:0:0:
313,81,49653,2,0,L|316:183,1,92,0|10,0:0|0:0,0:0:0:0:
223,221,50101,1,8,0:0:0:0:
30,155,50325,6,0,L|26:52,1,92,0|0,1:0|0:0,0:0:0:0:
131,45,50773,2,0,L|259:37,1,92,10|0,0:0|1:0,0:0:0:0:
131,45,51220,2,0,P|82:64|149:141,1,184,0|10,0:0|0:0,0:0:0:0:
233,130,51892,1,0,0:0:0:0:
333,132,52116,6,0,L|335:237,1,92,0|0,1:0|0:0,0:0:0:0:
240,256,52564,1,10,0:0:0:0:
335,135,52787,1,0,1:0:0:0:
428,130,53011,2,0,L|427:23,1,92
335,135,53459,1,10,0:0:0:0:
26,148,53907,6,0,L|237:135,1,184,0|10,1:0|0:0,0:0:0:0:
41,152,54802,2,0,L|158:144,1,92
310,131,55474,1,0,0:0:0:0:
113,172,55698,6,0,L|113:64,1,92,0|0,1:0|0:0,0:0:0:0:
423,55,56370,2,0,P|488:81|423:137,1,184,0|0,1:0|0:0,0:0:0:0:
336,145,57041,1,10,0:0:0:0:
38,151,57489,6,0,P|38:88|149:30,1,184,2|0,1:2|0:0,0:0:0:0:
219,183,58161,6,0,L|226:162,2,23
256,192,58608,12,0,59728,0:0:0:0:
