osu file format v14

[General]
AudioFilename: audio.mp3
AudioLeadIn: 0
PreviewTime: 7296
Countdown: 0
SampleSet: Soft
StackLeniency: 0.7
Mode: 2
LetterboxInBreaks: 0
WidescreenStoryboard: 1

[Editor]
DistanceSpacing: 1
BeatDivisor: 8
GridSize: 4
TimelineZoom: 1.4

[Metadata]
Title:Clifford's Theme Song (TV Size)
TitleUnicode:Clifford's Theme Song (TV Size)
Artist:Jason Michael
ArtistUnicode:Jason Michael
Creator:Secre
Version:Rain
Source:Clifford the Big Red Dog
Tags:chickenbible blackbn blackbq Mutato Muzika Mark Mothersbaugh Josh Mancell PBS english cartoon op opening
BeatmapID:4068374
BeatmapSetID:1882550

[Difficulty]
HPDrainRate:4
CircleSize:0
OverallDifficulty:8.5
ApproachRate:8.5
SliderMultiplier:2.36
SliderTickRate:2

[Events]
//Background and Video events
0,0,"ame is emily elizabeth.jpg",0,0
Video,76,"fuwamoco.avi"
//Break Periods
//Storyboard Layer 0 (Background)
//Storyboard Layer 1 (Fail)
//Storyboard Layer 2 (Pass)
//Storyboard Layer 3 (Foreground)
//Storyboard Layer 4 (Overlay)
//Storyboard Sound Samples

[TimingPoints]
176,447.761194029851,4,2,2,50,1,0
7116,-100,4,2,3,50,0,0
7340,-100,4,2,2,60,0,0
14280,-100,4,2,3,60,0,0
14504,-100,4,2,2,60,0,0
21444,-100,4,2,3,60,0,0
21668,-100,4,2,2,60,0,0
28608,-100,4,2,3,60,0,0
28832,-100,4,2,2,60,0,0
35773,-100,4,2,3,60,0,0
35996,-100,4,2,2,60,0,0
42937,-100,4,2,3,60,0,0
43161,-100,4,2,2,60,0,0
50101,-100,4,2,3,60,0,0
50325,-100,4,2,2,60,0,0
57265,-100,4,2,3,60,0,0
57489,-100,4,2,2,60,0,0
58832,-100,4,2,2,30,0,0
59280,-100,4,2,2,15,0,0
59728,-100,4,2,2,5,0,0

[Colours]
Combo1 : 223,227,45
Combo2 : 220,63,67
Combo3 : 0,103,230
Combo4 : 20,205,44

[HitObjects]
333,159,176,6,0,L|191:164,2,118,0|0|10,1:0|0:0|0:0,0:0:0:0:
146,74,847,2,0,P|65:70|19:208,1,236,0|0,1:0|0:0,0:0:0:0:
180,218,1519,2,0,P|267:221|315:359,1,236,10|0,0:0|1:0,0:0:0:0:
171,169,2078,6,0,L|70:167,2,88.5,0|0|10,0:0|0:0|0:0,0:0:0:0:
333,162,2582,1,0,0:0:0:0:
383,137,2693,1,0,0:0:0:0:
383,81,2805,1,0,0:0:0:0:
333,56,2917,1,0,0:0:0:0:
256,55,3030,2,0,L|151:55,1,88.5
320,88,3310,2,0,L|319:221,1,118,10|0,0:0|0:0,0:0:0:0:
118,237,3758,6,0,L|235:227,2,118,0|0|10,1:0|0:0|0:0,0:0:0:0:
326,150,4429,1,0,1:0:0:0:
151,243,4653,2,0,L|152:94,1,118
360,87,5101,1,10,0:0:0:0:
81,160,5437,6,0,L|80:39,1,118
222,128,5828,2,0,L|221:25,1,88.5,0|10,0:0|0:0,0:0:0:0:
403,36,6220,2,0,P|460:46|398:162,1,236,0|0,1:0|0:0,0:0:0:0:
237,186,6892,2,0,L|381:185,1,118,10|8,0:0|0:0,0:0:0:0:
294,103,7228,1,8,0:0:0:0:
81,150,7340,6,0,L|81:27,1,118
265,84,7787,2,0,L|138:88,1,118,10|0,0:0|1:0,0:0:0:0:
337,219,8235,2,0,P|402:201|324:99,1,236,0|10,0:0|0:0,0:0:0:0:
146,112,8907,1,0,0:0:0:0:
459,132,9131,6,0,L|341:127,2,118,0|0|10,1:0|0:0|0:0,0:0:0:0:
225,227,9802,2,0,L|470:224,1,236,0|0,1:0|0:0,0:0:0:0:
286,131,10474,2,0,L|425:128,1,118,10|0,0:0|0:0,0:0:0:0:
84,263,10922,6,0,P|24:234|117:145,1,236,0|10,1:0|0:0,0:0:0:0:
311,140,11593,1,0,1:0:0:0:
135,129,11817,1,0,0:0:0:0:
311,140,12041,2,0,L|312:15,1,118,0|10,0:0|0:0,0:0:0:0:
485,20,12489,1,0,0:0:0:0:
164,34,12713,6,0,P|91:28|5:164,1,236,0|10,1:0|0:0,0:0:0:0:
196,207,13384,2,0,L|198:77,1,118,0|0,1:0|0:0,0:0:0:0:
24,68,13832,2,0,L|150:69,2,118,0|10|8,0:0|0:0|0:0,0:0:0:0:
87,139,14392,1,8,0:0:0:0:
324,153,14504,6,0,L|468:148,1,118,0|0,1:0|0:0,0:0:0:0:
277,64,14952,2,0,L|156:66,1,118,10|0,0:0|1:0,0:0:0:0:
338,173,15399,1,0,0:0:0:0:
158,92,15623,2,0,L|158:236,1,118,0|10,0:0|0:0,0:0:0:0:
361,208,16071,1,0,0:0:0:0:
42,172,16295,5,0,1:0:0:0:
206,148,16519,2,0,L|207:21,1,118,0|10,0:0|0:0,0:0:0:0:
370,45,16967,2,0,L|114:48,1,236,0|0,1:0|0:0,0:0:0:0:
295,180,17638,2,0,L|150:179,1,118,10|0,0:0|0:0,0:0:0:0:
496,174,18086,6,0,L|496:50,1,118,0|0,1:0|0:0,0:0:0:0:
313,42,18534,2,0,L|440:44,1,118,10|0,0:0|1:0,0:0:0:0:
241,152,18981,1,0,0:0:0:0:
428,148,19205,2,0,L|428:15,1,118,0|10,0:0|0:0,0:0:0:0:
106,81,19653,1,0,0:0:0:0:
323,218,19877,6,0,L|62:216,1,236,0|10,1:0|0:0,0:0:0:0:
299,136,20549,2,0,L|297:8,1,118,0|0,1:0|0:0,0:0:0:0:
489,33,20996,2,0,L|351:34,2,118,0|10|8,0:0|0:0|0:0,0:0:0:0:
427,103,21556,1,8,0:0:0:0:
167,119,21668,6,0,L|20:119,2,118,0|0|10,1:0|0:0|0:0,0:0:0:0:
357,203,22340,2,0,L|357:78,1,118,0|0,1:0|0:0,0:0:0:0:
185,83,22787,1,0,0:0:0:0:
371,78,23011,1,10,0:0:0:0:
185,83,23235,1,0,0:0:0:0:
504,149,23459,6,0,L|371:150,2,118,0|0|10,1:0|0:0|0:0,0:0:0:0:
310,87,24131,1,0,1:0:0:0:
118,113,24355,2,0,L|120:242,1,118
299,268,24802,1,10,0:0:0:0:
119,230,25026,1,0,0:0:0:0:
460,134,25250,6,0,L|311:133,2,118,0|0|10,1:0|0:0|0:0,0:0:0:0:
270,173,25922,2,0,L|267:40,1,118,0|0,1:0|0:0,0:0:0:0:
54,53,26370,2,0,L|198:50,2,118,0|10|0,0:0|0:0|0:0,0:0:0:0:
379,205,27041,5,0,1:0:0:0:
176,144,27265,1,0,0:0:0:0:
379,205,27489,2,0,L|507:202,1,118,10|0,0:0|1:0,0:0:0:0:
285,95,27937,2,0,L|161:94,1,118
398,118,28384,2,0,L|397:259,1,118,10|8,0:0|0:0,0:0:0:0:
323,271,28720,1,8,0:0:0:0:
119,143,28832,6,0,L|-1:135,1,118,0|0,1:0|0:0,0:0:0:0:
202,71,29280,1,10,0:0:0:0:
28,69,29504,2,0,L|30:196,1,118,0|0,1:0|0:0,0:0:0:0:
251,141,29952,1,0,0:0:0:0:
331,148,30064,2,0,L|331:233,1,59,0|10,0:0|0:0,0:0:0:0:
249,266,30287,1,0,0:0:0:0:
41,210,30399,2,0,L|40:123,1,59
305,68,30623,6,0,L|363:70,1,59,0|0,1:0|0:0,0:0:0:0:
115,92,30847,2,0,L|56:89,1,59
56,89,31071,2,0,L|114:91,1,59,10|0,0:0|0:0,0:0:0:0:
321,128,31295,2,0,L|477:126,2,118,0|0|0,1:0|0:0|0:0,0:0:0:0:
131,151,31967,1,10,0:0:0:0:
321,128,32190,1,0,0:0:0:0:
6,196,32414,6,0,P|-2:122|93:73,1,177,0|0,1:0|0:0,0:0:0:0:
300,69,32862,2,0,L|299:212,1,118,10|0,0:0|1:0,0:0:0:0:
135,217,33310,1,0,0:0:0:0:
294,155,33534,2,0,L|169:154,1,118,0|10,0:0|0:0,0:0:0:0:
363,79,33981,1,0,0:0:0:0:
9,124,34205,5,0,1:0:0:0:
191,160,34429,2,0,L|186:287,1,118,0|10,0:0|0:0,0:0:0:0:
501,331,34877,2,0,L|229:313,1,236,0|0,1:0|0:0,0:0:0:0:
452,239,35549,2,0,L|458:116,1,118,10|8,0:0|0:0,0:0:0:0:
383,100,35884,1,8,0:0:0:0:
166,168,35996,6,0,L|43:164,1,118,0|0,1:0|0:0,0:0:0:0:
254,182,36444,2,0,L|384:179,1,118,10|0,0:0|1:0,0:0:0:0:
167,109,36892,2,0,L|162:255,1,118
360,263,37340,1,10,0:0:0:0:
162,226,37564,1,0,0:0:0:0:
481,153,37787,6,0,L|341:140,2,118,0|0|10,1:0|0:0|0:0,0:0:0:0:
284,73,38459,2,0,P|196:69|136:216,1,236,0|0,1:0|0:0,0:0:0:0:
286,215,39131,2,0,L|422:217,1,118,10|0,0:0|0:0,0:0:0:0:
87,192,39578,6,0,P|30:162|110:111,1,177,0|0,1:0|0:0,0:0:0:0:
299,99,40026,2,0,L|431:99,1,118,10|0,0:0|1:0,0:0:0:0:
229,195,40474,2,0,L|96:190,1,118
341,112,40922,2,0,L|488:109,1,118,10|0,0:0|0:0,0:0:0:0:
139,208,41370,6,0,L|395:212,1,236,0|10,1:0|0:0,0:0:0:0:
201,132,42041,2,0,L|197:5,1,118,0|0,1:0|0:0,0:0:0:0:
23,44,42489,2,0,L|171:42,2,118,0|10|8,0:0|0:0|0:0,0:0:0:0:
86,117,43049,1,8,0:0:0:0:
296,113,43161,6,0,L|428:104,1,118,0|0,1:0|0:0,0:0:0:0:
226,188,43608,2,0,L|359:190,1,118,10|0,0:0|1:0,0:0:0:0:
130,107,44056,2,0,L|8:104,1,118
185,206,44504,2,0,L|55:208,1,118,10|0,0:0|0:0,0:0:0:0:
394,107,44952,6,0,L|512:105,2,118,0|0|10,1:0|0:0|0:0,0:0:0:0:
189,103,45623,2,0,L|452:99,1,236,0|0,1:0|0:0,0:0:0:0:
254,161,46295,2,0,L|386:162,1,118,10|0,0:0|0:0,0:0:0:0:
52,218,46743,6,0,L|50:85,1,118,0|0,1:0|0:0,0:0:0:0:
258,91,47190,2,0,L|124:85,1,118,10|0,0:0|1:0,0:0:0:0:
328,191,47638,1,0,0:0:0:0:
153,107,47862,2,0,L|323:101,2,118,0|10|0,0:0|0:0|0:0,0:0:0:0:
470,151,48534,5,0,1:0:0:0:
285,144,48758,2,0,L|281:284,1,118,0|10,0:0|0:0,0:0:0:0:
98,306,49205,2,0,L|356:308,1,236,0|0,1:0|0:0,0:0:0:0:
163,203,49877,2,0,L|19:197,1,118,10|8,0:0|0:0,0:0:0:0:
109,132,50213,1,8,0:0:0:0:
356,105,50325,6,0,L|491:104,3,118,0|0|10|0,1:0|0:0|0:0|1:0,0:0:0:0:
272,158,51220,2,0,P|196:157|168:265,1,177
364,269,51668,2,0,L|492:269,1,118,10|0,0:0|0:0,0:0:0:0:
154,158,52116,6,0,L|298:157,2,118,0|0|10,1:0|0:0|0:0,0:0:0:0:
383,59,52787,1,0,1:0:0:0:
265,57,53010,1,0,0:0:0:0:
147,56,53234,1,0,0:0:0:0:
343,130,53459,2,0,L|474:133,1,118,10|0,0:0|0:0,0:0:0:0:
142,132,53907,6,0,P|71:150|69:255,1,177,0|0,1:0|0:0,0:0:0:0:
336,258,54355,2,0,L|464:266,1,118,10|0,0:0|1:0,0:0:0:0:
135,165,54802,1,0,0:0:0:0:
307,147,55026,2,0,L|310:21,1,118,0|10,0:0|0:0,0:0:0:0:
135,165,55474,1,0,0:0:0:0:
482,160,55698,5,0,1:0:0:0:
312,59,55922,2,0,L|452:59,1,118,0|10,0:0|0:0,0:0:0:0:
111,188,56370,2,0,L|378:192,1,236,0|0,1:0|0:0,0:0:0:0:
163,96,57041,2,0,L|40:91,1,118,10|8,0:0|0:0,0:0:0:0:
117,29,57377,1,8,0:0:0:0:
389,66,57489,6,0,P|464:88|385:180,1,236,2|0,1:2|0:0,0:0:0:0:
70,201,58161,6,0,L|63:171,2,29.5
256,192,58496,12,0,59728,0:0:0:0:
