osu file format v14

[General]
AudioFilename: audio.mp3
AudioLeadIn: 0
PreviewTime: 7296
Countdown: 0
SampleSet: Soft
StackLeniency: 0.7
Mode: 2
LetterboxInBreaks: 0
WidescreenStoryboard: 1

[Editor]
DistanceSpacing: 1
BeatDivisor: 8
GridSize: 4
TimelineZoom: 1.4

[Metadata]
Title:Clifford's Theme Song (TV Size)
TitleUnicode:Clifford's Theme Song (TV Size)
Artist:Jason Michael
ArtistUnicode:Jason Michael
Creator:Secre
Version:Cup
Source:Clifford the Big Red Dog
Tags:chickenbible blackbn blackbq Mutato Muzika Mark Mothersbaugh Josh Mancell PBS english cartoon op opening
BeatmapID:4161730
BeatmapSetID:1882550

[Difficulty]
HPDrainRate:1
CircleSize:0
OverallDifficulty:5.5
ApproachRate:5.5
SliderMultiplier:1.64
SliderTickRate:0.5

[Events]
//Background and Video events
0,0,"ame is emily elizabeth.jpg",0,0
Video,76,"fuwamoco.avi"
//Break Periods
//Storyboard Layer 0 (Background)
//Storyboard Layer 1 (Fail)
//Storyboard Layer 2 (Pass)
//Storyboard Layer 3 (Foreground)
//Storyboard Layer 4 (Overlay)
//Storyboard Sound Samples

[TimingPoints]
176,447.761194029851,4,2,2,50,1,0
7116,-100,4,2,3,50,0,0
7340,-100,4,2,2,60,0,0
14280,-100,4,2,3,60,0,0
14504,-100,4,2,2,60,0,0
21444,-100,4,2,3,60,0,0
21668,-100,4,2,2,60,0,0
28608,-100,4,2,3,60,0,0
28832,-100,4,2,2,60,0,0
35773,-100,4,2,3,60,0,0
35996,-100,4,2,2,60,0,0
42937,-100,4,2,3,60,0,0
43161,-100,4,2,2,60,0,0
50101,-100,4,2,3,60,0,0
50325,-100,4,2,2,60,0,0
57265,-100,4,2,3,60,0,0
57489,-100,4,2,2,60,0,0
58832,-100,4,2,2,30,0,0
59280,-100,4,2,2,15,0,0
59728,-100,4,2,2,5,0,0

[Colours]
Combo1 : 223,227,45
Combo2 : 220,63,67
Combo3 : 0,103,230
Combo4 : 20,205,44

[HitObjects]
371,185,176,6,0,L|109:176,1,246,0|0,1:0|1:0,0:0:0:0:
287,133,1295,2,0,L|288:32,1,82,0|10,0:0|0:0,0:0:0:0:
120,214,1967,6,0,P|68:191|131:51,1,246,0|0,1:0|1:0,0:0:0:0:
285,61,3086,2,0,L|389:58,1,82,0|10,0:0|0:0,0:0:0:0:
210,98,3758,6,0,P|136:91|79:256,1,246,0|0,1:0|1:0,0:0:0:0:
236,257,4877,2,0,L|238:168,1,82,0|10,0:0|0:0,0:0:0:0:
404,143,5549,6,0,L|158:136,1,246,0|0,1:0|1:0,0:0:0:0:
320,71,6668,2,0,L|420:70,1,82,0|10,0:0|0:0,0:0:0:0:
243,102,7340,6,0,L|61:96,1,164,0|10,0:0|0:0,0:0:0:0:
245,102,8235,2,0,L|418:100,1,164,0|10,0:0|0:0,0:0:0:0:
246,103,9131,6,0,L|244:217,1,82,0|0,1:0|0:0,0:0:0:0:
401,256,9802,1,0,1:0:0:0:
401,256,10474,1,10,0:0:0:0:
318,256,10698,1,0,0:0:0:0:
231,250,10922,6,0,L|234:60,1,164,0|10,1:0|0:0,0:0:0:0:
386,81,11817,2,0,L|479:79,1,82
306,169,12489,5,0,0:0:0:0:
71,93,14056,6,0,L|162:87,1,82,10|8,0:0|0:0,0:0:0:0:
239,92,14504,6,0,L|240:283,1,164,0|10,1:0|0:0,0:0:0:0:
81,303,15399,1,0,0:0:0:0:
165,295,15623,2,0,L|163:114,1,164
248,109,16295,6,0,L|331:107,1,82,0|0,1:0|0:0,0:0:0:0:
169,217,16967,1,0,1:0:0:0:
373,117,17638,2,0,L|373:219,1,82,10|0,0:0|0:0,0:0:0:0:
284,283,18086,5,0,1:0:0:0:
212,252,18309,1,0,0:0:0:0:
215,175,18533,1,10,0:0:0:0:
288,142,18757,1,0,1:0:0:0:
374,139,18981,2,0,L|464:139,1,82
283,104,19653,5,0,0:0:0:0:
133,170,21668,5,0,1:0:0:0:
214,164,21891,1,0,0:0:0:0:
296,159,22115,1,10,0:0:0:0:
214,164,22340,2,0,P|153:165|145:276,1,164,0|0,1:0|0:0,0:0:0:0:
211,277,23011,2,0,L|212:376,1,82,10|0,0:0|0:0,0:0:0:0:
130,367,23459,5,0,1:0:0:0:
281,221,23907,2,0,L|367:211,1,82,10|0,0:0|1:0,0:0:0:0:
158,117,24802,2,0,L|70:111,1,82,10|0,0:0|0:0,0:0:0:0:
158,117,25250,6,0,L|271:119,2,82,0|0|10,1:0|0:0|0:0,0:0:0:0:
71,242,25922,2,0,L|68:45,1,164,0|0,1:0|0:0,0:0:0:0:
308,119,27265,5,0,0:0:0:0:
226,113,27488,1,10,0:0:0:0:
144,108,27712,1,0,1:0:0:0:
226,113,27937,2,0,L|425:112,1,164,0|10,0:0|0:0,0:0:0:0:
237,233,28832,6,0,L|144:222,2,82,0|0|10,1:0|0:0|0:0,0:0:0:0:
326,242,29504,2,0,P|376:223|328:143,1,164,0|0,1:0|0:0,0:0:0:0:
191,110,30399,1,0,0:0:0:0:
274,108,30623,6,0,L|276:214,1,82,0|0,1:0|0:0,0:0:0:0:
191,110,31071,1,10,0:0:0:0:
111,202,31295,1,0,1:0:0:0:
376,128,32414,6,0,L|376:325,1,164,0|10,1:0|0:0,0:0:0:0:
218,294,33310,2,0,L|135:281,1,82
136,281,33981,1,0,0:0:0:0:
226,207,34205,6,0,L|226:106,1,82,0|0,1:0|0:0,0:0:0:0:
61,95,34877,2,0,L|233:88,1,164,0|0,1:0|0:0,0:0:0:0:
434,110,36444,5,10,0:0:0:0:
352,104,36667,1,0,1:0:0:0:
270,93,36892,1,0,0:0:0:0:
434,110,37340,1,10,0:0:0:0:
352,104,37564,1,0,0:0:0:0:
270,93,37787,6,0,L|270:209,1,82,0|0,1:0|0:0,0:0:0:0:
351,212,38235,1,10,0:0:0:0:
435,232,38459,1,0,1:0:0:0:
223,144,39131,2,0,L|131:136,1,82,10|0,0:0|0:0,0:0:0:0:
223,144,39578,6,0,L|403:143,1,164,0|10,1:0|0:0,0:0:0:0:
222,142,40474,2,0,L|54:139,1,164,0|10,0:0|0:0,0:0:0:0:
236,144,41370,6,0,P|286:156|232:230,1,164,0|10,1:0|0:0,0:0:0:0:
172,246,42041,1,0,1:0:0:0:
359,178,42937,1,8,0:0:0:0:
270,142,43161,6,0,L|266:51,1,82,0|0,1:0|0:0,0:0:0:0:
353,43,43608,2,0,L|355:142,1,82,10|0,0:0|1:0,0:0:0:0:
272,152,44056,2,0,L|171:151,1,82
272,152,44504,2,0,L|371:153,1,82,10|0,0:0|0:0,0:0:0:0:
272,152,44952,6,0,L|161:146,2,82,0|0|10,1:0|0:0|0:0,0:0:0:0:
358,162,45623,1,0,1:0:0:0:
110,172,46743,6,0,L|109:77,1,82,0|0,1:0|0:0,0:0:0:0:
201,52,47190,1,10,0:0:0:0:
375,122,47638,2,0,L|281:115,1,82
144,138,48310,1,0,0:0:0:0:
229,132,48534,6,0,L|232:226,1,82,0|0,1:0|0:0,0:0:0:0:
70,282,49205,1,0,1:0:0:0:
325,175,50325,5,0,1:0:0:0:
398,154,50548,1,0,0:0:0:0:
400,78,50772,1,10,0:0:0:0:
328,53,50996,1,0,1:0:0:0:
246,54,51220,1,0,0:0:0:0:
96,193,51668,2,0,L|187:179,1,82,10|0,0:0|0:0,0:0:0:0:
262,166,52116,5,0,1:0:0:0:
263,247,52339,1,0,0:0:0:0:
177,289,52564,1,10,0:0:0:0:
89,282,52787,1,0,1:0:0:0:
368,161,53907,6,0,L|197:152,1,164,0|10,1:0|0:0,0:0:0:0:
366,93,54802,2,0,L|459:89,1,82
447,89,55474,1,0,0:0:0:0:
360,105,55698,5,0,1:0:0:0:
278,100,55921,1,0,0:0:0:0:
458,122,56370,2,0,L|456:294,1,164,0|0,1:0|0:0,0:0:0:0:
375,329,57041,1,10,0:0:0:0:
190,211,57489,5,2,1:2:0:0:
294,163,58161,6,0,L|300:140,2,20.5
256,192,58608,12,0,59728,0:0:0:0:
