osu file format v14

[General]
AudioFilename: 30-war.mp3
AudioLeadIn: 0
PreviewTime: 693
Countdown: 0
SampleSet: None
StackLeniency: 0.7
Mode: 3
LetterboxInBreaks: 0
SpecialStyle: 0
WidescreenStoryboard: 0

[Editor]
DistanceSpacing: 1.2
BeatDivisor: 4
GridSize: 32
TimelineZoom: 1

[Metadata]
Title:War
TitleUnicode:War
Artist:Jason Hayes
ArtistUnicode:Jason Hayes
Creator:Feerum
Version:Easy
Source:World of Warcraft
Tags:Blizzard Entertainment Tracy W. Bush Derek Duke Glenn Stafford WoW OST Original Soundtrack 30
BeatmapID:1433502
BeatmapSetID:677891

[Difficulty]
HPDrainRate:6
CircleSize:4
OverallDifficulty:6
ApproachRate:5
SliderMultiplier:1.3999999666214
SliderTickRate:1

[Events]
//Background and Video events
0,0,"BG.jpg",0,0
//Break Periods
//Storyboard Layer 0 (Background)
//Storyboard Layer 1 (Fail)
//Storyboard Layer 2 (Pass)
//Storyboard Layer 3 (Foreground)
//Storyboard Sound Samples

[TimingPoints]
1150,406.779661016949,7,3,1,50,1,0
3794,406.779661016949,7,3,1,50,1,0
6438,406.779661016949,7,3,1,50,1,0
9082,406.779661016949,7,3,1,50,1,0
11726,406.779661016949,7,3,1,50,1,0
14370,406.779661016949,7,3,1,50,1,0
17014,406.779661016949,7,3,1,50,1,0
19658,406.779661016949,7,3,1,50,1,0
22302,406.779661016949,7,3,1,50,1,0
24946,406.779661016949,7,3,1,50,1,0
27590,406.779661016949,7,3,1,50,1,0
30234,406.779661016949,7,3,1,50,1,0
32878,406.779661016949,7,3,1,50,1,0
35522,406.779661016949,7,3,1,50,1,0
38166,406.779661016949,7,3,1,50,1,0
40810,406.779661016949,7,3,1,40,1,0
43454,406.779661016949,7,3,1,30,1,0
44674,-100,4,3,1,20,0,0
46098,406.779661016949,7,3,1,20,1,0

[HitObjects]
320,192,1150,5,4,1:0:0:0:
320,192,1353,1,0,0:0:0:0:
64,192,1556,1,0,0:0:0:0:
448,192,1963,1,0,0:0:0:0:
192,192,2370,1,4,3:0:0:0:
192,192,2573,1,0,0:0:0:0:
320,192,2777,1,0,0:0:0:0:
64,192,3183,1,0,0:0:0:0:
448,192,3590,1,0,0:0:0:0:
64,192,3794,1,4,3:0:0:0:
64,192,3997,1,0,0:0:0:0:
320,192,4200,1,0,0:0:0:0:
192,192,4607,1,0,0:0:0:0:
448,192,5014,1,4,3:0:0:0:
448,192,5217,1,0,0:0:0:0:
64,192,5421,1,0,0:0:0:0:
320,192,5827,1,0,0:0:0:0:
448,192,6234,1,0,0:0:0:0:
192,192,6438,1,4,3:0:0:0:
192,192,6641,1,0,0:0:0:0:
320,192,6844,1,0,0:0:0:0:
64,192,7251,1,0,0:0:0:0:
448,192,7658,1,4,3:0:0:0:
448,192,7861,1,0,0:0:0:0:
192,192,8065,1,0,0:0:0:0:
320,192,8471,1,0,0:0:0:0:
192,192,8878,1,0,0:0:0:0:
320,192,9082,1,4,3:0:0:0:
320,192,9285,1,0,0:0:0:0:
64,192,9488,1,0,0:0:0:0:
448,192,9895,1,0,0:0:0:0:
64,192,10302,1,4,3:0:0:0:
64,192,10505,1,0,0:0:0:0:
320,192,10709,1,0,0:0:0:0:
192,192,11115,1,0,0:0:0:0:
448,192,11522,1,0,0:0:0:0:
64,192,11726,1,4,3:0:0:0:
320,192,11929,1,0,0:0:0:0:
320,192,12336,1,0,0:0:0:0:
320,192,12742,1,0,0:0:0:0:
192,192,12946,1,4,3:0:0:0:
448,192,13149,1,0,0:0:0:0:
64,192,13556,1,0,0:0:0:0:
320,192,13963,1,0,0:0:0:0:
192,192,14166,1,0,0:0:0:0:
448,192,14573,1,0,0:0:0:0:
448,192,14980,1,0,0:0:0:0:
448,192,15386,1,0,0:0:0:0:
64,192,15590,1,4,3:0:0:0:
320,192,15793,1,0,0:0:0:0:
192,192,16200,1,0,0:0:0:0:
448,192,16607,1,0,0:0:0:0:
64,192,16810,1,0,0:0:0:0:
192,192,17217,1,0,0:0:0:0:
192,192,17624,1,0,0:0:0:0:
192,192,18030,1,0,0:0:0:0:
320,192,18234,1,4,3:0:0:0:
64,192,18437,1,0,0:0:0:0:
448,192,18844,1,0,0:0:0:0:
192,192,19251,1,0,0:0:0:0:
320,192,19454,1,0,0:0:0:0:
64,192,19861,1,0,0:0:0:0:
64,192,20268,1,0,0:0:0:0:
64,192,20674,1,0,0:0:0:0:
448,192,20878,1,4,3:0:0:0:
192,192,21081,1,0,0:0:0:0:
320,192,21488,1,0,0:0:0:0:
448,192,21895,1,0,0:0:0:0:
64,192,22098,1,0,0:0:0:0:
320,192,22302,1,4,1:0:0:0:
192,192,22505,1,0,0:0:0:0:
448,192,22708,1,0,0:0:0:0:
320,192,22912,1,0,0:0:0:0:
64,192,23115,1,0,0:0:0:0:
192,192,23522,1,4,3:0:0:0:
448,192,23725,1,0,0:0:0:0:
64,192,23929,1,0,0:0:0:0:
320,192,24132,1,0,0:0:0:0:
192,192,24335,1,0,0:0:0:0:
448,192,24539,1,0,0:0:0:0:
64,192,24946,1,4,3:0:0:0:
448,192,25149,1,0,0:0:0:0:
192,192,25352,1,0,0:0:0:0:
320,192,25556,1,0,0:0:0:0:
64,192,25759,1,0,0:0:0:0:
192,192,26166,1,4,3:0:0:0:
448,192,26369,1,0,0:0:0:0:
320,192,26573,1,0,0:0:0:0:
64,192,26776,1,0,0:0:0:0:
192,192,26979,1,0,0:0:0:0:
320,192,27183,1,0,0:0:0:0:
192,192,27590,1,4,3:0:0:0:
64,192,27793,1,0,0:0:0:0:
448,192,27996,1,0,0:0:0:0:
320,192,28200,1,0,0:0:0:0:
192,192,28403,1,0,0:0:0:0:
448,192,28810,1,4,3:0:0:0:
320,192,29013,1,0,0:0:0:0:
64,192,29217,1,0,0:0:0:0:
192,192,29420,1,0,0:0:0:0:
448,192,29623,1,0,0:0:0:0:
64,192,29827,1,0,0:0:0:0:
320,192,30234,1,4,3:0:0:0:
192,192,30437,1,0,0:0:0:0:
448,192,30640,1,0,0:0:0:0:
64,192,30844,1,0,0:0:0:0:
320,192,31047,1,0,0:0:0:0:
192,192,31454,1,4,3:0:0:0:
448,192,31657,1,0,0:0:0:0:
320,192,31861,1,0,0:0:0:0:
192,192,32064,1,0,0:0:0:0:
448,192,32267,1,0,0:0:0:0:
64,192,32471,1,0,0:0:0:0:
320,192,32878,1,4,3:0:0:0:
192,192,33081,1,0,0:0:0:0:
448,192,33284,1,0,0:0:0:0:
320,192,33488,1,0,0:0:0:0:
192,192,33691,1,0,0:0:0:0:
64,192,34098,1,4,3:0:0:0:
448,192,34301,1,0,0:0:0:0:
192,192,34505,1,0,0:0:0:0:
320,192,34708,1,0,0:0:0:0:
192,192,34911,1,0,0:0:0:0:
320,192,35115,1,0,0:0:0:0:
448,192,35522,1,4,3:0:0:0:
64,192,35725,1,0,0:0:0:0:
320,192,35928,1,0,0:0:0:0:
192,192,36132,1,0,0:0:0:0:
448,192,36335,1,0,0:0:0:0:
64,192,36742,1,4,3:0:0:0:
448,192,36945,1,0,0:0:0:0:
320,192,37149,1,0,0:0:0:0:
192,192,37352,1,0,0:0:0:0:
448,192,37555,1,0,0:0:0:0:
64,192,37759,1,0,0:0:0:0:
192,192,37962,1,0,0:0:0:0:
320,192,38166,1,4,1:0:0:0:
320,192,38369,1,0,0:0:0:0:
64,192,38572,1,0,0:0:0:0:
448,192,38979,1,0,0:0:0:0:
192,192,39386,1,4,3:0:0:0:
192,192,39589,1,0,0:0:0:0:
320,192,39793,1,0,0:0:0:0:
64,192,40199,1,0,0:0:0:0:
448,192,40606,1,0,0:0:0:0:
64,192,40810,1,4,3:0:0:0:
64,192,41013,1,0,0:0:0:0:
320,192,41216,1,0,0:0:0:0:
192,192,41623,1,0,0:0:0:0:
448,192,42030,1,4,3:0:0:0:
448,192,42233,1,0,0:0:0:0:
64,192,42437,1,0,0:0:0:0:
320,192,42843,1,0,0:0:0:0:
192,192,43250,1,0,0:0:0:0:
320,192,43454,1,4,3:0:0:0:
320,192,43657,1,0,0:0:0:0:
64,192,43860,1,0,0:0:0:0:
448,192,44267,1,0,0:0:0:0:
192,192,44674,1,4,3:0:0:0:
192,192,44877,1,0,0:0:0:0:
320,192,45081,1,0,0:0:0:0:
64,192,45487,1,0,0:0:0:0:
448,192,45691,1,0,0:0:0:0:
192,192,45894,1,0,0:0:0:0:
320,192,46098,1,4,3:0:0:0:
