osu file format v14

[General]
AudioFilename: audio.mp3
AudioLeadIn: 0
PreviewTime: 3311
Countdown: 0
SampleSet: Drum
StackLeniency: 0.7
Mode: 2
LetterboxInBreaks: 0
WidescreenStoryboard: 1

[Editor]
DistanceSpacing: 0.1
BeatDivisor: 4
GridSize: 4
TimelineZoom: 1

[Metadata]
Title:Song of Elune (Cut Ver.)
TitleUnicode:Song of Elune (Cut Ver.)
Artist:Jason Hayes
ArtistUnicode:Jason Hayes
Creator:Jakkubon
Version:Platter
Source:World of Warcraft
Tags:wow blizzard entertainment seed wild wood teldrassil night elf elves video game vg instrumental soundtrack ost dariano darnassus kaldorei druid enchanted forest
BeatmapID:3320945
BeatmapSetID:1605666

[Difficulty]
HPDrainRate:4
CircleSize:3.5
OverallDifficulty:7
ApproachRate:7
SliderMultiplier:1.6
SliderTickRate:2

[Events]
//Background and Video events
0,0,"yerba disa.jpg",0,0
//Break Periods
//Storyboard Layer 0 (Background)
//Storyboard Layer 1 (Fail)
//Storyboard Layer 2 (Pass)
//Storyboard Layer 3 (Foreground)
//Storyboard Layer 4 (Overlay)
//Storyboard Sound Samples

[TimingPoints]
3311,400,4,3,1,30,1,0
40111,-100,4,3,1,25,0,0
40911,-100,4,3,1,20,0,0
41711,-100,4,3,1,15,0,0
42511,-100,4,3,1,10,0,0

[Colours]
Combo1 : 57,213,213
Combo2 : 43,172,82
Combo3 : 190,126,39

[HitObjects]
284,185,3311,6,0,L|391:187,2,80,10|2|2,0:3|0:0|0:0,0:0:0:0:
123,182,4111,2,0,L|32:180,2,80,2|2|2,0:0|0:0|0:0,0:0:0:0:
403,190,4911,6,0,L|401:82,1,80,10|2,0:0|0:0,0:0:0:0:
217,104,5311,2,0,L|100:105,1,80,2|2,0:0|0:0,0:0:0:0:
322,103,5711,1,2,0:0:0:0:
402,103,5911,1,2,0:0:0:0:
402,103,6111,1,2,0:0:0:0:
322,103,6311,1,2,0:0:0:0:
61,128,6511,6,0,L|63:227,1,80,10|2,0:0|0:0,0:0:0:0:
143,211,6911,1,2,0:0:0:0:
423,215,7311,2,0,L|424:100,1,80,2|2,0:0|0:0,0:0:0:0:
344,132,7711,1,2,0:0:0:0:
64,144,8111,6,0,L|181:145,1,80,10|2,0:0|0:0,0:0:0:0:
329,141,8511,2,0,L|332:234,1,80,2|2,0:0|0:0,0:0:0:0:
147,215,8911,1,2,0:0:0:0:
67,218,9111,1,2,0:0:0:0:
67,218,9311,1,2,0:0:0:0:
147,215,9511,1,2,0:0:0:0:
408,239,9711,6,0,L|495:239,2,80,10|2|2,0:0|0:0|0:0,0:0:0:0:
128,236,10511,2,0,L|26:234,2,80,2|2|2,0:0|0:0|0:0,0:0:0:0:
408,232,11311,6,0,L|405:131,1,80,10|2,0:0|0:0,0:0:0:0:
221,135,11711,2,0,L|119:136,1,80,2|2,0:0|0:0,0:0:0:0:
325,129,12111,1,2,0:0:0:0:
405,127,12311,1,2,0:0:0:0:
405,127,12511,1,2,0:0:0:0:
325,129,12711,1,2,0:0:0:0:
64,118,12911,6,0,L|65:202,1,80,10|2,0:0|0:0,0:0:0:0:
144,115,13311,1,2,0:0:0:0:
424,115,13711,2,0,L|424:204,1,80,2|2,0:0|0:0,0:0:0:0:
344,114,14111,1,2,0:0:0:0:
64,128,14511,6,0,L|66:216,1,80,10|2,0:0|0:0,0:0:0:0:
251,197,14911,2,0,L|368:196,1,80,2|2,0:0|0:0,0:0:0:0:
146,192,15311,1,2,0:0:0:0:
66,194,15511,1,2,0:0:0:0:
66,194,15711,1,2,0:0:0:0:
146,192,15911,1,2,0:0:0:0:
407,203,16111,5,8,0:0:0:0:
407,203,16311,1,2,0:0:0:0:
327,199,16511,1,2,0:0:0:0:
407,203,16711,1,2,0:0:0:0:
223,201,16911,1,0,0:0:0:0:
223,201,17111,1,2,0:0:0:0:
302,199,17311,1,2,0:0:0:0:
223,201,17511,1,2,0:0:0:0:
407,214,17711,6,0,P|457:164|373:126,1,160,10|2,0:0|0:0,0:0:0:0:
323,130,18311,1,2,0:0:0:0:
139,108,18511,2,0,B|59:124|59:124|21:191|65:252|149:236|145:201,1,240,2|0,0:0|0:0,0:0:0:0:
386,127,19311,5,10,0:0:0:0:
386,127,19511,1,2,0:0:0:0:
303,123,19711,1,2,0:0:0:0:
386,127,19911,1,2,0:0:0:0:
202,128,20111,1,2,0:0:0:0:
202,128,20311,1,2,0:0:0:0:
283,128,20511,1,2,0:0:0:0:
202,128,20711,1,2,0:0:0:0:
386,117,20911,6,0,P|444:147|385:210,1,160,8|2,0:0|0:0,0:0:0:0:
323,197,21511,1,2,0:0:0:0:
139,193,21711,1,2,0:0:0:0:
59,193,21911,1,2,0:0:0:0:
59,193,22111,1,2,0:0:0:0:
139,193,22311,1,2,0:0:0:0:
400,194,22511,6,0,L|487:193,2,80,10|2|2,0:3|0:0|0:0,0:0:0:0:
120,167,23311,2,0,L|31:165,2,80,2|2|2,0:0|0:0|0:0,0:0:0:0:
400,165,24111,6,0,L|396:76,1,80,10|2,0:0|0:0,0:0:0:0:
212,80,24511,2,0,L|116:83,1,80,2|2,0:0|0:0,0:0:0:0:
317,78,24911,1,2,0:0:0:0:
397,79,25111,1,2,0:0:0:0:
397,79,25311,1,2,0:0:0:0:
317,78,25511,1,2,0:0:0:0:
56,76,25711,6,0,L|56:165,1,80,10|2,0:0|0:0,0:0:0:0:
136,150,26111,1,2,0:0:0:0:
416,158,26511,2,0,L|416:65,1,80,2|2,0:0|0:0,0:0:0:0:
336,77,26911,1,2,0:0:0:0:
56,157,27311,6,0,L|167:157,1,80,10|2,0:0|0:0,0:0:0:0:
320,158,27711,2,0,L|320:40,1,80,2|2,0:0|0:0,0:0:0:0:
136,81,28111,1,2,0:0:0:0:
56,80,28311,1,2,0:0:0:0:
56,80,28511,1,2,0:0:0:0:
136,81,28711,1,2,0:0:0:0:
398,159,28911,6,0,L|400:78,1,80,10|2,0:0|0:0,0:0:0:0:
215,160,29311,2,0,L|215:77,1,80,2|0,0:0|0:0,0:0:0:0:
398,159,29711,1,2,0:0:0:0:
478,162,29911,1,2,0:0:0:0:
478,162,30111,1,2,0:0:0:0:
398,159,30311,1,2,0:0:0:0:
134,170,30511,6,0,L|132:89,1,80,10|2,0:0|0:0,0:0:0:0:
316,166,30911,2,0,L|316:76,1,80,2|0,0:0|0:0,0:0:0:0:
131,162,31311,1,2,0:0:0:0:
51,165,31511,1,2,0:0:0:0:
51,165,31711,1,2,0:0:0:0:
131,162,31911,1,2,0:0:0:0:
392,107,32111,6,0,L|487:108,1,80,10|2,0:0|0:0,0:0:0:0:
288,105,32511,2,0,L|193:106,1,80,2|0,0:0|0:0,0:0:0:0:
392,95,32911,1,2,0:0:0:0:
392,95,33111,1,2,0:0:0:0:
312,92,33311,1,2,0:0:0:0:
392,95,33511,1,2,0:0:0:0:
128,107,33711,6,0,L|240:108,1,80,10|2,0:0|0:0,0:0:0:0:
392,114,34111,2,0,L|283:114,1,80,2|0,0:0|0:0,0:0:0:0:
128,117,34511,1,2,0:0:0:0:
128,117,34711,1,2,0:0:0:0:
208,112,34911,1,2,0:0:0:0:
128,117,35111,1,2,0:0:0:0:
389,126,35311,6,0,L|491:127,2,80,10|2|2,0:3|0:0|0:0,0:0:0:0:
109,164,36111,2,0,L|109:76,1,80,2|2,0:0|0:0,0:0:0:0:
189,84,36511,1,2,0:0:0:0:
469,173,36911,6,0,L|355:175,1,80,10|2,0:0|0:0,0:0:0:0:
205,180,37311,2,0,L|203:66,1,80,2|2,0:0|0:0,0:0:0:0:
388,95,37711,1,2,0:0:0:0:
468,94,37911,1,2,0:0:0:0:
468,94,38111,1,2,0:0:0:0:
388,95,38311,1,2,0:0:0:0:
127,102,38511,6,0,L|129:198,1,80,10|2,0:0|0:0,0:0:0:0:
209,174,38911,1,2,0:0:0:0:
489,179,39311,2,0,L|486:89,1,80,2|2,0:0|0:0,0:0:0:0:
302,99,39711,2,0,L|199:100,1,80,2|2,0:0|0:0,0:0:0:0:
483,112,40111,5,8,0:0:0:0:
256,192,40311,12,0,43311,0:0:0:0:
