osu file format v14

[General]
AudioFilename: audio.mp3
AudioLeadIn: 0
PreviewTime: 3311
Countdown: 0
SampleSet: Drum
StackLeniency: 0.7
Mode: 2
LetterboxInBreaks: 0
WidescreenStoryboard: 1

[Editor]
DistanceSpacing: 0.1
BeatDivisor: 4
GridSize: 16
TimelineZoom: 1

[Metadata]
Title:Song of Elune (Cut Ver.)
TitleUnicode:Song of Elune (Cut Ver.)
Artist:Jason Hayes
ArtistUnicode:Jason Hayes
Creator:Jakkubon
Version:Cup
Source:World of Warcraft
Tags:wow blizzard entertainment seed wild wood teldrassil night elf elves video game vg instrumental soundtrack ost dariano darnassus kaldorei druid enchanted forest
BeatmapID:3278748
BeatmapSetID:1605666

[Difficulty]
HPDrainRate:2
CircleSize:2.5
OverallDifficulty:5
ApproachRate:5
SliderMultiplier:1.4
SliderTickRate:1

[Events]
//Background and Video events
0,0,"yerba disa.jpg",0,0
//Break Periods
//Storyboard Layer 0 (Background)
//Storyboard Layer 1 (Fail)
//Storyboard Layer 2 (Pass)
//Storyboard Layer 3 (Foreground)
//Storyboard Layer 4 (Overlay)
//Storyboard Sound Samples

[TimingPoints]
3311,400,4,3,1,30,1,0
40111,-100,4,3,1,25,0,0
40911,-100,4,3,1,20,0,0
41711,-100,4,3,1,15,0,0
42511,-100,4,3,1,10,0,0

[Colours]
Combo1 : 57,213,213
Combo2 : 43,172,82
Combo3 : 190,126,39

[HitObjects]
342,134,3311,6,0,L|346:287,1,140,10|2,0:3|0:0,0:0:0:0:
240,273,4111,2,0,L|67:273,1,140,2|2,0:0|0:0,0:0:0:0:
240,196,4911,5,10,0:0:0:0:
345,187,5311,2,0,L|345:98,1,70,2|2,0:0|0:0,0:0:0:0:
275,119,5711,2,0,L|121:123,1,140,2|2,0:0|0:0,0:0:0:0:
275,157,6511,6,0,L|277:311,1,140,10|2,0:0|0:0,0:0:0:0:
170,285,7311,2,0,L|30:284,1,140,2|2,0:0|0:0,0:0:0:0:
172,222,8111,5,10,0:0:0:0:
303,241,8511,2,0,L|220:242,1,70,2|2,0:0|0:0,0:0:0:0:
163,242,8911,2,0,L|164:98,1,140,2|2,0:0|0:0,0:0:0:0:
295,70,9711,6,0,L|135:73,1,140,10|2,0:0|0:0,0:0:0:0:
260,72,10511,2,0,L|414:72,1,140,2|2,0:0|0:0,0:0:0:0:
260,89,11311,5,10,0:0:0:0:
155,132,11711,2,0,L|154:46,1,70,2|2,0:0|0:0,0:0:0:0:
224,81,12111,2,0,L|392:81,1,140,2|2,0:0|0:0,0:0:0:0:
224,71,12911,6,0,L|222:222,1,140,10|2,0:0|0:0,0:0:0:0:
327,196,13711,2,0,L|483:197,1,140,2|2,0:0|0:0,0:0:0:0:
326,209,14511,5,10,0:0:0:0:
221,210,14911,2,0,L|219:131,1,70,2|2,0:0|0:0,0:0:0:0:
290,145,15311,2,0,L|455:143,1,140,2|2,0:0|0:0,0:0:0:0:
290,184,16111,6,0,L|289:38,1,140,8|2,0:0|0:0,0:0:0:0:
394,48,16911,2,0,L|397:212,1,140,0|2,0:0|0:0,0:0:0:0:
256,168,17711,5,10,0:0:0:0:
99,156,18311,1,2,0:0:0:0:
170,158,18511,2,0,P|250:172|218:68,1,210,2|0,0:0|0:0,0:0:0:0:
170,129,19311,6,0,L|168:281,1,140,10|2,0:0|0:0,0:0:0:0:
273,194,20111,2,0,L|271:41,1,140,2|2,0:0|0:0,0:0:0:0:
131,64,20911,5,8,0:0:0:0:
236,63,21311,2,0,L|333:61,1,70,2|2,0:0|0:0,0:0:0:0:
377,64,21711,2,0,P|420:76|362:119,1,140,2|2,0:0|0:0,0:0:0:0:
238,148,22511,6,0,L|87:148,1,140,10|2,0:3|0:0,0:0:0:0:
203,93,23311,2,0,L|347:94,1,140,2|2,0:0|0:0,0:0:0:0:
483,94,24111,5,10,0:0:0:0:
378,89,24511,2,0,L|288:89,1,70,2|2,0:0|0:0,0:0:0:0:
238,84,24911,2,0,P|227:145|238:230,1,140,2|2,0:0|0:0,0:0:0:0:
375,157,25711,6,0,L|378:307,1,140,10|2,0:0|0:0,0:0:0:0:
273,265,26511,2,0,L|118:266,1,140,2|2,0:0|0:0,0:0:0:0:
273,265,27311,5,10,0:0:0:0:
378,261,27711,2,0,L|379:179,1,70,2|2,0:0|0:0,0:0:0:0:
309,193,28111,2,0,L|160:192,1,140,2|2,0:0|0:0,0:0:0:0:
309,173,28911,6,0,P|352:152|303:103,1,140,10|2,0:0|0:0,0:0:0:0:
199,121,29711,2,0,L|201:268,1,140,2|2,0:0|0:0,0:0:0:0:
341,238,30511,6,0,P|382:219|327:159,1,140,10|2,0:0|0:0,0:0:0:0:
239,192,31311,2,0,L|238:38,1,140,2|2,0:0|0:0,0:0:0:0:
380,73,32111,6,0,L|241:71,1,140,10|2,0:0|0:0,0:0:0:0:
135,71,32911,2,0,L|131:219,1,140,2|2,0:0|0:0,0:0:0:0:
271,214,33711,6,0,L|441:214,1,140,10|2,0:0|0:0,0:0:0:0:
306,198,34511,2,0,L|305:56,1,140,2|2,0:0|0:0,0:0:0:0:
164,66,35311,6,0,L|20:65,1,140,10|2,0:3|0:0,0:0:0:0:
164,66,36111,2,0,L|162:210,1,140,2|2,0:0|0:0,0:0:0:0:
302,200,36911,5,10,0:0:0:0:
197,200,37311,2,0,L|128:202,1,70,2|2,0:0|0:0,0:0:0:0:
57,99,37711,2,0,P|14:126|69:191,1,140,2|2,0:0|0:0,0:0:0:0:
189,109,38511,6,0,L|329:108,1,140,10|2,0:0|0:0,0:0:0:0:
224,54,39311,2,0,L|85:56,1,140,2|2,0:0|0:0,0:0:0:0:
154,154,39911,1,2,0:0:0:0:
224,152,40111,5,8,0:0:0:0:
256,192,40511,12,0,43311,0:0:0:0:
