osu file format v14

[General]
AudioFilename: audio.mp3
AudioLeadIn: 0
PreviewTime: 3340
Countdown: 0
SampleSet: Normal
StackLeniency: 0.3
Mode: 0
LetterboxInBreaks: 0
WidescreenStoryboard: 1

[Editor]
Bookmarks: 3340,38540,40140
DistanceSpacing: 1.1
BeatDivisor: 4
GridSize: 32
TimelineZoom: 1

[Metadata]
Title:Enchanted Forest
TitleUnicode:Enchanted Forest
Artist:Jason Hayes
ArtistUnicode:Jason Hayes
Creator:cheapvodka
Version:Enchanments
Source:World of Warcraft
Tags:
BeatmapID:1570889
BeatmapSetID:486210

[Difficulty]
HPDrainRate:5.5
CircleSize:3.8
OverallDifficulty:8
ApproachRate:4
SliderMultiplier:1.6
SliderTickRate:1

[Events]
//Background and Video events
0,0,"enchanted_forest.jpg",0,0
//Break Periods
//Storyboard Layer 0 (Background)
//Storyboard Layer 1 (Fail)
//Storyboard Layer 2 (Pass)
//Storyboard Layer 3 (Foreground)
//Storyboard Sound Samples

[TimingPoints]
140,400,4,1,1,15,1,0
38540,-100,4,1,1,30,0,1
40140,-100,4,1,1,15,0,0

[HitObjects]
257,200,3340,6,0,P|253:243|266:288,1,80
202,127,3740,2,0,P|177:162|165:207,1,80
313,127,4140,2,0,P|337:162|349:207,1,80
323,37,4540,2,0,P|362:55|394:88,1,80
313,127,4940,5,0,0:0:0:0:
470,110,5140,1,0,0:0:0:0:
405,256,5340,1,0,0:0:0:0:
479,96,5540,1,0,0:0:0:0:
480,209,5740,2,0,P|493:254|476:310,1,80
405,256,6140,2,0,P|393:301|351:341,1,80
220,326,6540,5,0,0:0:0:0:
295,179,6740,1,0,0:0:0:0:
202,224,6940,2,0,P|157:237|101:220,1,80
155,150,7340,2,0,P|200:138|240:96,1,80
123,75,7740,2,0,P|88:106|72:162,1,80
207,17,8140,5,0,0:0:0:0:
29,30,8340,1,0,0:0:0:0:
154,149,8540,1,0,0:0:0:0:
16,22,8740,1,0,0:0:0:0:
80,171,8940,2,0,P|147:155|170:130,1,80
217,205,9340,2,0,P|236:138|226:106,1,80
138,255,9740,5,0,0:0:0:0:
314,204,9940,1,0,0:0:0:0:
255,369,10140,2,0,P|229:336|224:294,1,80
382,297,10540,2,0,P|340:290|301:307,1,80
435,365,10940,2,0,P|461:332|466:290,1,80
439,136,11340,5,0,0:0:0:0:
382,297,11540,1,0,0:0:0:0:
264,176,11740,1,0,0:0:0:0:
372,308,11940,1,0,0:0:0:0:
367,194,12140,2,0,P|347:150|352:108,1,80
512,157,12540,2,0,P|463:152|430:126,1,80
502,64,12940,5,0,0:0:0:0:
348,119,13140,1,0,0:0:0:0:
219,19,13340,1,0,0:0:0:0:
219,19,13740,6,0,P|170:2|134:8,1,80
192,157,14140,2,0,P|182:106|159:77,1,80
137,258,14540,5,0,0:0:0:0:
294,206,14740,1,0,0:0:0:0:
23,157,14940,1,0,0:0:0:0:
146,266,15140,1,0,0:0:0:0:
294,206,15340,5,0,0:0:0:0:
346,363,15540,1,0,0:0:0:0:
454,235,15740,1,0,0:0:0:0:
329,370,15940,1,0,0:0:0:0:
378,214,16140,6,0,P|427:220|464:243,1,80
343,141,16540,2,0,P|388:121|431:123,1,80
267,173,16940,2,0,P|265:123|282:83,2,80
300,250,17540,1,0,0:0:0:0:
182,201,17740,6,0,P|169:257|177:290,1,80
55,338,18140,2,0,P|104:336|137:355,1,80
82,239,18540,2,0,P|27:255|2:279,1,80
14,172,18940,2,0,P|12:122|32:90,1,80
168,71,19340,5,0,0:0:0:0:
105,147,19540,1,0,0:0:0:0:
183,59,19740,2,0,P|242:51|278:65,1,80
371,95,20140,2,0,P|315:117|291:147,1,80
186,200,20540,2,0,P|208:144|238:120,1,80
232,279,20940,5,0,0:0:0:0:
326,247,21140,1,0,0:0:0:0:
217,290,21340,2,0,P|162:292|124:274,1,80
123,153,21740,2,0,P|162:190|203:201,1,80
34,300,22140,2,0,P|49:247|79:217,1,80
230,364,22540,5,0,0:0:0:0:
396,307,22740,1,0,0:0:0:0:
267,188,22940,1,0,0:0:0:0:
414,315,23140,1,0,0:0:0:0:
365,204,23340,2,0,P|374:151|408:121,1,80
503,250,23740,2,0,P|461:215|452:171,1,80
497,59,24140,5,0,0:0:0:0:
365,204,24340,1,0,0:0:0:0:
301,31,24540,1,0,0:0:0:0:
371,220,24740,1,0,0:0:0:0:
214,150,24940,2,0,P|261:136|295:142,1,80
127,152,25340,2,0,P|138:104|160:77,1,80
301,31,25740,5,0,0:0:0:0:
263,231,25940,1,0,0:0:0:0:
63,268,26140,1,0,0:0:0:0:
63,268,26540,6,0,P|28:316|24:351,1,80
174,361,26940,2,0,P|167:301|181:269,1,80
386,308,27340,5,0,0:0:0:0:
263,231,27540,1,0,0:0:0:0:
502,248,27740,1,0,0:0:0:0:
373,316,27940,1,0,0:0:0:0:
293,112,28140,5,0,0:0:0:0:
373,316,28340,1,0,0:0:0:0:
510,142,28540,1,0,0:0:0:0:
365,329,28740,1,0,0:0:0:0:
