osu file format v14

[General]
AudioFilename: audio.mp3
AudioLeadIn: 0
PreviewTime: 27291
Countdown: 0
SampleSet: Soft
StackLeniency: 0.3
Mode: 0
LetterboxInBreaks: 0
EpilepsyWarning: 1
WidescreenStoryboard: 1

[Editor]
Bookmarks: 15324,15406,52537,53193,55816,55980,56062,64340,74832,89258,89914,90898
DistanceSpacing: 1
BeatDivisor: 4
GridSize: 16
TimelineZoom: 1.499999

[Metadata]
Title:Acapulco (Sped Up Ver.)
TitleUnicode:Acapulco (Sped Up Ver.)
Artist:Jason Derulo
ArtistUnicode:Jason Derulo
Creator:AJT
Version:hhjkl's Rave!!
Source:
Tags:english dance electronic nightcore beach pop apo11o apollo mrowswares hhjkl wetdog123 ziin tachibana_ euryalle sheesh
BeatmapID:3606351
BeatmapSetID:1699922

[Difficulty]
HPDrainRate:5
CircleSize:4
OverallDifficulty:9.2
ApproachRate:9.2
SliderMultiplier:2
SliderTickRate:1

[Events]
//Background and Video events
0,0,"bg.jpg",0,0
//Break Periods
//Storyboard Layer 0 (Background)
//Storyboard Layer 1 (Fail)
//Storyboard Layer 2 (Pass)
//Storyboard Layer 3 (Foreground)
Sprite,Foreground,Centre,"sb\DiffByhhjkl.png",320,240 F,0,43357,43685,0,1 S,0,43357,44914,0.5927274 F,0,43685,44668,1 F,0,44668,44914,1,0.9977117 M,0,44914,,320,240 F,0,44914,44996,0.9977117,0 S,0,44914,44996,0.5927274,1.180364 F,0,44996,,0
//Storyboard Layer 4 (Overlay)
//Storyboard Sound Samples

[TimingPoints]
1390,327.868852459016,4,2,1,50,1,0
1390,-125,4,2,1,50,0,0
11881,-83.3333333333333,4,2,1,50,0,0
21389,-142.857142857143,4,2,1,50,0,0
22209,-66.6666666666667,4,2,1,50,0,0
22537,-166.666666666667,4,2,1,50,0,0
27455,-66.6666666666667,4,2,1,50,0,0
32209,-200,4,2,1,50,0,0
32455,-200,4,2,1,5,0,0
32537,-200,4,2,1,50,0,0
32865,-66.6666666666667,4,2,1,60,0,1
42701,-100,4,2,1,60,0,1
43357,-83.3333333333333,4,2,1,60,0,0
53274,-83.3333333333333,4,2,1,5,0,0
53356,-83.3333333333333,4,2,1,60,0,0
53602,-83.3333333333333,4,2,1,5,0,0
53684,-83.3333333333333,4,2,1,50,0,0
53849,-76.9230769230769,4,2,1,50,0,0
56471,-200,4,2,1,50,0,0
57291,-55.5555555555556,4,2,1,50,0,0
57783,-76.9230769230769,4,2,1,50,0,0
59750,-200,4,2,1,50,0,0
60406,-76.9230769230769,4,2,1,50,0,0
63357,-142.857142857143,4,2,1,50,0,0
64176,-66.6666666666667,4,2,1,50,0,0
64504,-166.666666666667,4,2,1,50,0,0
69422,-66.6666666666667,4,2,1,50,0,0
70734,-100,4,2,1,50,0,0
74176,-200,4,2,1,50,0,0
74422,-200,4,2,1,5,0,0
74504,-200,4,2,1,50,0,0
74832,-66.6666666666667,4,2,1,60,0,1
84012,-200,4,2,1,60,0,1
85160,-66.6666666666667,4,2,1,50,0,0
89258,-250,4,2,1,50,0,0

[Colours]
Combo1 : 124,202,231
Combo2 : 218,103,106
Combo3 : 51,174,221
Combo4 : 225,221,40

[HitObjects]
420,342,1390,6,0,L|317:328,1,80,6|0,0:3|0:0,0:0:0:0:
293,275,1635,2,0,L|213:293,1,80
151,339,1881,1,0,0:0:0:0:
151,339,1963,1,0,0:0:0:0:
151,339,2044,1,2,0:0:0:0:
228,372,2209,1,0,0:0:0:0:
117,219,2373,1,2,0:0:0:0:
50,260,2537,1,0,0:0:0:0:
233,185,2701,6,0,L|253:75,1,80,2|0,0:3|0:0,0:0:0:0:
299,51,2947,2,0,L|414:33,1,80
437,100,3193,1,0,0:0:0:0:
437,100,3275,1,0,0:0:0:0:
437,100,3357,1,2,0:0:0:0:
378,155,3521,1,0,0:0:0:0:
135,90,3685,1,2,0:0:0:0:
116,19,3849,1,0,0:0:0:0:
283,0,4012,6,0,L|267:108,1,80,2|0,0:3|0:0,0:0:0:0:
224,141,4258,2,0,L|248:251,1,80
302,286,4504,1,0,0:0:0:0:
302,286,4586,1,0,0:0:0:0:
302,286,4668,1,2,0:0:0:0:
375,311,4832,1,0,0:0:0:0:
341,172,4996,1,2,0:0:0:0:
124,271,5160,1,0,0:0:0:0:
245,375,5324,5,2,0:3:0:0:
245,375,5980,2,0,P|278:348|265:269,1,120,2|0,0:0|0:0,0:0:0:0:
199,257,6308,2,0,P|166:284|179:363,1,120,2|0,0:0|0:0,0:0:0:0:
259,201,6635,5,4,1:0:0:0:
367,304,6799,1,0,0:0:0:0:
398,296,6881,1,2,0:0:0:0:
430,143,7045,1,0,0:0:0:0:
406,164,7127,1,0,0:0:0:0:
383,186,7209,1,0,0:0:0:0:
360,208,7291,1,2,0:0:0:0:
477,252,7455,1,0,0:0:0:0:
426,63,7619,1,2,0:0:0:0:
250,105,7783,2,0,L|256:130,2,20,0|0|0,3:0|0:0|0:0,0:0:0:0:
276,33,7947,5,2,0:0:0:0:
139,98,8111,1,0,0:0:0:0:
107,91,8193,1,0,0:0:0:0:
211,221,8357,1,0,0:0:0:0:
203,252,8439,1,0,0:0:0:0:
195,283,8521,1,0,0:0:0:0:
187,314,8603,1,2,0:0:0:0:
90,351,8767,1,0,0:0:0:0:
246,384,8930,1,2,0:0:0:0:
100,235,9094,2,0,L|73:261,2,20,0|0|0,3:0|0:0|0:0,0:0:0:0:
47,177,9258,5,2,0:0:0:0:
125,63,9422,1,0,0:0:0:0:
111,34,9504,1,0,0:0:0:0:
228,130,9668,1,0,0:0:0:0:
254,147,9750,1,0,0:0:0:0:
280,164,9832,1,0,0:0:0:0:
306,181,9914,1,2,0:0:0:0:
355,250,10078,1,2,0:0:0:0:
259,292,10242,1,2,0:0:0:0:
303,3,10406,1,0,0:0:0:0:
512,184,10570,5,2,0:0:0:0:
512,184,10898,1,2,0:0:0:0:
512,184,11226,1,2,0:0:0:0:
487,214,11389,1,0,3:0:0:0:
473,188,11471,1,0,3:0:0:0:
512,184,11553,1,4,2:0:0:0:
512,184,11881,6,0,L|374:257,1,119.999996337891,0|0,1:0|0:0,0:0:0:0:
311,261,12127,1,0,0:0:0:0:
318,253,12209,2,0,P|342:287|336:327,1,59.9999981689454,8|0,0:0|0:0,0:0:0:0:
257,318,12373,1,0,0:0:0:0:
399,376,12537,1,0,1:0:0:0:
253,112,12701,1,0,0:0:0:0:
263,100,12783,1,0,0:0:0:0:
272,90,12865,1,8,0:0:0:0:
183,192,13029,1,2,0:0:0:0:
52,328,13193,6,0,L|31:187,1,119.999996337891,0|0,1:0|0:0,0:0:0:0:
23,126,13439,1,0,0:0:0:0:
20,115,13521,2,0,P|-9:102|-18:62,1,59.9999981689454,8|0,0:0|0:0,0:0:0:0:
101,65,13685,2,0,P|153:69|145:17,2,119.999996337891,2|0|0,0:0|1:0|0:0,0:0:0:0:
207,122,14094,1,0,0:0:0:0:
221,135,14176,1,8,0:0:0:0:
414,290,14340,1,2,0:0:0:0:
485,348,14504,6,0,L|503:168,1,179.999994506836,0|0,1:0|0:0,0:0:0:0:
436,124,14832,2,0,P|409:97|413:58,1,59.9999981689454,8|0,0:0|0:0,0:0:0:0:
498,9,14996,1,0,0:0:0:0:
343,218,15160,1,0,1:0:0:0:
124,108,15324,1,0,0:0:0:0:
124,108,15406,1,0,0:0:0:0:
124,108,15488,1,8,0:0:0:0:
316,13,15652,1,0,0:0:0:0:
265,343,15816,5,0,1:0:0:0:
254,162,16062,1,0,0:0:0:0:
254,162,16144,1,8,0:0:0:0:
351,134,16308,1,0,0:0:0:0:
152,181,16471,1,0,1:0:0:0:
192,32,16635,1,0,0:0:0:0:
205,39,16717,1,0,0:0:0:0:
217,47,16799,2,0,P|236:98|256:170,1,119.999996337891,8|0,0:0|0:0,0:0:0:0:
375,354,17127,6,0,L|430:244,1,119.999996337891,0|0,1:0|0:0,0:0:0:0:
493,176,17373,1,0,0:0:0:0:
493,176,17455,2,0,P|463:176|446:153,1,59.9999981689454,8|0,0:0|0:0,0:0:0:0:
506,321,17619,1,0,0:0:0:0:
332,185,17783,1,0,1:0:0:0:
441,4,17947,1,0,0:0:0:0:
441,4,18029,1,0,0:0:0:0:
441,4,18111,1,8,0:0:0:0:
512,95,18275,1,2,0:0:0:0:
228,41,18439,6,0,L|110:67,1,119.999996337891,0|0,1:0|0:0,0:0:0:0:
29,43,18685,1,0,0:0:0:0:
29,43,18767,2,0,P|19:79|-5:92,1,59.9999981689454,8|0,0:0|0:0,0:0:0:0:
43,170,18930,2,0,P|106:161|110:206,2,119.999996337891,0|0|0,0:0|1:0|0:0,0:0:0:0:
46,254,19340,1,0,0:0:0:0:
38,270,19422,1,8,0:0:0:0:
311,150,19586,1,2,0:0:0:0:
236,353,19750,6,0,L|215:234,1,119.999996337891,0|0,1:0|0:0,0:0:0:0:
202,159,19996,1,0,0:0:0:0:
202,159,20078,2,0,P|229:119|203:81,1,59.9999981689454,8|0,0:0|0:0,0:0:0:0:
316,32,20242,1,0,0:0:0:0:
116,0,20406,1,0,1:0:0:0:
512,53,20570,1,0,0:0:0:0:
497,50,20652,1,0,0:0:0:0:
486,46,20734,1,8,0:0:0:0:
448,132,20898,1,2,0:0:0:0:
351,353,21062,5,0,1:0:0:0:
322,259,21308,1,0,0:0:0:0:
322,259,21389,2,0,P|379:243|387:303,1,104.999996795654,8|0,0:0|0:0,0:0:0:0:
287,251,21717,2,0,P|280:301|224:276,1,104.999996795654,2|0,0:0|0:0,0:0:0:0:
298,174,22045,1,8,0:0:0:0:
298,174,22209,6,0,B|305:99|305:99|247:162,1,150.000005722046,2|4,0:0|0:0,0:0:0:0:
166,161,22537,2,0,B|89:178|155:218|44:225,1,119.999996337891,2|0,0:0|0:0,0:0:0:0:
8,33,23193,1,2,0:0:0:0:
82,45,23357,1,8,0:0:0:0:
156,56,23521,1,2,0:0:0:0:
232,38,23685,6,0,L|296:6,1,59.9999981689454,0|2,0:0|0:0,0:0:0:0:
361,38,24012,1,8,0:0:0:0:
325,108,24176,2,0,L|271:134,1,59.9999981689454,2|0,0:0|0:0,0:0:0:0:
100,358,24832,5,0,0:0:0:0:
79,286,24996,1,2,0:0:0:0:
205,207,25160,1,0,0:0:0:0:
214,309,25324,1,8,0:0:0:0:
182,377,25488,1,0,0:0:0:0:
118,208,25652,1,2,0:0:0:0:
291,260,25816,1,0,0:0:0:0:
79,286,25980,1,8,0:0:0:0:
4,306,26144,1,0,0:0:0:0:
205,207,26308,6,0,L|233:128,1,59.9999981689454,2|0,0:0|0:0,0:0:0:0:
72,18,26799,1,2,0:0:0:0:
22,74,26963,2,0,B|40:146|66:93|95:181,1,119.999996337891,2|8,0:0|0:0,0:0:0:0:
118,301,27455,6,0,B|163:358|163:358|66:335,1,150.000005722046,2|4,0:0|0:0,0:0:0:0:
39,276,27783,1,2,0:0:0:0:
35,265,27865,1,2,0:0:0:0:
30,254,27947,1,8,0:0:0:0:
229,300,28111,1,0,0:0:0:0:
181,126,28357,1,0,0:0:0:0:
195,112,28439,1,2,0:0:0:0:
147,227,28603,1,8,0:0:0:0:
294,183,28767,1,2,0:0:0:0:
329,204,28849,1,0,0:0:0:0:
365,223,28930,5,0,0:0:0:0:
441,115,29094,1,2,0:0:0:0:
448,96,29176,1,0,0:0:0:0:
454,80,29258,1,8,0:0:0:0:
350,24,29422,1,2,0:0:0:0:
472,249,29668,1,0,0:0:0:0:
480,270,29750,1,0,0:0:0:0:
336,118,29914,1,8,0:0:0:0:
413,379,30078,1,0,0:0:0:0:
152,341,30242,5,2,0:0:0:0:
280,357,30406,1,0,0:0:0:0:
92,263,30570,5,8,0:0:0:0:
356,226,30734,1,0,0:0:0:0:
362,42,30898,5,2,0:0:0:0:
68,166,31062,1,0,0:0:0:0:
120,14,31226,5,8,0:0:0:0:
225,270,31389,1,0,0:0:0:0:
397,149,31553,5,2,0:0:0:0:
55,83,31717,1,0,0:0:0:0:
145,163,32209,6,0,P|164:192|198:185,1,75,2|0,0:0|0:0,0:0:0:0:
198,153,32537,2,0,P|185:133|162:138,1,50,2|0,0:0|0:0,0:0:0:0:
309,247,32865,6,0,P|362:274|398:189,1,150.000005722046,4|0,1:0|0:0,0:0:0:0:
360,151,33111,1,0,0:0:0:0:
359,150,33193,2,0,P|326:139|306:171,1,75.0000028610231,8|0,0:0|0:0,0:0:0:0:
244,369,33357,1,0,0:0:0:0:
218,363,33439,1,0,0:0:0:0:
192,357,33521,1,0,1:0:0:0:
48,205,33685,1,0,0:0:0:0:
24,134,33767,1,0,0:0:0:0:
0,62,33849,1,8,0:0:0:0:
164,9,34012,1,2,0:0:0:0:
211,163,34176,6,0,L|89:290,1,150.000005722046,0|0,1:0|0:0,0:0:0:0:
36,327,34422,1,0,0:0:0:0:
36,327,34504,2,0,P|42:366|79:356,1,75.0000028610231,8|0,0:0|0:0,0:0:0:0:
250,290,34668,1,0,0:0:0:0:
276,284,34750,1,0,0:0:0:0:
302,278,34832,1,0,1:0:0:0:
464,99,34996,1,0,0:0:0:0:
488,171,35078,1,0,0:0:0:0:
512,242,35160,1,8,0:0:0:0:
376,384,35324,1,2,0:0:0:0:
294,163,35488,6,0,L|410:23,1,150.000005722046,0|0,1:0|0:0,0:0:0:0:
307,0,35734,1,0,0:0:0:0:
307,0,35816,2,0,P|271:5|254:37,1,75.0000028610231,8|0,0:0|0:0,0:0:0:0:
175,148,35980,1,0,0:0:0:0:
187,171,36062,1,0,0:0:0:0:
199,194,36144,1,0,1:0:0:0:
188,328,36308,2,0,P|156:334|140:378,2,75.0000028610231,0|0|8,0:0|0:0|0:0,0:0:0:0:
328,284,36635,1,2,0:0:0:0:
32,199,36799,5,0,1:0:0:0:
468,151,37045,1,0,0:0:0:0:
468,151,37127,1,8,0:0:0:0:
351,122,37291,1,0,0:0:0:0:
505,257,37455,1,0,1:0:0:0:
448,56,37619,1,0,0:0:0:0:
464,35,37701,1,0,0:0:0:0:
479,13,37783,1,8,0:0:0:0:
392,248,37947,1,0,0:0:0:0:
277,58,38111,6,0,L|116:28,1,150.000005722046,0|0,1:0|0:0,0:0:0:0:
52,45,38357,2,0,L|-30:27,1,75.0000028610231,0|8,0:0|0:0,0:0:0:0:
144,130,38521,1,0,0:0:0:0:
157,154,38603,1,0,0:0:0:0:
171,179,38685,1,0,0:0:0:0:
184,203,38767,1,0,1:0:0:0:
215,328,38930,1,0,0:0:0:0:
140,343,39012,1,0,0:0:0:0:
66,359,39094,1,8,0:0:0:0:
0,209,39258,1,2,0:0:0:0:
270,153,39422,6,0,L|431:186,1,150.000005722046,0|0,1:0|0:0,0:0:0:0:
448,256,39668,2,0,L|528:273,1,75.0000028610231,0|8,0:0|0:0,0:0:0:0:
417,99,39832,1,0,0:0:0:0:
430,75,39914,1,0,0:0:0:0:
444,50,39996,1,0,0:0:0:0:
457,26,40078,1,0,1:0:0:0:
317,270,40242,1,0,0:0:0:0:
363,323,40324,1,0,0:0:0:0:
414,378,40406,1,8,0:0:0:0:
85,229,40570,1,2,0:0:0:0:
254,13,40734,6,0,P|206:61|218:152,1,150.000005722046,0|0,1:0|0:0,0:0:0:0:
236,221,40980,1,0,0:0:0:0:
236,221,41062,2,0,P|285:171|268:81,1,150.000005722046,8|0,0:0|0:0,0:0:0:0:
82,94,41389,1,0,1:0:0:0:
406,58,41553,1,0,0:0:0:0:
406,58,41635,1,0,0:0:0:0:
406,58,41717,1,8,0:0:0:0:
435,274,41881,1,2,0:0:0:0:
111,310,42045,5,0,1:0:0:0:
111,310,42291,1,0,0:0:0:0:
111,310,42373,1,8,0:0:0:0:
183,184,42537,1,0,0:0:0:0:
188,346,42701,2,0,L|316:334,1,100,2|0,0:0|0:0,0:0:0:0:
277,252,42947,1,0,0:0:0:0:
277,252,43029,2,0,L|158:263,1,100,8|0,0:0|0:0,0:0:0:0:
59,232,43357,6,0,P|38:140|-2:15,2,179.999994506836,4|0|0,1:0|0:0|0:0,0:0:0:0:
51,249,43930,1,0,0:0:0:0:
42,269,44012,1,0,1:0:0:0:
187,149,44176,1,0,0:0:0:0:
217,97,44258,1,0,0:0:0:0:
247,45,44340,1,8,0:0:0:0:
121,28,44504,1,0,0:0:0:0:
317,176,44668,6,0,P|333:282|373:398,2,179.999994506836,0|0|0,1:0|0:0|0:0,0:0:0:0:
478,30,45324,1,0,1:0:0:0:
468,110,45488,1,0,0:0:0:0:
462,151,45570,1,0,0:0:0:0:
457,192,45652,1,8,0:0:0:0:
202,111,45816,1,0,0:0:0:0:
195,191,45980,6,0,P|122:207|-7:264,2,179.999994506836,0|0|0,1:0|0:0|0:0,0:0:0:0:
343,40,46635,1,0,1:0:0:0:
398,311,46799,1,0,0:0:0:0:
398,311,46881,1,0,0:0:0:0:
398,311,46963,1,8,0:0:0:0:
121,250,47127,1,0,0:0:0:0:
401,171,47291,5,0,1:0:0:0:
479,183,47455,1,2,0:0:0:0:
221,366,47619,1,8,0:0:0:0:
299,378,47783,1,2,0:0:0:0:
173,136,47947,2,0,L|80:37,1,119.999996337891,0|2,1:0|0:0,0:0:0:0:
76,34,48193,1,0,0:0:0:0:
64,21,48275,1,8,0:0:0:0:
293,271,48439,1,2,0:0:0:0:
361,98,48603,6,0,P|451:50|526:-19,2,179.999994506836,0|0|0,1:0|0:0|0:0,0:0:0:0:
352,117,49176,1,0,0:0:0:0:
343,136,49258,1,0,1:0:0:0:
211,221,49422,1,0,0:0:0:0:
152,236,49504,1,0,0:0:0:0:
94,251,49586,1,8,0:0:0:0:
14,350,49750,1,2,0:0:0:0:
298,359,49914,6,0,P|199:347|79:308,2,179.999994506836,0|0|0,1:0|0:0|0:0,0:0:0:0:
483,193,50570,1,0,1:0:0:0:
433,265,50734,1,0,0:0:0:0:
403,257,50816,1,0,0:0:0:0:
373,249,50898,1,8,0:0:0:0:
246,44,51062,1,2,0:0:0:0:
196,116,51226,6,0,P|102:146|12:188,2,179.999994506836,0|0|0,1:0|0:0|0:0,0:0:0:0:
383,46,51881,1,0,1:0:0:0:
219,253,52045,1,0,0:0:0:0:
219,253,52127,1,0,0:0:0:0:
219,253,52209,1,8,0:0:0:0:
133,19,52373,1,0,0:0:0:0:
437,165,52537,1,2,0:0:0:0:
36,203,53193,5,0,1:0:0:0:
444,174,53521,1,0,1:0:0:0:
235,177,53849,2,0,L|274:27,1,129.999994049073,0|0,1:0|0:0,0:0:0:0:
338,9,54094,1,0,0:0:0:0:
338,9,54176,2,0,P|352:41|385:32,1,64.9999970245363,8|0,0:0|0:0,0:0:0:0:
163,62,54340,2,0,L|82:41,2,64.9999970245363,0|0|0,0:0|0:0|1:0,0:0:0:0:
390,129,54668,1,0,0:0:0:0:
394,138,54750,1,0,0:0:0:0:
398,149,54832,1,8,0:0:0:0:
342,350,54996,1,2,0:0:0:0:
208,190,55160,6,0,L|32:252,1,129.999994049073,0|0,1:0|0:0,0:0:0:0:
30,303,55406,1,0,0:0:0:0:
30,303,55488,2,0,P|46:357|102:319,2,129.999994049073,8|0|0,0:0|0:0|1:0,0:0:0:0:
93,125,55980,1,0,0:0:0:0:
89,114,56062,1,0,0:0:0:0:
84,103,56144,1,8,0:0:0:0:
58,30,56308,1,2,0:0:0:0:
8,167,56471,6,0,P|-15:199|23:182,1,100
479,165,57291,2,0,P|496:197|459:194,1,89.9999972534181
435,95,57455,1,8,0:0:0:0:
496,285,57619,1,0,0:0:0:0:
170,242,57783,6,0,L|324:263,1,129.999994049073,0|0,1:0|0:0,0:0:0:0:
387,310,58029,1,0,0:0:0:0:
387,310,58111,2,0,P|384:281|419:285,1,64.9999970245363,8|0,0:0|0:0,0:0:0:0:
317,168,58275,1,0,0:0:0:0:
245,42,58439,2,0,P|217:-1|132:36,1,129.999994049073,0|0,1:0|0:0,0:0:0:0:
333,15,58685,1,0,0:0:0:0:
333,15,58767,2,0,P|379:61|456:18,1,129.999994049073,8|0,0:0|0:0,0:0:0:0:
224,140,59094,6,0,L|67:120,1,129.999994049073,0|0,1:0|0:0,0:0:0:0:
13,82,59340,1,0,0:0:0:0:
13,82,59422,2,0,P|11:127|-14:148,1,64.9999970245363,8|0,0:0|0:0,0:0:0:0:
44,223,59586,1,0,0:0:0:0:
49,236,59668,1,0,0:0:0:0:
53,248,59750,2,0,B|89:332|89:332|96:231|96:231,1,175
163,217,60406,6,0,L|344:240,1,129.999994049073,0|0,1:0|0:0,0:0:0:0:
361,187,60652,1,0,0:0:0:0:
361,187,60734,2,0,P|387:157|441:155,1,64.9999970245363,8|0,0:0|0:0,0:0:0:0:
468,365,60898,2,0,L|423:221,2,129.999994049073,0|0|0,0:0|1:0|0:0,0:0:0:0:
358,340,61308,1,0,0:0:0:0:
374,345,61389,1,8,0:0:0:0:
509,191,61553,1,2,0:0:0:0:
321,45,61717,6,0,L|444:121,1,129.999994049073,0|0,1:0|0:0,0:0:0:0:
247,34,61963,1,0,0:0:0:0:
247,34,62045,2,0,L|113:101,1,129.999994049073,8|0,0:0|0:0,0:0:0:0:
465,37,62373,1,0,1:0:0:0:
259,142,62537,1,0,0:0:0:0:
259,142,62619,1,0,0:0:0:0:
259,142,62701,1,8,0:0:0:0:
85,17,62865,1,0,0:0:0:0:
1,9,63029,5,0,1:0:0:0:
1,9,63275,1,0,0:0:0:0:
1,9,63357,2,0,L|11:117,1,104.999996795654,8|0,0:0|0:0,0:0:0:0:
30,135,63685,2,0,L|136:173,1,104.999996795654,2|0,0:0|0:0,0:0:0:0:
161,244,64012,1,8,0:0:0:0:
161,244,64176,6,2,B|157:335|294:268|145:204,1,150.000005722046,2|4,0:0|0:0,0:0:0:0:
208,143,64504,2,0,B|264:98|257:158|326:95,1,119.999996337891,2|0,0:0|0:0,0:0:0:0:
467,250,65160,1,2,0:0:0:0:
480,179,65324,1,8,0:0:0:0:
497,109,65488,1,2,0:0:0:0:
512,36,65652,2,0,L|450:6,1,59.9999981689454,0|2,0:0|0:0,0:0:0:0:
389,41,65980,1,8,0:0:0:0:
378,115,66144,2,0,L|398:175,1,59.9999981689454,2|0,0:0|0:0,0:0:0:0:
278,360,66799,5,0,0:0:0:0:
237,204,66963,1,2,0:0:0:0:
196,266,67127,1,0,0:0:0:0:
343,313,67291,1,8,0:0:0:0:
338,240,67455,1,0,0:0:0:0:
196,266,67619,1,2,0:0:0:0:
129,305,67783,1,0,0:0:0:0:
278,360,67947,1,8,0:0:0:0:
338,240,68111,1,0,0:0:0:0:
406,209,68275,6,0,L|417:140,1,59.9999981689454,2|0,0:0|0:0,0:0:0:0:
185,32,68767,1,2,0:0:0:0:
134,86,68930,2,0,B|63:100|112:138|23:150,1,119.999996337891,2|8,0:0|0:0,0:0:0:0:
256,159,69422,6,0,B|251:83|251:83|312:156,1,150.000005722046,2|4,0:0|0:0,0:0:0:0:
307,217,69750,1,2,0:0:0:0:
302,230,69832,1,0,0:0:0:0:
297,242,69914,1,8,0:0:0:0:
429,360,70078,1,2,0:0:0:0:
467,175,70324,1,0,0:0:0:0:
481,147,70406,1,2,0:0:0:0:
504,278,70570,1,8,0:0:0:0:
234,315,70734,2,0,L|191:304,2,25,2|0|0,0:0|0:0|0:0,0:0:0:0:
294,365,70898,5,0,0:0:0:0:
154,216,71062,1,2,0:0:0:0:
127,226,71144,1,0,0:0:0:0:
101,234,71226,1,8,0:0:0:0:
21,327,71389,1,2,0:0:0:0:
26,130,71635,1,0,0:0:0:0:
11,103,71717,1,2,0:0:0:0:
150,22,71881,1,8,0:0:0:0:
231,148,72045,1,0,0:0:0:0:
0,229,72209,5,2,0:0:0:0:
204,283,72373,1,0,0:0:0:0:
379,237,72537,5,8,0:0:0:0:
163,187,72701,1,0,0:0:0:0:
512,337,72865,5,2,0:0:0:0:
306,299,73029,1,0,0:0:0:0:
158,379,73193,5,8,0:0:0:0:
373,365,73357,1,0,0:0:0:0:
236,44,73521,1,2,0:0:0:0:
249,170,73685,1,2,0:0:0:0:
249,170,74176,6,0,L|337:157,1,75,2|0,0:0|0:0,0:0:0:0:
398,164,74504,2,0,P|410:143|385:133,1,50,2|0,0:0|0:0,0:0:0:0:
171,258,74832,2,0,L|45:157,1,150.000005722046,4|0,1:0|0:0,0:0:0:0:
5,106,75078,1,0,0:0:0:0:
5,106,75160,2,0,P|8:72|55:92,1,75.0000028610231,8|0,0:0|0:0,0:0:0:0:
54,308,75324,1,0,0:0:0:0:
45,332,75406,1,0,0:0:0:0:
37,354,75488,1,0,1:0:0:0:
175,140,75652,1,0,0:0:0:0:
144,71,75734,1,0,0:0:0:0:
114,3,75816,1,8,0:0:0:0:
0,226,75980,1,2,0:0:0:0:
235,382,76144,6,0,P|274:329|389:315,1,150.000005722046,0|0,1:0|0:0,0:0:0:0:
491,224,76389,1,0,0:0:0:0:
498,197,76471,1,8,0:0:0:0:
505,170,76553,1,0,0:0:0:0:
512,143,76635,1,0,0:0:0:0:
322,16,76799,1,0,1:0:0:0:
412,235,76963,1,0,0:0:0:0:
442,303,77045,1,0,0:0:0:0:
473,372,77127,1,8,0:0:0:0:
171,258,77291,1,2,0:0:0:0:
216,9,77455,6,0,L|251:199,1,150.000005722046,0|0,1:0|0:0,0:0:0:0:
280,225,77701,1,0,0:0:0:0:
280,225,77783,2,0,P|323:202|321:166,1,75.0000028610231,8|0,0:0|0:0,0:0:0:0:
149,97,77947,1,0,0:0:0:0:
118,89,78029,1,0,0:0:0:0:
90,83,78111,1,0,1:0:0:0:
55,168,78275,2,0,L|-21:198,2,75.0000028610231,0|0|8,0:0|0:0|0:0,0:0:0:0:
125,10,78603,1,2,0:0:0:0:
31,296,78767,5,0,1:0:0:0:
476,75,79012,1,0,0:0:0:0:
476,75,79094,1,8,0:0:0:0:
265,108,79258,1,0,0:0:0:0:
400,8,79422,2,0,L|325:175,1,150.000005722046,0|0,1:0|0:0,0:0:0:0:
295,216,79668,1,0,0:0:0:0:
295,216,79750,2,0,L|231:364,1,150.000005722046,8|0,0:0|0:0,0:0:0:0:
512,344,80078,6,0,P|504:267|438:242,1,150.000005722046,0|0,1:0|0:0,0:0:0:0:
384,299,80324,1,0,0:0:0:0:
391,320,80406,1,8,0:0:0:0:
126,362,80570,1,0,0:0:0:0:
102,350,80652,1,0,0:0:0:0:
78,339,80734,1,0,1:0:0:0:
136,204,80898,1,0,0:0:0:0:
96,138,80980,1,0,0:0:0:0:
58,74,81062,1,8,0:0:0:0:
227,0,81226,1,2,0:0:0:0:
265,145,81389,6,0,L|412:92,1,150.000005722046,0|0,1:0|0:0,0:0:0:0:
440,23,81635,2,0,B|473:5|473:5|467:41,1,75.0000028610231,0|8,0:0|0:0,0:0:0:0:
472,173,81799,1,0,0:0:0:0:
459,196,81881,1,0,0:0:0:0:
448,218,81963,1,0,0:0:0:0:
435,243,82045,1,0,1:0:0:0:
290,234,82209,1,0,0:0:0:0:
309,305,82291,1,0,0:0:0:0:
331,376,82373,1,8,0:0:0:0:
426,335,82537,1,2,0:0:0:0:
197,309,82701,6,0,P|145:258|74:270,1,150.000005722046,0|0,1:0|0:0,0:0:0:0:
0,295,82947,1,0,0:0:0:0:
0,295,83029,2,0,P|51:345|122:333,1,150.000005722046,8|0,0:0|0:0,0:0:0:0:
377,167,83357,1,0,1:0:0:0:
120,133,83521,1,0,0:0:0:0:
120,133,83603,1,0,0:0:0:0:
120,133,83685,1,8,0:0:0:0:
133,27,83849,1,2,0:0:0:0:
394,65,84012,6,0,B|457:41|431:79|504:41,2,100,2|8|2,0:3|0:0|0:0,0:0:0:0:
252,154,84832,1,0,0:0:0:0:
276,152,84914,1,0,0:0:0:0:
262,128,84996,1,12,0:0:0:0:
230,62,85160,6,0,B|173:0|336:-11|276:61,1,150.000005722046,2|4,0:0|0:0,0:0:0:0:
268,362,86635,1,0,0:0:0:0:
17,189,87947,1,2,0:0:0:0:
447,117,89176,1,0,0:0:0:0:
447,117,89258,2,0,B|474:212|415:177|436:269|436:269|451:305|487:293|498:319|523:302|519:258|494:225|452:227|441:248|441:272|450:317|495:321|521:300|499:246|468:237|453:253|457:317|519:298|507:247|463:262|448:294|499:297|516:272|488:253|463:245|443:272|450:299|438:319|432:336,1,400,4|0,0:0|0:0,0:0:0:0:
