osu file format v14

[General]
AudioFilename: audio.mp3
AudioLeadIn: 0
PreviewTime: 27291
Countdown: 0
SampleSet: Soft
StackLeniency: 0.5
Mode: 0
LetterboxInBreaks: 0
EpilepsyWarning: 1
WidescreenStoryboard: 1

[Editor]
DistanceSpacing: 1.5
BeatDivisor: 4
GridSize: 16
TimelineZoom: 2.199999

[Metadata]
Title:Acapulco (Sped Up Ver.)
TitleUnicode:Acapulco (Sped Up Ver.)
Artist:Jason Derulo
ArtistUnicode:Jason Derulo
Creator:AJT
Version:Insane
Source:
Tags:english dance electronic nightcore beach pop apo11o apollo mrowswares hhjkl wetdog123 ziin tachibana_ euryalle sheesh
BeatmapID:3473539
BeatmapSetID:1699922

[Difficulty]
HPDrainRate:5
CircleSize:4
OverallDifficulty:8
ApproachRate:9.2
SliderMultiplier:1.6
SliderTickRate:1

[Events]
//Background and Video events
0,0,"bg.jpg",0,0
//Break Periods
//Storyboard Layer 0 (Background)
//Storyboard Layer 1 (Fail)
//Storyboard Layer 2 (Pass)
//Storyboard Layer 3 (Foreground)
Sprite,Foreground,Centre,"sb\dot.png",0,0 C,0,43357,,255,255,255 F,1,43357,43957,1,0 S,1,43357,43957,1,0.2 MX,1,43357,43957,338,365 MY,1,43357,43957,159,197
Sprite,Foreground,Centre,"sb\dot.png",0,0 C,0,43357,,255,255,255 F,1,43357,43957,1,0 S,1,43357,43957,1,0.2 MX,1,43357,43957,338,370 MY,1,43357,43957,159,165
Sprite,Foreground,Centre,"sb\dot.png",0,0 C,0,43357,,255,255,255 F,1,43357,43957,1,0 S,1,43357,43957,1,0.2 MX,1,43357,43957,338,302 MY,1,43357,43957,159,166
Sprite,Foreground,Centre,"sb\dot.png",0,0 C,0,43357,,255,255,255 F,1,43357,43957,1,0 S,1,43357,43957,1,0.2 MX,1,43357,43957,338,386 MY,1,43357,43957,159,152
Sprite,Foreground,Centre,"sb\dot.png",0,0 C,0,43357,,255,255,255 F,1,43357,43957,1,0 S,1,43357,43957,1,0.2 MX,1,43357,43957,338,395 MY,1,43357,43957,159,131
Sprite,Foreground,Centre,"sb\dot.png",0,0 C,0,43357,,255,255,255 F,1,43357,43957,1,0 S,1,43357,43957,1,0.2 MX,1,43357,43957,338,313 MY,1,43357,43957,159,155
Sprite,Foreground,Centre,"sb\dot.png",0,0 C,0,43357,,255,255,255 F,1,43357,43957,1,0 S,1,43357,43957,1,0.2 MX,1,43357,43957,338,353 MY,1,43357,43957,159,155
Sprite,Foreground,Centre,"sb\dot.png",0,0 C,0,43357,,255,255,255 F,1,43357,43957,1,0 S,1,43357,43957,1,0.2 MX,1,43357,43957,338,395 MY,1,43357,43957,159,102
Sprite,Foreground,Centre,"sb\dot.png",0,0 C,0,43357,,255,255,255 F,1,43357,43957,1,0 S,1,43357,43957,1,0.2 MX,1,43357,43957,338,381 MY,1,43357,43957,159,218
Sprite,Foreground,Centre,"sb\dot.png",0,0 C,0,43357,,255,255,255 F,1,43357,43957,1,0 S,1,43357,43957,1,0.2 MX,1,43357,43957,338,359 MY,1,43357,43957,159,136
Sprite,Foreground,Centre,"sb\dot.png",0,0 C,0,43357,,255,255,255 F,1,43357,43957,1,0 S,1,43357,43957,1,0.2 MX,1,43357,43957,338,376 MY,1,43357,43957,159,200
Sprite,Foreground,Centre,"sb\dot.png",0,0 C,0,43357,,255,255,255 F,1,43357,43957,1,0 S,1,43357,43957,1,0.2 MX,1,43357,43957,338,397 MY,1,43357,43957,159,102
Sprite,Foreground,Centre,"sb\dot.png",0,0 C,0,43357,,255,255,255 F,1,43357,43957,1,0 S,1,43357,43957,1,0.2 MX,1,43357,43957,338,361 MY,1,43357,43957,159,162
Sprite,Foreground,Centre,"sb\dot.png",0,0 C,0,43357,,255,255,255 F,1,43357,43957,1,0 S,1,43357,43957,1,0.2 MX,1,43357,43957,338,390 MY,1,43357,43957,159,181
Sprite,Foreground,Centre,"sb\dot.png",0,0 C,0,43357,,255,255,255 F,1,43357,43957,1,0 S,1,43357,43957,1,0.2 MX,1,43357,43957,338,343 MY,1,43357,43957,159,108
Sprite,Foreground,Centre,"sb\dot.png",0,0 C,0,43357,,255,255,255 F,1,43357,43957,1,0 S,1,43357,43957,1,0.2 MX,1,43357,43957,338,300 MY,1,43357,43957,159,153
Sprite,Foreground,Centre,"sb\dot.png",0,0 C,0,43357,,255,255,255 F,1,43357,43957,1,0 S,1,43357,43957,1,0.2 MX,1,43357,43957,338,313 MY,1,43357,43957,159,217
Sprite,Foreground,Centre,"sb\dot.png",0,0 C,0,43357,,255,255,255 F,1,43357,43957,1,0 S,1,43357,43957,1,0.2 MX,1,43357,43957,338,355 MY,1,43357,43957,159,190
Sprite,Foreground,Centre,"sb\dot.png",0,0 C,0,43357,,255,255,255 F,1,43357,43957,1,0 S,1,43357,43957,1,0.2 MX,1,43357,43957,338,281 MY,1,43357,43957,159,144
Sprite,Foreground,Centre,"sb\dot.png",0,0 C,0,43357,,255,255,255 F,1,43357,43957,1,0 S,1,43357,43957,1,0.2 MX,1,43357,43957,338,319 MY,1,43357,43957,159,213
Sprite,Foreground,Centre,"sb\dot.png",0,0 C,0,43357,,255,255,255 F,1,43357,43957,1,0 S,1,43357,43957,1,0.2 MX,1,43357,43957,338 MY,1,43357,43957,159,184
Sprite,Foreground,Centre,"sb\dot.png",0,0 C,0,43357,,255,255,255 F,1,43357,43957,1,0 S,1,43357,43957,1,0.2 MX,1,43357,43957,338,292 MY,1,43357,43957,159,131
Sprite,Foreground,Centre,"sb\dot.png",0,0 C,0,43357,,255,255,255 F,1,43357,43957,1,0 S,1,43357,43957,1,0.2 MX,1,43357,43957,338,386 MY,1,43357,43957,159,194
Sprite,Foreground,Centre,"sb\dot.png",0,0 C,0,43357,,255,255,255 F,1,43357,43957,1,0 S,1,43357,43957,1,0.2 MX,1,43357,43957,338,318 MY,1,43357,43957,159,153
Sprite,Foreground,Centre,"sb\dot.png",0,0 C,0,43357,,255,255,255 F,1,43357,43957,1,0 S,1,43357,43957,1,0.2 MX,1,43357,43957,338,295 MY,1,43357,43957,159,125
Sprite,Foreground,Centre,"sb\dot.png",0,0 C,0,43357,,255,255,255 F,1,43357,43957,1,0 S,1,43357,43957,1,0.2 MX,1,43357,43957,338,327 MY,1,43357,43957,159,185
Sprite,Foreground,Centre,"sb\dot.png",0,0 C,0,43357,,255,255,255 F,1,43357,43957,1,0 S,1,43357,43957,1,0.2 MX,1,43357,43957,338,352 MY,1,43357,43957,159,157
Sprite,Foreground,Centre,"sb\dot.png",0,0 C,0,43357,,255,255,255 F,1,43357,43957,1,0 S,1,43357,43957,1,0.2 MX,1,43357,43957,338,301 MY,1,43357,43957,159,204
Sprite,Foreground,Centre,"sb\dot.png",0,0 C,0,43357,,255,255,255 F,1,43357,43957,1,0 S,1,43357,43957,1,0.2 MX,1,43357,43957,338,377 MY,1,43357,43957,159,187
Sprite,Foreground,Centre,"sb\dot.png",0,0 C,0,43357,,255,255,255 F,1,43357,43957,1,0 S,1,43357,43957,1,0.2 MX,1,43357,43957,338,380 MY,1,43357,43957,159,180
Sprite,Foreground,Centre,"sb\dot.png",0,0 C,0,43603,,255,255,255 F,1,43603,44203,1,0 S,1,43603,44203,1,0.2 MX,1,43603,44203,151,165 MY,1,43603,44203,354,320
Sprite,Foreground,Centre,"sb\dot.png",0,0 C,0,43603,,255,255,255 F,1,43603,44203,1,0 S,1,43603,44203,1,0.2 MX,1,43603,44203,151,198 MY,1,43603,44203,354,401
Sprite,Foreground,Centre,"sb\dot.png",0,0 C,0,43603,,255,255,255 F,1,43603,44203,1,0 S,1,43603,44203,1,0.2 MX,1,43603,44203,151,101 MY,1,43603,44203,354,394
Sprite,Foreground,Centre,"sb\dot.png",0,0 C,0,43603,,255,255,255 F,1,43603,44203,1,0 S,1,43603,44203,1,0.2 MX,1,43603,44203,151,111 MY,1,43603,44203,354,371
Sprite,Foreground,Centre,"sb\dot.png",0,0 C,0,43603,,255,255,255 F,1,43603,44203,1,0 S,1,43603,44203,1,0.2 MX,1,43603,44203,151,190 MY,1,43603,44203,354,320
Sprite,Foreground,Centre,"sb\dot.png",0,0 C,0,43603,,255,255,255 F,1,43603,44203,1,0 S,1,43603,44203,1,0.2 MX,1,43603,44203,151,210 MY,1,43603,44203,354,351
Sprite,Foreground,Centre,"sb\dot.png",0,0 C,0,43603,,255,255,255 F,1,43603,44203,1,0 S,1,43603,44203,1,0.2 MX,1,43603,44203,151,169 MY,1,43603,44203,354,380
Sprite,Foreground,Centre,"sb\dot.png",0,0 C,0,43603,,255,255,255 F,1,43603,44203,1,0 S,1,43603,44203,1,0.2 MX,1,43603,44203,151,188 MY,1,43603,44203,354,306
Sprite,Foreground,Centre,"sb\dot.png",0,0 C,0,43603,,255,255,255 F,1,43603,44203,1,0 S,1,43603,44203,1,0.2 MX,1,43603,44203,151,178 MY,1,43603,44203,354,380
Sprite,Foreground,Centre,"sb\dot.png",0,0 C,0,43603,,255,255,255 F,1,43603,44203,1,0 S,1,43603,44203,1,0.2 MX,1,43603,44203,151,106 MY,1,43603,44203,354,402
Sprite,Foreground,Centre,"sb\dot.png",0,0 C,0,43603,,255,255,255 F,1,43603,44203,1,0 S,1,43603,44203,1,0.2 MX,1,43603,44203,151,113 MY,1,43603,44203,354,351
Sprite,Foreground,Centre,"sb\dot.png",0,0 C,0,43603,,255,255,255 F,1,43603,44203,1,0 S,1,43603,44203,1,0.2 MX,1,43603,44203,151,155 MY,1,43603,44203,354,333
Sprite,Foreground,Centre,"sb\dot.png",0,0 C,0,43603,,255,255,255 F,1,43603,44203,1,0 S,1,43603,44203,1,0.2 MX,1,43603,44203,151,171 MY,1,43603,44203,354,350
Sprite,Foreground,Centre,"sb\dot.png",0,0 C,0,43603,,255,255,255 F,1,43603,44203,1,0 S,1,43603,44203,1,0.2 MX,1,43603,44203,151,191 MY,1,43603,44203,354,391
Sprite,Foreground,Centre,"sb\dot.png",0,0 C,0,43603,,255,255,255 F,1,43603,44203,1,0 S,1,43603,44203,1,0.2 MX,1,43603,44203,151,186 MY,1,43603,44203,354,385
Sprite,Foreground,Centre,"sb\dot.png",0,0 C,0,43603,,255,255,255 F,1,43603,44203,1,0 S,1,43603,44203,1,0.2 MX,1,43603,44203,151,203 MY,1,43603,44203,354,329
Sprite,Foreground,Centre,"sb\dot.png",0,0 C,0,43603,,255,255,255 F,1,43603,44203,1,0 S,1,43603,44203,1,0.2 MX,1,43603,44203,151,153 MY,1,43603,44203,354,373
Sprite,Foreground,Centre,"sb\dot.png",0,0 C,0,43603,,255,255,255 F,1,43603,44203,1,0 S,1,43603,44203,1,0.2 MX,1,43603,44203,151,130 MY,1,43603,44203,354,328
Sprite,Foreground,Centre,"sb\dot.png",0,0 C,0,43603,,255,255,255 F,1,43603,44203,1,0 S,1,43603,44203,1,0.2 MX,1,43603,44203,151,189 MY,1,43603,44203,354,320
Sprite,Foreground,Centre,"sb\dot.png",0,0 C,0,43603,,255,255,255 F,1,43603,44203,1,0 S,1,43603,44203,1,0.2 MX,1,43603,44203,151,113 MY,1,43603,44203,354,302
Sprite,Foreground,Centre,"sb\dot.png",0,0 C,0,43603,,255,255,255 F,1,43603,44203,1,0 S,1,43603,44203,1,0.2 MX,1,43603,44203,151,165 MY,1,43603,44203,354,377
Sprite,Foreground,Centre,"sb\dot.png",0,0 C,0,43603,,255,255,255 F,1,43603,44203,1,0 S,1,43603,44203,1,0.2 MX,1,43603,44203,151,166 MY,1,43603,44203,354,405
Sprite,Foreground,Centre,"sb\dot.png",0,0 C,0,43603,,255,255,255 F,1,43603,44203,1,0 S,1,43603,44203,1,0.2 MX,1,43603,44203,151,117 MY,1,43603,44203,354,405
Sprite,Foreground,Centre,"sb\dot.png",0,0 C,0,43603,,255,255,255 F,1,43603,44203,1,0 S,1,43603,44203,1,0.2 MX,1,43603,44203,151,98 MY,1,43603,44203,354,402
Sprite,Foreground,Centre,"sb\dot.png",0,0 C,0,43603,,255,255,255 F,1,43603,44203,1,0 S,1,43603,44203,1,0.2 MX,1,43603,44203,151,172 MY,1,43603,44203,354,305
Sprite,Foreground,Centre,"sb\dot.png",0,0 C,0,43603,,255,255,255 F,1,43603,44203,1,0 S,1,43603,44203,1,0.2 MX,1,43603,44203,151,108 MY,1,43603,44203,354,306
Sprite,Foreground,Centre,"sb\dot.png",0,0 C,0,43603,,255,255,255 F,1,43603,44203,1,0 S,1,43603,44203,1,0.2 MX,1,43603,44203,151,164 MY,1,43603,44203,354,408
Sprite,Foreground,Centre,"sb\dot.png",0,0 C,0,43603,,255,255,255 F,1,43603,44203,1,0 S,1,43603,44203,1,0.2 MX,1,43603,44203,151,149 MY,1,43603,44203,354,311
Sprite,Foreground,Centre,"sb\dot.png",0,0 C,0,43603,,255,255,255 F,1,43603,44203,1,0 S,1,43603,44203,1,0.2 MX,1,43603,44203,151,172 MY,1,43603,44203,354,362
Sprite,Foreground,Centre,"sb\dot.png",0,0 C,0,43603,,255,255,255 F,1,43603,44203,1,0 S,1,43603,44203,1,0.2 MX,1,43603,44203,151,118 MY,1,43603,44203,354,368
Sprite,Foreground,Centre,"sb\dot.png",0,0 C,0,43685,,255,255,255 F,1,43685,44285,1,0 S,1,43685,44285,1,0.2 MX,1,43685,44285,151,91 MY,1,43685,44285,354,337
Sprite,Foreground,Centre,"sb\dot.png",0,0 C,0,43685,,255,255,255 F,1,43685,44285,1,0 S,1,43685,44285,1,0.2 MX,1,43685,44285,151,193 MY,1,43685,44285,354,301
Sprite,Foreground,Centre,"sb\dot.png",0,0 C,0,43685,,255,255,255 F,1,43685,44285,1,0 S,1,43685,44285,1,0.2 MX,1,43685,44285,151,124 MY,1,43685,44285,354,378
Sprite,Foreground,Centre,"sb\dot.png",0,0 C,0,43685,,255,255,255 F,1,43685,44285,1,0 S,1,43685,44285,1,0.2 MX,1,43685,44285,151,206 MY,1,43685,44285,354,412
Sprite,Foreground,Centre,"sb\dot.png",0,0 C,0,43685,,255,255,255 F,1,43685,44285,1,0 S,1,43685,44285,1,0.2 MX,1,43685,44285,151,137 MY,1,43685,44285,354,356
Sprite,Foreground,Centre,"sb\dot.png",0,0 C,0,43685,,255,255,255 F,1,43685,44285,1,0 S,1,43685,44285,1,0.2 MX,1,43685,44285,151,124 MY,1,43685,44285,354
Sprite,Foreground,Centre,"sb\dot.png",0,0 C,0,43685,,255,255,255 F,1,43685,44285,1,0 S,1,43685,44285,1,0.2 MX,1,43685,44285,151,154 MY,1,43685,44285,354,300
Sprite,Foreground,Centre,"sb\dot.png",0,0 C,0,43685,,255,255,255 F,1,43685,44285,1,0 S,1,43685,44285,1,0.2 MX,1,43685,44285,151,124 MY,1,43685,44285,354,353
Sprite,Foreground,Centre,"sb\dot.png",0,0 C,0,43685,,255,255,255 F,1,43685,44285,1,0 S,1,43685,44285,1,0.2 MX,1,43685,44285,151,192 MY,1,43685,44285,354,367
Sprite,Foreground,Centre,"sb\dot.png",0,0 C,0,43685,,255,255,255 F,1,43685,44285,1,0 S,1,43685,44285,1,0.2 MX,1,43685,44285,151,103 MY,1,43685,44285,354,383
Sprite,Foreground,Centre,"sb\dot.png",0,0 C,0,43685,,255,255,255 F,1,43685,44285,1,0 S,1,43685,44285,1,0.2 MX,1,43685,44285,151,139 MY,1,43685,44285,354,406
Sprite,Foreground,Centre,"sb\dot.png",0,0 C,0,43685,,255,255,255 F,1,43685,44285,1,0 S,1,43685,44285,1,0.2 MX,1,43685,44285,151,106 MY,1,43685,44285,354,377
Sprite,Foreground,Centre,"sb\dot.png",0,0 C,0,43685,,255,255,255 F,1,43685,44285,1,0 S,1,43685,44285,1,0.2 MX,1,43685,44285,151,164 MY,1,43685,44285,354,393
Sprite,Foreground,Centre,"sb\dot.png",0,0 C,0,43685,,255,255,255 F,1,43685,44285,1,0 S,1,43685,44285,1,0.2 MX,1,43685,44285,151,173 MY,1,43685,44285,354,362
Sprite,Foreground,Centre,"sb\dot.png",0,0 C,0,43685,,255,255,255 F,1,43685,44285,1,0 S,1,43685,44285,1,0.2 MX,1,43685,44285,151,111 MY,1,43685,44285,354,316
Sprite,Foreground,Centre,"sb\dot.png",0,0 C,0,43685,,255,255,255 F,1,43685,44285,1,0 S,1,43685,44285,1,0.2 MX,1,43685,44285,151,164 MY,1,43685,44285,354,324
Sprite,Foreground,Centre,"sb\dot.png",0,0 C,0,43685,,255,255,255 F,1,43685,44285,1,0 S,1,43685,44285,1,0.2 MX,1,43685,44285,151,210 MY,1,43685,44285,354,362
Sprite,Foreground,Centre,"sb\dot.png",0,0 C,0,43685,,255,255,255 F,1,43685,44285,1,0 S,1,43685,44285,1,0.2 MX,1,43685,44285,151,98 MY,1,43685,44285,354,325
Sprite,Foreground,Centre,"sb\dot.png",0,0 C,0,43685,,255,255,255 F,1,43685,44285,1,0 S,1,43685,44285,1,0.2 MX,1,43685,44285,151,192 MY,1,43685,44285,354,362
Sprite,Foreground,Centre,"sb\dot.png",0,0 C,0,43685,,255,255,255 F,1,43685,44285,1,0 S,1,43685,44285,1,0.2 MX,1,43685,44285,151,168 MY,1,43685,44285,354,355
Sprite,Foreground,Centre,"sb\dot.png",0,0 C,0,43685,,255,255,255 F,1,43685,44285,1,0 S,1,43685,44285,1,0.2 MX,1,43685,44285,151,207 MY,1,43685,44285,354,303
Sprite,Foreground,Centre,"sb\dot.png",0,0 C,0,43685,,255,255,255 F,1,43685,44285,1,0 S,1,43685,44285,1,0.2 MX,1,43685,44285,151,152 MY,1,43685,44285,354,312
Sprite,Foreground,Centre,"sb\dot.png",0,0 C,0,43685,,255,255,255 F,1,43685,44285,1,0 S,1,43685,44285,1,0.2 MX,1,43685,44285,151,188 MY,1,43685,44285,354,371
Sprite,Foreground,Centre,"sb\dot.png",0,0 C,0,43685,,255,255,255 F,1,43685,44285,1,0 S,1,43685,44285,1,0.2 MX,1,43685,44285,151,160 MY,1,43685,44285,354,360
Sprite,Foreground,Centre,"sb\dot.png",0,0 C,0,43685,,255,255,255 F,1,43685,44285,1,0 S,1,43685,44285,1,0.2 MX,1,43685,44285,151,171 MY,1,43685,44285,354,413
Sprite,Foreground,Centre,"sb\dot.png",0,0 C,0,43685,,255,255,255 F,1,43685,44285,1,0 S,1,43685,44285,1,0.2 MX,1,43685,44285,151,127 MY,1,43685,44285,354,301
Sprite,Foreground,Centre,"sb\dot.png",0,0 C,0,43685,,255,255,255 F,1,43685,44285,1,0 S,1,43685,44285,1,0.2 MX,1,43685,44285,151,146 MY,1,43685,44285,354,351
Sprite,Foreground,Centre,"sb\dot.png",0,0 C,0,43685,,255,255,255 F,1,43685,44285,1,0 S,1,43685,44285,1,0.2 MX,1,43685,44285,151,116 MY,1,43685,44285,354,302
Sprite,Foreground,Centre,"sb\dot.png",0,0 C,0,43685,,255,255,255 F,1,43685,44285,1,0 S,1,43685,44285,1,0.2 MX,1,43685,44285,151,118 MY,1,43685,44285,354,312
Sprite,Foreground,Centre,"sb\dot.png",0,0 C,0,43685,,255,255,255 F,1,43685,44285,1,0 S,1,43685,44285,1,0.2 MX,1,43685,44285,151,144 MY,1,43685,44285,354,348
Sprite,Foreground,Centre,"sb\dot.png",0,0 C,0,43849,,255,255,255 F,1,43849,44449,1,0 S,1,43849,44449,1,0.2 MX,1,43849,44449,326,268 MY,1,43849,44449,426,412
Sprite,Foreground,Centre,"sb\dot.png",0,0 C,0,43849,,255,255,255 F,1,43849,44449,1,0 S,1,43849,44449,1,0.2 MX,1,43849,44449,326,363 MY,1,43849,44449,426,390
Sprite,Foreground,Centre,"sb\dot.png",0,0 C,0,43849,,255,255,255 F,1,43849,44449,1,0 S,1,43849,44449,1,0.2 MX,1,43849,44449,326,375 MY,1,43849,44449,426,369
Sprite,Foreground,Centre,"sb\dot.png",0,0 C,0,43849,,255,255,255 F,1,43849,44449,1,0 S,1,43849,44449,1,0.2 MX,1,43849,44449,326,327 MY,1,43849,44449,426,481
Sprite,Foreground,Centre,"sb\dot.png",0,0 C,0,43849,,255,255,255 F,1,43849,44449,1,0 S,1,43849,44449,1,0.2 MX,1,43849,44449,326,385 MY,1,43849,44449,426,368
Sprite,Foreground,Centre,"sb\dot.png",0,0 C,0,43849,,255,255,255 F,1,43849,44449,1,0 S,1,43849,44449,1,0.2 MX,1,43849,44449,326,344 MY,1,43849,44449,426,399
Sprite,Foreground,Centre,"sb\dot.png",0,0 C,0,43849,,255,255,255 F,1,43849,44449,1,0 S,1,43849,44449,1,0.2 MX,1,43849,44449,326,382 MY,1,43849,44449,426,436
Sprite,Foreground,Centre,"sb\dot.png",0,0 C,0,43849,,255,255,255 F,1,43849,44449,1,0 S,1,43849,44449,1,0.2 MX,1,43849,44449,326,358 MY,1,43849,44449,426,404
Sprite,Foreground,Centre,"sb\dot.png",0,0 C,0,43849,,255,255,255 F,1,43849,44449,1,0 S,1,43849,44449,1,0.2 MX,1,43849,44449,326,316 MY,1,43849,44449,426,482
Sprite,Foreground,Centre,"sb\dot.png",0,0 C,0,43849,,255,255,255 F,1,43849,44449,1,0 S,1,43849,44449,1,0.2 MX,1,43849,44449,326,372 MY,1,43849,44449,426,482
Sprite,Foreground,Centre,"sb\dot.png",0,0 C,0,43849,,255,255,255 F,1,43849,44449,1,0 S,1,43849,44449,1,0.2 MX,1,43849,44449,326,296 MY,1,43849,44449,426,381
Sprite,Foreground,Centre,"sb\dot.png",0,0 C,0,43849,,255,255,255 F,1,43849,44449,1,0 S,1,43849,44449,1,0.2 MX,1,43849,44449,326,373 MY,1,43849,44449,426,387
Sprite,Foreground,Centre,"sb\dot.png",0,0 C,0,43849,,255,255,255 F,1,43849,44449,1,0 S,1,43849,44449,1,0.2 MX,1,43849,44449,326,371 MY,1,43849,44449,426,431
Sprite,Foreground,Centre,"sb\dot.png",0,0 C,0,43849,,255,255,255 F,1,43849,44449,1,0 S,1,43849,44449,1,0.2 MX,1,43849,44449,326,360 MY,1,43849,44449,426,427
Sprite,Foreground,Centre,"sb\dot.png",0,0 C,0,43849,,255,255,255 F,1,43849,44449,1,0 S,1,43849,44449,1,0.2 MX,1,43849,44449,326,308 MY,1,43849,44449,426,485
Sprite,Foreground,Centre,"sb\dot.png",0,0 C,0,43849,,255,255,255 F,1,43849,44449,1,0 S,1,43849,44449,1,0.2 MX,1,43849,44449,326,270 MY,1,43849,44449,426,449
Sprite,Foreground,Centre,"sb\dot.png",0,0 C,0,43849,,255,255,255 F,1,43849,44449,1,0 S,1,43849,44449,1,0.2 MX,1,43849,44449,326,280 MY,1,43849,44449,426,389
Sprite,Foreground,Centre,"sb\dot.png",0,0 C,0,43849,,255,255,255 F,1,43849,44449,1,0 S,1,43849,44449,1,0.2 MX,1,43849,44449,326,325 MY,1,43849,44449,426,435
Sprite,Foreground,Centre,"sb\dot.png",0,0 C,0,43849,,255,255,255 F,1,43849,44449,1,0 S,1,43849,44449,1,0.2 MX,1,43849,44449,326,297 MY,1,43849,44449,426,403
Sprite,Foreground,Centre,"sb\dot.png",0,0 C,0,43849,,255,255,255 F,1,43849,44449,1,0 S,1,43849,44449,1,0.2 MX,1,43849,44449,326,295 MY,1,43849,44449,426,460
Sprite,Foreground,Centre,"sb\dot.png",0,0 C,0,43849,,255,255,255 F,1,43849,44449,1,0 S,1,43849,44449,1,0.2 MX,1,43849,44449,326,281 MY,1,43849,44449,426,439
Sprite,Foreground,Centre,"sb\dot.png",0,0 C,0,43849,,255,255,255 F,1,43849,44449,1,0 S,1,43849,44449,1,0.2 MX,1,43849,44449,326,333 MY,1,43849,44449,426,444
Sprite,Foreground,Centre,"sb\dot.png",0,0 C,0,43849,,255,255,255 F,1,43849,44449,1,0 S,1,43849,44449,1,0.2 MX,1,43849,44449,326,306 MY,1,43849,44449,426,368
Sprite,Foreground,Centre,"sb\dot.png",0,0 C,0,43849,,255,255,255 F,1,43849,44449,1,0 S,1,43849,44449,1,0.2 MX,1,43849,44449,326,277 MY,1,43849,44449,426,471
Sprite,Foreground,Centre,"sb\dot.png",0,0 C,0,43849,,255,255,255 F,1,43849,44449,1,0 S,1,43849,44449,1,0.2 MX,1,43849,44449,326,351 MY,1,43849,44449,426,473
Sprite,Foreground,Centre,"sb\dot.png",0,0 C,0,43849,,255,255,255 F,1,43849,44449,1,0 S,1,43849,44449,1,0.2 MX,1,43849,44449,326,344 MY,1,43849,44449,426,396
Sprite,Foreground,Centre,"sb\dot.png",0,0 C,0,43849,,255,255,255 F,1,43849,44449,1,0 S,1,43849,44449,1,0.2 MX,1,43849,44449,326,297 MY,1,43849,44449,426,422
Sprite,Foreground,Centre,"sb\dot.png",0,0 C,0,43849,,255,255,255 F,1,43849,44449,1,0 S,1,43849,44449,1,0.2 MX,1,43849,44449,326,289 MY,1,43849,44449,426,472
Sprite,Foreground,Centre,"sb\dot.png",0,0 C,0,43849,,255,255,255 F,1,43849,44449,1,0 S,1,43849,44449,1,0.2 MX,1,43849,44449,326,324 MY,1,43849,44449,426,442
Sprite,Foreground,Centre,"sb\dot.png",0,0 C,0,43849,,255,255,255 F,1,43849,44449,1,0 S,1,43849,44449,1,0.2 MX,1,43849,44449,326,304 MY,1,43849,44449,426,410
Sprite,Foreground,Centre,"sb\dot.png",0,0 C,0,43930,,255,255,255 F,1,43930,44530,1,0 S,1,43930,44530,1,0.2 MX,1,43930,44530,326,295 MY,1,43930,44530,426,485
Sprite,Foreground,Centre,"sb\dot.png",0,0 C,0,43930,,255,255,255 F,1,43930,44530,1,0 S,1,43930,44530,1,0.2 MX,1,43930,44530,326,339 MY,1,43930,44530,426,366
Sprite,Foreground,Centre,"sb\dot.png",0,0 C,0,43930,,255,255,255 F,1,43930,44530,1,0 S,1,43930,44530,1,0.2 MX,1,43930,44530,326,384 MY,1,43930,44530,426,481
Sprite,Foreground,Centre,"sb\dot.png",0,0 C,0,43930,,255,255,255 F,1,43930,44530,1,0 S,1,43930,44530,1,0.2 MX,1,43930,44530,326,284 MY,1,43930,44530,426,458
Sprite,Foreground,Centre,"sb\dot.png",0,0 C,0,43930,,255,255,255 F,1,43930,44530,1,0 S,1,43930,44530,1,0.2 MX,1,43930,44530,326,276 MY,1,43930,44530,426,388
Sprite,Foreground,Centre,"sb\dot.png",0,0 C,0,43930,,255,255,255 F,1,43930,44530,1,0 S,1,43930,44530,1,0.2 MX,1,43930,44530,326,273 MY,1,43930,44530,426,379
Sprite,Foreground,Centre,"sb\dot.png",0,0 C,0,43930,,255,255,255 F,1,43930,44530,1,0 S,1,43930,44530,1,0.2 MX,1,43930,44530,326,353 MY,1,43930,44530,426,378
Sprite,Foreground,Centre,"sb\dot.png",0,0 C,0,43930,,255,255,255 F,1,43930,44530,1,0 S,1,43930,44530,1,0.2 MX,1,43930,44530,326,366 MY,1,43930,44530,426,443
Sprite,Foreground,Centre,"sb\dot.png",0,0 C,0,43930,,255,255,255 F,1,43930,44530,1,0 S,1,43930,44530,1,0.2 MX,1,43930,44530,326,334 MY,1,43930,44530,426,394
Sprite,Foreground,Centre,"sb\dot.png",0,0 C,0,43930,,255,255,255 F,1,43930,44530,1,0 S,1,43930,44530,1,0.2 MX,1,43930,44530,326,366 MY,1,43930,44530,426,469
Sprite,Foreground,Centre,"sb\dot.png",0,0 C,0,43930,,255,255,255 F,1,43930,44530,1,0 S,1,43930,44530,1,0.2 MX,1,43930,44530,326,319 MY,1,43930,44530,426,474
Sprite,Foreground,Centre,"sb\dot.png",0,0 C,0,43930,,255,255,255 F,1,43930,44530,1,0 S,1,43930,44530,1,0.2 MX,1,43930,44530,326,362 MY,1,43930,44530,426,421
Sprite,Foreground,Centre,"sb\dot.png",0,0 C,0,43930,,255,255,255 F,1,43930,44530,1,0 S,1,43930,44530,1,0.2 MX,1,43930,44530,326,306 MY,1,43930,44530,426,459
Sprite,Foreground,Centre,"sb\dot.png",0,0 C,0,43930,,255,255,255 F,1,43930,44530,1,0 S,1,43930,44530,1,0.2 MX,1,43930,44530,326,317 MY,1,43930,44530,426,443
Sprite,Foreground,Centre,"sb\dot.png",0,0 C,0,43930,,255,255,255 F,1,43930,44530,1,0 S,1,43930,44530,1,0.2 MX,1,43930,44530,326,385 MY,1,43930,44530,426,439
Sprite,Foreground,Centre,"sb\dot.png",0,0 C,0,43930,,255,255,255 F,1,43930,44530,1,0 S,1,43930,44530,1,0.2 MX,1,43930,44530,326,276 MY,1,43930,44530,426,440
Sprite,Foreground,Centre,"sb\dot.png",0,0 C,0,43930,,255,255,255 F,1,43930,44530,1,0 S,1,43930,44530,1,0.2 MX,1,43930,44530,326,384 MY,1,43930,44530,426,470
Sprite,Foreground,Centre,"sb\dot.png",0,0 C,0,43930,,255,255,255 F,1,43930,44530,1,0 S,1,43930,44530,1,0.2 MX,1,43930,44530,326,330 MY,1,43930,44530,426,382
Sprite,Foreground,Centre,"sb\dot.png",0,0 C,0,43930,,255,255,255 F,1,43930,44530,1,0 S,1,43930,44530,1,0.2 MX,1,43930,44530,326,266 MY,1,43930,44530,426,432
Sprite,Foreground,Centre,"sb\dot.png",0,0 C,0,43930,,255,255,255 F,1,43930,44530,1,0 S,1,43930,44530,1,0.2 MX,1,43930,44530,326,346 MY,1,43930,44530,426,411
Sprite,Foreground,Centre,"sb\dot.png",0,0 C,0,43930,,255,255,255 F,1,43930,44530,1,0 S,1,43930,44530,1,0.2 MX,1,43930,44530,326,369 MY,1,43930,44530,426,405
Sprite,Foreground,Centre,"sb\dot.png",0,0 C,0,43930,,255,255,255 F,1,43930,44530,1,0 S,1,43930,44530,1,0.2 MX,1,43930,44530,326,360 MY,1,43930,44530,426,428
Sprite,Foreground,Centre,"sb\dot.png",0,0 C,0,43930,,255,255,255 F,1,43930,44530,1,0 S,1,43930,44530,1,0.2 MX,1,43930,44530,326,365 MY,1,43930,44530,426,430
Sprite,Foreground,Centre,"sb\dot.png",0,0 C,0,43930,,255,255,255 F,1,43930,44530,1,0 S,1,43930,44530,1,0.2 MX,1,43930,44530,326,328 MY,1,43930,44530,426,385
Sprite,Foreground,Centre,"sb\dot.png",0,0 C,0,43930,,255,255,255 F,1,43930,44530,1,0 S,1,43930,44530,1,0.2 MX,1,43930,44530,326,342 MY,1,43930,44530,426,432
Sprite,Foreground,Centre,"sb\dot.png",0,0 C,0,43930,,255,255,255 F,1,43930,44530,1,0 S,1,43930,44530,1,0.2 MX,1,43930,44530,326,303 MY,1,43930,44530,426,395
Sprite,Foreground,Centre,"sb\dot.png",0,0 C,0,43930,,255,255,255 F,1,43930,44530,1,0 S,1,43930,44530,1,0.2 MX,1,43930,44530,326,362 MY,1,43930,44530,426,421
Sprite,Foreground,Centre,"sb\dot.png",0,0 C,0,43930,,255,255,255 F,1,43930,44530,1,0 S,1,43930,44530,1,0.2 MX,1,43930,44530,326,376 MY,1,43930,44530,426,406
Sprite,Foreground,Centre,"sb\dot.png",0,0 C,0,43930,,255,255,255 F,1,43930,44530,1,0 S,1,43930,44530,1,0.2 MX,1,43930,44530,326,289 MY,1,43930,44530,426,384
Sprite,Foreground,Centre,"sb\dot.png",0,0 C,0,43930,,255,255,255 F,1,43930,44530,1,0 S,1,43930,44530,1,0.2 MX,1,43930,44530,326,345 MY,1,43930,44530,426,390
Sprite,Foreground,Centre,"sb\dot.png",0,0 C,0,44012,,255,255,255 F,1,44012,44612,1,0 S,1,44012,44612,1,0.2 MX,1,44012,44612,326,330 MY,1,44012,44612,426,427
Sprite,Foreground,Centre,"sb\dot.png",0,0 C,0,44012,,255,255,255 F,1,44012,44612,1,0 S,1,44012,44612,1,0.2 MX,1,44012,44612,326,358 MY,1,44012,44612,426,423
Sprite,Foreground,Centre,"sb\dot.png",0,0 C,0,44012,,255,255,255 F,1,44012,44612,1,0 S,1,44012,44612,1,0.2 MX,1,44012,44612,326,278 MY,1,44012,44612,426,418
Sprite,Foreground,Centre,"sb\dot.png",0,0 C,0,44012,,255,255,255 F,1,44012,44612,1,0 S,1,44012,44612,1,0.2 MX,1,44012,44612,326,280 MY,1,44012,44612,426,469
Sprite,Foreground,Centre,"sb\dot.png",0,0 C,0,44012,,255,255,255 F,1,44012,44612,1,0 S,1,44012,44612,1,0.2 MX,1,44012,44612,326,333 MY,1,44012,44612,426,450
Sprite,Foreground,Centre,"sb\dot.png",0,0 C,0,44012,,255,255,255 F,1,44012,44612,1,0 S,1,44012,44612,1,0.2 MX,1,44012,44612,326,342 MY,1,44012,44612,426,367
Sprite,Foreground,Centre,"sb\dot.png",0,0 C,0,44012,,255,255,255 F,1,44012,44612,1,0 S,1,44012,44612,1,0.2 MX,1,44012,44612,326,334 MY,1,44012,44612,426,420
Sprite,Foreground,Centre,"sb\dot.png",0,0 C,0,44012,,255,255,255 F,1,44012,44612,1,0 S,1,44012,44612,1,0.2 MX,1,44012,44612,326,385 MY,1,44012,44612,426,380
Sprite,Foreground,Centre,"sb\dot.png",0,0 C,0,44012,,255,255,255 F,1,44012,44612,1,0 S,1,44012,44612,1,0.2 MX,1,44012,44612,326,280 MY,1,44012,44612,426,399
Sprite,Foreground,Centre,"sb\dot.png",0,0 C,0,44012,,255,255,255 F,1,44012,44612,1,0 S,1,44012,44612,1,0.2 MX,1,44012,44612,326,341 MY,1,44012,44612,426,461
Sprite,Foreground,Centre,"sb\dot.png",0,0 C,0,44012,,255,255,255 F,1,44012,44612,1,0 S,1,44012,44612,1,0.2 MX,1,44012,44612,326,296 MY,1,44012,44612,426,397
Sprite,Foreground,Centre,"sb\dot.png",0,0 C,0,44012,,255,255,255 F,1,44012,44612,1,0 S,1,44012,44612,1,0.2 MX,1,44012,44612,326,267 MY,1,44012,44612,426,419
Sprite,Foreground,Centre,"sb\dot.png",0,0 C,0,44012,,255,255,255 F,1,44012,44612,1,0 S,1,44012,44612,1,0.2 MX,1,44012,44612,326,301 MY,1,44012,44612,426,466
Sprite,Foreground,Centre,"sb\dot.png",0,0 C,0,44012,,255,255,255 F,1,44012,44612,1,0 S,1,44012,44612,1,0.2 MX,1,44012,44612,326,364 MY,1,44012,44612,426,429
Sprite,Foreground,Centre,"sb\dot.png",0,0 C,0,44012,,255,255,255 F,1,44012,44612,1,0 S,1,44012,44612,1,0.2 MX,1,44012,44612,326,380 MY,1,44012,44612,426,390
Sprite,Foreground,Centre,"sb\dot.png",0,0 C,0,44012,,255,255,255 F,1,44012,44612,1,0 S,1,44012,44612,1,0.2 MX,1,44012,44612,326,379 MY,1,44012,44612,426,468
Sprite,Foreground,Centre,"sb\dot.png",0,0 C,0,44012,,255,255,255 F,1,44012,44612,1,0 S,1,44012,44612,1,0.2 MX,1,44012,44612,326,373 MY,1,44012,44612,426,422
Sprite,Foreground,Centre,"sb\dot.png",0,0 C,0,44012,,255,255,255 F,1,44012,44612,1,0 S,1,44012,44612,1,0.2 MX,1,44012,44612,326,367 MY,1,44012,44612,426,408
Sprite,Foreground,Centre,"sb\dot.png",0,0 C,0,44012,,255,255,255 F,1,44012,44612,1,0 S,1,44012,44612,1,0.2 MX,1,44012,44612,326,332 MY,1,44012,44612,426,402
Sprite,Foreground,Centre,"sb\dot.png",0,0 C,0,44012,,255,255,255 F,1,44012,44612,1,0 S,1,44012,44612,1,0.2 MX,1,44012,44612,326,316 MY,1,44012,44612,426,412
Sprite,Foreground,Centre,"sb\dot.png",0,0 C,0,44012,,255,255,255 F,1,44012,44612,1,0 S,1,44012,44612,1,0.2 MX,1,44012,44612,326,316 MY,1,44012,44612,426,445
Sprite,Foreground,Centre,"sb\dot.png",0,0 C,0,44012,,255,255,255 F,1,44012,44612,1,0 S,1,44012,44612,1,0.2 MX,1,44012,44612,326,338 MY,1,44012,44612,426,477
Sprite,Foreground,Centre,"sb\dot.png",0,0 C,0,44012,,255,255,255 F,1,44012,44612,1,0 S,1,44012,44612,1,0.2 MX,1,44012,44612,326,375 MY,1,44012,44612,426,401
Sprite,Foreground,Centre,"sb\dot.png",0,0 C,0,44012,,255,255,255 F,1,44012,44612,1,0 S,1,44012,44612,1,0.2 MX,1,44012,44612,326,347 MY,1,44012,44612,426,407
Sprite,Foreground,Centre,"sb\dot.png",0,0 C,0,44012,,255,255,255 F,1,44012,44612,1,0 S,1,44012,44612,1,0.2 MX,1,44012,44612,326,322 MY,1,44012,44612,426,461
Sprite,Foreground,Centre,"sb\dot.png",0,0 C,0,44012,,255,255,255 F,1,44012,44612,1,0 S,1,44012,44612,1,0.2 MX,1,44012,44612,326,292 MY,1,44012,44612,426,475
Sprite,Foreground,Centre,"sb\dot.png",0,0 C,0,44012,,255,255,255 F,1,44012,44612,1,0 S,1,44012,44612,1,0.2 MX,1,44012,44612,326,328 MY,1,44012,44612,426,469
Sprite,Foreground,Centre,"sb\dot.png",0,0 C,0,44012,,255,255,255 F,1,44012,44612,1,0 S,1,44012,44612,1,0.2 MX,1,44012,44612,326,379 MY,1,44012,44612,426,398
Sprite,Foreground,Centre,"sb\dot.png",0,0 C,0,44012,,255,255,255 F,1,44012,44612,1,0 S,1,44012,44612,1,0.2 MX,1,44012,44612,326,325 MY,1,44012,44612,426,405
Sprite,Foreground,Centre,"sb\dot.png",0,0 C,0,44012,,255,255,255 F,1,44012,44612,1,0 S,1,44012,44612,1,0.2 MX,1,44012,44612,326,288 MY,1,44012,44612,426,397
Sprite,Foreground,Centre,"sb\dot.png",0,0 C,0,44340,,255,255,255 F,1,44340,44940,1,0 S,1,44340,44940,1,0.2 MX,1,44340,44940,457,470 MY,1,44340,44940,409,419
Sprite,Foreground,Centre,"sb\dot.png",0,0 C,0,44340,,255,255,255 F,1,44340,44940,1,0 S,1,44340,44940,1,0.2 MX,1,44340,44940,457,505 MY,1,44340,44940,409,392
Sprite,Foreground,Centre,"sb\dot.png",0,0 C,0,44340,,255,255,255 F,1,44340,44940,1,0 S,1,44340,44940,1,0.2 MX,1,44340,44940,457,487 MY,1,44340,44940,409,443
Sprite,Foreground,Centre,"sb\dot.png",0,0 C,0,44340,,255,255,255 F,1,44340,44940,1,0 S,1,44340,44940,1,0.2 MX,1,44340,44940,457,411 MY,1,44340,44940,409,361
Sprite,Foreground,Centre,"sb\dot.png",0,0 C,0,44340,,255,255,255 F,1,44340,44940,1,0 S,1,44340,44940,1,0.2 MX,1,44340,44940,457,470 MY,1,44340,44940,409,425
Sprite,Foreground,Centre,"sb\dot.png",0,0 C,0,44340,,255,255,255 F,1,44340,44940,1,0 S,1,44340,44940,1,0.2 MX,1,44340,44940,457,465 MY,1,44340,44940,409,446
Sprite,Foreground,Centre,"sb\dot.png",0,0 C,0,44340,,255,255,255 F,1,44340,44940,1,0 S,1,44340,44940,1,0.2 MX,1,44340,44940,457,500 MY,1,44340,44940,409,377
Sprite,Foreground,Centre,"sb\dot.png",0,0 C,0,44340,,255,255,255 F,1,44340,44940,1,0 S,1,44340,44940,1,0.2 MX,1,44340,44940,457,442 MY,1,44340,44940,409,420
Sprite,Foreground,Centre,"sb\dot.png",0,0 C,0,44340,,255,255,255 F,1,44340,44940,1,0 S,1,44340,44940,1,0.2 MX,1,44340,44940,457,476 MY,1,44340,44940,409,358
Sprite,Foreground,Centre,"sb\dot.png",0,0 C,0,44340,,255,255,255 F,1,44340,44940,1,0 S,1,44340,44940,1,0.2 MX,1,44340,44940,457,460 MY,1,44340,44940,409,468
Sprite,Foreground,Centre,"sb\dot.png",0,0 C,0,44340,,255,255,255 F,1,44340,44940,1,0 S,1,44340,44940,1,0.2 MX,1,44340,44940,457,416 MY,1,44340,44940,409,406
Sprite,Foreground,Centre,"sb\dot.png",0,0 C,0,44340,,255,255,255 F,1,44340,44940,1,0 S,1,44340,44940,1,0.2 MX,1,44340,44940,457,404 MY,1,44340,44940,409,367
Sprite,Foreground,Centre,"sb\dot.png",0,0 C,0,44340,,255,255,255 F,1,44340,44940,1,0 S,1,44340,44940,1,0.2 MX,1,44340,44940,457,515 MY,1,44340,44940,409,353
Sprite,Foreground,Centre,"sb\dot.png",0,0 C,0,44340,,255,255,255 F,1,44340,44940,1,0 S,1,44340,44940,1,0.2 MX,1,44340,44940,457,436 MY,1,44340,44940,409,353
Sprite,Foreground,Centre,"sb\dot.png",0,0 C,0,44340,,255,255,255 F,1,44340,44940,1,0 S,1,44340,44940,1,0.2 MX,1,44340,44940,457,459 MY,1,44340,44940,409,417
Sprite,Foreground,Centre,"sb\dot.png",0,0 C,0,44340,,255,255,255 F,1,44340,44940,1,0 S,1,44340,44940,1,0.2 MX,1,44340,44940,457,500 MY,1,44340,44940,409,375
Sprite,Foreground,Centre,"sb\dot.png",0,0 C,0,44340,,255,255,255 F,1,44340,44940,1,0 S,1,44340,44940,1,0.2 MX,1,44340,44940,457,410 MY,1,44340,44940,409,367
Sprite,Foreground,Centre,"sb\dot.png",0,0 C,0,44340,,255,255,255 F,1,44340,44940,1,0 S,1,44340,44940,1,0.2 MX,1,44340,44940,457,490 MY,1,44340,44940,409,448
Sprite,Foreground,Centre,"sb\dot.png",0,0 C,0,44340,,255,255,255 F,1,44340,44940,1,0 S,1,44340,44940,1,0.2 MX,1,44340,44940,457,487 MY,1,44340,44940,409,377
Sprite,Foreground,Centre,"sb\dot.png",0,0 C,0,44340,,255,255,255 F,1,44340,44940,1,0 S,1,44340,44940,1,0.2 MX,1,44340,44940,457,418 MY,1,44340,44940,409,363
Sprite,Foreground,Centre,"sb\dot.png",0,0 C,0,44340,,255,255,255 F,1,44340,44940,1,0 S,1,44340,44940,1,0.2 MX,1,44340,44940,457,418 MY,1,44340,44940,409,418
Sprite,Foreground,Centre,"sb\dot.png",0,0 C,0,44340,,255,255,255 F,1,44340,44940,1,0 S,1,44340,44940,1,0.2 MX,1,44340,44940,457,484 MY,1,44340,44940,409,448
Sprite,Foreground,Centre,"sb\dot.png",0,0 C,0,44340,,255,255,255 F,1,44340,44940,1,0 S,1,44340,44940,1,0.2 MX,1,44340,44940,457,424 MY,1,44340,44940,409,397
Sprite,Foreground,Centre,"sb\dot.png",0,0 C,0,44340,,255,255,255 F,1,44340,44940,1,0 S,1,44340,44940,1,0.2 MX,1,44340,44940,457,402 MY,1,44340,44940,409,382
Sprite,Foreground,Centre,"sb\dot.png",0,0 C,0,44340,,255,255,255 F,1,44340,44940,1,0 S,1,44340,44940,1,0.2 MX,1,44340,44940,457,455 MY,1,44340,44940,409,391
Sprite,Foreground,Centre,"sb\dot.png",0,0 C,0,44340,,255,255,255 F,1,44340,44940,1,0 S,1,44340,44940,1,0.2 MX,1,44340,44940,457,469 MY,1,44340,44940,409,398
Sprite,Foreground,Centre,"sb\dot.png",0,0 C,0,44340,,255,255,255 F,1,44340,44940,1,0 S,1,44340,44940,1,0.2 MX,1,44340,44940,457,492 MY,1,44340,44940,409,372
Sprite,Foreground,Centre,"sb\dot.png",0,0 C,0,44340,,255,255,255 F,1,44340,44940,1,0 S,1,44340,44940,1,0.2 MX,1,44340,44940,457,409 MY,1,44340,44940,409,365
Sprite,Foreground,Centre,"sb\dot.png",0,0 C,0,44340,,255,255,255 F,1,44340,44940,1,0 S,1,44340,44940,1,0.2 MX,1,44340,44940,457,460 MY,1,44340,44940,409,439
Sprite,Foreground,Centre,"sb\dot.png",0,0 C,0,44340,,255,255,255 F,1,44340,44940,1,0 S,1,44340,44940,1,0.2 MX,1,44340,44940,457,441 MY,1,44340,44940,409,435
Sprite,Foreground,Centre,"sb\dot.png",0,0 C,0,44668,,255,255,255 F,1,44668,45268,1,0 S,1,44668,45268,1,0.2 MX,1,44668,45268,345,339 MY,1,44668,45268,134,84
Sprite,Foreground,Centre,"sb\dot.png",0,0 C,0,44668,,255,255,255 F,1,44668,45268,1,0 S,1,44668,45268,1,0.2 MX,1,44668,45268,345,355 MY,1,44668,45268,134,78
Sprite,Foreground,Centre,"sb\dot.png",0,0 C,0,44668,,255,255,255 F,1,44668,45268,1,0 S,1,44668,45268,1,0.2 MX,1,44668,45268,345,378 MY,1,44668,45268,134,115
Sprite,Foreground,Centre,"sb\dot.png",0,0 C,0,44668,,255,255,255 F,1,44668,45268,1,0 S,1,44668,45268,1,0.2 MX,1,44668,45268,345,368 MY,1,44668,45268,134,158
Sprite,Foreground,Centre,"sb\dot.png",0,0 C,0,44668,,255,255,255 F,1,44668,45268,1,0 S,1,44668,45268,1,0.2 MX,1,44668,45268,345,340 MY,1,44668,45268,134,139
Sprite,Foreground,Centre,"sb\dot.png",0,0 C,0,44668,,255,255,255 F,1,44668,45268,1,0 S,1,44668,45268,1,0.2 MX,1,44668,45268,345,385 MY,1,44668,45268,134,124
Sprite,Foreground,Centre,"sb\dot.png",0,0 C,0,44668,,255,255,255 F,1,44668,45268,1,0 S,1,44668,45268,1,0.2 MX,1,44668,45268,345,393 MY,1,44668,45268,134,123
Sprite,Foreground,Centre,"sb\dot.png",0,0 C,0,44668,,255,255,255 F,1,44668,45268,1,0 S,1,44668,45268,1,0.2 MX,1,44668,45268,345,382 MY,1,44668,45268,134,143
Sprite,Foreground,Centre,"sb\dot.png",0,0 C,0,44668,,255,255,255 F,1,44668,45268,1,0 S,1,44668,45268,1,0.2 MX,1,44668,45268,345,375 MY,1,44668,45268,134,102
Sprite,Foreground,Centre,"sb\dot.png",0,0 C,0,44668,,255,255,255 F,1,44668,45268,1,0 S,1,44668,45268,1,0.2 MX,1,44668,45268,345,395 MY,1,44668,45268,134,144
Sprite,Foreground,Centre,"sb\dot.png",0,0 C,0,44668,,255,255,255 F,1,44668,45268,1,0 S,1,44668,45268,1,0.2 MX,1,44668,45268,345,404 MY,1,44668,45268,134,80
Sprite,Foreground,Centre,"sb\dot.png",0,0 C,0,44668,,255,255,255 F,1,44668,45268,1,0 S,1,44668,45268,1,0.2 MX,1,44668,45268,345,350 MY,1,44668,45268,134,93
Sprite,Foreground,Centre,"sb\dot.png",0,0 C,0,44668,,255,255,255 F,1,44668,45268,1,0 S,1,44668,45268,1,0.2 MX,1,44668,45268,345,400 MY,1,44668,45268,134,127
Sprite,Foreground,Centre,"sb\dot.png",0,0 C,0,44668,,255,255,255 F,1,44668,45268,1,0 S,1,44668,45268,1,0.2 MX,1,44668,45268,345,336 MY,1,44668,45268,134,184
Sprite,Foreground,Centre,"sb\dot.png",0,0 C,0,44668,,255,255,255 F,1,44668,45268,1,0 S,1,44668,45268,1,0.2 MX,1,44668,45268,345,291 MY,1,44668,45268,134,150
Sprite,Foreground,Centre,"sb\dot.png",0,0 C,0,44668,,255,255,255 F,1,44668,45268,1,0 S,1,44668,45268,1,0.2 MX,1,44668,45268,345,321 MY,1,44668,45268,134,193
Sprite,Foreground,Centre,"sb\dot.png",0,0 C,0,44668,,255,255,255 F,1,44668,45268,1,0 S,1,44668,45268,1,0.2 MX,1,44668,45268,345,388 MY,1,44668,45268,134,128
Sprite,Foreground,Centre,"sb\dot.png",0,0 C,0,44668,,255,255,255 F,1,44668,45268,1,0 S,1,44668,45268,1,0.2 MX,1,44668,45268,345,365 MY,1,44668,45268,134,85
Sprite,Foreground,Centre,"sb\dot.png",0,0 C,0,44668,,255,255,255 F,1,44668,45268,1,0 S,1,44668,45268,1,0.2 MX,1,44668,45268,345,404 MY,1,44668,45268,134,156
Sprite,Foreground,Centre,"sb\dot.png",0,0 C,0,44668,,255,255,255 F,1,44668,45268,1,0 S,1,44668,45268,1,0.2 MX,1,44668,45268,345,291 MY,1,44668,45268,134,179
Sprite,Foreground,Centre,"sb\dot.png",0,0 C,0,44668,,255,255,255 F,1,44668,45268,1,0 S,1,44668,45268,1,0.2 MX,1,44668,45268,345,369 MY,1,44668,45268,134,114
Sprite,Foreground,Centre,"sb\dot.png",0,0 C,0,44668,,255,255,255 F,1,44668,45268,1,0 S,1,44668,45268,1,0.2 MX,1,44668,45268,345,382 MY,1,44668,45268,134,186
Sprite,Foreground,Centre,"sb\dot.png",0,0 C,0,44668,,255,255,255 F,1,44668,45268,1,0 S,1,44668,45268,1,0.2 MX,1,44668,45268,345,347 MY,1,44668,45268,134,96
Sprite,Foreground,Centre,"sb\dot.png",0,0 C,0,44668,,255,255,255 F,1,44668,45268,1,0 S,1,44668,45268,1,0.2 MX,1,44668,45268,345,346 MY,1,44668,45268,134,120
Sprite,Foreground,Centre,"sb\dot.png",0,0 C,0,44668,,255,255,255 F,1,44668,45268,1,0 S,1,44668,45268,1,0.2 MX,1,44668,45268,345,330 MY,1,44668,45268,134,136
Sprite,Foreground,Centre,"sb\dot.png",0,0 C,0,44668,,255,255,255 F,1,44668,45268,1,0 S,1,44668,45268,1,0.2 MX,1,44668,45268,345,331 MY,1,44668,45268,134,108
Sprite,Foreground,Centre,"sb\dot.png",0,0 C,0,44668,,255,255,255 F,1,44668,45268,1,0 S,1,44668,45268,1,0.2 MX,1,44668,45268,345,384 MY,1,44668,45268,134,168
Sprite,Foreground,Centre,"sb\dot.png",0,0 C,0,44668,,255,255,255 F,1,44668,45268,1,0 S,1,44668,45268,1,0.2 MX,1,44668,45268,345,372 MY,1,44668,45268,134,122
Sprite,Foreground,Centre,"sb\dot.png",0,0 C,0,44668,,255,255,255 F,1,44668,45268,1,0 S,1,44668,45268,1,0.2 MX,1,44668,45268,345,349 MY,1,44668,45268,134,124
Sprite,Foreground,Centre,"sb\dot.png",0,0 C,0,44668,,255,255,255 F,1,44668,45268,1,0 S,1,44668,45268,1,0.2 MX,1,44668,45268,345,293 MY,1,44668,45268,134,114
Sprite,Foreground,Centre,"sb\dot.png",0,0 C,0,44914,,255,255,255 F,1,44914,45514,1,0 S,1,44914,45514,1,0.2 MX,1,44914,45514,117,166 MY,1,44914,45514,278,311
Sprite,Foreground,Centre,"sb\dot.png",0,0 C,0,44914,,255,255,255 F,1,44914,45514,1,0 S,1,44914,45514,1,0.2 MX,1,44914,45514,117,135 MY,1,44914,45514,278,316
Sprite,Foreground,Centre,"sb\dot.png",0,0 C,0,44914,,255,255,255 F,1,44914,45514,1,0 S,1,44914,45514,1,0.2 MX,1,44914,45514,117,85 MY,1,44914,45514,278,318
Sprite,Foreground,Centre,"sb\dot.png",0,0 C,0,44914,,255,255,255 F,1,44914,45514,1,0 S,1,44914,45514,1,0.2 MX,1,44914,45514,117,123 MY,1,44914,45514,278,272
Sprite,Foreground,Centre,"sb\dot.png",0,0 C,0,44914,,255,255,255 F,1,44914,45514,1,0 S,1,44914,45514,1,0.2 MX,1,44914,45514,117,146 MY,1,44914,45514,278,304
Sprite,Foreground,Centre,"sb\dot.png",0,0 C,0,44914,,255,255,255 F,1,44914,45514,1,0 S,1,44914,45514,1,0.2 MX,1,44914,45514,117,127 MY,1,44914,45514,278,225
Sprite,Foreground,Centre,"sb\dot.png",0,0 C,0,44914,,255,255,255 F,1,44914,45514,1,0 S,1,44914,45514,1,0.2 MX,1,44914,45514,117,78 MY,1,44914,45514,278,222
Sprite,Foreground,Centre,"sb\dot.png",0,0 C,0,44914,,255,255,255 F,1,44914,45514,1,0 S,1,44914,45514,1,0.2 MX,1,44914,45514,117,163 MY,1,44914,45514,278,296
Sprite,Foreground,Centre,"sb\dot.png",0,0 C,0,44914,,255,255,255 F,1,44914,45514,1,0 S,1,44914,45514,1,0.2 MX,1,44914,45514,117,85 MY,1,44914,45514,278,291
Sprite,Foreground,Centre,"sb\dot.png",0,0 C,0,44914,,255,255,255 F,1,44914,45514,1,0 S,1,44914,45514,1,0.2 MX,1,44914,45514,117,133 MY,1,44914,45514,278,311
Sprite,Foreground,Centre,"sb\dot.png",0,0 C,0,44914,,255,255,255 F,1,44914,45514,1,0 S,1,44914,45514,1,0.2 MX,1,44914,45514,117,168 MY,1,44914,45514,278,223
Sprite,Foreground,Centre,"sb\dot.png",0,0 C,0,44914,,255,255,255 F,1,44914,45514,1,0 S,1,44914,45514,1,0.2 MX,1,44914,45514,117,122 MY,1,44914,45514,278,282
Sprite,Foreground,Centre,"sb\dot.png",0,0 C,0,44914,,255,255,255 F,1,44914,45514,1,0 S,1,44914,45514,1,0.2 MX,1,44914,45514,117,87 MY,1,44914,45514,278,220
Sprite,Foreground,Centre,"sb\dot.png",0,0 C,0,44914,,255,255,255 F,1,44914,45514,1,0 S,1,44914,45514,1,0.2 MX,1,44914,45514,117,77 MY,1,44914,45514,278,226
Sprite,Foreground,Centre,"sb\dot.png",0,0 C,0,44914,,255,255,255 F,1,44914,45514,1,0 S,1,44914,45514,1,0.2 MX,1,44914,45514,117,144 MY,1,44914,45514,278,249
Sprite,Foreground,Centre,"sb\dot.png",0,0 C,0,44914,,255,255,255 F,1,44914,45514,1,0 S,1,44914,45514,1,0.2 MX,1,44914,45514,117,124 MY,1,44914,45514,278,286
Sprite,Foreground,Centre,"sb\dot.png",0,0 C,0,44914,,255,255,255 F,1,44914,45514,1,0 S,1,44914,45514,1,0.2 MX,1,44914,45514,117,130 MY,1,44914,45514,278,304
Sprite,Foreground,Centre,"sb\dot.png",0,0 C,0,44914,,255,255,255 F,1,44914,45514,1,0 S,1,44914,45514,1,0.2 MX,1,44914,45514,117,172 MY,1,44914,45514,278,328
Sprite,Foreground,Centre,"sb\dot.png",0,0 C,0,44914,,255,255,255 F,1,44914,45514,1,0 S,1,44914,45514,1,0.2 MX,1,44914,45514,117,139 MY,1,44914,45514,278,337
Sprite,Foreground,Centre,"sb\dot.png",0,0 C,0,44914,,255,255,255 F,1,44914,45514,1,0 S,1,44914,45514,1,0.2 MX,1,44914,45514,117,141 MY,1,44914,45514,278,299
Sprite,Foreground,Centre,"sb\dot.png",0,0 C,0,44914,,255,255,255 F,1,44914,45514,1,0 S,1,44914,45514,1,0.2 MX,1,44914,45514,117,132 MY,1,44914,45514,278,225
Sprite,Foreground,Centre,"sb\dot.png",0,0 C,0,44914,,255,255,255 F,1,44914,45514,1,0 S,1,44914,45514,1,0.2 MX,1,44914,45514,117,134 MY,1,44914,45514,278,296
Sprite,Foreground,Centre,"sb\dot.png",0,0 C,0,44914,,255,255,255 F,1,44914,45514,1,0 S,1,44914,45514,1,0.2 MX,1,44914,45514,117,168 MY,1,44914,45514,278,256
Sprite,Foreground,Centre,"sb\dot.png",0,0 C,0,44914,,255,255,255 F,1,44914,45514,1,0 S,1,44914,45514,1,0.2 MX,1,44914,45514,117,69 MY,1,44914,45514,278,312
Sprite,Foreground,Centre,"sb\dot.png",0,0 C,0,44914,,255,255,255 F,1,44914,45514,1,0 S,1,44914,45514,1,0.2 MX,1,44914,45514,117,165 MY,1,44914,45514,278,226
Sprite,Foreground,Centre,"sb\dot.png",0,0 C,0,44914,,255,255,255 F,1,44914,45514,1,0 S,1,44914,45514,1,0.2 MX,1,44914,45514,117,77 MY,1,44914,45514,278,329
Sprite,Foreground,Centre,"sb\dot.png",0,0 C,0,44914,,255,255,255 F,1,44914,45514,1,0 S,1,44914,45514,1,0.2 MX,1,44914,45514,117,151 MY,1,44914,45514,278,253
Sprite,Foreground,Centre,"sb\dot.png",0,0 C,0,44914,,255,255,255 F,1,44914,45514,1,0 S,1,44914,45514,1,0.2 MX,1,44914,45514,117,105 MY,1,44914,45514,278,322
Sprite,Foreground,Centre,"sb\dot.png",0,0 C,0,44914,,255,255,255 F,1,44914,45514,1,0 S,1,44914,45514,1,0.2 MX,1,44914,45514,117,84 MY,1,44914,45514,278,232
Sprite,Foreground,Centre,"sb\dot.png",0,0 C,0,44914,,255,255,255 F,1,44914,45514,1,0 S,1,44914,45514,1,0.2 MX,1,44914,45514,117,124 MY,1,44914,45514,278,244
Sprite,Foreground,Centre,"sb\dot.png",0,0 C,0,44996,,255,255,255 F,1,44996,45596,1,0 S,1,44996,45596,1,0.2 MX,1,44996,45596,117,137 MY,1,44996,45596,278,275
Sprite,Foreground,Centre,"sb\dot.png",0,0 C,0,44996,,255,255,255 F,1,44996,45596,1,0 S,1,44996,45596,1,0.2 MX,1,44996,45596,117,144 MY,1,44996,45596,278,275
Sprite,Foreground,Centre,"sb\dot.png",0,0 C,0,44996,,255,255,255 F,1,44996,45596,1,0 S,1,44996,45596,1,0.2 MX,1,44996,45596,117,76 MY,1,44996,45596,278,220
Sprite,Foreground,Centre,"sb\dot.png",0,0 C,0,44996,,255,255,255 F,1,44996,45596,1,0 S,1,44996,45596,1,0.2 MX,1,44996,45596,117,110 MY,1,44996,45596,278,273
Sprite,Foreground,Centre,"sb\dot.png",0,0 C,0,44996,,255,255,255 F,1,44996,45596,1,0 S,1,44996,45596,1,0.2 MX,1,44996,45596,117,65 MY,1,44996,45596,278,333
Sprite,Foreground,Centre,"sb\dot.png",0,0 C,0,44996,,255,255,255 F,1,44996,45596,1,0 S,1,44996,45596,1,0.2 MX,1,44996,45596,117,173 MY,1,44996,45596,278,247
Sprite,Foreground,Centre,"sb\dot.png",0,0 C,0,44996,,255,255,255 F,1,44996,45596,1,0 S,1,44996,45596,1,0.2 MX,1,44996,45596,117,165 MY,1,44996,45596,278,333
Sprite,Foreground,Centre,"sb\dot.png",0,0 C,0,44996,,255,255,255 F,1,44996,45596,1,0 S,1,44996,45596,1,0.2 MX,1,44996,45596,117,75 MY,1,44996,45596,278,322
Sprite,Foreground,Centre,"sb\dot.png",0,0 C,0,44996,,255,255,255 F,1,44996,45596,1,0 S,1,44996,45596,1,0.2 MX,1,44996,45596,117,105 MY,1,44996,45596,278,324
Sprite,Foreground,Centre,"sb\dot.png",0,0 C,0,44996,,255,255,255 F,1,44996,45596,1,0 S,1,44996,45596,1,0.2 MX,1,44996,45596,117,129 MY,1,44996,45596,278,330
Sprite,Foreground,Centre,"sb\dot.png",0,0 C,0,44996,,255,255,255 F,1,44996,45596,1,0 S,1,44996,45596,1,0.2 MX,1,44996,45596,117,166 MY,1,44996,45596,278,263
Sprite,Foreground,Centre,"sb\dot.png",0,0 C,0,44996,,255,255,255 F,1,44996,45596,1,0 S,1,44996,45596,1,0.2 MX,1,44996,45596,117,77 MY,1,44996,45596,278,296
Sprite,Foreground,Centre,"sb\dot.png",0,0 C,0,44996,,255,255,255 F,1,44996,45596,1,0 S,1,44996,45596,1,0.2 MX,1,44996,45596,117,68 MY,1,44996,45596,278,293
Sprite,Foreground,Centre,"sb\dot.png",0,0 C,0,44996,,255,255,255 F,1,44996,45596,1,0 S,1,44996,45596,1,0.2 MX,1,44996,45596,117,151 MY,1,44996,45596,278,256
Sprite,Foreground,Centre,"sb\dot.png",0,0 C,0,44996,,255,255,255 F,1,44996,45596,1,0 S,1,44996,45596,1,0.2 MX,1,44996,45596,117,94 MY,1,44996,45596,278,229
Sprite,Foreground,Centre,"sb\dot.png",0,0 C,0,44996,,255,255,255 F,1,44996,45596,1,0 S,1,44996,45596,1,0.2 MX,1,44996,45596,117,140 MY,1,44996,45596,278,286
Sprite,Foreground,Centre,"sb\dot.png",0,0 C,0,44996,,255,255,255 F,1,44996,45596,1,0 S,1,44996,45596,1,0.2 MX,1,44996,45596,117,108 MY,1,44996,45596,278,276
Sprite,Foreground,Centre,"sb\dot.png",0,0 C,0,44996,,255,255,255 F,1,44996,45596,1,0 S,1,44996,45596,1,0.2 MX,1,44996,45596,117,57 MY,1,44996,45596,278,235
Sprite,Foreground,Centre,"sb\dot.png",0,0 C,0,44996,,255,255,255 F,1,44996,45596,1,0 S,1,44996,45596,1,0.2 MX,1,44996,45596,117,97 MY,1,44996,45596,278,237
Sprite,Foreground,Centre,"sb\dot.png",0,0 C,0,44996,,255,255,255 F,1,44996,45596,1,0 S,1,44996,45596,1,0.2 MX,1,44996,45596,117,116 MY,1,44996,45596,278,327
Sprite,Foreground,Centre,"sb\dot.png",0,0 C,0,44996,,255,255,255 F,1,44996,45596,1,0 S,1,44996,45596,1,0.2 MX,1,44996,45596,117,161 MY,1,44996,45596,278,295
Sprite,Foreground,Centre,"sb\dot.png",0,0 C,0,44996,,255,255,255 F,1,44996,45596,1,0 S,1,44996,45596,1,0.2 MX,1,44996,45596,117,142 MY,1,44996,45596,278,331
Sprite,Foreground,Centre,"sb\dot.png",0,0 C,0,44996,,255,255,255 F,1,44996,45596,1,0 S,1,44996,45596,1,0.2 MX,1,44996,45596,117,69 MY,1,44996,45596,278,328
Sprite,Foreground,Centre,"sb\dot.png",0,0 C,0,44996,,255,255,255 F,1,44996,45596,1,0 S,1,44996,45596,1,0.2 MX,1,44996,45596,117,59 MY,1,44996,45596,278,316
Sprite,Foreground,Centre,"sb\dot.png",0,0 C,0,44996,,255,255,255 F,1,44996,45596,1,0 S,1,44996,45596,1,0.2 MX,1,44996,45596,117,73 MY,1,44996,45596,278,281
Sprite,Foreground,Centre,"sb\dot.png",0,0 C,0,44996,,255,255,255 F,1,44996,45596,1,0 S,1,44996,45596,1,0.2 MX,1,44996,45596,117,113 MY,1,44996,45596,278,258
Sprite,Foreground,Centre,"sb\dot.png",0,0 C,0,44996,,255,255,255 F,1,44996,45596,1,0 S,1,44996,45596,1,0.2 MX,1,44996,45596,117,118 MY,1,44996,45596,278,293
Sprite,Foreground,Centre,"sb\dot.png",0,0 C,0,44996,,255,255,255 F,1,44996,45596,1,0 S,1,44996,45596,1,0.2 MX,1,44996,45596,117,94 MY,1,44996,45596,278,253
Sprite,Foreground,Centre,"sb\dot.png",0,0 C,0,44996,,255,255,255 F,1,44996,45596,1,0 S,1,44996,45596,1,0.2 MX,1,44996,45596,117,94 MY,1,44996,45596,278,226
Sprite,Foreground,Centre,"sb\dot.png",0,0 C,0,44996,,255,255,255 F,1,44996,45596,1,0 S,1,44996,45596,1,0.2 MX,1,44996,45596,117,103 MY,1,44996,45596,278,281
Sprite,Foreground,Centre,"sb\dot.png",0,0 C,0,45324,,255,255,255 F,1,45324,45924,1,0 S,1,45324,45924,1,0.2 MX,1,45324,45924,122,90 MY,1,45324,45924,61,16
Sprite,Foreground,Centre,"sb\dot.png",0,0 C,0,45324,,255,255,255 F,1,45324,45924,1,0 S,1,45324,45924,1,0.2 MX,1,45324,45924,122,80 MY,1,45324,45924,61,118
Sprite,Foreground,Centre,"sb\dot.png",0,0 C,0,45324,,255,255,255 F,1,45324,45924,1,0 S,1,45324,45924,1,0.2 MX,1,45324,45924,122,93 MY,1,45324,45924,61,49
Sprite,Foreground,Centre,"sb\dot.png",0,0 C,0,45324,,255,255,255 F,1,45324,45924,1,0 S,1,45324,45924,1,0.2 MX,1,45324,45924,122,160 MY,1,45324,45924,61,51
Sprite,Foreground,Centre,"sb\dot.png",0,0 C,0,45324,,255,255,255 F,1,45324,45924,1,0 S,1,45324,45924,1,0.2 MX,1,45324,45924,122,176 MY,1,45324,45924,61,2
Sprite,Foreground,Centre,"sb\dot.png",0,0 C,0,45324,,255,255,255 F,1,45324,45924,1,0 S,1,45324,45924,1,0.2 MX,1,45324,45924,122,126 MY,1,45324,45924,61,30
Sprite,Foreground,Centre,"sb\dot.png",0,0 C,0,45324,,255,255,255 F,1,45324,45924,1,0 S,1,45324,45924,1,0.2 MX,1,45324,45924,122,109 MY,1,45324,45924,61,83
Sprite,Foreground,Centre,"sb\dot.png",0,0 C,0,45324,,255,255,255 F,1,45324,45924,1,0 S,1,45324,45924,1,0.2 MX,1,45324,45924,122,69 MY,1,45324,45924,61,33
Sprite,Foreground,Centre,"sb\dot.png",0,0 C,0,45324,,255,255,255 F,1,45324,45924,1,0 S,1,45324,45924,1,0.2 MX,1,45324,45924,122,141 MY,1,45324,45924,61,27
Sprite,Foreground,Centre,"sb\dot.png",0,0 C,0,45324,,255,255,255 F,1,45324,45924,1,0 S,1,45324,45924,1,0.2 MX,1,45324,45924,122,127 MY,1,45324,45924,61,21
Sprite,Foreground,Centre,"sb\dot.png",0,0 C,0,45324,,255,255,255 F,1,45324,45924,1,0 S,1,45324,45924,1,0.2 MX,1,45324,45924,122,135 MY,1,45324,45924,61,116
Sprite,Foreground,Centre,"sb\dot.png",0,0 C,0,45324,,255,255,255 F,1,45324,45924,1,0 S,1,45324,45924,1,0.2 MX,1,45324,45924,122,84 MY,1,45324,45924,61,95
Sprite,Foreground,Centre,"sb\dot.png",0,0 C,0,45324,,255,255,255 F,1,45324,45924,1,0 S,1,45324,45924,1,0.2 MX,1,45324,45924,122,137 MY,1,45324,45924,61,43
Sprite,Foreground,Centre,"sb\dot.png",0,0 C,0,45324,,255,255,255 F,1,45324,45924,1,0 S,1,45324,45924,1,0.2 MX,1,45324,45924,122,68 MY,1,45324,45924,61,96
Sprite,Foreground,Centre,"sb\dot.png",0,0 C,0,45324,,255,255,255 F,1,45324,45924,1,0 S,1,45324,45924,1,0.2 MX,1,45324,45924,122,82 MY,1,45324,45924,61,86
Sprite,Foreground,Centre,"sb\dot.png",0,0 C,0,45324,,255,255,255 F,1,45324,45924,1,0 S,1,45324,45924,1,0.2 MX,1,45324,45924,122,161 MY,1,45324,45924,61,32
Sprite,Foreground,Centre,"sb\dot.png",0,0 C,0,45324,,255,255,255 F,1,45324,45924,1,0 S,1,45324,45924,1,0.2 MX,1,45324,45924,122,154 MY,1,45324,45924,61,116
Sprite,Foreground,Centre,"sb\dot.png",0,0 C,0,45324,,255,255,255 F,1,45324,45924,1,0 S,1,45324,45924,1,0.2 MX,1,45324,45924,122,142 MY,1,45324,45924,61,90
Sprite,Foreground,Centre,"sb\dot.png",0,0 C,0,45324,,255,255,255 F,1,45324,45924,1,0 S,1,45324,45924,1,0.2 MX,1,45324,45924,122,120 MY,1,45324,45924,61,89
Sprite,Foreground,Centre,"sb\dot.png",0,0 C,0,45324,,255,255,255 F,1,45324,45924,1,0 S,1,45324,45924,1,0.2 MX,1,45324,45924,122,143 MY,1,45324,45924,61,85
Sprite,Foreground,Centre,"sb\dot.png",0,0 C,0,45324,,255,255,255 F,1,45324,45924,1,0 S,1,45324,45924,1,0.2 MX,1,45324,45924,122,74 MY,1,45324,45924,61,72
Sprite,Foreground,Centre,"sb\dot.png",0,0 C,0,45324,,255,255,255 F,1,45324,45924,1,0 S,1,45324,45924,1,0.2 MX,1,45324,45924,122,166 MY,1,45324,45924,61,16
Sprite,Foreground,Centre,"sb\dot.png",0,0 C,0,45324,,255,255,255 F,1,45324,45924,1,0 S,1,45324,45924,1,0.2 MX,1,45324,45924,122,180 MY,1,45324,45924,61,27
Sprite,Foreground,Centre,"sb\dot.png",0,0 C,0,45324,,255,255,255 F,1,45324,45924,1,0 S,1,45324,45924,1,0.2 MX,1,45324,45924,122,175 MY,1,45324,45924,61,100
Sprite,Foreground,Centre,"sb\dot.png",0,0 C,0,45324,,255,255,255 F,1,45324,45924,1,0 S,1,45324,45924,1,0.2 MX,1,45324,45924,122,129 MY,1,45324,45924,61,6
Sprite,Foreground,Centre,"sb\dot.png",0,0 C,0,45324,,255,255,255 F,1,45324,45924,1,0 S,1,45324,45924,1,0.2 MX,1,45324,45924,122,138 MY,1,45324,45924,61,12
Sprite,Foreground,Centre,"sb\dot.png",0,0 C,0,45324,,255,255,255 F,1,45324,45924,1,0 S,1,45324,45924,1,0.2 MX,1,45324,45924,122,125 MY,1,45324,45924,61,27
Sprite,Foreground,Centre,"sb\dot.png",0,0 C,0,45324,,255,255,255 F,1,45324,45924,1,0 S,1,45324,45924,1,0.2 MX,1,45324,45924,122,172 MY,1,45324,45924,61,34
Sprite,Foreground,Centre,"sb\dot.png",0,0 C,0,45324,,255,255,255 F,1,45324,45924,1,0 S,1,45324,45924,1,0.2 MX,1,45324,45924,122,174 MY,1,45324,45924,61,44
Sprite,Foreground,Centre,"sb\dot.png",0,0 C,0,45324,,255,255,255 F,1,45324,45924,1,0 S,1,45324,45924,1,0.2 MX,1,45324,45924,122,104 MY,1,45324,45924,61,110
Sprite,Foreground,Centre,"sb\dot.png",0,0 C,0,45488,,255,255,255 F,1,45488,46088,1,0 S,1,45488,46088,1,0.2 MX,1,45488,46088,207,189 MY,1,45488,46088,261,203
Sprite,Foreground,Centre,"sb\dot.png",0,0 C,0,45488,,255,255,255 F,1,45488,46088,1,0 S,1,45488,46088,1,0.2 MX,1,45488,46088,207,177 MY,1,45488,46088,261,229
Sprite,Foreground,Centre,"sb\dot.png",0,0 C,0,45488,,255,255,255 F,1,45488,46088,1,0 S,1,45488,46088,1,0.2 MX,1,45488,46088,207,168 MY,1,45488,46088,261,234
Sprite,Foreground,Centre,"sb\dot.png",0,0 C,0,45488,,255,255,255 F,1,45488,46088,1,0 S,1,45488,46088,1,0.2 MX,1,45488,46088,207,203 MY,1,45488,46088,261,252
Sprite,Foreground,Centre,"sb\dot.png",0,0 C,0,45488,,255,255,255 F,1,45488,46088,1,0 S,1,45488,46088,1,0.2 MX,1,45488,46088,207,148 MY,1,45488,46088,261,238
Sprite,Foreground,Centre,"sb\dot.png",0,0 C,0,45488,,255,255,255 F,1,45488,46088,1,0 S,1,45488,46088,1,0.2 MX,1,45488,46088,207,240 MY,1,45488,46088,261,311
Sprite,Foreground,Centre,"sb\dot.png",0,0 C,0,45488,,255,255,255 F,1,45488,46088,1,0 S,1,45488,46088,1,0.2 MX,1,45488,46088,207,211 MY,1,45488,46088,261,302
Sprite,Foreground,Centre,"sb\dot.png",0,0 C,0,45488,,255,255,255 F,1,45488,46088,1,0 S,1,45488,46088,1,0.2 MX,1,45488,46088,207,154 MY,1,45488,46088,261,202
Sprite,Foreground,Centre,"sb\dot.png",0,0 C,0,45488,,255,255,255 F,1,45488,46088,1,0 S,1,45488,46088,1,0.2 MX,1,45488,46088,207,158 MY,1,45488,46088,261,208
Sprite,Foreground,Centre,"sb\dot.png",0,0 C,0,45488,,255,255,255 F,1,45488,46088,1,0 S,1,45488,46088,1,0.2 MX,1,45488,46088,207,242 MY,1,45488,46088,261,249
Sprite,Foreground,Centre,"sb\dot.png",0,0 C,0,45488,,255,255,255 F,1,45488,46088,1,0 S,1,45488,46088,1,0.2 MX,1,45488,46088,207,196 MY,1,45488,46088,261,228
Sprite,Foreground,Centre,"sb\dot.png",0,0 C,0,45488,,255,255,255 F,1,45488,46088,1,0 S,1,45488,46088,1,0.2 MX,1,45488,46088,207,174 MY,1,45488,46088,261,216
Sprite,Foreground,Centre,"sb\dot.png",0,0 C,0,45488,,255,255,255 F,1,45488,46088,1,0 S,1,45488,46088,1,0.2 MX,1,45488,46088,207,156 MY,1,45488,46088,261,289
Sprite,Foreground,Centre,"sb\dot.png",0,0 C,0,45488,,255,255,255 F,1,45488,46088,1,0 S,1,45488,46088,1,0.2 MX,1,45488,46088,207,235 MY,1,45488,46088,261,267
Sprite,Foreground,Centre,"sb\dot.png",0,0 C,0,45488,,255,255,255 F,1,45488,46088,1,0 S,1,45488,46088,1,0.2 MX,1,45488,46088,207,152 MY,1,45488,46088,261,248
Sprite,Foreground,Centre,"sb\dot.png",0,0 C,0,45488,,255,255,255 F,1,45488,46088,1,0 S,1,45488,46088,1,0.2 MX,1,45488,46088,207,243 MY,1,45488,46088,261,216
Sprite,Foreground,Centre,"sb\dot.png",0,0 C,0,45488,,255,255,255 F,1,45488,46088,1,0 S,1,45488,46088,1,0.2 MX,1,45488,46088,207,193 MY,1,45488,46088,261,293
Sprite,Foreground,Centre,"sb\dot.png",0,0 C,0,45488,,255,255,255 F,1,45488,46088,1,0 S,1,45488,46088,1,0.2 MX,1,45488,46088,207,189 MY,1,45488,46088,261,211
Sprite,Foreground,Centre,"sb\dot.png",0,0 C,0,45488,,255,255,255 F,1,45488,46088,1,0 S,1,45488,46088,1,0.2 MX,1,45488,46088,207,188 MY,1,45488,46088,261,276
Sprite,Foreground,Centre,"sb\dot.png",0,0 C,0,45488,,255,255,255 F,1,45488,46088,1,0 S,1,45488,46088,1,0.2 MX,1,45488,46088,207,260 MY,1,45488,46088,261,286
Sprite,Foreground,Centre,"sb\dot.png",0,0 C,0,45488,,255,255,255 F,1,45488,46088,1,0 S,1,45488,46088,1,0.2 MX,1,45488,46088,207,237 MY,1,45488,46088,261,262
Sprite,Foreground,Centre,"sb\dot.png",0,0 C,0,45488,,255,255,255 F,1,45488,46088,1,0 S,1,45488,46088,1,0.2 MX,1,45488,46088,207,244 MY,1,45488,46088,261,230
Sprite,Foreground,Centre,"sb\dot.png",0,0 C,0,45488,,255,255,255 F,1,45488,46088,1,0 S,1,45488,46088,1,0.2 MX,1,45488,46088,207,179 MY,1,45488,46088,261,286
Sprite,Foreground,Centre,"sb\dot.png",0,0 C,0,45488,,255,255,255 F,1,45488,46088,1,0 S,1,45488,46088,1,0.2 MX,1,45488,46088,207,213 MY,1,45488,46088,261,283
Sprite,Foreground,Centre,"sb\dot.png",0,0 C,0,45488,,255,255,255 F,1,45488,46088,1,0 S,1,45488,46088,1,0.2 MX,1,45488,46088,207,165 MY,1,45488,46088,261,309
Sprite,Foreground,Centre,"sb\dot.png",0,0 C,0,45488,,255,255,255 F,1,45488,46088,1,0 S,1,45488,46088,1,0.2 MX,1,45488,46088,207,168 MY,1,45488,46088,261,306
Sprite,Foreground,Centre,"sb\dot.png",0,0 C,0,45488,,255,255,255 F,1,45488,46088,1,0 S,1,45488,46088,1,0.2 MX,1,45488,46088,207,214 MY,1,45488,46088,261,314
Sprite,Foreground,Centre,"sb\dot.png",0,0 C,0,45488,,255,255,255 F,1,45488,46088,1,0 S,1,45488,46088,1,0.2 MX,1,45488,46088,207 MY,1,45488,46088,261,215
Sprite,Foreground,Centre,"sb\dot.png",0,0 C,0,45488,,255,255,255 F,1,45488,46088,1,0 S,1,45488,46088,1,0.2 MX,1,45488,46088,207,242 MY,1,45488,46088,261,215
Sprite,Foreground,Centre,"sb\dot.png",0,0 C,0,45488,,255,255,255 F,1,45488,46088,1,0 S,1,45488,46088,1,0.2 MX,1,45488,46088,207,166 MY,1,45488,46088,261,254
Sprite,Foreground,Centre,"sb\dot.png",0,0 C,0,45570,,255,255,255 F,1,45570,46170,1,0 S,1,45570,46170,1,0.2 MX,1,45570,46170,207,212 MY,1,45570,46170,261,310
Sprite,Foreground,Centre,"sb\dot.png",0,0 C,0,45570,,255,255,255 F,1,45570,46170,1,0 S,1,45570,46170,1,0.2 MX,1,45570,46170,207,193 MY,1,45570,46170,261,275
Sprite,Foreground,Centre,"sb\dot.png",0,0 C,0,45570,,255,255,255 F,1,45570,46170,1,0 S,1,45570,46170,1,0.2 MX,1,45570,46170,207,208 MY,1,45570,46170,261,278
Sprite,Foreground,Centre,"sb\dot.png",0,0 C,0,45570,,255,255,255 F,1,45570,46170,1,0 S,1,45570,46170,1,0.2 MX,1,45570,46170,207,211 MY,1,45570,46170,261,293
Sprite,Foreground,Centre,"sb\dot.png",0,0 C,0,45570,,255,255,255 F,1,45570,46170,1,0 S,1,45570,46170,1,0.2 MX,1,45570,46170,207,205 MY,1,45570,46170,261,318
Sprite,Foreground,Centre,"sb\dot.png",0,0 C,0,45570,,255,255,255 F,1,45570,46170,1,0 S,1,45570,46170,1,0.2 MX,1,45570,46170,207,227 MY,1,45570,46170,261,256
Sprite,Foreground,Centre,"sb\dot.png",0,0 C,0,45570,,255,255,255 F,1,45570,46170,1,0 S,1,45570,46170,1,0.2 MX,1,45570,46170,207,160 MY,1,45570,46170,261,211
Sprite,Foreground,Centre,"sb\dot.png",0,0 C,0,45570,,255,255,255 F,1,45570,46170,1,0 S,1,45570,46170,1,0.2 MX,1,45570,46170,207,224 MY,1,45570,46170,261,308
Sprite,Foreground,Centre,"sb\dot.png",0,0 C,0,45570,,255,255,255 F,1,45570,46170,1,0 S,1,45570,46170,1,0.2 MX,1,45570,46170,207,196 MY,1,45570,46170,261,318
Sprite,Foreground,Centre,"sb\dot.png",0,0 C,0,45570,,255,255,255 F,1,45570,46170,1,0 S,1,45570,46170,1,0.2 MX,1,45570,46170,207,250 MY,1,45570,46170,261,244
Sprite,Foreground,Centre,"sb\dot.png",0,0 C,0,45570,,255,255,255 F,1,45570,46170,1,0 S,1,45570,46170,1,0.2 MX,1,45570,46170,207,168 MY,1,45570,46170,261,206
Sprite,Foreground,Centre,"sb\dot.png",0,0 C,0,45570,,255,255,255 F,1,45570,46170,1,0 S,1,45570,46170,1,0.2 MX,1,45570,46170,207,194 MY,1,45570,46170,261,218
Sprite,Foreground,Centre,"sb\dot.png",0,0 C,0,45570,,255,255,255 F,1,45570,46170,1,0 S,1,45570,46170,1,0.2 MX,1,45570,46170,207,172 MY,1,45570,46170,261,311
Sprite,Foreground,Centre,"sb\dot.png",0,0 C,0,45570,,255,255,255 F,1,45570,46170,1,0 S,1,45570,46170,1,0.2 MX,1,45570,46170,207,214 MY,1,45570,46170,261,253
Sprite,Foreground,Centre,"sb\dot.png",0,0 C,0,45570,,255,255,255 F,1,45570,46170,1,0 S,1,45570,46170,1,0.2 MX,1,45570,46170,207,179 MY,1,45570,46170,261,228
Sprite,Foreground,Centre,"sb\dot.png",0,0 C,0,45570,,255,255,255 F,1,45570,46170,1,0 S,1,45570,46170,1,0.2 MX,1,45570,46170,207,182 MY,1,45570,46170,261,228
Sprite,Foreground,Centre,"sb\dot.png",0,0 C,0,45570,,255,255,255 F,1,45570,46170,1,0 S,1,45570,46170,1,0.2 MX,1,45570,46170,207,202 MY,1,45570,46170,261,260
Sprite,Foreground,Centre,"sb\dot.png",0,0 C,0,45570,,255,255,255 F,1,45570,46170,1,0 S,1,45570,46170,1,0.2 MX,1,45570,46170,207,166 MY,1,45570,46170,261,301
Sprite,Foreground,Centre,"sb\dot.png",0,0 C,0,45570,,255,255,255 F,1,45570,46170,1,0 S,1,45570,46170,1,0.2 MX,1,45570,46170,207,161 MY,1,45570,46170,261,224
Sprite,Foreground,Centre,"sb\dot.png",0,0 C,0,45570,,255,255,255 F,1,45570,46170,1,0 S,1,45570,46170,1,0.2 MX,1,45570,46170,207,235 MY,1,45570,46170,261,275
Sprite,Foreground,Centre,"sb\dot.png",0,0 C,0,45570,,255,255,255 F,1,45570,46170,1,0 S,1,45570,46170,1,0.2 MX,1,45570,46170,207,167 MY,1,45570,46170,261,295
Sprite,Foreground,Centre,"sb\dot.png",0,0 C,0,45570,,255,255,255 F,1,45570,46170,1,0 S,1,45570,46170,1,0.2 MX,1,45570,46170,207,170 MY,1,45570,46170,261,222
Sprite,Foreground,Centre,"sb\dot.png",0,0 C,0,45570,,255,255,255 F,1,45570,46170,1,0 S,1,45570,46170,1,0.2 MX,1,45570,46170,207,175 MY,1,45570,46170,261,287
Sprite,Foreground,Centre,"sb\dot.png",0,0 C,0,45570,,255,255,255 F,1,45570,46170,1,0 S,1,45570,46170,1,0.2 MX,1,45570,46170,207,238 MY,1,45570,46170,261,257
Sprite,Foreground,Centre,"sb\dot.png",0,0 C,0,45570,,255,255,255 F,1,45570,46170,1,0 S,1,45570,46170,1,0.2 MX,1,45570,46170,207,183 MY,1,45570,46170,261,273
Sprite,Foreground,Centre,"sb\dot.png",0,0 C,0,45570,,255,255,255 F,1,45570,46170,1,0 S,1,45570,46170,1,0.2 MX,1,45570,46170,207,231 MY,1,45570,46170,261,298
Sprite,Foreground,Centre,"sb\dot.png",0,0 C,0,45570,,255,255,255 F,1,45570,46170,1,0 S,1,45570,46170,1,0.2 MX,1,45570,46170,207,178 MY,1,45570,46170,261,297
Sprite,Foreground,Centre,"sb\dot.png",0,0 C,0,45570,,255,255,255 F,1,45570,46170,1,0 S,1,45570,46170,1,0.2 MX,1,45570,46170,207,178 MY,1,45570,46170,261,260
Sprite,Foreground,Centre,"sb\dot.png",0,0 C,0,45570,,255,255,255 F,1,45570,46170,1,0 S,1,45570,46170,1,0.2 MX,1,45570,46170,207,209 MY,1,45570,46170,261,230
Sprite,Foreground,Centre,"sb\dot.png",0,0 C,0,45570,,255,255,255 F,1,45570,46170,1,0 S,1,45570,46170,1,0.2 MX,1,45570,46170,207,195 MY,1,45570,46170,261,271
Sprite,Foreground,Centre,"sb\dot.png",0,0 C,0,45652,,255,255,255 F,1,45652,46252,1,0 S,1,45652,46252,1,0.2 MX,1,45652,46252,207,157 MY,1,45652,46252,261,213
Sprite,Foreground,Centre,"sb\dot.png",0,0 C,0,45652,,255,255,255 F,1,45652,46252,1,0 S,1,45652,46252,1,0.2 MX,1,45652,46252,207 MY,1,45652,46252,261,232
Sprite,Foreground,Centre,"sb\dot.png",0,0 C,0,45652,,255,255,255 F,1,45652,46252,1,0 S,1,45652,46252,1,0.2 MX,1,45652,46252,207,228 MY,1,45652,46252,261,254
Sprite,Foreground,Centre,"sb\dot.png",0,0 C,0,45652,,255,255,255 F,1,45652,46252,1,0 S,1,45652,46252,1,0.2 MX,1,45652,46252,207,147 MY,1,45652,46252,261,275
Sprite,Foreground,Centre,"sb\dot.png",0,0 C,0,45652,,255,255,255 F,1,45652,46252,1,0 S,1,45652,46252,1,0.2 MX,1,45652,46252,207,258 MY,1,45652,46252,261,297
Sprite,Foreground,Centre,"sb\dot.png",0,0 C,0,45652,,255,255,255 F,1,45652,46252,1,0 S,1,45652,46252,1,0.2 MX,1,45652,46252,207,240 MY,1,45652,46252,261,227
Sprite,Foreground,Centre,"sb\dot.png",0,0 C,0,45652,,255,255,255 F,1,45652,46252,1,0 S,1,45652,46252,1,0.2 MX,1,45652,46252,207,175 MY,1,45652,46252,261,230
Sprite,Foreground,Centre,"sb\dot.png",0,0 C,0,45652,,255,255,255 F,1,45652,46252,1,0 S,1,45652,46252,1,0.2 MX,1,45652,46252,207,169 MY,1,45652,46252,261,248
Sprite,Foreground,Centre,"sb\dot.png",0,0 C,0,45652,,255,255,255 F,1,45652,46252,1,0 S,1,45652,46252,1,0.2 MX,1,45652,46252,207,249 MY,1,45652,46252,261,226
Sprite,Foreground,Centre,"sb\dot.png",0,0 C,0,45652,,255,255,255 F,1,45652,46252,1,0 S,1,45652,46252,1,0.2 MX,1,45652,46252,207,255 MY,1,45652,46252,261,260
Sprite,Foreground,Centre,"sb\dot.png",0,0 C,0,45652,,255,255,255 F,1,45652,46252,1,0 S,1,45652,46252,1,0.2 MX,1,45652,46252,207,166 MY,1,45652,46252,261,211
Sprite,Foreground,Centre,"sb\dot.png",0,0 C,0,45652,,255,255,255 F,1,45652,46252,1,0 S,1,45652,46252,1,0.2 MX,1,45652,46252,207,163 MY,1,45652,46252,261,280
Sprite,Foreground,Centre,"sb\dot.png",0,0 C,0,45652,,255,255,255 F,1,45652,46252,1,0 S,1,45652,46252,1,0.2 MX,1,45652,46252,207,209 MY,1,45652,46252,261,258
Sprite,Foreground,Centre,"sb\dot.png",0,0 C,0,45652,,255,255,255 F,1,45652,46252,1,0 S,1,45652,46252,1,0.2 MX,1,45652,46252,207,262 MY,1,45652,46252,261,280
Sprite,Foreground,Centre,"sb\dot.png",0,0 C,0,45652,,255,255,255 F,1,45652,46252,1,0 S,1,45652,46252,1,0.2 MX,1,45652,46252,207,174 MY,1,45652,46252,261,281
Sprite,Foreground,Centre,"sb\dot.png",0,0 C,0,45652,,255,255,255 F,1,45652,46252,1,0 S,1,45652,46252,1,0.2 MX,1,45652,46252,207,185 MY,1,45652,46252,261,306
Sprite,Foreground,Centre,"sb\dot.png",0,0 C,0,45652,,255,255,255 F,1,45652,46252,1,0 S,1,45652,46252,1,0.2 MX,1,45652,46252,207,242 MY,1,45652,46252,261,219
Sprite,Foreground,Centre,"sb\dot.png",0,0 C,0,45652,,255,255,255 F,1,45652,46252,1,0 S,1,45652,46252,1,0.2 MX,1,45652,46252,207,210 MY,1,45652,46252,261,209
Sprite,Foreground,Centre,"sb\dot.png",0,0 C,0,45652,,255,255,255 F,1,45652,46252,1,0 S,1,45652,46252,1,0.2 MX,1,45652,46252,207,180 MY,1,45652,46252,261,313
Sprite,Foreground,Centre,"sb\dot.png",0,0 C,0,45652,,255,255,255 F,1,45652,46252,1,0 S,1,45652,46252,1,0.2 MX,1,45652,46252,207 MY,1,45652,46252,261,296
Sprite,Foreground,Centre,"sb\dot.png",0,0 C,0,45652,,255,255,255 F,1,45652,46252,1,0 S,1,45652,46252,1,0.2 MX,1,45652,46252,207,233 MY,1,45652,46252,261,218
Sprite,Foreground,Centre,"sb\dot.png",0,0 C,0,45652,,255,255,255 F,1,45652,46252,1,0 S,1,45652,46252,1,0.2 MX,1,45652,46252,207,212 MY,1,45652,46252,261,260
Sprite,Foreground,Centre,"sb\dot.png",0,0 C,0,45652,,255,255,255 F,1,45652,46252,1,0 S,1,45652,46252,1,0.2 MX,1,45652,46252,207,246 MY,1,45652,46252,261,259
Sprite,Foreground,Centre,"sb\dot.png",0,0 C,0,45652,,255,255,255 F,1,45652,46252,1,0 S,1,45652,46252,1,0.2 MX,1,45652,46252,207,215 MY,1,45652,46252,261,202
Sprite,Foreground,Centre,"sb\dot.png",0,0 C,0,45652,,255,255,255 F,1,45652,46252,1,0 S,1,45652,46252,1,0.2 MX,1,45652,46252,207,220 MY,1,45652,46252,261,305
Sprite,Foreground,Centre,"sb\dot.png",0,0 C,0,45652,,255,255,255 F,1,45652,46252,1,0 S,1,45652,46252,1,0.2 MX,1,45652,46252,207,224 MY,1,45652,46252,261,237
Sprite,Foreground,Centre,"sb\dot.png",0,0 C,0,45652,,255,255,255 F,1,45652,46252,1,0 S,1,45652,46252,1,0.2 MX,1,45652,46252,207,187 MY,1,45652,46252,261,309
Sprite,Foreground,Centre,"sb\dot.png",0,0 C,0,45652,,255,255,255 F,1,45652,46252,1,0 S,1,45652,46252,1,0.2 MX,1,45652,46252,207,198 MY,1,45652,46252,261,201
Sprite,Foreground,Centre,"sb\dot.png",0,0 C,0,45652,,255,255,255 F,1,45652,46252,1,0 S,1,45652,46252,1,0.2 MX,1,45652,46252,207,263 MY,1,45652,46252,261,301
Sprite,Foreground,Centre,"sb\dot.png",0,0 C,0,45652,,255,255,255 F,1,45652,46252,1,0 S,1,45652,46252,1,0.2 MX,1,45652,46252,207,235 MY,1,45652,46252,261,224
Sprite,Foreground,Centre,"sb\dot.png",0,0 C,0,45980,,255,255,255 F,1,45980,46580,1,0 S,1,45980,46580,1,0.2 MX,1,45980,46580,449,446 MY,1,45980,46580,65,45
Sprite,Foreground,Centre,"sb\dot.png",0,0 C,0,45980,,255,255,255 F,1,45980,46580,1,0 S,1,45980,46580,1,0.2 MX,1,45980,46580,449,436 MY,1,45980,46580,65,36
Sprite,Foreground,Centre,"sb\dot.png",0,0 C,0,45980,,255,255,255 F,1,45980,46580,1,0 S,1,45980,46580,1,0.2 MX,1,45980,46580,449,446 MY,1,45980,46580,65,112
Sprite,Foreground,Centre,"sb\dot.png",0,0 C,0,45980,,255,255,255 F,1,45980,46580,1,0 S,1,45980,46580,1,0.2 MX,1,45980,46580,449,440 MY,1,45980,46580,65,15
Sprite,Foreground,Centre,"sb\dot.png",0,0 C,0,45980,,255,255,255 F,1,45980,46580,1,0 S,1,45980,46580,1,0.2 MX,1,45980,46580,449,474 MY,1,45980,46580,65,19
Sprite,Foreground,Centre,"sb\dot.png",0,0 C,0,45980,,255,255,255 F,1,45980,46580,1,0 S,1,45980,46580,1,0.2 MX,1,45980,46580,449,402 MY,1,45980,46580,65,114
Sprite,Foreground,Centre,"sb\dot.png",0,0 C,0,45980,,255,255,255 F,1,45980,46580,1,0 S,1,45980,46580,1,0.2 MX,1,45980,46580,449,474 MY,1,45980,46580,65,18
Sprite,Foreground,Centre,"sb\dot.png",0,0 C,0,45980,,255,255,255 F,1,45980,46580,1,0 S,1,45980,46580,1,0.2 MX,1,45980,46580,449,482 MY,1,45980,46580,65,6
Sprite,Foreground,Centre,"sb\dot.png",0,0 C,0,45980,,255,255,255 F,1,45980,46580,1,0 S,1,45980,46580,1,0.2 MX,1,45980,46580,449,453 MY,1,45980,46580,65,81
Sprite,Foreground,Centre,"sb\dot.png",0,0 C,0,45980,,255,255,255 F,1,45980,46580,1,0 S,1,45980,46580,1,0.2 MX,1,45980,46580,449,489 MY,1,45980,46580,65,9
Sprite,Foreground,Centre,"sb\dot.png",0,0 C,0,45980,,255,255,255 F,1,45980,46580,1,0 S,1,45980,46580,1,0.2 MX,1,45980,46580,449,498 MY,1,45980,46580,65,118
Sprite,Foreground,Centre,"sb\dot.png",0,0 C,0,45980,,255,255,255 F,1,45980,46580,1,0 S,1,45980,46580,1,0.2 MX,1,45980,46580,449,394 MY,1,45980,46580,65,48
Sprite,Foreground,Centre,"sb\dot.png",0,0 C,0,45980,,255,255,255 F,1,45980,46580,1,0 S,1,45980,46580,1,0.2 MX,1,45980,46580,449,391 MY,1,45980,46580,65,7
Sprite,Foreground,Centre,"sb\dot.png",0,0 C,0,45980,,255,255,255 F,1,45980,46580,1,0 S,1,45980,46580,1,0.2 MX,1,45980,46580,449,453 MY,1,45980,46580,65,111
Sprite,Foreground,Centre,"sb\dot.png",0,0 C,0,45980,,255,255,255 F,1,45980,46580,1,0 S,1,45980,46580,1,0.2 MX,1,45980,46580,449,476 MY,1,45980,46580,65,68
Sprite,Foreground,Centre,"sb\dot.png",0,0 C,0,45980,,255,255,255 F,1,45980,46580,1,0 S,1,45980,46580,1,0.2 MX,1,45980,46580,449,401 MY,1,45980,46580,65,58
Sprite,Foreground,Centre,"sb\dot.png",0,0 C,0,45980,,255,255,255 F,1,45980,46580,1,0 S,1,45980,46580,1,0.2 MX,1,45980,46580,449,412 MY,1,45980,46580,65,41
Sprite,Foreground,Centre,"sb\dot.png",0,0 C,0,45980,,255,255,255 F,1,45980,46580,1,0 S,1,45980,46580,1,0.2 MX,1,45980,46580,449,426 MY,1,45980,46580,65,50
Sprite,Foreground,Centre,"sb\dot.png",0,0 C,0,45980,,255,255,255 F,1,45980,46580,1,0 S,1,45980,46580,1,0.2 MX,1,45980,46580,449,479 MY,1,45980,46580,65,39
Sprite,Foreground,Centre,"sb\dot.png",0,0 C,0,45980,,255,255,255 F,1,45980,46580,1,0 S,1,45980,46580,1,0.2 MX,1,45980,46580,449,390 MY,1,45980,46580,65,116
Sprite,Foreground,Centre,"sb\dot.png",0,0 C,0,45980,,255,255,255 F,1,45980,46580,1,0 S,1,45980,46580,1,0.2 MX,1,45980,46580,449,395 MY,1,45980,46580,65,63
Sprite,Foreground,Centre,"sb\dot.png",0,0 C,0,45980,,255,255,255 F,1,45980,46580,1,0 S,1,45980,46580,1,0.2 MX,1,45980,46580,449,425 MY,1,45980,46580,65,64
Sprite,Foreground,Centre,"sb\dot.png",0,0 C,0,45980,,255,255,255 F,1,45980,46580,1,0 S,1,45980,46580,1,0.2 MX,1,45980,46580,449,479 MY,1,45980,46580,65,92
Sprite,Foreground,Centre,"sb\dot.png",0,0 C,0,45980,,255,255,255 F,1,45980,46580,1,0 S,1,45980,46580,1,0.2 MX,1,45980,46580,449,459 MY,1,45980,46580,65,31
Sprite,Foreground,Centre,"sb\dot.png",0,0 C,0,45980,,255,255,255 F,1,45980,46580,1,0 S,1,45980,46580,1,0.2 MX,1,45980,46580,449,403 MY,1,45980,46580,65,54
Sprite,Foreground,Centre,"sb\dot.png",0,0 C,0,45980,,255,255,255 F,1,45980,46580,1,0 S,1,45980,46580,1,0.2 MX,1,45980,46580,449,444 MY,1,45980,46580,65,44
Sprite,Foreground,Centre,"sb\dot.png",0,0 C,0,45980,,255,255,255 F,1,45980,46580,1,0 S,1,45980,46580,1,0.2 MX,1,45980,46580,449,389 MY,1,45980,46580,65,89
Sprite,Foreground,Centre,"sb\dot.png",0,0 C,0,45980,,255,255,255 F,1,45980,46580,1,0 S,1,45980,46580,1,0.2 MX,1,45980,46580,449,423 MY,1,45980,46580,65,68
Sprite,Foreground,Centre,"sb\dot.png",0,0 C,0,45980,,255,255,255 F,1,45980,46580,1,0 S,1,45980,46580,1,0.2 MX,1,45980,46580,449,424 MY,1,45980,46580,65,8
Sprite,Foreground,Centre,"sb\dot.png",0,0 C,0,45980,,255,255,255 F,1,45980,46580,1,0 S,1,45980,46580,1,0.2 MX,1,45980,46580,449,417 MY,1,45980,46580,65,60
Sprite,Foreground,Centre,"sb\dot.png",0,0 C,0,46226,,255,255,255 F,1,46226,46826,1,0 S,1,46226,46826,1,0.2 MX,1,46226,46826,293,276 MY,1,46226,46826,287,292
Sprite,Foreground,Centre,"sb\dot.png",0,0 C,0,46226,,255,255,255 F,1,46226,46826,1,0 S,1,46226,46826,1,0.2 MX,1,46226,46826,293,276 MY,1,46226,46826,287,248
Sprite,Foreground,Centre,"sb\dot.png",0,0 C,0,46226,,255,255,255 F,1,46226,46826,1,0 S,1,46226,46826,1,0.2 MX,1,46226,46826,293,235 MY,1,46226,46826,287,307
Sprite,Foreground,Centre,"sb\dot.png",0,0 C,0,46226,,255,255,255 F,1,46226,46826,1,0 S,1,46226,46826,1,0.2 MX,1,46226,46826,293,318 MY,1,46226,46826,287,276
Sprite,Foreground,Centre,"sb\dot.png",0,0 C,0,46226,,255,255,255 F,1,46226,46826,1,0 S,1,46226,46826,1,0.2 MX,1,46226,46826,293,328 MY,1,46226,46826,287,275
Sprite,Foreground,Centre,"sb\dot.png",0,0 C,0,46226,,255,255,255 F,1,46226,46826,1,0 S,1,46226,46826,1,0.2 MX,1,46226,46826,293,264 MY,1,46226,46826,287,256
Sprite,Foreground,Centre,"sb\dot.png",0,0 C,0,46226,,255,255,255 F,1,46226,46826,1,0 S,1,46226,46826,1,0.2 MX,1,46226,46826,293,307 MY,1,46226,46826,287,336
Sprite,Foreground,Centre,"sb\dot.png",0,0 C,0,46226,,255,255,255 F,1,46226,46826,1,0 S,1,46226,46826,1,0.2 MX,1,46226,46826,293,351 MY,1,46226,46826,287,278
Sprite,Foreground,Centre,"sb\dot.png",0,0 C,0,46226,,255,255,255 F,1,46226,46826,1,0 S,1,46226,46826,1,0.2 MX,1,46226,46826,293,310 MY,1,46226,46826,287,293
Sprite,Foreground,Centre,"sb\dot.png",0,0 C,0,46226,,255,255,255 F,1,46226,46826,1,0 S,1,46226,46826,1,0.2 MX,1,46226,46826,293,305 MY,1,46226,46826,287,262
Sprite,Foreground,Centre,"sb\dot.png",0,0 C,0,46226,,255,255,255 F,1,46226,46826,1,0 S,1,46226,46826,1,0.2 MX,1,46226,46826,293,284 MY,1,46226,46826,287,264
Sprite,Foreground,Centre,"sb\dot.png",0,0 C,0,46226,,255,255,255 F,1,46226,46826,1,0 S,1,46226,46826,1,0.2 MX,1,46226,46826,293,324 MY,1,46226,46826,287,264
Sprite,Foreground,Centre,"sb\dot.png",0,0 C,0,46226,,255,255,255 F,1,46226,46826,1,0 S,1,46226,46826,1,0.2 MX,1,46226,46826,293,241 MY,1,46226,46826,287,319
Sprite,Foreground,Centre,"sb\dot.png",0,0 C,0,46226,,255,255,255 F,1,46226,46826,1,0 S,1,46226,46826,1,0.2 MX,1,46226,46826,293,286 MY,1,46226,46826,287,286
Sprite,Foreground,Centre,"sb\dot.png",0,0 C,0,46226,,255,255,255 F,1,46226,46826,1,0 S,1,46226,46826,1,0.2 MX,1,46226,46826,293,234 MY,1,46226,46826,287,321
Sprite,Foreground,Centre,"sb\dot.png",0,0 C,0,46226,,255,255,255 F,1,46226,46826,1,0 S,1,46226,46826,1,0.2 MX,1,46226,46826,293,243 MY,1,46226,46826,287,313
Sprite,Foreground,Centre,"sb\dot.png",0,0 C,0,46226,,255,255,255 F,1,46226,46826,1,0 S,1,46226,46826,1,0.2 MX,1,46226,46826,293,239 MY,1,46226,46826,287,293
Sprite,Foreground,Centre,"sb\dot.png",0,0 C,0,46226,,255,255,255 F,1,46226,46826,1,0 S,1,46226,46826,1,0.2 MX,1,46226,46826,293,301 MY,1,46226,46826,287,288
Sprite,Foreground,Centre,"sb\dot.png",0,0 C,0,46226,,255,255,255 F,1,46226,46826,1,0 S,1,46226,46826,1,0.2 MX,1,46226,46826,293,247 MY,1,46226,46826,287,241
Sprite,Foreground,Centre,"sb\dot.png",0,0 C,0,46226,,255,255,255 F,1,46226,46826,1,0 S,1,46226,46826,1,0.2 MX,1,46226,46826,293,289 MY,1,46226,46826,287,236
Sprite,Foreground,Centre,"sb\dot.png",0,0 C,0,46226,,255,255,255 F,1,46226,46826,1,0 S,1,46226,46826,1,0.2 MX,1,46226,46826,293,234 MY,1,46226,46826,287,248
Sprite,Foreground,Centre,"sb\dot.png",0,0 C,0,46226,,255,255,255 F,1,46226,46826,1,0 S,1,46226,46826,1,0.2 MX,1,46226,46826,293,284 MY,1,46226,46826,287,313
Sprite,Foreground,Centre,"sb\dot.png",0,0 C,0,46226,,255,255,255 F,1,46226,46826,1,0 S,1,46226,46826,1,0.2 MX,1,46226,46826,293,250 MY,1,46226,46826,287,252
Sprite,Foreground,Centre,"sb\dot.png",0,0 C,0,46226,,255,255,255 F,1,46226,46826,1,0 S,1,46226,46826,1,0.2 MX,1,46226,46826,293,317 MY,1,46226,46826,287,237
Sprite,Foreground,Centre,"sb\dot.png",0,0 C,0,46226,,255,255,255 F,1,46226,46826,1,0 S,1,46226,46826,1,0.2 MX,1,46226,46826,293,318 MY,1,46226,46826,287,330
Sprite,Foreground,Centre,"sb\dot.png",0,0 C,0,46226,,255,255,255 F,1,46226,46826,1,0 S,1,46226,46826,1,0.2 MX,1,46226,46826,293,338 MY,1,46226,46826,287,315
Sprite,Foreground,Centre,"sb\dot.png",0,0 C,0,46226,,255,255,255 F,1,46226,46826,1,0 S,1,46226,46826,1,0.2 MX,1,46226,46826,293,283 MY,1,46226,46826,287,340
Sprite,Foreground,Centre,"sb\dot.png",0,0 C,0,46226,,255,255,255 F,1,46226,46826,1,0 S,1,46226,46826,1,0.2 MX,1,46226,46826,293,237 MY,1,46226,46826,287,232
Sprite,Foreground,Centre,"sb\dot.png",0,0 C,0,46226,,255,255,255 F,1,46226,46826,1,0 S,1,46226,46826,1,0.2 MX,1,46226,46826,293,326 MY,1,46226,46826,287,232
Sprite,Foreground,Centre,"sb\dot.png",0,0 C,0,46226,,255,255,255 F,1,46226,46826,1,0 S,1,46226,46826,1,0.2 MX,1,46226,46826,293,246 MY,1,46226,46826,287,257
Sprite,Foreground,Centre,"sb\dot.png",0,0 C,0,46308,,255,255,255 F,1,46308,46908,1,0 S,1,46308,46908,1,0.2 MX,1,46308,46908,293,260 MY,1,46308,46908,287,252
Sprite,Foreground,Centre,"sb\dot.png",0,0 C,0,46308,,255,255,255 F,1,46308,46908,1,0 S,1,46308,46908,1,0.2 MX,1,46308,46908,293,281 MY,1,46308,46908,287,227
Sprite,Foreground,Centre,"sb\dot.png",0,0 C,0,46308,,255,255,255 F,1,46308,46908,1,0 S,1,46308,46908,1,0.2 MX,1,46308,46908,293,271 MY,1,46308,46908,287,292
Sprite,Foreground,Centre,"sb\dot.png",0,0 C,0,46308,,255,255,255 F,1,46308,46908,1,0 S,1,46308,46908,1,0.2 MX,1,46308,46908,293,256 MY,1,46308,46908,287,235
Sprite,Foreground,Centre,"sb\dot.png",0,0 C,0,46308,,255,255,255 F,1,46308,46908,1,0 S,1,46308,46908,1,0.2 MX,1,46308,46908,293,273 MY,1,46308,46908,287,283
Sprite,Foreground,Centre,"sb\dot.png",0,0 C,0,46308,,255,255,255 F,1,46308,46908,1,0 S,1,46308,46908,1,0.2 MX,1,46308,46908,293,269 MY,1,46308,46908,287,289
Sprite,Foreground,Centre,"sb\dot.png",0,0 C,0,46308,,255,255,255 F,1,46308,46908,1,0 S,1,46308,46908,1,0.2 MX,1,46308,46908,293,243 MY,1,46308,46908,287,290
Sprite,Foreground,Centre,"sb\dot.png",0,0 C,0,46308,,255,255,255 F,1,46308,46908,1,0 S,1,46308,46908,1,0.2 MX,1,46308,46908,293,266 MY,1,46308,46908,287,256
Sprite,Foreground,Centre,"sb\dot.png",0,0 C,0,46308,,255,255,255 F,1,46308,46908,1,0 S,1,46308,46908,1,0.2 MX,1,46308,46908,293,339 MY,1,46308,46908,287,232
Sprite,Foreground,Centre,"sb\dot.png",0,0 C,0,46308,,255,255,255 F,1,46308,46908,1,0 S,1,46308,46908,1,0.2 MX,1,46308,46908,293,252 MY,1,46308,46908,287,329
Sprite,Foreground,Centre,"sb\dot.png",0,0 C,0,46308,,255,255,255 F,1,46308,46908,1,0 S,1,46308,46908,1,0.2 MX,1,46308,46908,293,240 MY,1,46308,46908,287,269
Sprite,Foreground,Centre,"sb\dot.png",0,0 C,0,46308,,255,255,255 F,1,46308,46908,1,0 S,1,46308,46908,1,0.2 MX,1,46308,46908,293,327 MY,1,46308,46908,287,244
Sprite,Foreground,Centre,"sb\dot.png",0,0 C,0,46308,,255,255,255 F,1,46308,46908,1,0 S,1,46308,46908,1,0.2 MX,1,46308,46908,293,342 MY,1,46308,46908,287,268
Sprite,Foreground,Centre,"sb\dot.png",0,0 C,0,46308,,255,255,255 F,1,46308,46908,1,0 S,1,46308,46908,1,0.2 MX,1,46308,46908,293,268 MY,1,46308,46908,287,240
Sprite,Foreground,Centre,"sb\dot.png",0,0 C,0,46308,,255,255,255 F,1,46308,46908,1,0 S,1,46308,46908,1,0.2 MX,1,46308,46908,293,294 MY,1,46308,46908,287,289
Sprite,Foreground,Centre,"sb\dot.png",0,0 C,0,46308,,255,255,255 F,1,46308,46908,1,0 S,1,46308,46908,1,0.2 MX,1,46308,46908,293,320 MY,1,46308,46908,287,235
Sprite,Foreground,Centre,"sb\dot.png",0,0 C,0,46308,,255,255,255 F,1,46308,46908,1,0 S,1,46308,46908,1,0.2 MX,1,46308,46908,293,233 MY,1,46308,46908,287,253
Sprite,Foreground,Centre,"sb\dot.png",0,0 C,0,46308,,255,255,255 F,1,46308,46908,1,0 S,1,46308,46908,1,0.2 MX,1,46308,46908,293,335 MY,1,46308,46908,287,322
Sprite,Foreground,Centre,"sb\dot.png",0,0 C,0,46308,,255,255,255 F,1,46308,46908,1,0 S,1,46308,46908,1,0.2 MX,1,46308,46908,293,326 MY,1,46308,46908,287,277
Sprite,Foreground,Centre,"sb\dot.png",0,0 C,0,46308,,255,255,255 F,1,46308,46908,1,0 S,1,46308,46908,1,0.2 MX,1,46308,46908,293,280 MY,1,46308,46908,287,299
Sprite,Foreground,Centre,"sb\dot.png",0,0 C,0,46308,,255,255,255 F,1,46308,46908,1,0 S,1,46308,46908,1,0.2 MX,1,46308,46908,293,235 MY,1,46308,46908,287,303
Sprite,Foreground,Centre,"sb\dot.png",0,0 C,0,46308,,255,255,255 F,1,46308,46908,1,0 S,1,46308,46908,1,0.2 MX,1,46308,46908,293,322 MY,1,46308,46908,287,255
Sprite,Foreground,Centre,"sb\dot.png",0,0 C,0,46308,,255,255,255 F,1,46308,46908,1,0 S,1,46308,46908,1,0.2 MX,1,46308,46908,293,300 MY,1,46308,46908,287,269
Sprite,Foreground,Centre,"sb\dot.png",0,0 C,0,46308,,255,255,255 F,1,46308,46908,1,0 S,1,46308,46908,1,0.2 MX,1,46308,46908,293,311 MY,1,46308,46908,287,334
Sprite,Foreground,Centre,"sb\dot.png",0,0 C,0,46308,,255,255,255 F,1,46308,46908,1,0 S,1,46308,46908,1,0.2 MX,1,46308,46908,293,312 MY,1,46308,46908,287,321
Sprite,Foreground,Centre,"sb\dot.png",0,0 C,0,46308,,255,255,255 F,1,46308,46908,1,0 S,1,46308,46908,1,0.2 MX,1,46308,46908,293,251 MY,1,46308,46908,287,314
Sprite,Foreground,Centre,"sb\dot.png",0,0 C,0,46308,,255,255,255 F,1,46308,46908,1,0 S,1,46308,46908,1,0.2 MX,1,46308,46908,293,339 MY,1,46308,46908,287,258
Sprite,Foreground,Centre,"sb\dot.png",0,0 C,0,46308,,255,255,255 F,1,46308,46908,1,0 S,1,46308,46908,1,0.2 MX,1,46308,46908,293,255 MY,1,46308,46908,287,332
Sprite,Foreground,Centre,"sb\dot.png",0,0 C,0,46308,,255,255,255 F,1,46308,46908,1,0 S,1,46308,46908,1,0.2 MX,1,46308,46908,293,284 MY,1,46308,46908,287,257
Sprite,Foreground,Centre,"sb\dot.png",0,0 C,0,46308,,255,255,255 F,1,46308,46908,1,0 S,1,46308,46908,1,0.2 MX,1,46308,46908,293,244 MY,1,46308,46908,287,343
Sprite,Foreground,Centre,"sb\dot.png",0,0 C,0,46471,,255,255,255 F,1,46471,47071,1,0 S,1,46471,47071,1,0.2 MX,1,46471,47071,441,411 MY,1,46471,47071,387,337
Sprite,Foreground,Centre,"sb\dot.png",0,0 C,0,46471,,255,255,255 F,1,46471,47071,1,0 S,1,46471,47071,1,0.2 MX,1,46471,47071,441,447 MY,1,46471,47071,387,425
Sprite,Foreground,Centre,"sb\dot.png",0,0 C,0,46471,,255,255,255 F,1,46471,47071,1,0 S,1,46471,47071,1,0.2 MX,1,46471,47071,441,470 MY,1,46471,47071,387,354
Sprite,Foreground,Centre,"sb\dot.png",0,0 C,0,46471,,255,255,255 F,1,46471,47071,1,0 S,1,46471,47071,1,0.2 MX,1,46471,47071,441,443 MY,1,46471,47071,387,430
Sprite,Foreground,Centre,"sb\dot.png",0,0 C,0,46471,,255,255,255 F,1,46471,47071,1,0 S,1,46471,47071,1,0.2 MX,1,46471,47071,441,462 MY,1,46471,47071,387,384
Sprite,Foreground,Centre,"sb\dot.png",0,0 C,0,46471,,255,255,255 F,1,46471,47071,1,0 S,1,46471,47071,1,0.2 MX,1,46471,47071,441,437 MY,1,46471,47071,387,383
Sprite,Foreground,Centre,"sb\dot.png",0,0 C,0,46471,,255,255,255 F,1,46471,47071,1,0 S,1,46471,47071,1,0.2 MX,1,46471,47071,441,458 MY,1,46471,47071,387,394
Sprite,Foreground,Centre,"sb\dot.png",0,0 C,0,46471,,255,255,255 F,1,46471,47071,1,0 S,1,46471,47071,1,0.2 MX,1,46471,47071,441,481 MY,1,46471,47071,387,378
Sprite,Foreground,Centre,"sb\dot.png",0,0 C,0,46471,,255,255,255 F,1,46471,47071,1,0 S,1,46471,47071,1,0.2 MX,1,46471,47071,441,453 MY,1,46471,47071,387,392
Sprite,Foreground,Centre,"sb\dot.png",0,0 C,0,46471,,255,255,255 F,1,46471,47071,1,0 S,1,46471,47071,1,0.2 MX,1,46471,47071,441,451 MY,1,46471,47071,387,393
Sprite,Foreground,Centre,"sb\dot.png",0,0 C,0,46471,,255,255,255 F,1,46471,47071,1,0 S,1,46471,47071,1,0.2 MX,1,46471,47071,441,464 MY,1,46471,47071,387,374
Sprite,Foreground,Centre,"sb\dot.png",0,0 C,0,46471,,255,255,255 F,1,46471,47071,1,0 S,1,46471,47071,1,0.2 MX,1,46471,47071,441,434 MY,1,46471,47071,387,414
Sprite,Foreground,Centre,"sb\dot.png",0,0 C,0,46471,,255,255,255 F,1,46471,47071,1,0 S,1,46471,47071,1,0.2 MX,1,46471,47071,441,424 MY,1,46471,47071,387,327
Sprite,Foreground,Centre,"sb\dot.png",0,0 C,0,46471,,255,255,255 F,1,46471,47071,1,0 S,1,46471,47071,1,0.2 MX,1,46471,47071,441,403 MY,1,46471,47071,387,416
Sprite,Foreground,Centre,"sb\dot.png",0,0 C,0,46471,,255,255,255 F,1,46471,47071,1,0 S,1,46471,47071,1,0.2 MX,1,46471,47071,441,384 MY,1,46471,47071,387,444
Sprite,Foreground,Centre,"sb\dot.png",0,0 C,0,46471,,255,255,255 F,1,46471,47071,1,0 S,1,46471,47071,1,0.2 MX,1,46471,47071,441,425 MY,1,46471,47071,387,389
Sprite,Foreground,Centre,"sb\dot.png",0,0 C,0,46471,,255,255,255 F,1,46471,47071,1,0 S,1,46471,47071,1,0.2 MX,1,46471,47071,441,419 MY,1,46471,47071,387,378
Sprite,Foreground,Centre,"sb\dot.png",0,0 C,0,46471,,255,255,255 F,1,46471,47071,1,0 S,1,46471,47071,1,0.2 MX,1,46471,47071,441,423 MY,1,46471,47071,387,439
Sprite,Foreground,Centre,"sb\dot.png",0,0 C,0,46471,,255,255,255 F,1,46471,47071,1,0 S,1,46471,47071,1,0.2 MX,1,46471,47071,441,390 MY,1,46471,47071,387,438
Sprite,Foreground,Centre,"sb\dot.png",0,0 C,0,46471,,255,255,255 F,1,46471,47071,1,0 S,1,46471,47071,1,0.2 MX,1,46471,47071,441,440 MY,1,46471,47071,387,366
Sprite,Foreground,Centre,"sb\dot.png",0,0 C,0,46471,,255,255,255 F,1,46471,47071,1,0 S,1,46471,47071,1,0.2 MX,1,46471,47071,441,481 MY,1,46471,47071,387,421
Sprite,Foreground,Centre,"sb\dot.png",0,0 C,0,46471,,255,255,255 F,1,46471,47071,1,0 S,1,46471,47071,1,0.2 MX,1,46471,47071,441,407 MY,1,46471,47071,387,348
Sprite,Foreground,Centre,"sb\dot.png",0,0 C,0,46471,,255,255,255 F,1,46471,47071,1,0 S,1,46471,47071,1,0.2 MX,1,46471,47071,441,418 MY,1,46471,47071,387,409
Sprite,Foreground,Centre,"sb\dot.png",0,0 C,0,46471,,255,255,255 F,1,46471,47071,1,0 S,1,46471,47071,1,0.2 MX,1,46471,47071,441,390 MY,1,46471,47071,387,366
Sprite,Foreground,Centre,"sb\dot.png",0,0 C,0,46471,,255,255,255 F,1,46471,47071,1,0 S,1,46471,47071,1,0.2 MX,1,46471,47071,441,431 MY,1,46471,47071,387,418
Sprite,Foreground,Centre,"sb\dot.png",0,0 C,0,46471,,255,255,255 F,1,46471,47071,1,0 S,1,46471,47071,1,0.2 MX,1,46471,47071,441,413 MY,1,46471,47071,387,433
Sprite,Foreground,Centre,"sb\dot.png",0,0 C,0,46471,,255,255,255 F,1,46471,47071,1,0 S,1,46471,47071,1,0.2 MX,1,46471,47071,441,461 MY,1,46471,47071,387,391
Sprite,Foreground,Centre,"sb\dot.png",0,0 C,0,46471,,255,255,255 F,1,46471,47071,1,0 S,1,46471,47071,1,0.2 MX,1,46471,47071,441,414 MY,1,46471,47071,387,429
Sprite,Foreground,Centre,"sb\dot.png",0,0 C,0,46471,,255,255,255 F,1,46471,47071,1,0 S,1,46471,47071,1,0.2 MX,1,46471,47071,441,457 MY,1,46471,47071,387,426
Sprite,Foreground,Centre,"sb\dot.png",0,0 C,0,46471,,255,255,255 F,1,46471,47071,1,0 S,1,46471,47071,1,0.2 MX,1,46471,47071,441,435 MY,1,46471,47071,387,415
Sprite,Foreground,Centre,"sb\dot.png",0,0 C,0,46635,,255,255,255 F,1,46635,47235,1,0 S,1,46635,47235,1,0.2 MX,1,46635,47235,266,210 MY,1,46635,47235,430,462
Sprite,Foreground,Centre,"sb\dot.png",0,0 C,0,46635,,255,255,255 F,1,46635,47235,1,0 S,1,46635,47235,1,0.2 MX,1,46635,47235,266,305 MY,1,46635,47235,430,453
Sprite,Foreground,Centre,"sb\dot.png",0,0 C,0,46635,,255,255,255 F,1,46635,47235,1,0 S,1,46635,47235,1,0.2 MX,1,46635,47235,266,219 MY,1,46635,47235,430,483
Sprite,Foreground,Centre,"sb\dot.png",0,0 C,0,46635,,255,255,255 F,1,46635,47235,1,0 S,1,46635,47235,1,0.2 MX,1,46635,47235,266,223 MY,1,46635,47235,430,396
Sprite,Foreground,Centre,"sb\dot.png",0,0 C,0,46635,,255,255,255 F,1,46635,47235,1,0 S,1,46635,47235,1,0.2 MX,1,46635,47235,266,230 MY,1,46635,47235,430,478
Sprite,Foreground,Centre,"sb\dot.png",0,0 C,0,46635,,255,255,255 F,1,46635,47235,1,0 S,1,46635,47235,1,0.2 MX,1,46635,47235,266,247 MY,1,46635,47235,430,450
Sprite,Foreground,Centre,"sb\dot.png",0,0 C,0,46635,,255,255,255 F,1,46635,47235,1,0 S,1,46635,47235,1,0.2 MX,1,46635,47235,266,211 MY,1,46635,47235,430,400
Sprite,Foreground,Centre,"sb\dot.png",0,0 C,0,46635,,255,255,255 F,1,46635,47235,1,0 S,1,46635,47235,1,0.2 MX,1,46635,47235,266,292 MY,1,46635,47235,430,478
Sprite,Foreground,Centre,"sb\dot.png",0,0 C,0,46635,,255,255,255 F,1,46635,47235,1,0 S,1,46635,47235,1,0.2 MX,1,46635,47235,266,227 MY,1,46635,47235,430,402
Sprite,Foreground,Centre,"sb\dot.png",0,0 C,0,46635,,255,255,255 F,1,46635,47235,1,0 S,1,46635,47235,1,0.2 MX,1,46635,47235,266,256 MY,1,46635,47235,430,451
Sprite,Foreground,Centre,"sb\dot.png",0,0 C,0,46635,,255,255,255 F,1,46635,47235,1,0 S,1,46635,47235,1,0.2 MX,1,46635,47235,266,316 MY,1,46635,47235,430,473
Sprite,Foreground,Centre,"sb\dot.png",0,0 C,0,46635,,255,255,255 F,1,46635,47235,1,0 S,1,46635,47235,1,0.2 MX,1,46635,47235,266,245 MY,1,46635,47235,430,402
Sprite,Foreground,Centre,"sb\dot.png",0,0 C,0,46635,,255,255,255 F,1,46635,47235,1,0 S,1,46635,47235,1,0.2 MX,1,46635,47235,266,290 MY,1,46635,47235,430,427
Sprite,Foreground,Centre,"sb\dot.png",0,0 C,0,46635,,255,255,255 F,1,46635,47235,1,0 S,1,46635,47235,1,0.2 MX,1,46635,47235,266,308 MY,1,46635,47235,430,463
Sprite,Foreground,Centre,"sb\dot.png",0,0 C,0,46635,,255,255,255 F,1,46635,47235,1,0 S,1,46635,47235,1,0.2 MX,1,46635,47235,266,224 MY,1,46635,47235,430
Sprite,Foreground,Centre,"sb\dot.png",0,0 C,0,46635,,255,255,255 F,1,46635,47235,1,0 S,1,46635,47235,1,0.2 MX,1,46635,47235,266,242 MY,1,46635,47235,430,400
Sprite,Foreground,Centre,"sb\dot.png",0,0 C,0,46635,,255,255,255 F,1,46635,47235,1,0 S,1,46635,47235,1,0.2 MX,1,46635,47235,266,262 MY,1,46635,47235,430,460
Sprite,Foreground,Centre,"sb\dot.png",0,0 C,0,46635,,255,255,255 F,1,46635,47235,1,0 S,1,46635,47235,1,0.2 MX,1,46635,47235,266,241 MY,1,46635,47235,430,378
Sprite,Foreground,Centre,"sb\dot.png",0,0 C,0,46635,,255,255,255 F,1,46635,47235,1,0 S,1,46635,47235,1,0.2 MX,1,46635,47235,266,321 MY,1,46635,47235,430,432
Sprite,Foreground,Centre,"sb\dot.png",0,0 C,0,46635,,255,255,255 F,1,46635,47235,1,0 S,1,46635,47235,1,0.2 MX,1,46635,47235,266,213 MY,1,46635,47235,430,413
Sprite,Foreground,Centre,"sb\dot.png",0,0 C,0,46635,,255,255,255 F,1,46635,47235,1,0 S,1,46635,47235,1,0.2 MX,1,46635,47235,266,270 MY,1,46635,47235,430,473
Sprite,Foreground,Centre,"sb\dot.png",0,0 C,0,46635,,255,255,255 F,1,46635,47235,1,0 S,1,46635,47235,1,0.2 MX,1,46635,47235,266,220 MY,1,46635,47235,430,432
Sprite,Foreground,Centre,"sb\dot.png",0,0 C,0,46635,,255,255,255 F,1,46635,47235,1,0 S,1,46635,47235,1,0.2 MX,1,46635,47235,266,255 MY,1,46635,47235,430,442
Sprite,Foreground,Centre,"sb\dot.png",0,0 C,0,46635,,255,255,255 F,1,46635,47235,1,0 S,1,46635,47235,1,0.2 MX,1,46635,47235,266,307 MY,1,46635,47235,430,420
Sprite,Foreground,Centre,"sb\dot.png",0,0 C,0,46635,,255,255,255 F,1,46635,47235,1,0 S,1,46635,47235,1,0.2 MX,1,46635,47235,266,304 MY,1,46635,47235,430,414
Sprite,Foreground,Centre,"sb\dot.png",0,0 C,0,46635,,255,255,255 F,1,46635,47235,1,0 S,1,46635,47235,1,0.2 MX,1,46635,47235,266,287 MY,1,46635,47235,430,413
Sprite,Foreground,Centre,"sb\dot.png",0,0 C,0,46635,,255,255,255 F,1,46635,47235,1,0 S,1,46635,47235,1,0.2 MX,1,46635,47235,266,254 MY,1,46635,47235,430,463
Sprite,Foreground,Centre,"sb\dot.png",0,0 C,0,46635,,255,255,255 F,1,46635,47235,1,0 S,1,46635,47235,1,0.2 MX,1,46635,47235,266,304 MY,1,46635,47235,430,391
Sprite,Foreground,Centre,"sb\dot.png",0,0 C,0,46635,,255,255,255 F,1,46635,47235,1,0 S,1,46635,47235,1,0.2 MX,1,46635,47235,266,258 MY,1,46635,47235,430,437
Sprite,Foreground,Centre,"sb\dot.png",0,0 C,0,46635,,255,255,255 F,1,46635,47235,1,0 S,1,46635,47235,1,0.2 MX,1,46635,47235,266,325 MY,1,46635,47235,430,446
Sprite,Foreground,Centre,"sb\dot.png",0,0 C,0,46799,,255,255,255 F,1,46799,47399,1,0 S,1,46799,47399,1,0.2 MX,1,46799,47399,186,137 MY,1,46799,47399,414,398
Sprite,Foreground,Centre,"sb\dot.png",0,0 C,0,46799,,255,255,255 F,1,46799,47399,1,0 S,1,46799,47399,1,0.2 MX,1,46799,47399,186,134 MY,1,46799,47399,414,438
Sprite,Foreground,Centre,"sb\dot.png",0,0 C,0,46799,,255,255,255 F,1,46799,47399,1,0 S,1,46799,47399,1,0.2 MX,1,46799,47399,186,198 MY,1,46799,47399,414,365
Sprite,Foreground,Centre,"sb\dot.png",0,0 C,0,46799,,255,255,255 F,1,46799,47399,1,0 S,1,46799,47399,1,0.2 MX,1,46799,47399,186,149 MY,1,46799,47399,414,388
Sprite,Foreground,Centre,"sb\dot.png",0,0 C,0,46799,,255,255,255 F,1,46799,47399,1,0 S,1,46799,47399,1,0.2 MX,1,46799,47399,186,240 MY,1,46799,47399,414,431
Sprite,Foreground,Centre,"sb\dot.png",0,0 C,0,46799,,255,255,255 F,1,46799,47399,1,0 S,1,46799,47399,1,0.2 MX,1,46799,47399,186,239 MY,1,46799,47399,414,432
Sprite,Foreground,Centre,"sb\dot.png",0,0 C,0,46799,,255,255,255 F,1,46799,47399,1,0 S,1,46799,47399,1,0.2 MX,1,46799,47399,186,150 MY,1,46799,47399,414,360
Sprite,Foreground,Centre,"sb\dot.png",0,0 C,0,46799,,255,255,255 F,1,46799,47399,1,0 S,1,46799,47399,1,0.2 MX,1,46799,47399,186,142 MY,1,46799,47399,414,361
Sprite,Foreground,Centre,"sb\dot.png",0,0 C,0,46799,,255,255,255 F,1,46799,47399,1,0 S,1,46799,47399,1,0.2 MX,1,46799,47399,186,215 MY,1,46799,47399,414,450
Sprite,Foreground,Centre,"sb\dot.png",0,0 C,0,46799,,255,255,255 F,1,46799,47399,1,0 S,1,46799,47399,1,0.2 MX,1,46799,47399,186,228 MY,1,46799,47399,414,366
Sprite,Foreground,Centre,"sb\dot.png",0,0 C,0,46799,,255,255,255 F,1,46799,47399,1,0 S,1,46799,47399,1,0.2 MX,1,46799,47399,186,201 MY,1,46799,47399,414,405
Sprite,Foreground,Centre,"sb\dot.png",0,0 C,0,46799,,255,255,255 F,1,46799,47399,1,0 S,1,46799,47399,1,0.2 MX,1,46799,47399,186,240 MY,1,46799,47399,414,447
Sprite,Foreground,Centre,"sb\dot.png",0,0 C,0,46799,,255,255,255 F,1,46799,47399,1,0 S,1,46799,47399,1,0.2 MX,1,46799,47399,186,225 MY,1,46799,47399,414,466
Sprite,Foreground,Centre,"sb\dot.png",0,0 C,0,46799,,255,255,255 F,1,46799,47399,1,0 S,1,46799,47399,1,0.2 MX,1,46799,47399,186,227 MY,1,46799,47399,414,437
Sprite,Foreground,Centre,"sb\dot.png",0,0 C,0,46799,,255,255,255 F,1,46799,47399,1,0 S,1,46799,47399,1,0.2 MX,1,46799,47399,186,238 MY,1,46799,47399,414,367
Sprite,Foreground,Centre,"sb\dot.png",0,0 C,0,46799,,255,255,255 F,1,46799,47399,1,0 S,1,46799,47399,1,0.2 MX,1,46799,47399,186,201 MY,1,46799,47399,414,402
Sprite,Foreground,Centre,"sb\dot.png",0,0 C,0,46799,,255,255,255 F,1,46799,47399,1,0 S,1,46799,47399,1,0.2 MX,1,46799,47399,186,189 MY,1,46799,47399,414,405
Sprite,Foreground,Centre,"sb\dot.png",0,0 C,0,46799,,255,255,255 F,1,46799,47399,1,0 S,1,46799,47399,1,0.2 MX,1,46799,47399,186,157 MY,1,46799,47399,414,374
Sprite,Foreground,Centre,"sb\dot.png",0,0 C,0,46799,,255,255,255 F,1,46799,47399,1,0 S,1,46799,47399,1,0.2 MX,1,46799,47399,186,220 MY,1,46799,47399,414,403
Sprite,Foreground,Centre,"sb\dot.png",0,0 C,0,46799,,255,255,255 F,1,46799,47399,1,0 S,1,46799,47399,1,0.2 MX,1,46799,47399,186,236 MY,1,46799,47399,414,392
Sprite,Foreground,Centre,"sb\dot.png",0,0 C,0,46799,,255,255,255 F,1,46799,47399,1,0 S,1,46799,47399,1,0.2 MX,1,46799,47399,186,174 MY,1,46799,47399,414,421
Sprite,Foreground,Centre,"sb\dot.png",0,0 C,0,46799,,255,255,255 F,1,46799,47399,1,0 S,1,46799,47399,1,0.2 MX,1,46799,47399,186,181 MY,1,46799,47399,414,375
Sprite,Foreground,Centre,"sb\dot.png",0,0 C,0,46799,,255,255,255 F,1,46799,47399,1,0 S,1,46799,47399,1,0.2 MX,1,46799,47399,186,176 MY,1,46799,47399,414,356
Sprite,Foreground,Centre,"sb\dot.png",0,0 C,0,46799,,255,255,255 F,1,46799,47399,1,0 S,1,46799,47399,1,0.2 MX,1,46799,47399,186,145 MY,1,46799,47399,414,396
Sprite,Foreground,Centre,"sb\dot.png",0,0 C,0,46799,,255,255,255 F,1,46799,47399,1,0 S,1,46799,47399,1,0.2 MX,1,46799,47399,186,203 MY,1,46799,47399,414,445
Sprite,Foreground,Centre,"sb\dot.png",0,0 C,0,46799,,255,255,255 F,1,46799,47399,1,0 S,1,46799,47399,1,0.2 MX,1,46799,47399,186,178 MY,1,46799,47399,414,429
Sprite,Foreground,Centre,"sb\dot.png",0,0 C,0,46799,,255,255,255 F,1,46799,47399,1,0 S,1,46799,47399,1,0.2 MX,1,46799,47399,186,210 MY,1,46799,47399,414,461
Sprite,Foreground,Centre,"sb\dot.png",0,0 C,0,46799,,255,255,255 F,1,46799,47399,1,0 S,1,46799,47399,1,0.2 MX,1,46799,47399,186,126 MY,1,46799,47399,414,434
Sprite,Foreground,Centre,"sb\dot.png",0,0 C,0,46799,,255,255,255 F,1,46799,47399,1,0 S,1,46799,47399,1,0.2 MX,1,46799,47399,186,175 MY,1,46799,47399,414,388
Sprite,Foreground,Centre,"sb\dot.png",0,0 C,0,46799,,255,255,255 F,1,46799,47399,1,0 S,1,46799,47399,1,0.2 MX,1,46799,47399,186,231 MY,1,46799,47399,414,433
Sprite,Foreground,Centre,"sb\dot.png",0,0 C,0,46963,,255,255,255 F,1,46963,47563,1,0 S,1,46963,47563,1,0.2 MX,1,46963,47563,441,410 MY,1,46963,47563,387
Sprite,Foreground,Centre,"sb\dot.png",0,0 C,0,46963,,255,255,255 F,1,46963,47563,1,0 S,1,46963,47563,1,0.2 MX,1,46963,47563,441,422 MY,1,46963,47563,387,428
Sprite,Foreground,Centre,"sb\dot.png",0,0 C,0,46963,,255,255,255 F,1,46963,47563,1,0 S,1,46963,47563,1,0.2 MX,1,46963,47563,441,383 MY,1,46963,47563,387,392
Sprite,Foreground,Centre,"sb\dot.png",0,0 C,0,46963,,255,255,255 F,1,46963,47563,1,0 S,1,46963,47563,1,0.2 MX,1,46963,47563,441,396 MY,1,46963,47563,387,419
Sprite,Foreground,Centre,"sb\dot.png",0,0 C,0,46963,,255,255,255 F,1,46963,47563,1,0 S,1,46963,47563,1,0.2 MX,1,46963,47563,441,475 MY,1,46963,47563,387,442
Sprite,Foreground,Centre,"sb\dot.png",0,0 C,0,46963,,255,255,255 F,1,46963,47563,1,0 S,1,46963,47563,1,0.2 MX,1,46963,47563,441,413 MY,1,46963,47563,387,366
Sprite,Foreground,Centre,"sb\dot.png",0,0 C,0,46963,,255,255,255 F,1,46963,47563,1,0 S,1,46963,47563,1,0.2 MX,1,46963,47563,441,487 MY,1,46963,47563,387,390
Sprite,Foreground,Centre,"sb\dot.png",0,0 C,0,46963,,255,255,255 F,1,46963,47563,1,0 S,1,46963,47563,1,0.2 MX,1,46963,47563,441,465 MY,1,46963,47563,387,335
Sprite,Foreground,Centre,"sb\dot.png",0,0 C,0,46963,,255,255,255 F,1,46963,47563,1,0 S,1,46963,47563,1,0.2 MX,1,46963,47563,441,496 MY,1,46963,47563,387,420
Sprite,Foreground,Centre,"sb\dot.png",0,0 C,0,46963,,255,255,255 F,1,46963,47563,1,0 S,1,46963,47563,1,0.2 MX,1,46963,47563,441,423 MY,1,46963,47563,387,423
Sprite,Foreground,Centre,"sb\dot.png",0,0 C,0,46963,,255,255,255 F,1,46963,47563,1,0 S,1,46963,47563,1,0.2 MX,1,46963,47563,441,473 MY,1,46963,47563,387,386
Sprite,Foreground,Centre,"sb\dot.png",0,0 C,0,46963,,255,255,255 F,1,46963,47563,1,0 S,1,46963,47563,1,0.2 MX,1,46963,47563,441,387 MY,1,46963,47563,387,348
Sprite,Foreground,Centre,"sb\dot.png",0,0 C,0,46963,,255,255,255 F,1,46963,47563,1,0 S,1,46963,47563,1,0.2 MX,1,46963,47563,441,462 MY,1,46963,47563,387,446
Sprite,Foreground,Centre,"sb\dot.png",0,0 C,0,46963,,255,255,255 F,1,46963,47563,1,0 S,1,46963,47563,1,0.2 MX,1,46963,47563,441,464 MY,1,46963,47563,387,402
Sprite,Foreground,Centre,"sb\dot.png",0,0 C,0,46963,,255,255,255 F,1,46963,47563,1,0 S,1,46963,47563,1,0.2 MX,1,46963,47563,441,431 MY,1,46963,47563,387,398
Sprite,Foreground,Centre,"sb\dot.png",0,0 C,0,46963,,255,255,255 F,1,46963,47563,1,0 S,1,46963,47563,1,0.2 MX,1,46963,47563,441,472 MY,1,46963,47563,387,386
Sprite,Foreground,Centre,"sb\dot.png",0,0 C,0,46963,,255,255,255 F,1,46963,47563,1,0 S,1,46963,47563,1,0.2 MX,1,46963,47563,441,445 MY,1,46963,47563,387,357
Sprite,Foreground,Centre,"sb\dot.png",0,0 C,0,46963,,255,255,255 F,1,46963,47563,1,0 S,1,46963,47563,1,0.2 MX,1,46963,47563,441,389 MY,1,46963,47563,387,434
Sprite,Foreground,Centre,"sb\dot.png",0,0 C,0,46963,,255,255,255 F,1,46963,47563,1,0 S,1,46963,47563,1,0.2 MX,1,46963,47563,441,406 MY,1,46963,47563,387,401
Sprite,Foreground,Centre,"sb\dot.png",0,0 C,0,46963,,255,255,255 F,1,46963,47563,1,0 S,1,46963,47563,1,0.2 MX,1,46963,47563,441,400 MY,1,46963,47563,387,432
Sprite,Foreground,Centre,"sb\dot.png",0,0 C,0,46963,,255,255,255 F,1,46963,47563,1,0 S,1,46963,47563,1,0.2 MX,1,46963,47563,441,488 MY,1,46963,47563,387,373
Sprite,Foreground,Centre,"sb\dot.png",0,0 C,0,46963,,255,255,255 F,1,46963,47563,1,0 S,1,46963,47563,1,0.2 MX,1,46963,47563,441,448 MY,1,46963,47563,387,408
Sprite,Foreground,Centre,"sb\dot.png",0,0 C,0,46963,,255,255,255 F,1,46963,47563,1,0 S,1,46963,47563,1,0.2 MX,1,46963,47563,441,439 MY,1,46963,47563,387,339
Sprite,Foreground,Centre,"sb\dot.png",0,0 C,0,46963,,255,255,255 F,1,46963,47563,1,0 S,1,46963,47563,1,0.2 MX,1,46963,47563,441,470 MY,1,46963,47563,387,348
Sprite,Foreground,Centre,"sb\dot.png",0,0 C,0,46963,,255,255,255 F,1,46963,47563,1,0 S,1,46963,47563,1,0.2 MX,1,46963,47563,441,404 MY,1,46963,47563,387,439
Sprite,Foreground,Centre,"sb\dot.png",0,0 C,0,46963,,255,255,255 F,1,46963,47563,1,0 S,1,46963,47563,1,0.2 MX,1,46963,47563,441,465 MY,1,46963,47563,387,402
Sprite,Foreground,Centre,"sb\dot.png",0,0 C,0,46963,,255,255,255 F,1,46963,47563,1,0 S,1,46963,47563,1,0.2 MX,1,46963,47563,441,492 MY,1,46963,47563,387,336
Sprite,Foreground,Centre,"sb\dot.png",0,0 C,0,46963,,255,255,255 F,1,46963,47563,1,0 S,1,46963,47563,1,0.2 MX,1,46963,47563,441,488 MY,1,46963,47563,387,417
Sprite,Foreground,Centre,"sb\dot.png",0,0 C,0,46963,,255,255,255 F,1,46963,47563,1,0 S,1,46963,47563,1,0.2 MX,1,46963,47563,441,435 MY,1,46963,47563,387,347
Sprite,Foreground,Centre,"sb\dot.png",0,0 C,0,46963,,255,255,255 F,1,46963,47563,1,0 S,1,46963,47563,1,0.2 MX,1,46963,47563,441,400 MY,1,46963,47563,387,329
Sprite,Foreground,Centre,"sb\dot.png",0,0 C,0,47127,,255,255,255 F,1,47127,47727,1,0 S,1,47127,47727,1,0.2 MX,1,47127,47727,521,563 MY,1,47127,47727,371,370
Sprite,Foreground,Centre,"sb\dot.png",0,0 C,0,47127,,255,255,255 F,1,47127,47727,1,0 S,1,47127,47727,1,0.2 MX,1,47127,47727,521,503 MY,1,47127,47727,371,334
Sprite,Foreground,Centre,"sb\dot.png",0,0 C,0,47127,,255,255,255 F,1,47127,47727,1,0 S,1,47127,47727,1,0.2 MX,1,47127,47727,521,485 MY,1,47127,47727,371,403
Sprite,Foreground,Centre,"sb\dot.png",0,0 C,0,47127,,255,255,255 F,1,47127,47727,1,0 S,1,47127,47727,1,0.2 MX,1,47127,47727,521,556 MY,1,47127,47727,371,387
Sprite,Foreground,Centre,"sb\dot.png",0,0 C,0,47127,,255,255,255 F,1,47127,47727,1,0 S,1,47127,47727,1,0.2 MX,1,47127,47727,521,515 MY,1,47127,47727,371,407
Sprite,Foreground,Centre,"sb\dot.png",0,0 C,0,47127,,255,255,255 F,1,47127,47727,1,0 S,1,47127,47727,1,0.2 MX,1,47127,47727,521,564 MY,1,47127,47727,371,352
Sprite,Foreground,Centre,"sb\dot.png",0,0 C,0,47127,,255,255,255 F,1,47127,47727,1,0 S,1,47127,47727,1,0.2 MX,1,47127,47727,521,535 MY,1,47127,47727,371,368
Sprite,Foreground,Centre,"sb\dot.png",0,0 C,0,47127,,255,255,255 F,1,47127,47727,1,0 S,1,47127,47727,1,0.2 MX,1,47127,47727,521,569 MY,1,47127,47727,371,357
Sprite,Foreground,Centre,"sb\dot.png",0,0 C,0,47127,,255,255,255 F,1,47127,47727,1,0 S,1,47127,47727,1,0.2 MX,1,47127,47727,521,573 MY,1,47127,47727,371,355
Sprite,Foreground,Centre,"sb\dot.png",0,0 C,0,47127,,255,255,255 F,1,47127,47727,1,0 S,1,47127,47727,1,0.2 MX,1,47127,47727,521,543 MY,1,47127,47727,371,379
Sprite,Foreground,Centre,"sb\dot.png",0,0 C,0,47127,,255,255,255 F,1,47127,47727,1,0 S,1,47127,47727,1,0.2 MX,1,47127,47727,521,491 MY,1,47127,47727,371,373
Sprite,Foreground,Centre,"sb\dot.png",0,0 C,0,47127,,255,255,255 F,1,47127,47727,1,0 S,1,47127,47727,1,0.2 MX,1,47127,47727,521,513 MY,1,47127,47727,371,369
Sprite,Foreground,Centre,"sb\dot.png",0,0 C,0,47127,,255,255,255 F,1,47127,47727,1,0 S,1,47127,47727,1,0.2 MX,1,47127,47727,521,567 MY,1,47127,47727,371,326
Sprite,Foreground,Centre,"sb\dot.png",0,0 C,0,47127,,255,255,255 F,1,47127,47727,1,0 S,1,47127,47727,1,0.2 MX,1,47127,47727,521,528 MY,1,47127,47727,371,366
Sprite,Foreground,Centre,"sb\dot.png",0,0 C,0,47127,,255,255,255 F,1,47127,47727,1,0 S,1,47127,47727,1,0.2 MX,1,47127,47727,521,504 MY,1,47127,47727,371,349
Sprite,Foreground,Centre,"sb\dot.png",0,0 C,0,47127,,255,255,255 F,1,47127,47727,1,0 S,1,47127,47727,1,0.2 MX,1,47127,47727,521,514 MY,1,47127,47727,371,315
Sprite,Foreground,Centre,"sb\dot.png",0,0 C,0,47127,,255,255,255 F,1,47127,47727,1,0 S,1,47127,47727,1,0.2 MX,1,47127,47727,521,515 MY,1,47127,47727,371,327
Sprite,Foreground,Centre,"sb\dot.png",0,0 C,0,47127,,255,255,255 F,1,47127,47727,1,0 S,1,47127,47727,1,0.2 MX,1,47127,47727,521,464 MY,1,47127,47727,371,359
Sprite,Foreground,Centre,"sb\dot.png",0,0 C,0,47127,,255,255,255 F,1,47127,47727,1,0 S,1,47127,47727,1,0.2 MX,1,47127,47727,521,465 MY,1,47127,47727,371,354
Sprite,Foreground,Centre,"sb\dot.png",0,0 C,0,47127,,255,255,255 F,1,47127,47727,1,0 S,1,47127,47727,1,0.2 MX,1,47127,47727,521,518 MY,1,47127,47727,371,397
Sprite,Foreground,Centre,"sb\dot.png",0,0 C,0,47127,,255,255,255 F,1,47127,47727,1,0 S,1,47127,47727,1,0.2 MX,1,47127,47727,521,498 MY,1,47127,47727,371,324
Sprite,Foreground,Centre,"sb\dot.png",0,0 C,0,47127,,255,255,255 F,1,47127,47727,1,0 S,1,47127,47727,1,0.2 MX,1,47127,47727,521,547 MY,1,47127,47727,371,357
Sprite,Foreground,Centre,"sb\dot.png",0,0 C,0,47127,,255,255,255 F,1,47127,47727,1,0 S,1,47127,47727,1,0.2 MX,1,47127,47727,521,469 MY,1,47127,47727,371,353
Sprite,Foreground,Centre,"sb\dot.png",0,0 C,0,47127,,255,255,255 F,1,47127,47727,1,0 S,1,47127,47727,1,0.2 MX,1,47127,47727,521,461 MY,1,47127,47727,371,365
Sprite,Foreground,Centre,"sb\dot.png",0,0 C,0,47127,,255,255,255 F,1,47127,47727,1,0 S,1,47127,47727,1,0.2 MX,1,47127,47727,521,481 MY,1,47127,47727,371
Sprite,Foreground,Centre,"sb\dot.png",0,0 C,0,47127,,255,255,255 F,1,47127,47727,1,0 S,1,47127,47727,1,0.2 MX,1,47127,47727,521,559 MY,1,47127,47727,371,320
Sprite,Foreground,Centre,"sb\dot.png",0,0 C,0,47127,,255,255,255 F,1,47127,47727,1,0 S,1,47127,47727,1,0.2 MX,1,47127,47727,521,519 MY,1,47127,47727,371,382
Sprite,Foreground,Centre,"sb\dot.png",0,0 C,0,47127,,255,255,255 F,1,47127,47727,1,0 S,1,47127,47727,1,0.2 MX,1,47127,47727,521,553 MY,1,47127,47727,371,351
Sprite,Foreground,Centre,"sb\dot.png",0,0 C,0,47127,,255,255,255 F,1,47127,47727,1,0 S,1,47127,47727,1,0.2 MX,1,47127,47727,521,467 MY,1,47127,47727,371,414
Sprite,Foreground,Centre,"sb\dot.png",0,0 C,0,47127,,255,255,255 F,1,47127,47727,1,0 S,1,47127,47727,1,0.2 MX,1,47127,47727,521,497 MY,1,47127,47727,371,319
Sprite,Foreground,Centre,"sb\dot.png",0,0 C,0,47291,,255,255,255 F,1,47291,47891,1,0 S,1,47291,47891,1,0.2 MX,1,47291,47891,560,524 MY,1,47291,47891,184,163
Sprite,Foreground,Centre,"sb\dot.png",0,0 C,0,47291,,255,255,255 F,1,47291,47891,1,0 S,1,47291,47891,1,0.2 MX,1,47291,47891,560,532 MY,1,47291,47891,184,140
Sprite,Foreground,Centre,"sb\dot.png",0,0 C,0,47291,,255,255,255 F,1,47291,47891,1,0 S,1,47291,47891,1,0.2 MX,1,47291,47891,560,542 MY,1,47291,47891,184,223
Sprite,Foreground,Centre,"sb\dot.png",0,0 C,0,47291,,255,255,255 F,1,47291,47891,1,0 S,1,47291,47891,1,0.2 MX,1,47291,47891,560,607 MY,1,47291,47891,184,181
Sprite,Foreground,Centre,"sb\dot.png",0,0 C,0,47291,,255,255,255 F,1,47291,47891,1,0 S,1,47291,47891,1,0.2 MX,1,47291,47891,560,553 MY,1,47291,47891,184
Sprite,Foreground,Centre,"sb\dot.png",0,0 C,0,47291,,255,255,255 F,1,47291,47891,1,0 S,1,47291,47891,1,0.2 MX,1,47291,47891,560,542 MY,1,47291,47891,184,192
Sprite,Foreground,Centre,"sb\dot.png",0,0 C,0,47291,,255,255,255 F,1,47291,47891,1,0 S,1,47291,47891,1,0.2 MX,1,47291,47891,560,607 MY,1,47291,47891,184,240
Sprite,Foreground,Centre,"sb\dot.png",0,0 C,0,47291,,255,255,255 F,1,47291,47891,1,0 S,1,47291,47891,1,0.2 MX,1,47291,47891,560,530 MY,1,47291,47891,184,141
Sprite,Foreground,Centre,"sb\dot.png",0,0 C,0,47291,,255,255,255 F,1,47291,47891,1,0 S,1,47291,47891,1,0.2 MX,1,47291,47891,560,595 MY,1,47291,47891,184,129
Sprite,Foreground,Centre,"sb\dot.png",0,0 C,0,47291,,255,255,255 F,1,47291,47891,1,0 S,1,47291,47891,1,0.2 MX,1,47291,47891,560,549 MY,1,47291,47891,184,188
Sprite,Foreground,Centre,"sb\dot.png",0,0 C,0,47291,,255,255,255 F,1,47291,47891,1,0 S,1,47291,47891,1,0.2 MX,1,47291,47891,560,514 MY,1,47291,47891,184,137
Sprite,Foreground,Centre,"sb\dot.png",0,0 C,0,47291,,255,255,255 F,1,47291,47891,1,0 S,1,47291,47891,1,0.2 MX,1,47291,47891,560,534 MY,1,47291,47891,184,226
Sprite,Foreground,Centre,"sb\dot.png",0,0 C,0,47291,,255,255,255 F,1,47291,47891,1,0 S,1,47291,47891,1,0.2 MX,1,47291,47891,560 MY,1,47291,47891,184,168
Sprite,Foreground,Centre,"sb\dot.png",0,0 C,0,47291,,255,255,255 F,1,47291,47891,1,0 S,1,47291,47891,1,0.2 MX,1,47291,47891,560,565 MY,1,47291,47891,184,227
Sprite,Foreground,Centre,"sb\dot.png",0,0 C,0,47291,,255,255,255 F,1,47291,47891,1,0 S,1,47291,47891,1,0.2 MX,1,47291,47891,560,544 MY,1,47291,47891,184,207
Sprite,Foreground,Centre,"sb\dot.png",0,0 C,0,47291,,255,255,255 F,1,47291,47891,1,0 S,1,47291,47891,1,0.2 MX,1,47291,47891,560,541 MY,1,47291,47891,184,144
Sprite,Foreground,Centre,"sb\dot.png",0,0 C,0,47291,,255,255,255 F,1,47291,47891,1,0 S,1,47291,47891,1,0.2 MX,1,47291,47891,560,506 MY,1,47291,47891,184,172
Sprite,Foreground,Centre,"sb\dot.png",0,0 C,0,47291,,255,255,255 F,1,47291,47891,1,0 S,1,47291,47891,1,0.2 MX,1,47291,47891,560,561 MY,1,47291,47891,184,241
Sprite,Foreground,Centre,"sb\dot.png",0,0 C,0,47291,,255,255,255 F,1,47291,47891,1,0 S,1,47291,47891,1,0.2 MX,1,47291,47891,560,600 MY,1,47291,47891,184,193
Sprite,Foreground,Centre,"sb\dot.png",0,0 C,0,47291,,255,255,255 F,1,47291,47891,1,0 S,1,47291,47891,1,0.2 MX,1,47291,47891,560,504 MY,1,47291,47891,184,153
Sprite,Foreground,Centre,"sb\dot.png",0,0 C,0,47291,,255,255,255 F,1,47291,47891,1,0 S,1,47291,47891,1,0.2 MX,1,47291,47891,560,555 MY,1,47291,47891,184,187
Sprite,Foreground,Centre,"sb\dot.png",0,0 C,0,47291,,255,255,255 F,1,47291,47891,1,0 S,1,47291,47891,1,0.2 MX,1,47291,47891,560,501 MY,1,47291,47891,184,204
Sprite,Foreground,Centre,"sb\dot.png",0,0 C,0,47291,,255,255,255 F,1,47291,47891,1,0 S,1,47291,47891,1,0.2 MX,1,47291,47891,560,518 MY,1,47291,47891,184,154
Sprite,Foreground,Centre,"sb\dot.png",0,0 C,0,47291,,255,255,255 F,1,47291,47891,1,0 S,1,47291,47891,1,0.2 MX,1,47291,47891,560,521 MY,1,47291,47891,184,186
Sprite,Foreground,Centre,"sb\dot.png",0,0 C,0,47291,,255,255,255 F,1,47291,47891,1,0 S,1,47291,47891,1,0.2 MX,1,47291,47891,560,540 MY,1,47291,47891,184,198
Sprite,Foreground,Centre,"sb\dot.png",0,0 C,0,47291,,255,255,255 F,1,47291,47891,1,0 S,1,47291,47891,1,0.2 MX,1,47291,47891,560,564 MY,1,47291,47891,184,125
Sprite,Foreground,Centre,"sb\dot.png",0,0 C,0,47291,,255,255,255 F,1,47291,47891,1,0 S,1,47291,47891,1,0.2 MX,1,47291,47891,560,553 MY,1,47291,47891,184,216
Sprite,Foreground,Centre,"sb\dot.png",0,0 C,0,47291,,255,255,255 F,1,47291,47891,1,0 S,1,47291,47891,1,0.2 MX,1,47291,47891,560,613 MY,1,47291,47891,184,135
Sprite,Foreground,Centre,"sb\dot.png",0,0 C,0,47291,,255,255,255 F,1,47291,47891,1,0 S,1,47291,47891,1,0.2 MX,1,47291,47891,560,505 MY,1,47291,47891,184,174
Sprite,Foreground,Centre,"sb\dot.png",0,0 C,0,47291,,255,255,255 F,1,47291,47891,1,0 S,1,47291,47891,1,0.2 MX,1,47291,47891,560,576 MY,1,47291,47891,184,242
Sprite,Foreground,Centre,"sb\dot.png",0,0 C,0,47455,,255,255,255 F,1,47455,48055,1,0 S,1,47455,48055,1,0.2 MX,1,47455,48055,576,549 MY,1,47455,48055,104,48
Sprite,Foreground,Centre,"sb\dot.png",0,0 C,0,47455,,255,255,255 F,1,47455,48055,1,0 S,1,47455,48055,1,0.2 MX,1,47455,48055,576,529 MY,1,47455,48055,104,134
Sprite,Foreground,Centre,"sb\dot.png",0,0 C,0,47455,,255,255,255 F,1,47455,48055,1,0 S,1,47455,48055,1,0.2 MX,1,47455,48055,576,535 MY,1,47455,48055,104,65
Sprite,Foreground,Centre,"sb\dot.png",0,0 C,0,47455,,255,255,255 F,1,47455,48055,1,0 S,1,47455,48055,1,0.2 MX,1,47455,48055,576,577 MY,1,47455,48055,104,102
Sprite,Foreground,Centre,"sb\dot.png",0,0 C,0,47455,,255,255,255 F,1,47455,48055,1,0 S,1,47455,48055,1,0.2 MX,1,47455,48055,576,570 MY,1,47455,48055,104,76
Sprite,Foreground,Centre,"sb\dot.png",0,0 C,0,47455,,255,255,255 F,1,47455,48055,1,0 S,1,47455,48055,1,0.2 MX,1,47455,48055,576,552 MY,1,47455,48055,104,69
Sprite,Foreground,Centre,"sb\dot.png",0,0 C,0,47455,,255,255,255 F,1,47455,48055,1,0 S,1,47455,48055,1,0.2 MX,1,47455,48055,576,517 MY,1,47455,48055,104,64
Sprite,Foreground,Centre,"sb\dot.png",0,0 C,0,47455,,255,255,255 F,1,47455,48055,1,0 S,1,47455,48055,1,0.2 MX,1,47455,48055,576,524 MY,1,47455,48055,104,115
Sprite,Foreground,Centre,"sb\dot.png",0,0 C,0,47455,,255,255,255 F,1,47455,48055,1,0 S,1,47455,48055,1,0.2 MX,1,47455,48055,576,528 MY,1,47455,48055,104,118
Sprite,Foreground,Centre,"sb\dot.png",0,0 C,0,47455,,255,255,255 F,1,47455,48055,1,0 S,1,47455,48055,1,0.2 MX,1,47455,48055,576,599 MY,1,47455,48055,104,74
Sprite,Foreground,Centre,"sb\dot.png",0,0 C,0,47455,,255,255,255 F,1,47455,48055,1,0 S,1,47455,48055,1,0.2 MX,1,47455,48055,576,538 MY,1,47455,48055,104,46
Sprite,Foreground,Centre,"sb\dot.png",0,0 C,0,47455,,255,255,255 F,1,47455,48055,1,0 S,1,47455,48055,1,0.2 MX,1,47455,48055,576,578 MY,1,47455,48055,104,133
Sprite,Foreground,Centre,"sb\dot.png",0,0 C,0,47455,,255,255,255 F,1,47455,48055,1,0 S,1,47455,48055,1,0.2 MX,1,47455,48055,576,534 MY,1,47455,48055,104,84
Sprite,Foreground,Centre,"sb\dot.png",0,0 C,0,47455,,255,255,255 F,1,47455,48055,1,0 S,1,47455,48055,1,0.2 MX,1,47455,48055,576,602 MY,1,47455,48055,104,78
Sprite,Foreground,Centre,"sb\dot.png",0,0 C,0,47455,,255,255,255 F,1,47455,48055,1,0 S,1,47455,48055,1,0.2 MX,1,47455,48055,576,570 MY,1,47455,48055,104,93
Sprite,Foreground,Centre,"sb\dot.png",0,0 C,0,47455,,255,255,255 F,1,47455,48055,1,0 S,1,47455,48055,1,0.2 MX,1,47455,48055,576,628 MY,1,47455,48055,104,94
Sprite,Foreground,Centre,"sb\dot.png",0,0 C,0,47455,,255,255,255 F,1,47455,48055,1,0 S,1,47455,48055,1,0.2 MX,1,47455,48055,576,629 MY,1,47455,48055,104,50
Sprite,Foreground,Centre,"sb\dot.png",0,0 C,0,47455,,255,255,255 F,1,47455,48055,1,0 S,1,47455,48055,1,0.2 MX,1,47455,48055,576,631 MY,1,47455,48055,104,95
Sprite,Foreground,Centre,"sb\dot.png",0,0 C,0,47455,,255,255,255 F,1,47455,48055,1,0 S,1,47455,48055,1,0.2 MX,1,47455,48055,576,565 MY,1,47455,48055,104,74
Sprite,Foreground,Centre,"sb\dot.png",0,0 C,0,47455,,255,255,255 F,1,47455,48055,1,0 S,1,47455,48055,1,0.2 MX,1,47455,48055,576 MY,1,47455,48055,104,161
Sprite,Foreground,Centre,"sb\dot.png",0,0 C,0,47455,,255,255,255 F,1,47455,48055,1,0 S,1,47455,48055,1,0.2 MX,1,47455,48055,576,604 MY,1,47455,48055,104,126
Sprite,Foreground,Centre,"sb\dot.png",0,0 C,0,47455,,255,255,255 F,1,47455,48055,1,0 S,1,47455,48055,1,0.2 MX,1,47455,48055,576,523 MY,1,47455,48055,104,51
Sprite,Foreground,Centre,"sb\dot.png",0,0 C,0,47455,,255,255,255 F,1,47455,48055,1,0 S,1,47455,48055,1,0.2 MX,1,47455,48055,576,554 MY,1,47455,48055,104,82
Sprite,Foreground,Centre,"sb\dot.png",0,0 C,0,47455,,255,255,255 F,1,47455,48055,1,0 S,1,47455,48055,1,0.2 MX,1,47455,48055,576,635 MY,1,47455,48055,104,77
Sprite,Foreground,Centre,"sb\dot.png",0,0 C,0,47455,,255,255,255 F,1,47455,48055,1,0 S,1,47455,48055,1,0.2 MX,1,47455,48055,576,600 MY,1,47455,48055,104,86
Sprite,Foreground,Centre,"sb\dot.png",0,0 C,0,47455,,255,255,255 F,1,47455,48055,1,0 S,1,47455,48055,1,0.2 MX,1,47455,48055,576,635 MY,1,47455,48055,104,95
Sprite,Foreground,Centre,"sb\dot.png",0,0 C,0,47455,,255,255,255 F,1,47455,48055,1,0 S,1,47455,48055,1,0.2 MX,1,47455,48055,576,602 MY,1,47455,48055,104,90
Sprite,Foreground,Centre,"sb\dot.png",0,0 C,0,47455,,255,255,255 F,1,47455,48055,1,0 S,1,47455,48055,1,0.2 MX,1,47455,48055,576,611 MY,1,47455,48055,104,74
Sprite,Foreground,Centre,"sb\dot.png",0,0 C,0,47455,,255,255,255 F,1,47455,48055,1,0 S,1,47455,48055,1,0.2 MX,1,47455,48055,576,577 MY,1,47455,48055,104,87
Sprite,Foreground,Centre,"sb\dot.png",0,0 C,0,47455,,255,255,255 F,1,47455,48055,1,0 S,1,47455,48055,1,0.2 MX,1,47455,48055,576,587 MY,1,47455,48055,104,142
Sprite,Foreground,Centre,"sb\dot.png",0,0 C,0,47619,,255,255,255 F,1,47619,48219,1,0 S,1,47619,48219,1,0.2 MX,1,47619,48219,448,443 MY,1,47619,48219,248,215
Sprite,Foreground,Centre,"sb\dot.png",0,0 C,0,47619,,255,255,255 F,1,47619,48219,1,0 S,1,47619,48219,1,0.2 MX,1,47619,48219,448,392 MY,1,47619,48219,248,193
Sprite,Foreground,Centre,"sb\dot.png",0,0 C,0,47619,,255,255,255 F,1,47619,48219,1,0 S,1,47619,48219,1,0.2 MX,1,47619,48219,448,428 MY,1,47619,48219,248,294
Sprite,Foreground,Centre,"sb\dot.png",0,0 C,0,47619,,255,255,255 F,1,47619,48219,1,0 S,1,47619,48219,1,0.2 MX,1,47619,48219,448,420 MY,1,47619,48219,248,303
Sprite,Foreground,Centre,"sb\dot.png",0,0 C,0,47619,,255,255,255 F,1,47619,48219,1,0 S,1,47619,48219,1,0.2 MX,1,47619,48219,448,412 MY,1,47619,48219,248,265
Sprite,Foreground,Centre,"sb\dot.png",0,0 C,0,47619,,255,255,255 F,1,47619,48219,1,0 S,1,47619,48219,1,0.2 MX,1,47619,48219,448,410 MY,1,47619,48219,248,289
Sprite,Foreground,Centre,"sb\dot.png",0,0 C,0,47619,,255,255,255 F,1,47619,48219,1,0 S,1,47619,48219,1,0.2 MX,1,47619,48219,448,401 MY,1,47619,48219,248,274
Sprite,Foreground,Centre,"sb\dot.png",0,0 C,0,47619,,255,255,255 F,1,47619,48219,1,0 S,1,47619,48219,1,0.2 MX,1,47619,48219,448,449 MY,1,47619,48219,248,247
Sprite,Foreground,Centre,"sb\dot.png",0,0 C,0,47619,,255,255,255 F,1,47619,48219,1,0 S,1,47619,48219,1,0.2 MX,1,47619,48219,448,503 MY,1,47619,48219,248,242
Sprite,Foreground,Centre,"sb\dot.png",0,0 C,0,47619,,255,255,255 F,1,47619,48219,1,0 S,1,47619,48219,1,0.2 MX,1,47619,48219,448,439 MY,1,47619,48219,248,288
Sprite,Foreground,Centre,"sb\dot.png",0,0 C,0,47619,,255,255,255 F,1,47619,48219,1,0 S,1,47619,48219,1,0.2 MX,1,47619,48219,448,428 MY,1,47619,48219,248,240
Sprite,Foreground,Centre,"sb\dot.png",0,0 C,0,47619,,255,255,255 F,1,47619,48219,1,0 S,1,47619,48219,1,0.2 MX,1,47619,48219,448,457 MY,1,47619,48219,248,200
Sprite,Foreground,Centre,"sb\dot.png",0,0 C,0,47619,,255,255,255 F,1,47619,48219,1,0 S,1,47619,48219,1,0.2 MX,1,47619,48219,448,438 MY,1,47619,48219,248,249
Sprite,Foreground,Centre,"sb\dot.png",0,0 C,0,47619,,255,255,255 F,1,47619,48219,1,0 S,1,47619,48219,1,0.2 MX,1,47619,48219,448,471 MY,1,47619,48219,248,255
Sprite,Foreground,Centre,"sb\dot.png",0,0 C,0,47619,,255,255,255 F,1,47619,48219,1,0 S,1,47619,48219,1,0.2 MX,1,47619,48219,448,418 MY,1,47619,48219,248,273
Sprite,Foreground,Centre,"sb\dot.png",0,0 C,0,47619,,255,255,255 F,1,47619,48219,1,0 S,1,47619,48219,1,0.2 MX,1,47619,48219,448,497 MY,1,47619,48219,248,193
Sprite,Foreground,Centre,"sb\dot.png",0,0 C,0,47619,,255,255,255 F,1,47619,48219,1,0 S,1,47619,48219,1,0.2 MX,1,47619,48219,448,467 MY,1,47619,48219,248,270
Sprite,Foreground,Centre,"sb\dot.png",0,0 C,0,47619,,255,255,255 F,1,47619,48219,1,0 S,1,47619,48219,1,0.2 MX,1,47619,48219,448,449 MY,1,47619,48219,248,249
Sprite,Foreground,Centre,"sb\dot.png",0,0 C,0,47619,,255,255,255 F,1,47619,48219,1,0 S,1,47619,48219,1,0.2 MX,1,47619,48219,448,466 MY,1,47619,48219,248,190
Sprite,Foreground,Centre,"sb\dot.png",0,0 C,0,47619,,255,255,255 F,1,47619,48219,1,0 S,1,47619,48219,1,0.2 MX,1,47619,48219,448,474 MY,1,47619,48219,248,239
Sprite,Foreground,Centre,"sb\dot.png",0,0 C,0,47619,,255,255,255 F,1,47619,48219,1,0 S,1,47619,48219,1,0.2 MX,1,47619,48219,448,394 MY,1,47619,48219,248,192
Sprite,Foreground,Centre,"sb\dot.png",0,0 C,0,47619,,255,255,255 F,1,47619,48219,1,0 S,1,47619,48219,1,0.2 MX,1,47619,48219,448,397 MY,1,47619,48219,248,194
Sprite,Foreground,Centre,"sb\dot.png",0,0 C,0,47619,,255,255,255 F,1,47619,48219,1,0 S,1,47619,48219,1,0.2 MX,1,47619,48219,448,407 MY,1,47619,48219,248,206
Sprite,Foreground,Centre,"sb\dot.png",0,0 C,0,47619,,255,255,255 F,1,47619,48219,1,0 S,1,47619,48219,1,0.2 MX,1,47619,48219,448,425 MY,1,47619,48219,248,307
Sprite,Foreground,Centre,"sb\dot.png",0,0 C,0,47619,,255,255,255 F,1,47619,48219,1,0 S,1,47619,48219,1,0.2 MX,1,47619,48219,448,492 MY,1,47619,48219,248,224
Sprite,Foreground,Centre,"sb\dot.png",0,0 C,0,47619,,255,255,255 F,1,47619,48219,1,0 S,1,47619,48219,1,0.2 MX,1,47619,48219,448,423 MY,1,47619,48219,248,194
Sprite,Foreground,Centre,"sb\dot.png",0,0 C,0,47619,,255,255,255 F,1,47619,48219,1,0 S,1,47619,48219,1,0.2 MX,1,47619,48219,448,500 MY,1,47619,48219,248,279
Sprite,Foreground,Centre,"sb\dot.png",0,0 C,0,47619,,255,255,255 F,1,47619,48219,1,0 S,1,47619,48219,1,0.2 MX,1,47619,48219,448,446 MY,1,47619,48219,248,190
Sprite,Foreground,Centre,"sb\dot.png",0,0 C,0,47619,,255,255,255 F,1,47619,48219,1,0 S,1,47619,48219,1,0.2 MX,1,47619,48219,448,465 MY,1,47619,48219,248,299
Sprite,Foreground,Centre,"sb\dot.png",0,0 C,0,47619,,255,255,255 F,1,47619,48219,1,0 S,1,47619,48219,1,0.2 MX,1,47619,48219,448,463 MY,1,47619,48219,248,287
Sprite,Foreground,Centre,"sb\dot.png",0,0 C,0,47783,,255,255,255 F,1,47783,48383,1,0 S,1,47783,48383,1,0.2 MX,1,47783,48383,368,330 MY,1,47783,48383,232,256
Sprite,Foreground,Centre,"sb\dot.png",0,0 C,0,47783,,255,255,255 F,1,47783,48383,1,0 S,1,47783,48383,1,0.2 MX,1,47783,48383,368,392 MY,1,47783,48383,232,231
Sprite,Foreground,Centre,"sb\dot.png",0,0 C,0,47783,,255,255,255 F,1,47783,48383,1,0 S,1,47783,48383,1,0.2 MX,1,47783,48383,368,396 MY,1,47783,48383,232,188
Sprite,Foreground,Centre,"sb\dot.png",0,0 C,0,47783,,255,255,255 F,1,47783,48383,1,0 S,1,47783,48383,1,0.2 MX,1,47783,48383,368,329 MY,1,47783,48383,232,223
Sprite,Foreground,Centre,"sb\dot.png",0,0 C,0,47783,,255,255,255 F,1,47783,48383,1,0 S,1,47783,48383,1,0.2 MX,1,47783,48383,368,333 MY,1,47783,48383,232,172
Sprite,Foreground,Centre,"sb\dot.png",0,0 C,0,47783,,255,255,255 F,1,47783,48383,1,0 S,1,47783,48383,1,0.2 MX,1,47783,48383,368,408 MY,1,47783,48383,232,284
Sprite,Foreground,Centre,"sb\dot.png",0,0 C,0,47783,,255,255,255 F,1,47783,48383,1,0 S,1,47783,48383,1,0.2 MX,1,47783,48383,368,396 MY,1,47783,48383,232,291
Sprite,Foreground,Centre,"sb\dot.png",0,0 C,0,47783,,255,255,255 F,1,47783,48383,1,0 S,1,47783,48383,1,0.2 MX,1,47783,48383,368,401 MY,1,47783,48383,232,207
Sprite,Foreground,Centre,"sb\dot.png",0,0 C,0,47783,,255,255,255 F,1,47783,48383,1,0 S,1,47783,48383,1,0.2 MX,1,47783,48383,368,351 MY,1,47783,48383,232,235
Sprite,Foreground,Centre,"sb\dot.png",0,0 C,0,47783,,255,255,255 F,1,47783,48383,1,0 S,1,47783,48383,1,0.2 MX,1,47783,48383,368,420 MY,1,47783,48383,232,203
Sprite,Foreground,Centre,"sb\dot.png",0,0 C,0,47783,,255,255,255 F,1,47783,48383,1,0 S,1,47783,48383,1,0.2 MX,1,47783,48383,368,331 MY,1,47783,48383,232,256
Sprite,Foreground,Centre,"sb\dot.png",0,0 C,0,47783,,255,255,255 F,1,47783,48383,1,0 S,1,47783,48383,1,0.2 MX,1,47783,48383,368,390 MY,1,47783,48383,232,285
Sprite,Foreground,Centre,"sb\dot.png",0,0 C,0,47783,,255,255,255 F,1,47783,48383,1,0 S,1,47783,48383,1,0.2 MX,1,47783,48383,368,357 MY,1,47783,48383,232,274
Sprite,Foreground,Centre,"sb\dot.png",0,0 C,0,47783,,255,255,255 F,1,47783,48383,1,0 S,1,47783,48383,1,0.2 MX,1,47783,48383,368,321 MY,1,47783,48383,232,280
Sprite,Foreground,Centre,"sb\dot.png",0,0 C,0,47783,,255,255,255 F,1,47783,48383,1,0 S,1,47783,48383,1,0.2 MX,1,47783,48383,368,332 MY,1,47783,48383,232,231
Sprite,Foreground,Centre,"sb\dot.png",0,0 C,0,47783,,255,255,255 F,1,47783,48383,1,0 S,1,47783,48383,1,0.2 MX,1,47783,48383,368,411 MY,1,47783,48383,232,259
Sprite,Foreground,Centre,"sb\dot.png",0,0 C,0,47783,,255,255,255 F,1,47783,48383,1,0 S,1,47783,48383,1,0.2 MX,1,47783,48383,368,355 MY,1,47783,48383,232,279
Sprite,Foreground,Centre,"sb\dot.png",0,0 C,0,47783,,255,255,255 F,1,47783,48383,1,0 S,1,47783,48383,1,0.2 MX,1,47783,48383,368,337 MY,1,47783,48383,232,213
Sprite,Foreground,Centre,"sb\dot.png",0,0 C,0,47783,,255,255,255 F,1,47783,48383,1,0 S,1,47783,48383,1,0.2 MX,1,47783,48383,368,348 MY,1,47783,48383,232,241
Sprite,Foreground,Centre,"sb\dot.png",0,0 C,0,47783,,255,255,255 F,1,47783,48383,1,0 S,1,47783,48383,1,0.2 MX,1,47783,48383,368,346 MY,1,47783,48383,232,175
Sprite,Foreground,Centre,"sb\dot.png",0,0 C,0,47783,,255,255,255 F,1,47783,48383,1,0 S,1,47783,48383,1,0.2 MX,1,47783,48383,368,424 MY,1,47783,48383,232,278
Sprite,Foreground,Centre,"sb\dot.png",0,0 C,0,47783,,255,255,255 F,1,47783,48383,1,0 S,1,47783,48383,1,0.2 MX,1,47783,48383,368,402 MY,1,47783,48383,232,276
Sprite,Foreground,Centre,"sb\dot.png",0,0 C,0,47783,,255,255,255 F,1,47783,48383,1,0 S,1,47783,48383,1,0.2 MX,1,47783,48383,368,363 MY,1,47783,48383,232,214
Sprite,Foreground,Centre,"sb\dot.png",0,0 C,0,47783,,255,255,255 F,1,47783,48383,1,0 S,1,47783,48383,1,0.2 MX,1,47783,48383,368,346 MY,1,47783,48383,232,284
Sprite,Foreground,Centre,"sb\dot.png",0,0 C,0,47783,,255,255,255 F,1,47783,48383,1,0 S,1,47783,48383,1,0.2 MX,1,47783,48383,368,425 MY,1,47783,48383,232,194
Sprite,Foreground,Centre,"sb\dot.png",0,0 C,0,47783,,255,255,255 F,1,47783,48383,1,0 S,1,47783,48383,1,0.2 MX,1,47783,48383,368,386 MY,1,47783,48383,232,186
Sprite,Foreground,Centre,"sb\dot.png",0,0 C,0,47783,,255,255,255 F,1,47783,48383,1,0 S,1,47783,48383,1,0.2 MX,1,47783,48383,368,427 MY,1,47783,48383,232,215
Sprite,Foreground,Centre,"sb\dot.png",0,0 C,0,47783,,255,255,255 F,1,47783,48383,1,0 S,1,47783,48383,1,0.2 MX,1,47783,48383,368,384 MY,1,47783,48383,232,230
Sprite,Foreground,Centre,"sb\dot.png",0,0 C,0,47783,,255,255,255 F,1,47783,48383,1,0 S,1,47783,48383,1,0.2 MX,1,47783,48383,368,310 MY,1,47783,48383,232,262
Sprite,Foreground,Centre,"sb\dot.png",0,0 C,0,47783,,255,255,255 F,1,47783,48383,1,0 S,1,47783,48383,1,0.2 MX,1,47783,48383,368,317 MY,1,47783,48383,232,277
Sprite,Foreground,Centre,"sb\dot.png",0,0 C,0,47947,,255,255,255 F,1,47947,48547,1,0 S,1,47947,48547,1,0.2 MX,1,47947,48547,560,502 MY,1,47947,48547,184,157
Sprite,Foreground,Centre,"sb\dot.png",0,0 C,0,47947,,255,255,255 F,1,47947,48547,1,0 S,1,47947,48547,1,0.2 MX,1,47947,48547,560,527 MY,1,47947,48547,184,209
Sprite,Foreground,Centre,"sb\dot.png",0,0 C,0,47947,,255,255,255 F,1,47947,48547,1,0 S,1,47947,48547,1,0.2 MX,1,47947,48547,560,516 MY,1,47947,48547,184,137
Sprite,Foreground,Centre,"sb\dot.png",0,0 C,0,47947,,255,255,255 F,1,47947,48547,1,0 S,1,47947,48547,1,0.2 MX,1,47947,48547,560,565 MY,1,47947,48547,184,224
Sprite,Foreground,Centre,"sb\dot.png",0,0 C,0,47947,,255,255,255 F,1,47947,48547,1,0 S,1,47947,48547,1,0.2 MX,1,47947,48547,560,590 MY,1,47947,48547,184,175
Sprite,Foreground,Centre,"sb\dot.png",0,0 C,0,47947,,255,255,255 F,1,47947,48547,1,0 S,1,47947,48547,1,0.2 MX,1,47947,48547,560,615 MY,1,47947,48547,184,217
Sprite,Foreground,Centre,"sb\dot.png",0,0 C,0,47947,,255,255,255 F,1,47947,48547,1,0 S,1,47947,48547,1,0.2 MX,1,47947,48547,560,524 MY,1,47947,48547,184,232
Sprite,Foreground,Centre,"sb\dot.png",0,0 C,0,47947,,255,255,255 F,1,47947,48547,1,0 S,1,47947,48547,1,0.2 MX,1,47947,48547,560,535 MY,1,47947,48547,184,160
Sprite,Foreground,Centre,"sb\dot.png",0,0 C,0,47947,,255,255,255 F,1,47947,48547,1,0 S,1,47947,48547,1,0.2 MX,1,47947,48547,560,609 MY,1,47947,48547,184,221
Sprite,Foreground,Centre,"sb\dot.png",0,0 C,0,47947,,255,255,255 F,1,47947,48547,1,0 S,1,47947,48547,1,0.2 MX,1,47947,48547,560,557 MY,1,47947,48547,184,131
Sprite,Foreground,Centre,"sb\dot.png",0,0 C,0,47947,,255,255,255 F,1,47947,48547,1,0 S,1,47947,48547,1,0.2 MX,1,47947,48547,560,563 MY,1,47947,48547,184,144
Sprite,Foreground,Centre,"sb\dot.png",0,0 C,0,47947,,255,255,255 F,1,47947,48547,1,0 S,1,47947,48547,1,0.2 MX,1,47947,48547,560,610 MY,1,47947,48547,184,125
Sprite,Foreground,Centre,"sb\dot.png",0,0 C,0,47947,,255,255,255 F,1,47947,48547,1,0 S,1,47947,48547,1,0.2 MX,1,47947,48547,560,601 MY,1,47947,48547,184,213
Sprite,Foreground,Centre,"sb\dot.png",0,0 C,0,47947,,255,255,255 F,1,47947,48547,1,0 S,1,47947,48547,1,0.2 MX,1,47947,48547,560,587 MY,1,47947,48547,184,128
Sprite,Foreground,Centre,"sb\dot.png",0,0 C,0,47947,,255,255,255 F,1,47947,48547,1,0 S,1,47947,48547,1,0.2 MX,1,47947,48547,560,531 MY,1,47947,48547,184,214
Sprite,Foreground,Centre,"sb\dot.png",0,0 C,0,47947,,255,255,255 F,1,47947,48547,1,0 S,1,47947,48547,1,0.2 MX,1,47947,48547,560,539 MY,1,47947,48547,184,193
Sprite,Foreground,Centre,"sb\dot.png",0,0 C,0,47947,,255,255,255 F,1,47947,48547,1,0 S,1,47947,48547,1,0.2 MX,1,47947,48547,560 MY,1,47947,48547,184,177
Sprite,Foreground,Centre,"sb\dot.png",0,0 C,0,47947,,255,255,255 F,1,47947,48547,1,0 S,1,47947,48547,1,0.2 MX,1,47947,48547,560,500 MY,1,47947,48547,184,206
Sprite,Foreground,Centre,"sb\dot.png",0,0 C,0,47947,,255,255,255 F,1,47947,48547,1,0 S,1,47947,48547,1,0.2 MX,1,47947,48547,560,579 MY,1,47947,48547,184,132
Sprite,Foreground,Centre,"sb\dot.png",0,0 C,0,47947,,255,255,255 F,1,47947,48547,1,0 S,1,47947,48547,1,0.2 MX,1,47947,48547,560,588 MY,1,47947,48547,184,166
Sprite,Foreground,Centre,"sb\dot.png",0,0 C,0,47947,,255,255,255 F,1,47947,48547,1,0 S,1,47947,48547,1,0.2 MX,1,47947,48547,560,597 MY,1,47947,48547,184,181
Sprite,Foreground,Centre,"sb\dot.png",0,0 C,0,47947,,255,255,255 F,1,47947,48547,1,0 S,1,47947,48547,1,0.2 MX,1,47947,48547,560,522 MY,1,47947,48547,184,189
Sprite,Foreground,Centre,"sb\dot.png",0,0 C,0,47947,,255,255,255 F,1,47947,48547,1,0 S,1,47947,48547,1,0.2 MX,1,47947,48547,560,526 MY,1,47947,48547,184,228
Sprite,Foreground,Centre,"sb\dot.png",0,0 C,0,47947,,255,255,255 F,1,47947,48547,1,0 S,1,47947,48547,1,0.2 MX,1,47947,48547,560,609 MY,1,47947,48547,184,134
Sprite,Foreground,Centre,"sb\dot.png",0,0 C,0,47947,,255,255,255 F,1,47947,48547,1,0 S,1,47947,48547,1,0.2 MX,1,47947,48547,560,508 MY,1,47947,48547,184,163
Sprite,Foreground,Centre,"sb\dot.png",0,0 C,0,47947,,255,255,255 F,1,47947,48547,1,0 S,1,47947,48547,1,0.2 MX,1,47947,48547,560,568 MY,1,47947,48547,184,148
Sprite,Foreground,Centre,"sb\dot.png",0,0 C,0,47947,,255,255,255 F,1,47947,48547,1,0 S,1,47947,48547,1,0.2 MX,1,47947,48547,560,533 MY,1,47947,48547,184,126
Sprite,Foreground,Centre,"sb\dot.png",0,0 C,0,47947,,255,255,255 F,1,47947,48547,1,0 S,1,47947,48547,1,0.2 MX,1,47947,48547,560,541 MY,1,47947,48547,184,226
Sprite,Foreground,Centre,"sb\dot.png",0,0 C,0,47947,,255,255,255 F,1,47947,48547,1,0 S,1,47947,48547,1,0.2 MX,1,47947,48547,560,543 MY,1,47947,48547,184,149
Sprite,Foreground,Centre,"sb\dot.png",0,0 C,0,47947,,255,255,255 F,1,47947,48547,1,0 S,1,47947,48547,1,0.2 MX,1,47947,48547,560,604 MY,1,47947,48547,184,171
Sprite,Foreground,Centre,"sb\dot.png",0,0 C,0,48111,,255,255,255 F,1,48111,48711,1,0 S,1,48111,48711,1,0.2 MX,1,48111,48711,448,433 MY,1,48111,48711,248,249
Sprite,Foreground,Centre,"sb\dot.png",0,0 C,0,48111,,255,255,255 F,1,48111,48711,1,0 S,1,48111,48711,1,0.2 MX,1,48111,48711,448,457 MY,1,48111,48711,248,307
Sprite,Foreground,Centre,"sb\dot.png",0,0 C,0,48111,,255,255,255 F,1,48111,48711,1,0 S,1,48111,48711,1,0.2 MX,1,48111,48711,448,400 MY,1,48111,48711,248,234
Sprite,Foreground,Centre,"sb\dot.png",0,0 C,0,48111,,255,255,255 F,1,48111,48711,1,0 S,1,48111,48711,1,0.2 MX,1,48111,48711,448,421 MY,1,48111,48711,248,279
Sprite,Foreground,Centre,"sb\dot.png",0,0 C,0,48111,,255,255,255 F,1,48111,48711,1,0 S,1,48111,48711,1,0.2 MX,1,48111,48711,448,496 MY,1,48111,48711,248,260
Sprite,Foreground,Centre,"sb\dot.png",0,0 C,0,48111,,255,255,255 F,1,48111,48711,1,0 S,1,48111,48711,1,0.2 MX,1,48111,48711,448,465 MY,1,48111,48711,248,288
Sprite,Foreground,Centre,"sb\dot.png",0,0 C,0,48111,,255,255,255 F,1,48111,48711,1,0 S,1,48111,48711,1,0.2 MX,1,48111,48711,448,397 MY,1,48111,48711,248,203
Sprite,Foreground,Centre,"sb\dot.png",0,0 C,0,48111,,255,255,255 F,1,48111,48711,1,0 S,1,48111,48711,1,0.2 MX,1,48111,48711,448,417 MY,1,48111,48711,248,193
Sprite,Foreground,Centre,"sb\dot.png",0,0 C,0,48111,,255,255,255 F,1,48111,48711,1,0 S,1,48111,48711,1,0.2 MX,1,48111,48711,448,506 MY,1,48111,48711,248,233
Sprite,Foreground,Centre,"sb\dot.png",0,0 C,0,48111,,255,255,255 F,1,48111,48711,1,0 S,1,48111,48711,1,0.2 MX,1,48111,48711,448,483 MY,1,48111,48711,248,304
Sprite,Foreground,Centre,"sb\dot.png",0,0 C,0,48111,,255,255,255 F,1,48111,48711,1,0 S,1,48111,48711,1,0.2 MX,1,48111,48711,448,487 MY,1,48111,48711,248,265
Sprite,Foreground,Centre,"sb\dot.png",0,0 C,0,48111,,255,255,255 F,1,48111,48711,1,0 S,1,48111,48711,1,0.2 MX,1,48111,48711,448,503 MY,1,48111,48711,248,299
Sprite,Foreground,Centre,"sb\dot.png",0,0 C,0,48111,,255,255,255 F,1,48111,48711,1,0 S,1,48111,48711,1,0.2 MX,1,48111,48711,448,410 MY,1,48111,48711,248,202
Sprite,Foreground,Centre,"sb\dot.png",0,0 C,0,48111,,255,255,255 F,1,48111,48711,1,0 S,1,48111,48711,1,0.2 MX,1,48111,48711,448,423 MY,1,48111,48711,248,246
Sprite,Foreground,Centre,"sb\dot.png",0,0 C,0,48111,,255,255,255 F,1,48111,48711,1,0 S,1,48111,48711,1,0.2 MX,1,48111,48711,448,399 MY,1,48111,48711,248,206
Sprite,Foreground,Centre,"sb\dot.png",0,0 C,0,48111,,255,255,255 F,1,48111,48711,1,0 S,1,48111,48711,1,0.2 MX,1,48111,48711,448,427 MY,1,48111,48711,248,242
Sprite,Foreground,Centre,"sb\dot.png",0,0 C,0,48111,,255,255,255 F,1,48111,48711,1,0 S,1,48111,48711,1,0.2 MX,1,48111,48711,448,412 MY,1,48111,48711,248,229
Sprite,Foreground,Centre,"sb\dot.png",0,0 C,0,48111,,255,255,255 F,1,48111,48711,1,0 S,1,48111,48711,1,0.2 MX,1,48111,48711,448,504 MY,1,48111,48711,248,224
Sprite,Foreground,Centre,"sb\dot.png",0,0 C,0,48111,,255,255,255 F,1,48111,48711,1,0 S,1,48111,48711,1,0.2 MX,1,48111,48711,448,496 MY,1,48111,48711,248,210
Sprite,Foreground,Centre,"sb\dot.png",0,0 C,0,48111,,255,255,255 F,1,48111,48711,1,0 S,1,48111,48711,1,0.2 MX,1,48111,48711,448,440 MY,1,48111,48711,248,287
Sprite,Foreground,Centre,"sb\dot.png",0,0 C,0,48111,,255,255,255 F,1,48111,48711,1,0 S,1,48111,48711,1,0.2 MX,1,48111,48711,448,459 MY,1,48111,48711,248,206
Sprite,Foreground,Centre,"sb\dot.png",0,0 C,0,48111,,255,255,255 F,1,48111,48711,1,0 S,1,48111,48711,1,0.2 MX,1,48111,48711,448,409 MY,1,48111,48711,248,243
Sprite,Foreground,Centre,"sb\dot.png",0,0 C,0,48111,,255,255,255 F,1,48111,48711,1,0 S,1,48111,48711,1,0.2 MX,1,48111,48711,448,469 MY,1,48111,48711,248,275
Sprite,Foreground,Centre,"sb\dot.png",0,0 C,0,48111,,255,255,255 F,1,48111,48711,1,0 S,1,48111,48711,1,0.2 MX,1,48111,48711,448,403 MY,1,48111,48711,248,205
Sprite,Foreground,Centre,"sb\dot.png",0,0 C,0,48111,,255,255,255 F,1,48111,48711,1,0 S,1,48111,48711,1,0.2 MX,1,48111,48711,448,480 MY,1,48111,48711,248,223
Sprite,Foreground,Centre,"sb\dot.png",0,0 C,0,48111,,255,255,255 F,1,48111,48711,1,0 S,1,48111,48711,1,0.2 MX,1,48111,48711,448,491 MY,1,48111,48711,248,305
Sprite,Foreground,Centre,"sb\dot.png",0,0 C,0,48111,,255,255,255 F,1,48111,48711,1,0 S,1,48111,48711,1,0.2 MX,1,48111,48711,448,437 MY,1,48111,48711,248,295
Sprite,Foreground,Centre,"sb\dot.png",0,0 C,0,48111,,255,255,255 F,1,48111,48711,1,0 S,1,48111,48711,1,0.2 MX,1,48111,48711,448,455 MY,1,48111,48711,248,275
Sprite,Foreground,Centre,"sb\dot.png",0,0 C,0,48111,,255,255,255 F,1,48111,48711,1,0 S,1,48111,48711,1,0.2 MX,1,48111,48711,448,453 MY,1,48111,48711,248,266
Sprite,Foreground,Centre,"sb\dot.png",0,0 C,0,48111,,255,255,255 F,1,48111,48711,1,0 S,1,48111,48711,1,0.2 MX,1,48111,48711,448,485 MY,1,48111,48711,248,306
Sprite,Foreground,Centre,"sb\dot.png",0,0 C,0,48193,,255,255,255 F,1,48193,48793,1,0 S,1,48193,48793,1,0.2 MX,1,48193,48793,448,398 MY,1,48193,48793,248,282
Sprite,Foreground,Centre,"sb\dot.png",0,0 C,0,48193,,255,255,255 F,1,48193,48793,1,0 S,1,48193,48793,1,0.2 MX,1,48193,48793,448,468 MY,1,48193,48793,248,277
Sprite,Foreground,Centre,"sb\dot.png",0,0 C,0,48193,,255,255,255 F,1,48193,48793,1,0 S,1,48193,48793,1,0.2 MX,1,48193,48793,448,420 MY,1,48193,48793,248,211
Sprite,Foreground,Centre,"sb\dot.png",0,0 C,0,48193,,255,255,255 F,1,48193,48793,1,0 S,1,48193,48793,1,0.2 MX,1,48193,48793,448,464 MY,1,48193,48793,248,276
Sprite,Foreground,Centre,"sb\dot.png",0,0 C,0,48193,,255,255,255 F,1,48193,48793,1,0 S,1,48193,48793,1,0.2 MX,1,48193,48793,448,407 MY,1,48193,48793,248,300
Sprite,Foreground,Centre,"sb\dot.png",0,0 C,0,48193,,255,255,255 F,1,48193,48793,1,0 S,1,48193,48793,1,0.2 MX,1,48193,48793,448,405 MY,1,48193,48793,248,284
Sprite,Foreground,Centre,"sb\dot.png",0,0 C,0,48193,,255,255,255 F,1,48193,48793,1,0 S,1,48193,48793,1,0.2 MX,1,48193,48793,448,500 MY,1,48193,48793,248,304
Sprite,Foreground,Centre,"sb\dot.png",0,0 C,0,48193,,255,255,255 F,1,48193,48793,1,0 S,1,48193,48793,1,0.2 MX,1,48193,48793,448,433 MY,1,48193,48793,248,269
Sprite,Foreground,Centre,"sb\dot.png",0,0 C,0,48193,,255,255,255 F,1,48193,48793,1,0 S,1,48193,48793,1,0.2 MX,1,48193,48793,448,443 MY,1,48193,48793,248,247
Sprite,Foreground,Centre,"sb\dot.png",0,0 C,0,48193,,255,255,255 F,1,48193,48793,1,0 S,1,48193,48793,1,0.2 MX,1,48193,48793,448,417 MY,1,48193,48793,248,242
Sprite,Foreground,Centre,"sb\dot.png",0,0 C,0,48193,,255,255,255 F,1,48193,48793,1,0 S,1,48193,48793,1,0.2 MX,1,48193,48793,448,507 MY,1,48193,48793,248,206
Sprite,Foreground,Centre,"sb\dot.png",0,0 C,0,48193,,255,255,255 F,1,48193,48793,1,0 S,1,48193,48793,1,0.2 MX,1,48193,48793,448,473 MY,1,48193,48793,248,283
Sprite,Foreground,Centre,"sb\dot.png",0,0 C,0,48193,,255,255,255 F,1,48193,48793,1,0 S,1,48193,48793,1,0.2 MX,1,48193,48793,448,422 MY,1,48193,48793,248,229
Sprite,Foreground,Centre,"sb\dot.png",0,0 C,0,48193,,255,255,255 F,1,48193,48793,1,0 S,1,48193,48793,1,0.2 MX,1,48193,48793,448,392 MY,1,48193,48793,248,225
Sprite,Foreground,Centre,"sb\dot.png",0,0 C,0,48193,,255,255,255 F,1,48193,48793,1,0 S,1,48193,48793,1,0.2 MX,1,48193,48793,448,481 MY,1,48193,48793,248,216
Sprite,Foreground,Centre,"sb\dot.png",0,0 C,0,48193,,255,255,255 F,1,48193,48793,1,0 S,1,48193,48793,1,0.2 MX,1,48193,48793,448,479 MY,1,48193,48793,248,218
Sprite,Foreground,Centre,"sb\dot.png",0,0 C,0,48193,,255,255,255 F,1,48193,48793,1,0 S,1,48193,48793,1,0.2 MX,1,48193,48793,448,432 MY,1,48193,48793,248,242
Sprite,Foreground,Centre,"sb\dot.png",0,0 C,0,48193,,255,255,255 F,1,48193,48793,1,0 S,1,48193,48793,1,0.2 MX,1,48193,48793,448,476 MY,1,48193,48793,248,284
Sprite,Foreground,Centre,"sb\dot.png",0,0 C,0,48193,,255,255,255 F,1,48193,48793,1,0 S,1,48193,48793,1,0.2 MX,1,48193,48793,448,446 MY,1,48193,48793,248,240
Sprite,Foreground,Centre,"sb\dot.png",0,0 C,0,48193,,255,255,255 F,1,48193,48793,1,0 S,1,48193,48793,1,0.2 MX,1,48193,48793,448,411 MY,1,48193,48793,248,246
Sprite,Foreground,Centre,"sb\dot.png",0,0 C,0,48193,,255,255,255 F,1,48193,48793,1,0 S,1,48193,48793,1,0.2 MX,1,48193,48793,448,399 MY,1,48193,48793,248,234
Sprite,Foreground,Centre,"sb\dot.png",0,0 C,0,48193,,255,255,255 F,1,48193,48793,1,0 S,1,48193,48793,1,0.2 MX,1,48193,48793,448,506 MY,1,48193,48793,248,288
Sprite,Foreground,Centre,"sb\dot.png",0,0 C,0,48193,,255,255,255 F,1,48193,48793,1,0 S,1,48193,48793,1,0.2 MX,1,48193,48793,448,405 MY,1,48193,48793,248,195
Sprite,Foreground,Centre,"sb\dot.png",0,0 C,0,48193,,255,255,255 F,1,48193,48793,1,0 S,1,48193,48793,1,0.2 MX,1,48193,48793,448,393 MY,1,48193,48793,248,241
Sprite,Foreground,Centre,"sb\dot.png",0,0 C,0,48193,,255,255,255 F,1,48193,48793,1,0 S,1,48193,48793,1,0.2 MX,1,48193,48793,448,450 MY,1,48193,48793,248,294
Sprite,Foreground,Centre,"sb\dot.png",0,0 C,0,48193,,255,255,255 F,1,48193,48793,1,0 S,1,48193,48793,1,0.2 MX,1,48193,48793,448,420 MY,1,48193,48793,248,193
Sprite,Foreground,Centre,"sb\dot.png",0,0 C,0,48193,,255,255,255 F,1,48193,48793,1,0 S,1,48193,48793,1,0.2 MX,1,48193,48793,448,436 MY,1,48193,48793,248,230
Sprite,Foreground,Centre,"sb\dot.png",0,0 C,0,48193,,255,255,255 F,1,48193,48793,1,0 S,1,48193,48793,1,0.2 MX,1,48193,48793,448,507 MY,1,48193,48793,248,300
Sprite,Foreground,Centre,"sb\dot.png",0,0 C,0,48193,,255,255,255 F,1,48193,48793,1,0 S,1,48193,48793,1,0.2 MX,1,48193,48793,448,397 MY,1,48193,48793,248,292
Sprite,Foreground,Centre,"sb\dot.png",0,0 C,0,48193,,255,255,255 F,1,48193,48793,1,0 S,1,48193,48793,1,0.2 MX,1,48193,48793,448,442 MY,1,48193,48793,248,299
Sprite,Foreground,Centre,"sb\dot.png",0,0 C,0,48275,,255,255,255 F,1,48275,48875,1,0 S,1,48275,48875,1,0.2 MX,1,48275,48875,448,407 MY,1,48275,48875,248,227
Sprite,Foreground,Centre,"sb\dot.png",0,0 C,0,48275,,255,255,255 F,1,48275,48875,1,0 S,1,48275,48875,1,0.2 MX,1,48275,48875,448,502 MY,1,48275,48875,248,298
Sprite,Foreground,Centre,"sb\dot.png",0,0 C,0,48275,,255,255,255 F,1,48275,48875,1,0 S,1,48275,48875,1,0.2 MX,1,48275,48875,448,408 MY,1,48275,48875,248,295
Sprite,Foreground,Centre,"sb\dot.png",0,0 C,0,48275,,255,255,255 F,1,48275,48875,1,0 S,1,48275,48875,1,0.2 MX,1,48275,48875,448,439 MY,1,48275,48875,248,245
Sprite,Foreground,Centre,"sb\dot.png",0,0 C,0,48275,,255,255,255 F,1,48275,48875,1,0 S,1,48275,48875,1,0.2 MX,1,48275,48875,448,415 MY,1,48275,48875,248,256
Sprite,Foreground,Centre,"sb\dot.png",0,0 C,0,48275,,255,255,255 F,1,48275,48875,1,0 S,1,48275,48875,1,0.2 MX,1,48275,48875,448,411 MY,1,48275,48875,248,191
Sprite,Foreground,Centre,"sb\dot.png",0,0 C,0,48275,,255,255,255 F,1,48275,48875,1,0 S,1,48275,48875,1,0.2 MX,1,48275,48875,448,424 MY,1,48275,48875,248,279
Sprite,Foreground,Centre,"sb\dot.png",0,0 C,0,48275,,255,255,255 F,1,48275,48875,1,0 S,1,48275,48875,1,0.2 MX,1,48275,48875,448,431 MY,1,48275,48875,248,260
Sprite,Foreground,Centre,"sb\dot.png",0,0 C,0,48275,,255,255,255 F,1,48275,48875,1,0 S,1,48275,48875,1,0.2 MX,1,48275,48875,448,408 MY,1,48275,48875,248,292
Sprite,Foreground,Centre,"sb\dot.png",0,0 C,0,48275,,255,255,255 F,1,48275,48875,1,0 S,1,48275,48875,1,0.2 MX,1,48275,48875,448,465 MY,1,48275,48875,248,215
Sprite,Foreground,Centre,"sb\dot.png",0,0 C,0,48275,,255,255,255 F,1,48275,48875,1,0 S,1,48275,48875,1,0.2 MX,1,48275,48875,448,424 MY,1,48275,48875,248,258
Sprite,Foreground,Centre,"sb\dot.png",0,0 C,0,48275,,255,255,255 F,1,48275,48875,1,0 S,1,48275,48875,1,0.2 MX,1,48275,48875,448,482 MY,1,48275,48875,248,295
Sprite,Foreground,Centre,"sb\dot.png",0,0 C,0,48275,,255,255,255 F,1,48275,48875,1,0 S,1,48275,48875,1,0.2 MX,1,48275,48875,448,504 MY,1,48275,48875,248,273
Sprite,Foreground,Centre,"sb\dot.png",0,0 C,0,48275,,255,255,255 F,1,48275,48875,1,0 S,1,48275,48875,1,0.2 MX,1,48275,48875,448,489 MY,1,48275,48875,248,189
Sprite,Foreground,Centre,"sb\dot.png",0,0 C,0,48275,,255,255,255 F,1,48275,48875,1,0 S,1,48275,48875,1,0.2 MX,1,48275,48875,448,443 MY,1,48275,48875,248,284
Sprite,Foreground,Centre,"sb\dot.png",0,0 C,0,48275,,255,255,255 F,1,48275,48875,1,0 S,1,48275,48875,1,0.2 MX,1,48275,48875,448,475 MY,1,48275,48875,248,261
Sprite,Foreground,Centre,"sb\dot.png",0,0 C,0,48275,,255,255,255 F,1,48275,48875,1,0 S,1,48275,48875,1,0.2 MX,1,48275,48875,448,505 MY,1,48275,48875,248,220
Sprite,Foreground,Centre,"sb\dot.png",0,0 C,0,48275,,255,255,255 F,1,48275,48875,1,0 S,1,48275,48875,1,0.2 MX,1,48275,48875,448,426 MY,1,48275,48875,248,279
Sprite,Foreground,Centre,"sb\dot.png",0,0 C,0,48275,,255,255,255 F,1,48275,48875,1,0 S,1,48275,48875,1,0.2 MX,1,48275,48875,448,440 MY,1,48275,48875,248,196
Sprite,Foreground,Centre,"sb\dot.png",0,0 C,0,48275,,255,255,255 F,1,48275,48875,1,0 S,1,48275,48875,1,0.2 MX,1,48275,48875,448,467 MY,1,48275,48875,248,218
Sprite,Foreground,Centre,"sb\dot.png",0,0 C,0,48275,,255,255,255 F,1,48275,48875,1,0 S,1,48275,48875,1,0.2 MX,1,48275,48875,448,463 MY,1,48275,48875,248,255
Sprite,Foreground,Centre,"sb\dot.png",0,0 C,0,48275,,255,255,255 F,1,48275,48875,1,0 S,1,48275,48875,1,0.2 MX,1,48275,48875,448,414 MY,1,48275,48875,248,301
Sprite,Foreground,Centre,"sb\dot.png",0,0 C,0,48275,,255,255,255 F,1,48275,48875,1,0 S,1,48275,48875,1,0.2 MX,1,48275,48875,448,470 MY,1,48275,48875,248,216
Sprite,Foreground,Centre,"sb\dot.png",0,0 C,0,48275,,255,255,255 F,1,48275,48875,1,0 S,1,48275,48875,1,0.2 MX,1,48275,48875,448,476 MY,1,48275,48875,248,264
Sprite,Foreground,Centre,"sb\dot.png",0,0 C,0,48275,,255,255,255 F,1,48275,48875,1,0 S,1,48275,48875,1,0.2 MX,1,48275,48875,448,507 MY,1,48275,48875,248,235
Sprite,Foreground,Centre,"sb\dot.png",0,0 C,0,48275,,255,255,255 F,1,48275,48875,1,0 S,1,48275,48875,1,0.2 MX,1,48275,48875,448,480 MY,1,48275,48875,248,212
Sprite,Foreground,Centre,"sb\dot.png",0,0 C,0,48275,,255,255,255 F,1,48275,48875,1,0 S,1,48275,48875,1,0.2 MX,1,48275,48875,448,414 MY,1,48275,48875,248,215
Sprite,Foreground,Centre,"sb\dot.png",0,0 C,0,48275,,255,255,255 F,1,48275,48875,1,0 S,1,48275,48875,1,0.2 MX,1,48275,48875,448,462 MY,1,48275,48875,248,256
Sprite,Foreground,Centre,"sb\dot.png",0,0 C,0,48275,,255,255,255 F,1,48275,48875,1,0 S,1,48275,48875,1,0.2 MX,1,48275,48875,448,452 MY,1,48275,48875,248,195
Sprite,Foreground,Centre,"sb\dot.png",0,0 C,0,48275,,255,255,255 F,1,48275,48875,1,0 S,1,48275,48875,1,0.2 MX,1,48275,48875,448,501 MY,1,48275,48875,248,243
Sprite,Foreground,Centre,"sb\dot.png",0,0 C,0,48439,,255,255,255 F,1,48439,49039,1,0 S,1,48439,49039,1,0.2 MX,1,48439,49039,546,491 MY,1,48439,49039,309,298
Sprite,Foreground,Centre,"sb\dot.png",0,0 C,0,48439,,255,255,255 F,1,48439,49039,1,0 S,1,48439,49039,1,0.2 MX,1,48439,49039,546,488 MY,1,48439,49039,309,300
Sprite,Foreground,Centre,"sb\dot.png",0,0 C,0,48439,,255,255,255 F,1,48439,49039,1,0 S,1,48439,49039,1,0.2 MX,1,48439,49039,546,586 MY,1,48439,49039,309,318
Sprite,Foreground,Centre,"sb\dot.png",0,0 C,0,48439,,255,255,255 F,1,48439,49039,1,0 S,1,48439,49039,1,0.2 MX,1,48439,49039,546,492 MY,1,48439,49039,309,253
Sprite,Foreground,Centre,"sb\dot.png",0,0 C,0,48439,,255,255,255 F,1,48439,49039,1,0 S,1,48439,49039,1,0.2 MX,1,48439,49039,546,538 MY,1,48439,49039,309,320
Sprite,Foreground,Centre,"sb\dot.png",0,0 C,0,48439,,255,255,255 F,1,48439,49039,1,0 S,1,48439,49039,1,0.2 MX,1,48439,49039,546,505 MY,1,48439,49039,309,261
Sprite,Foreground,Centre,"sb\dot.png",0,0 C,0,48439,,255,255,255 F,1,48439,49039,1,0 S,1,48439,49039,1,0.2 MX,1,48439,49039,546,511 MY,1,48439,49039,309,296
Sprite,Foreground,Centre,"sb\dot.png",0,0 C,0,48439,,255,255,255 F,1,48439,49039,1,0 S,1,48439,49039,1,0.2 MX,1,48439,49039,546,557 MY,1,48439,49039,309,337
Sprite,Foreground,Centre,"sb\dot.png",0,0 C,0,48439,,255,255,255 F,1,48439,49039,1,0 S,1,48439,49039,1,0.2 MX,1,48439,49039,546,530 MY,1,48439,49039,309,349
Sprite,Foreground,Centre,"sb\dot.png",0,0 C,0,48439,,255,255,255 F,1,48439,49039,1,0 S,1,48439,49039,1,0.2 MX,1,48439,49039,546,510 MY,1,48439,49039,309,337
Sprite,Foreground,Centre,"sb\dot.png",0,0 C,0,48439,,255,255,255 F,1,48439,49039,1,0 S,1,48439,49039,1,0.2 MX,1,48439,49039,546,603 MY,1,48439,49039,309,274
Sprite,Foreground,Centre,"sb\dot.png",0,0 C,0,48439,,255,255,255 F,1,48439,49039,1,0 S,1,48439,49039,1,0.2 MX,1,48439,49039,546,488 MY,1,48439,49039,309,256
Sprite,Foreground,Centre,"sb\dot.png",0,0 C,0,48439,,255,255,255 F,1,48439,49039,1,0 S,1,48439,49039,1,0.2 MX,1,48439,49039,546,489 MY,1,48439,49039,309,312
Sprite,Foreground,Centre,"sb\dot.png",0,0 C,0,48439,,255,255,255 F,1,48439,49039,1,0 S,1,48439,49039,1,0.2 MX,1,48439,49039,546,533 MY,1,48439,49039,309,339
Sprite,Foreground,Centre,"sb\dot.png",0,0 C,0,48439,,255,255,255 F,1,48439,49039,1,0 S,1,48439,49039,1,0.2 MX,1,48439,49039,546,563 MY,1,48439,49039,309,339
Sprite,Foreground,Centre,"sb\dot.png",0,0 C,0,48439,,255,255,255 F,1,48439,49039,1,0 S,1,48439,49039,1,0.2 MX,1,48439,49039,546,513 MY,1,48439,49039,309,293
Sprite,Foreground,Centre,"sb\dot.png",0,0 C,0,48439,,255,255,255 F,1,48439,49039,1,0 S,1,48439,49039,1,0.2 MX,1,48439,49039,546,500 MY,1,48439,49039,309,273
Sprite,Foreground,Centre,"sb\dot.png",0,0 C,0,48439,,255,255,255 F,1,48439,49039,1,0 S,1,48439,49039,1,0.2 MX,1,48439,49039,546,510 MY,1,48439,49039,309,274
Sprite,Foreground,Centre,"sb\dot.png",0,0 C,0,48439,,255,255,255 F,1,48439,49039,1,0 S,1,48439,49039,1,0.2 MX,1,48439,49039,546,551 MY,1,48439,49039,309,344
Sprite,Foreground,Centre,"sb\dot.png",0,0 C,0,48439,,255,255,255 F,1,48439,49039,1,0 S,1,48439,49039,1,0.2 MX,1,48439,49039,546,498 MY,1,48439,49039,309,261
Sprite,Foreground,Centre,"sb\dot.png",0,0 C,0,48439,,255,255,255 F,1,48439,49039,1,0 S,1,48439,49039,1,0.2 MX,1,48439,49039,546,508 MY,1,48439,49039,309,332
Sprite,Foreground,Centre,"sb\dot.png",0,0 C,0,48439,,255,255,255 F,1,48439,49039,1,0 S,1,48439,49039,1,0.2 MX,1,48439,49039,546,509 MY,1,48439,49039,309,296
Sprite,Foreground,Centre,"sb\dot.png",0,0 C,0,48439,,255,255,255 F,1,48439,49039,1,0 S,1,48439,49039,1,0.2 MX,1,48439,49039,546,513 MY,1,48439,49039,309,329
Sprite,Foreground,Centre,"sb\dot.png",0,0 C,0,48439,,255,255,255 F,1,48439,49039,1,0 S,1,48439,49039,1,0.2 MX,1,48439,49039,546,604 MY,1,48439,49039,309,347
Sprite,Foreground,Centre,"sb\dot.png",0,0 C,0,48439,,255,255,255 F,1,48439,49039,1,0 S,1,48439,49039,1,0.2 MX,1,48439,49039,546,561 MY,1,48439,49039,309,355
Sprite,Foreground,Centre,"sb\dot.png",0,0 C,0,48439,,255,255,255 F,1,48439,49039,1,0 S,1,48439,49039,1,0.2 MX,1,48439,49039,546,509 MY,1,48439,49039,309,332
Sprite,Foreground,Centre,"sb\dot.png",0,0 C,0,48439,,255,255,255 F,1,48439,49039,1,0 S,1,48439,49039,1,0.2 MX,1,48439,49039,546,588 MY,1,48439,49039,309,274
Sprite,Foreground,Centre,"sb\dot.png",0,0 C,0,48439,,255,255,255 F,1,48439,49039,1,0 S,1,48439,49039,1,0.2 MX,1,48439,49039,546,543 MY,1,48439,49039,309,349
Sprite,Foreground,Centre,"sb\dot.png",0,0 C,0,48439,,255,255,255 F,1,48439,49039,1,0 S,1,48439,49039,1,0.2 MX,1,48439,49039,546,533 MY,1,48439,49039,309,363
Sprite,Foreground,Centre,"sb\dot.png",0,0 C,0,48439,,255,255,255 F,1,48439,49039,1,0 S,1,48439,49039,1,0.2 MX,1,48439,49039,546,533 MY,1,48439,49039,309,286
Sprite,Foreground,Centre,"sb\dot.png",0,0 C,0,48603,,255,255,255 F,1,48603,49203,1,0 S,1,48603,49203,1,0.2 MX,1,48603,49203,446,408 MY,1,48603,49203,137,112
Sprite,Foreground,Centre,"sb\dot.png",0,0 C,0,48603,,255,255,255 F,1,48603,49203,1,0 S,1,48603,49203,1,0.2 MX,1,48603,49203,446,433 MY,1,48603,49203,137,159
Sprite,Foreground,Centre,"sb\dot.png",0,0 C,0,48603,,255,255,255 F,1,48603,49203,1,0 S,1,48603,49203,1,0.2 MX,1,48603,49203,446,430 MY,1,48603,49203,137,172
Sprite,Foreground,Centre,"sb\dot.png",0,0 C,0,48603,,255,255,255 F,1,48603,49203,1,0 S,1,48603,49203,1,0.2 MX,1,48603,49203,446,503 MY,1,48603,49203,137,77
Sprite,Foreground,Centre,"sb\dot.png",0,0 C,0,48603,,255,255,255 F,1,48603,49203,1,0 S,1,48603,49203,1,0.2 MX,1,48603,49203,446,409 MY,1,48603,49203,137,123
Sprite,Foreground,Centre,"sb\dot.png",0,0 C,0,48603,,255,255,255 F,1,48603,49203,1,0 S,1,48603,49203,1,0.2 MX,1,48603,49203,446,408 MY,1,48603,49203,137,146
Sprite,Foreground,Centre,"sb\dot.png",0,0 C,0,48603,,255,255,255 F,1,48603,49203,1,0 S,1,48603,49203,1,0.2 MX,1,48603,49203,446,473 MY,1,48603,49203,137,89
Sprite,Foreground,Centre,"sb\dot.png",0,0 C,0,48603,,255,255,255 F,1,48603,49203,1,0 S,1,48603,49203,1,0.2 MX,1,48603,49203,446,451 MY,1,48603,49203,137,110
Sprite,Foreground,Centre,"sb\dot.png",0,0 C,0,48603,,255,255,255 F,1,48603,49203,1,0 S,1,48603,49203,1,0.2 MX,1,48603,49203,446,388 MY,1,48603,49203,137,152
Sprite,Foreground,Centre,"sb\dot.png",0,0 C,0,48603,,255,255,255 F,1,48603,49203,1,0 S,1,48603,49203,1,0.2 MX,1,48603,49203,446,486 MY,1,48603,49203,137,120
Sprite,Foreground,Centre,"sb\dot.png",0,0 C,0,48603,,255,255,255 F,1,48603,49203,1,0 S,1,48603,49203,1,0.2 MX,1,48603,49203,446,450 MY,1,48603,49203,137,145
Sprite,Foreground,Centre,"sb\dot.png",0,0 C,0,48603,,255,255,255 F,1,48603,49203,1,0 S,1,48603,49203,1,0.2 MX,1,48603,49203,446,400 MY,1,48603,49203,137,167
Sprite,Foreground,Centre,"sb\dot.png",0,0 C,0,48603,,255,255,255 F,1,48603,49203,1,0 S,1,48603,49203,1,0.2 MX,1,48603,49203,446,452 MY,1,48603,49203,137,140
Sprite,Foreground,Centre,"sb\dot.png",0,0 C,0,48603,,255,255,255 F,1,48603,49203,1,0 S,1,48603,49203,1,0.2 MX,1,48603,49203,446,448 MY,1,48603,49203,137,185
Sprite,Foreground,Centre,"sb\dot.png",0,0 C,0,48603,,255,255,255 F,1,48603,49203,1,0 S,1,48603,49203,1,0.2 MX,1,48603,49203,446,472 MY,1,48603,49203,137,121
Sprite,Foreground,Centre,"sb\dot.png",0,0 C,0,48603,,255,255,255 F,1,48603,49203,1,0 S,1,48603,49203,1,0.2 MX,1,48603,49203,446,484 MY,1,48603,49203,137,147
Sprite,Foreground,Centre,"sb\dot.png",0,0 C,0,48603,,255,255,255 F,1,48603,49203,1,0 S,1,48603,49203,1,0.2 MX,1,48603,49203,446,433 MY,1,48603,49203,137,172
Sprite,Foreground,Centre,"sb\dot.png",0,0 C,0,48603,,255,255,255 F,1,48603,49203,1,0 S,1,48603,49203,1,0.2 MX,1,48603,49203,446,496 MY,1,48603,49203,137,183
Sprite,Foreground,Centre,"sb\dot.png",0,0 C,0,48603,,255,255,255 F,1,48603,49203,1,0 S,1,48603,49203,1,0.2 MX,1,48603,49203,446,422 MY,1,48603,49203,137
Sprite,Foreground,Centre,"sb\dot.png",0,0 C,0,48603,,255,255,255 F,1,48603,49203,1,0 S,1,48603,49203,1,0.2 MX,1,48603,49203,446,389 MY,1,48603,49203,137,129
Sprite,Foreground,Centre,"sb\dot.png",0,0 C,0,48603,,255,255,255 F,1,48603,49203,1,0 S,1,48603,49203,1,0.2 MX,1,48603,49203,446,468 MY,1,48603,49203,137,194
Sprite,Foreground,Centre,"sb\dot.png",0,0 C,0,48603,,255,255,255 F,1,48603,49203,1,0 S,1,48603,49203,1,0.2 MX,1,48603,49203,446,461 MY,1,48603,49203,137,106
Sprite,Foreground,Centre,"sb\dot.png",0,0 C,0,48603,,255,255,255 F,1,48603,49203,1,0 S,1,48603,49203,1,0.2 MX,1,48603,49203,446,470 MY,1,48603,49203,137,151
Sprite,Foreground,Centre,"sb\dot.png",0,0 C,0,48603,,255,255,255 F,1,48603,49203,1,0 S,1,48603,49203,1,0.2 MX,1,48603,49203,446,501 MY,1,48603,49203,137,167
Sprite,Foreground,Centre,"sb\dot.png",0,0 C,0,48603,,255,255,255 F,1,48603,49203,1,0 S,1,48603,49203,1,0.2 MX,1,48603,49203,446,466 MY,1,48603,49203,137,101
Sprite,Foreground,Centre,"sb\dot.png",0,0 C,0,48603,,255,255,255 F,1,48603,49203,1,0 S,1,48603,49203,1,0.2 MX,1,48603,49203,446,483 MY,1,48603,49203,137,168
Sprite,Foreground,Centre,"sb\dot.png",0,0 C,0,48603,,255,255,255 F,1,48603,49203,1,0 S,1,48603,49203,1,0.2 MX,1,48603,49203,446,399 MY,1,48603,49203,137,80
Sprite,Foreground,Centre,"sb\dot.png",0,0 C,0,48603,,255,255,255 F,1,48603,49203,1,0 S,1,48603,49203,1,0.2 MX,1,48603,49203,446,478 MY,1,48603,49203,137,151
Sprite,Foreground,Centre,"sb\dot.png",0,0 C,0,48603,,255,255,255 F,1,48603,49203,1,0 S,1,48603,49203,1,0.2 MX,1,48603,49203,446,406 MY,1,48603,49203,137,154
Sprite,Foreground,Centre,"sb\dot.png",0,0 C,0,48603,,255,255,255 F,1,48603,49203,1,0 S,1,48603,49203,1,0.2 MX,1,48603,49203,446,401 MY,1,48603,49203,137,177
Sprite,Foreground,Centre,"sb\dot.png",0,0 C,0,48930,,255,255,255 F,1,48930,49530,1,0 S,1,48930,49530,1,0.2 MX,1,48930,49530,217,189 MY,1,48930,49530,239,188
Sprite,Foreground,Centre,"sb\dot.png",0,0 C,0,48930,,255,255,255 F,1,48930,49530,1,0 S,1,48930,49530,1,0.2 MX,1,48930,49530,217,191 MY,1,48930,49530,239,278
Sprite,Foreground,Centre,"sb\dot.png",0,0 C,0,48930,,255,255,255 F,1,48930,49530,1,0 S,1,48930,49530,1,0.2 MX,1,48930,49530,217,224 MY,1,48930,49530,239,250
Sprite,Foreground,Centre,"sb\dot.png",0,0 C,0,48930,,255,255,255 F,1,48930,49530,1,0 S,1,48930,49530,1,0.2 MX,1,48930,49530,217,178 MY,1,48930,49530,239,291
Sprite,Foreground,Centre,"sb\dot.png",0,0 C,0,48930,,255,255,255 F,1,48930,49530,1,0 S,1,48930,49530,1,0.2 MX,1,48930,49530,217,178 MY,1,48930,49530,239,257
Sprite,Foreground,Centre,"sb\dot.png",0,0 C,0,48930,,255,255,255 F,1,48930,49530,1,0 S,1,48930,49530,1,0.2 MX,1,48930,49530,217,273 MY,1,48930,49530,239,240
Sprite,Foreground,Centre,"sb\dot.png",0,0 C,0,48930,,255,255,255 F,1,48930,49530,1,0 S,1,48930,49530,1,0.2 MX,1,48930,49530,217,229 MY,1,48930,49530,239,227
Sprite,Foreground,Centre,"sb\dot.png",0,0 C,0,48930,,255,255,255 F,1,48930,49530,1,0 S,1,48930,49530,1,0.2 MX,1,48930,49530,217,237 MY,1,48930,49530,239,245
Sprite,Foreground,Centre,"sb\dot.png",0,0 C,0,48930,,255,255,255 F,1,48930,49530,1,0 S,1,48930,49530,1,0.2 MX,1,48930,49530,217,270 MY,1,48930,49530,239,284
Sprite,Foreground,Centre,"sb\dot.png",0,0 C,0,48930,,255,255,255 F,1,48930,49530,1,0 S,1,48930,49530,1,0.2 MX,1,48930,49530,217,162 MY,1,48930,49530,239,291
Sprite,Foreground,Centre,"sb\dot.png",0,0 C,0,48930,,255,255,255 F,1,48930,49530,1,0 S,1,48930,49530,1,0.2 MX,1,48930,49530,217,225 MY,1,48930,49530,239,271
Sprite,Foreground,Centre,"sb\dot.png",0,0 C,0,48930,,255,255,255 F,1,48930,49530,1,0 S,1,48930,49530,1,0.2 MX,1,48930,49530,217,185 MY,1,48930,49530,239,241
Sprite,Foreground,Centre,"sb\dot.png",0,0 C,0,48930,,255,255,255 F,1,48930,49530,1,0 S,1,48930,49530,1,0.2 MX,1,48930,49530,217,223 MY,1,48930,49530,239,185
Sprite,Foreground,Centre,"sb\dot.png",0,0 C,0,48930,,255,255,255 F,1,48930,49530,1,0 S,1,48930,49530,1,0.2 MX,1,48930,49530,217,213 MY,1,48930,49530,239,223
Sprite,Foreground,Centre,"sb\dot.png",0,0 C,0,48930,,255,255,255 F,1,48930,49530,1,0 S,1,48930,49530,1,0.2 MX,1,48930,49530,217,159 MY,1,48930,49530,239,214
Sprite,Foreground,Centre,"sb\dot.png",0,0 C,0,48930,,255,255,255 F,1,48930,49530,1,0 S,1,48930,49530,1,0.2 MX,1,48930,49530,217,242 MY,1,48930,49530,239,257
Sprite,Foreground,Centre,"sb\dot.png",0,0 C,0,48930,,255,255,255 F,1,48930,49530,1,0 S,1,48930,49530,1,0.2 MX,1,48930,49530,217,202 MY,1,48930,49530,239,201
Sprite,Foreground,Centre,"sb\dot.png",0,0 C,0,48930,,255,255,255 F,1,48930,49530,1,0 S,1,48930,49530,1,0.2 MX,1,48930,49530,217,176 MY,1,48930,49530,239,252
Sprite,Foreground,Centre,"sb\dot.png",0,0 C,0,48930,,255,255,255 F,1,48930,49530,1,0 S,1,48930,49530,1,0.2 MX,1,48930,49530,217,240 MY,1,48930,49530,239,274
Sprite,Foreground,Centre,"sb\dot.png",0,0 C,0,48930,,255,255,255 F,1,48930,49530,1,0 S,1,48930,49530,1,0.2 MX,1,48930,49530,217,238 MY,1,48930,49530,239,191
Sprite,Foreground,Centre,"sb\dot.png",0,0 C,0,48930,,255,255,255 F,1,48930,49530,1,0 S,1,48930,49530,1,0.2 MX,1,48930,49530,217,209 MY,1,48930,49530,239,182
Sprite,Foreground,Centre,"sb\dot.png",0,0 C,0,48930,,255,255,255 F,1,48930,49530,1,0 S,1,48930,49530,1,0.2 MX,1,48930,49530,217,225 MY,1,48930,49530,239,180
Sprite,Foreground,Centre,"sb\dot.png",0,0 C,0,48930,,255,255,255 F,1,48930,49530,1,0 S,1,48930,49530,1,0.2 MX,1,48930,49530,217,184 MY,1,48930,49530,239,215
Sprite,Foreground,Centre,"sb\dot.png",0,0 C,0,48930,,255,255,255 F,1,48930,49530,1,0 S,1,48930,49530,1,0.2 MX,1,48930,49530,217,176 MY,1,48930,49530,239,264
Sprite,Foreground,Centre,"sb\dot.png",0,0 C,0,48930,,255,255,255 F,1,48930,49530,1,0 S,1,48930,49530,1,0.2 MX,1,48930,49530,217,199 MY,1,48930,49530,239,205
Sprite,Foreground,Centre,"sb\dot.png",0,0 C,0,48930,,255,255,255 F,1,48930,49530,1,0 S,1,48930,49530,1,0.2 MX,1,48930,49530,217,238 MY,1,48930,49530,239,214
Sprite,Foreground,Centre,"sb\dot.png",0,0 C,0,48930,,255,255,255 F,1,48930,49530,1,0 S,1,48930,49530,1,0.2 MX,1,48930,49530,217,228 MY,1,48930,49530,239,201
Sprite,Foreground,Centre,"sb\dot.png",0,0 C,0,48930,,255,255,255 F,1,48930,49530,1,0 S,1,48930,49530,1,0.2 MX,1,48930,49530,217,188 MY,1,48930,49530,239
Sprite,Foreground,Centre,"sb\dot.png",0,0 C,0,48930,,255,255,255 F,1,48930,49530,1,0 S,1,48930,49530,1,0.2 MX,1,48930,49530,217,257 MY,1,48930,49530,239,270
Sprite,Foreground,Centre,"sb\dot.png",0,0 C,0,48930,,255,255,255 F,1,48930,49530,1,0 S,1,48930,49530,1,0.2 MX,1,48930,49530,217,190 MY,1,48930,49530,239
Sprite,Foreground,Centre,"sb\dot.png",0,0 C,0,49094,,255,255,255 F,1,49094,49694,1,0 S,1,49094,49694,1,0.2 MX,1,49094,49694,217,171 MY,1,49094,49694,239,276
Sprite,Foreground,Centre,"sb\dot.png",0,0 C,0,49094,,255,255,255 F,1,49094,49694,1,0 S,1,49094,49694,1,0.2 MX,1,49094,49694,217,266 MY,1,49094,49694,239,285
Sprite,Foreground,Centre,"sb\dot.png",0,0 C,0,49094,,255,255,255 F,1,49094,49694,1,0 S,1,49094,49694,1,0.2 MX,1,49094,49694,217,270 MY,1,49094,49694,239,217
Sprite,Foreground,Centre,"sb\dot.png",0,0 C,0,49094,,255,255,255 F,1,49094,49694,1,0 S,1,49094,49694,1,0.2 MX,1,49094,49694,217,173 MY,1,49094,49694,239,228
Sprite,Foreground,Centre,"sb\dot.png",0,0 C,0,49094,,255,255,255 F,1,49094,49694,1,0 S,1,49094,49694,1,0.2 MX,1,49094,49694,217,185 MY,1,49094,49694,239,186
Sprite,Foreground,Centre,"sb\dot.png",0,0 C,0,49094,,255,255,255 F,1,49094,49694,1,0 S,1,49094,49694,1,0.2 MX,1,49094,49694,217,259 MY,1,49094,49694,239,196
Sprite,Foreground,Centre,"sb\dot.png",0,0 C,0,49094,,255,255,255 F,1,49094,49694,1,0 S,1,49094,49694,1,0.2 MX,1,49094,49694,217,181 MY,1,49094,49694,239,292
Sprite,Foreground,Centre,"sb\dot.png",0,0 C,0,49094,,255,255,255 F,1,49094,49694,1,0 S,1,49094,49694,1,0.2 MX,1,49094,49694,217 MY,1,49094,49694,239,244
Sprite,Foreground,Centre,"sb\dot.png",0,0 C,0,49094,,255,255,255 F,1,49094,49694,1,0 S,1,49094,49694,1,0.2 MX,1,49094,49694,217,180 MY,1,49094,49694,239,206
Sprite,Foreground,Centre,"sb\dot.png",0,0 C,0,49094,,255,255,255 F,1,49094,49694,1,0 S,1,49094,49694,1,0.2 MX,1,49094,49694,217,191 MY,1,49094,49694,239,209
Sprite,Foreground,Centre,"sb\dot.png",0,0 C,0,49094,,255,255,255 F,1,49094,49694,1,0 S,1,49094,49694,1,0.2 MX,1,49094,49694,217,264 MY,1,49094,49694,239,270
Sprite,Foreground,Centre,"sb\dot.png",0,0 C,0,49094,,255,255,255 F,1,49094,49694,1,0 S,1,49094,49694,1,0.2 MX,1,49094,49694,217,158 MY,1,49094,49694,239,275
Sprite,Foreground,Centre,"sb\dot.png",0,0 C,0,49094,,255,255,255 F,1,49094,49694,1,0 S,1,49094,49694,1,0.2 MX,1,49094,49694,217,231 MY,1,49094,49694,239,229
Sprite,Foreground,Centre,"sb\dot.png",0,0 C,0,49094,,255,255,255 F,1,49094,49694,1,0 S,1,49094,49694,1,0.2 MX,1,49094,49694,217,163 MY,1,49094,49694,239,201
Sprite,Foreground,Centre,"sb\dot.png",0,0 C,0,49094,,255,255,255 F,1,49094,49694,1,0 S,1,49094,49694,1,0.2 MX,1,49094,49694,217,268 MY,1,49094,49694,239,258
Sprite,Foreground,Centre,"sb\dot.png",0,0 C,0,49094,,255,255,255 F,1,49094,49694,1,0 S,1,49094,49694,1,0.2 MX,1,49094,49694,217,250 MY,1,49094,49694,239,291
Sprite,Foreground,Centre,"sb\dot.png",0,0 C,0,49094,,255,255,255 F,1,49094,49694,1,0 S,1,49094,49694,1,0.2 MX,1,49094,49694,217,219 MY,1,49094,49694,239,199
Sprite,Foreground,Centre,"sb\dot.png",0,0 C,0,49094,,255,255,255 F,1,49094,49694,1,0 S,1,49094,49694,1,0.2 MX,1,49094,49694,217,275 MY,1,49094,49694,239,253
Sprite,Foreground,Centre,"sb\dot.png",0,0 C,0,49094,,255,255,255 F,1,49094,49694,1,0 S,1,49094,49694,1,0.2 MX,1,49094,49694,217,170 MY,1,49094,49694,239,261
Sprite,Foreground,Centre,"sb\dot.png",0,0 C,0,49094,,255,255,255 F,1,49094,49694,1,0 S,1,49094,49694,1,0.2 MX,1,49094,49694,217,165 MY,1,49094,49694,239,288
Sprite,Foreground,Centre,"sb\dot.png",0,0 C,0,49094,,255,255,255 F,1,49094,49694,1,0 S,1,49094,49694,1,0.2 MX,1,49094,49694,217,176 MY,1,49094,49694,239,269
Sprite,Foreground,Centre,"sb\dot.png",0,0 C,0,49094,,255,255,255 F,1,49094,49694,1,0 S,1,49094,49694,1,0.2 MX,1,49094,49694,217,214 MY,1,49094,49694,239,214
Sprite,Foreground,Centre,"sb\dot.png",0,0 C,0,49094,,255,255,255 F,1,49094,49694,1,0 S,1,49094,49694,1,0.2 MX,1,49094,49694,217,200 MY,1,49094,49694,239,242
Sprite,Foreground,Centre,"sb\dot.png",0,0 C,0,49094,,255,255,255 F,1,49094,49694,1,0 S,1,49094,49694,1,0.2 MX,1,49094,49694,217,167 MY,1,49094,49694,239,257
Sprite,Foreground,Centre,"sb\dot.png",0,0 C,0,49094,,255,255,255 F,1,49094,49694,1,0 S,1,49094,49694,1,0.2 MX,1,49094,49694,217,239 MY,1,49094,49694,239,265
Sprite,Foreground,Centre,"sb\dot.png",0,0 C,0,49094,,255,255,255 F,1,49094,49694,1,0 S,1,49094,49694,1,0.2 MX,1,49094,49694,217,193 MY,1,49094,49694,239,252
Sprite,Foreground,Centre,"sb\dot.png",0,0 C,0,49094,,255,255,255 F,1,49094,49694,1,0 S,1,49094,49694,1,0.2 MX,1,49094,49694,217,214 MY,1,49094,49694,239,181
Sprite,Foreground,Centre,"sb\dot.png",0,0 C,0,49094,,255,255,255 F,1,49094,49694,1,0 S,1,49094,49694,1,0.2 MX,1,49094,49694,217,230 MY,1,49094,49694,239,222
Sprite,Foreground,Centre,"sb\dot.png",0,0 C,0,49094,,255,255,255 F,1,49094,49694,1,0 S,1,49094,49694,1,0.2 MX,1,49094,49694,217,252 MY,1,49094,49694,239,192
Sprite,Foreground,Centre,"sb\dot.png",0,0 C,0,49094,,255,255,255 F,1,49094,49694,1,0 S,1,49094,49694,1,0.2 MX,1,49094,49694,217,188 MY,1,49094,49694,239,241
Sprite,Foreground,Centre,"sb\dot.png",0,0 C,0,49258,,255,255,255 F,1,49258,49858,1,0 S,1,49258,49858,1,0.2 MX,1,49258,49858,370,341 MY,1,49258,49858,425,478
Sprite,Foreground,Centre,"sb\dot.png",0,0 C,0,49258,,255,255,255 F,1,49258,49858,1,0 S,1,49258,49858,1,0.2 MX,1,49258,49858,370,368 MY,1,49258,49858,425,434
Sprite,Foreground,Centre,"sb\dot.png",0,0 C,0,49258,,255,255,255 F,1,49258,49858,1,0 S,1,49258,49858,1,0.2 MX,1,49258,49858,370,344 MY,1,49258,49858,425,475
Sprite,Foreground,Centre,"sb\dot.png",0,0 C,0,49258,,255,255,255 F,1,49258,49858,1,0 S,1,49258,49858,1,0.2 MX,1,49258,49858,370,385 MY,1,49258,49858,425,368
Sprite,Foreground,Centre,"sb\dot.png",0,0 C,0,49258,,255,255,255 F,1,49258,49858,1,0 S,1,49258,49858,1,0.2 MX,1,49258,49858,370,425 MY,1,49258,49858,425,470
Sprite,Foreground,Centre,"sb\dot.png",0,0 C,0,49258,,255,255,255 F,1,49258,49858,1,0 S,1,49258,49858,1,0.2 MX,1,49258,49858,370,362 MY,1,49258,49858,425,426
Sprite,Foreground,Centre,"sb\dot.png",0,0 C,0,49258,,255,255,255 F,1,49258,49858,1,0 S,1,49258,49858,1,0.2 MX,1,49258,49858,370,329 MY,1,49258,49858,425,410
Sprite,Foreground,Centre,"sb\dot.png",0,0 C,0,49258,,255,255,255 F,1,49258,49858,1,0 S,1,49258,49858,1,0.2 MX,1,49258,49858,370,320 MY,1,49258,49858,425,382
Sprite,Foreground,Centre,"sb\dot.png",0,0 C,0,49258,,255,255,255 F,1,49258,49858,1,0 S,1,49258,49858,1,0.2 MX,1,49258,49858,370,344 MY,1,49258,49858,425,451
Sprite,Foreground,Centre,"sb\dot.png",0,0 C,0,49258,,255,255,255 F,1,49258,49858,1,0 S,1,49258,49858,1,0.2 MX,1,49258,49858,370,362 MY,1,49258,49858,425,375
Sprite,Foreground,Centre,"sb\dot.png",0,0 C,0,49258,,255,255,255 F,1,49258,49858,1,0 S,1,49258,49858,1,0.2 MX,1,49258,49858,370,349 MY,1,49258,49858,425,413
Sprite,Foreground,Centre,"sb\dot.png",0,0 C,0,49258,,255,255,255 F,1,49258,49858,1,0 S,1,49258,49858,1,0.2 MX,1,49258,49858,370,369 MY,1,49258,49858,425,389
Sprite,Foreground,Centre,"sb\dot.png",0,0 C,0,49258,,255,255,255 F,1,49258,49858,1,0 S,1,49258,49858,1,0.2 MX,1,49258,49858,370,352 MY,1,49258,49858,425,385
Sprite,Foreground,Centre,"sb\dot.png",0,0 C,0,49258,,255,255,255 F,1,49258,49858,1,0 S,1,49258,49858,1,0.2 MX,1,49258,49858,370,364 MY,1,49258,49858,425,424
Sprite,Foreground,Centre,"sb\dot.png",0,0 C,0,49258,,255,255,255 F,1,49258,49858,1,0 S,1,49258,49858,1,0.2 MX,1,49258,49858,370,377 MY,1,49258,49858,425,439
Sprite,Foreground,Centre,"sb\dot.png",0,0 C,0,49258,,255,255,255 F,1,49258,49858,1,0 S,1,49258,49858,1,0.2 MX,1,49258,49858,370,409 MY,1,49258,49858,425,484
Sprite,Foreground,Centre,"sb\dot.png",0,0 C,0,49258,,255,255,255 F,1,49258,49858,1,0 S,1,49258,49858,1,0.2 MX,1,49258,49858,370,360 MY,1,49258,49858,425,430
Sprite,Foreground,Centre,"sb\dot.png",0,0 C,0,49258,,255,255,255 F,1,49258,49858,1,0 S,1,49258,49858,1,0.2 MX,1,49258,49858,370,388 MY,1,49258,49858,425,390
Sprite,Foreground,Centre,"sb\dot.png",0,0 C,0,49258,,255,255,255 F,1,49258,49858,1,0 S,1,49258,49858,1,0.2 MX,1,49258,49858,370,341 MY,1,49258,49858,425,472
Sprite,Foreground,Centre,"sb\dot.png",0,0 C,0,49258,,255,255,255 F,1,49258,49858,1,0 S,1,49258,49858,1,0.2 MX,1,49258,49858,370,310 MY,1,49258,49858,425,417
Sprite,Foreground,Centre,"sb\dot.png",0,0 C,0,49258,,255,255,255 F,1,49258,49858,1,0 S,1,49258,49858,1,0.2 MX,1,49258,49858,370,418 MY,1,49258,49858,425,372
Sprite,Foreground,Centre,"sb\dot.png",0,0 C,0,49258,,255,255,255 F,1,49258,49858,1,0 S,1,49258,49858,1,0.2 MX,1,49258,49858,370,393 MY,1,49258,49858,425,461
Sprite,Foreground,Centre,"sb\dot.png",0,0 C,0,49258,,255,255,255 F,1,49258,49858,1,0 S,1,49258,49858,1,0.2 MX,1,49258,49858,370,344 MY,1,49258,49858,425,460
Sprite,Foreground,Centre,"sb\dot.png",0,0 C,0,49258,,255,255,255 F,1,49258,49858,1,0 S,1,49258,49858,1,0.2 MX,1,49258,49858,370,363 MY,1,49258,49858,425,377
Sprite,Foreground,Centre,"sb\dot.png",0,0 C,0,49258,,255,255,255 F,1,49258,49858,1,0 S,1,49258,49858,1,0.2 MX,1,49258,49858,370,422 MY,1,49258,49858,425,420
Sprite,Foreground,Centre,"sb\dot.png",0,0 C,0,49258,,255,255,255 F,1,49258,49858,1,0 S,1,49258,49858,1,0.2 MX,1,49258,49858,370,319 MY,1,49258,49858,425,374
Sprite,Foreground,Centre,"sb\dot.png",0,0 C,0,49258,,255,255,255 F,1,49258,49858,1,0 S,1,49258,49858,1,0.2 MX,1,49258,49858,370,390 MY,1,49258,49858,425,386
Sprite,Foreground,Centre,"sb\dot.png",0,0 C,0,49258,,255,255,255 F,1,49258,49858,1,0 S,1,49258,49858,1,0.2 MX,1,49258,49858,370,332 MY,1,49258,49858,425,468
Sprite,Foreground,Centre,"sb\dot.png",0,0 C,0,49258,,255,255,255 F,1,49258,49858,1,0 S,1,49258,49858,1,0.2 MX,1,49258,49858,370,364 MY,1,49258,49858,425,398
Sprite,Foreground,Centre,"sb\dot.png",0,0 C,0,49258,,255,255,255 F,1,49258,49858,1,0 S,1,49258,49858,1,0.2 MX,1,49258,49858,370,336 MY,1,49258,49858,425,379
Sprite,Foreground,Centre,"sb\dot.png",0,0 C,0,49422,,255,255,255 F,1,49422,50022,1,0 S,1,49422,50022,1,0.2 MX,1,49422,50022,200,195 MY,1,49422,50022,439,395
Sprite,Foreground,Centre,"sb\dot.png",0,0 C,0,49422,,255,255,255 F,1,49422,50022,1,0 S,1,49422,50022,1,0.2 MX,1,49422,50022,200,195 MY,1,49422,50022,439,419
Sprite,Foreground,Centre,"sb\dot.png",0,0 C,0,49422,,255,255,255 F,1,49422,50022,1,0 S,1,49422,50022,1,0.2 MX,1,49422,50022,200,146 MY,1,49422,50022,439,431
Sprite,Foreground,Centre,"sb\dot.png",0,0 C,0,49422,,255,255,255 F,1,49422,50022,1,0 S,1,49422,50022,1,0.2 MX,1,49422,50022,200,151 MY,1,49422,50022,439,452
Sprite,Foreground,Centre,"sb\dot.png",0,0 C,0,49422,,255,255,255 F,1,49422,50022,1,0 S,1,49422,50022,1,0.2 MX,1,49422,50022,200,226 MY,1,49422,50022,439,483
Sprite,Foreground,Centre,"sb\dot.png",0,0 C,0,49422,,255,255,255 F,1,49422,50022,1,0 S,1,49422,50022,1,0.2 MX,1,49422,50022,200,245 MY,1,49422,50022,439,425
Sprite,Foreground,Centre,"sb\dot.png",0,0 C,0,49422,,255,255,255 F,1,49422,50022,1,0 S,1,49422,50022,1,0.2 MX,1,49422,50022,200,225 MY,1,49422,50022,439,379
Sprite,Foreground,Centre,"sb\dot.png",0,0 C,0,49422,,255,255,255 F,1,49422,50022,1,0 S,1,49422,50022,1,0.2 MX,1,49422,50022,200,162 MY,1,49422,50022,439,411
Sprite,Foreground,Centre,"sb\dot.png",0,0 C,0,49422,,255,255,255 F,1,49422,50022,1,0 S,1,49422,50022,1,0.2 MX,1,49422,50022,200,224 MY,1,49422,50022,439,461
Sprite,Foreground,Centre,"sb\dot.png",0,0 C,0,49422,,255,255,255 F,1,49422,50022,1,0 S,1,49422,50022,1,0.2 MX,1,49422,50022,200,249 MY,1,49422,50022,439,446
Sprite,Foreground,Centre,"sb\dot.png",0,0 C,0,49422,,255,255,255 F,1,49422,50022,1,0 S,1,49422,50022,1,0.2 MX,1,49422,50022,200,226 MY,1,49422,50022,439,421
Sprite,Foreground,Centre,"sb\dot.png",0,0 C,0,49422,,255,255,255 F,1,49422,50022,1,0 S,1,49422,50022,1,0.2 MX,1,49422,50022,200,206 MY,1,49422,50022,439,390
Sprite,Foreground,Centre,"sb\dot.png",0,0 C,0,49422,,255,255,255 F,1,49422,50022,1,0 S,1,49422,50022,1,0.2 MX,1,49422,50022,200,205 MY,1,49422,50022,439,468
Sprite,Foreground,Centre,"sb\dot.png",0,0 C,0,49422,,255,255,255 F,1,49422,50022,1,0 S,1,49422,50022,1,0.2 MX,1,49422,50022,200,179 MY,1,49422,50022,439,407
Sprite,Foreground,Centre,"sb\dot.png",0,0 C,0,49422,,255,255,255 F,1,49422,50022,1,0 S,1,49422,50022,1,0.2 MX,1,49422,50022,200,183 MY,1,49422,50022,439,474
Sprite,Foreground,Centre,"sb\dot.png",0,0 C,0,49422,,255,255,255 F,1,49422,50022,1,0 S,1,49422,50022,1,0.2 MX,1,49422,50022,200,231 MY,1,49422,50022,439,497
Sprite,Foreground,Centre,"sb\dot.png",0,0 C,0,49422,,255,255,255 F,1,49422,50022,1,0 S,1,49422,50022,1,0.2 MX,1,49422,50022,200,221 MY,1,49422,50022,439,485
Sprite,Foreground,Centre,"sb\dot.png",0,0 C,0,49422,,255,255,255 F,1,49422,50022,1,0 S,1,49422,50022,1,0.2 MX,1,49422,50022,200,256 MY,1,49422,50022,439,470
Sprite,Foreground,Centre,"sb\dot.png",0,0 C,0,49422,,255,255,255 F,1,49422,50022,1,0 S,1,49422,50022,1,0.2 MX,1,49422,50022,200,211 MY,1,49422,50022,439,422
Sprite,Foreground,Centre,"sb\dot.png",0,0 C,0,49422,,255,255,255 F,1,49422,50022,1,0 S,1,49422,50022,1,0.2 MX,1,49422,50022,200,230 MY,1,49422,50022,439,481
Sprite,Foreground,Centre,"sb\dot.png",0,0 C,0,49422,,255,255,255 F,1,49422,50022,1,0 S,1,49422,50022,1,0.2 MX,1,49422,50022,200,223 MY,1,49422,50022,439,479
Sprite,Foreground,Centre,"sb\dot.png",0,0 C,0,49422,,255,255,255 F,1,49422,50022,1,0 S,1,49422,50022,1,0.2 MX,1,49422,50022,200,185 MY,1,49422,50022,439,386
Sprite,Foreground,Centre,"sb\dot.png",0,0 C,0,49422,,255,255,255 F,1,49422,50022,1,0 S,1,49422,50022,1,0.2 MX,1,49422,50022,200,209 MY,1,49422,50022,439,461
Sprite,Foreground,Centre,"sb\dot.png",0,0 C,0,49422,,255,255,255 F,1,49422,50022,1,0 S,1,49422,50022,1,0.2 MX,1,49422,50022,200,183 MY,1,49422,50022,439,459
Sprite,Foreground,Centre,"sb\dot.png",0,0 C,0,49422,,255,255,255 F,1,49422,50022,1,0 S,1,49422,50022,1,0.2 MX,1,49422,50022,200,258 MY,1,49422,50022,439,489
Sprite,Foreground,Centre,"sb\dot.png",0,0 C,0,49422,,255,255,255 F,1,49422,50022,1,0 S,1,49422,50022,1,0.2 MX,1,49422,50022,200,158 MY,1,49422,50022,439,470
Sprite,Foreground,Centre,"sb\dot.png",0,0 C,0,49422,,255,255,255 F,1,49422,50022,1,0 S,1,49422,50022,1,0.2 MX,1,49422,50022,200,183 MY,1,49422,50022,439,457
Sprite,Foreground,Centre,"sb\dot.png",0,0 C,0,49422,,255,255,255 F,1,49422,50022,1,0 S,1,49422,50022,1,0.2 MX,1,49422,50022,200,187 MY,1,49422,50022,439,392
Sprite,Foreground,Centre,"sb\dot.png",0,0 C,0,49422,,255,255,255 F,1,49422,50022,1,0 S,1,49422,50022,1,0.2 MX,1,49422,50022,200,209 MY,1,49422,50022,439,422
Sprite,Foreground,Centre,"sb\dot.png",0,0 C,0,49422,,255,255,255 F,1,49422,50022,1,0 S,1,49422,50022,1,0.2 MX,1,49422,50022,200,234 MY,1,49422,50022,439,415
Sprite,Foreground,Centre,"sb\dot.png",0,0 C,0,49503,,255,255,255 F,1,49503,50103,1,0 S,1,49503,50103,1,0.2 MX,1,49503,50103,200,153 MY,1,49503,50103,439,481
Sprite,Foreground,Centre,"sb\dot.png",0,0 C,0,49503,,255,255,255 F,1,49503,50103,1,0 S,1,49503,50103,1,0.2 MX,1,49503,50103,200,170 MY,1,49503,50103,439,490
Sprite,Foreground,Centre,"sb\dot.png",0,0 C,0,49503,,255,255,255 F,1,49503,50103,1,0 S,1,49503,50103,1,0.2 MX,1,49503,50103,200,153 MY,1,49503,50103,439,486
Sprite,Foreground,Centre,"sb\dot.png",0,0 C,0,49503,,255,255,255 F,1,49503,50103,1,0 S,1,49503,50103,1,0.2 MX,1,49503,50103,200,225 MY,1,49503,50103,439,477
Sprite,Foreground,Centre,"sb\dot.png",0,0 C,0,49503,,255,255,255 F,1,49503,50103,1,0 S,1,49503,50103,1,0.2 MX,1,49503,50103,200,143 MY,1,49503,50103,439,430
Sprite,Foreground,Centre,"sb\dot.png",0,0 C,0,49503,,255,255,255 F,1,49503,50103,1,0 S,1,49503,50103,1,0.2 MX,1,49503,50103,200,220 MY,1,49503,50103,439,419
Sprite,Foreground,Centre,"sb\dot.png",0,0 C,0,49503,,255,255,255 F,1,49503,50103,1,0 S,1,49503,50103,1,0.2 MX,1,49503,50103,200,252 MY,1,49503,50103,439,386
Sprite,Foreground,Centre,"sb\dot.png",0,0 C,0,49503,,255,255,255 F,1,49503,50103,1,0 S,1,49503,50103,1,0.2 MX,1,49503,50103,200,244 MY,1,49503,50103,439,484
Sprite,Foreground,Centre,"sb\dot.png",0,0 C,0,49503,,255,255,255 F,1,49503,50103,1,0 S,1,49503,50103,1,0.2 MX,1,49503,50103,200,257 MY,1,49503,50103,439,438
Sprite,Foreground,Centre,"sb\dot.png",0,0 C,0,49503,,255,255,255 F,1,49503,50103,1,0 S,1,49503,50103,1,0.2 MX,1,49503,50103,200,202 MY,1,49503,50103,439,482
Sprite,Foreground,Centre,"sb\dot.png",0,0 C,0,49503,,255,255,255 F,1,49503,50103,1,0 S,1,49503,50103,1,0.2 MX,1,49503,50103,200,186 MY,1,49503,50103,439,457
Sprite,Foreground,Centre,"sb\dot.png",0,0 C,0,49503,,255,255,255 F,1,49503,50103,1,0 S,1,49503,50103,1,0.2 MX,1,49503,50103,200,170 MY,1,49503,50103,439,431
Sprite,Foreground,Centre,"sb\dot.png",0,0 C,0,49503,,255,255,255 F,1,49503,50103,1,0 S,1,49503,50103,1,0.2 MX,1,49503,50103,200,216 MY,1,49503,50103,439,379
Sprite,Foreground,Centre,"sb\dot.png",0,0 C,0,49503,,255,255,255 F,1,49503,50103,1,0 S,1,49503,50103,1,0.2 MX,1,49503,50103,200,214 MY,1,49503,50103,439,381
Sprite,Foreground,Centre,"sb\dot.png",0,0 C,0,49503,,255,255,255 F,1,49503,50103,1,0 S,1,49503,50103,1,0.2 MX,1,49503,50103,200,198 MY,1,49503,50103,439,482
Sprite,Foreground,Centre,"sb\dot.png",0,0 C,0,49503,,255,255,255 F,1,49503,50103,1,0 S,1,49503,50103,1,0.2 MX,1,49503,50103,200,162 MY,1,49503,50103,439,406
Sprite,Foreground,Centre,"sb\dot.png",0,0 C,0,49503,,255,255,255 F,1,49503,50103,1,0 S,1,49503,50103,1,0.2 MX,1,49503,50103,200,208 MY,1,49503,50103,439,433
Sprite,Foreground,Centre,"sb\dot.png",0,0 C,0,49503,,255,255,255 F,1,49503,50103,1,0 S,1,49503,50103,1,0.2 MX,1,49503,50103,200,228 MY,1,49503,50103,439,479
Sprite,Foreground,Centre,"sb\dot.png",0,0 C,0,49503,,255,255,255 F,1,49503,50103,1,0 S,1,49503,50103,1,0.2 MX,1,49503,50103,200,210 MY,1,49503,50103,439,432
Sprite,Foreground,Centre,"sb\dot.png",0,0 C,0,49503,,255,255,255 F,1,49503,50103,1,0 S,1,49503,50103,1,0.2 MX,1,49503,50103,200,253 MY,1,49503,50103,439,461
Sprite,Foreground,Centre,"sb\dot.png",0,0 C,0,49503,,255,255,255 F,1,49503,50103,1,0 S,1,49503,50103,1,0.2 MX,1,49503,50103,200,257 MY,1,49503,50103,439,443
Sprite,Foreground,Centre,"sb\dot.png",0,0 C,0,49503,,255,255,255 F,1,49503,50103,1,0 S,1,49503,50103,1,0.2 MX,1,49503,50103,200,216 MY,1,49503,50103,439,446
Sprite,Foreground,Centre,"sb\dot.png",0,0 C,0,49503,,255,255,255 F,1,49503,50103,1,0 S,1,49503,50103,1,0.2 MX,1,49503,50103,200,169 MY,1,49503,50103,439,476
Sprite,Foreground,Centre,"sb\dot.png",0,0 C,0,49503,,255,255,255 F,1,49503,50103,1,0 S,1,49503,50103,1,0.2 MX,1,49503,50103,200,238 MY,1,49503,50103,439,415
Sprite,Foreground,Centre,"sb\dot.png",0,0 C,0,49503,,255,255,255 F,1,49503,50103,1,0 S,1,49503,50103,1,0.2 MX,1,49503,50103,200,234 MY,1,49503,50103,439,441
Sprite,Foreground,Centre,"sb\dot.png",0,0 C,0,49503,,255,255,255 F,1,49503,50103,1,0 S,1,49503,50103,1,0.2 MX,1,49503,50103,200,155 MY,1,49503,50103,439,388
Sprite,Foreground,Centre,"sb\dot.png",0,0 C,0,49503,,255,255,255 F,1,49503,50103,1,0 S,1,49503,50103,1,0.2 MX,1,49503,50103,200,241 MY,1,49503,50103,439,490
Sprite,Foreground,Centre,"sb\dot.png",0,0 C,0,49503,,255,255,255 F,1,49503,50103,1,0 S,1,49503,50103,1,0.2 MX,1,49503,50103,200,250 MY,1,49503,50103,439,433
Sprite,Foreground,Centre,"sb\dot.png",0,0 C,0,49503,,255,255,255 F,1,49503,50103,1,0 S,1,49503,50103,1,0.2 MX,1,49503,50103,200,212 MY,1,49503,50103,439,476
Sprite,Foreground,Centre,"sb\dot.png",0,0 C,0,49503,,255,255,255 F,1,49503,50103,1,0 S,1,49503,50103,1,0.2 MX,1,49503,50103,200,175 MY,1,49503,50103,439,391
Sprite,Foreground,Centre,"sb\dot.png",0,0 C,0,49585,,255,255,255 F,1,49585,50185,1,0 S,1,49585,50185,1,0.2 MX,1,49585,50185,200,173 MY,1,49585,50185,439,461
Sprite,Foreground,Centre,"sb\dot.png",0,0 C,0,49585,,255,255,255 F,1,49585,50185,1,0 S,1,49585,50185,1,0.2 MX,1,49585,50185,200,179 MY,1,49585,50185,439,399
Sprite,Foreground,Centre,"sb\dot.png",0,0 C,0,49585,,255,255,255 F,1,49585,50185,1,0 S,1,49585,50185,1,0.2 MX,1,49585,50185,200,168 MY,1,49585,50185,439,432
Sprite,Foreground,Centre,"sb\dot.png",0,0 C,0,49585,,255,255,255 F,1,49585,50185,1,0 S,1,49585,50185,1,0.2 MX,1,49585,50185,200,232 MY,1,49585,50185,439,437
Sprite,Foreground,Centre,"sb\dot.png",0,0 C,0,49585,,255,255,255 F,1,49585,50185,1,0 S,1,49585,50185,1,0.2 MX,1,49585,50185,200,178 MY,1,49585,50185,439,382
Sprite,Foreground,Centre,"sb\dot.png",0,0 C,0,49585,,255,255,255 F,1,49585,50185,1,0 S,1,49585,50185,1,0.2 MX,1,49585,50185,200,175 MY,1,49585,50185,439,442
Sprite,Foreground,Centre,"sb\dot.png",0,0 C,0,49585,,255,255,255 F,1,49585,50185,1,0 S,1,49585,50185,1,0.2 MX,1,49585,50185,200,205 MY,1,49585,50185,439,478
Sprite,Foreground,Centre,"sb\dot.png",0,0 C,0,49585,,255,255,255 F,1,49585,50185,1,0 S,1,49585,50185,1,0.2 MX,1,49585,50185,200,245 MY,1,49585,50185,439,480
Sprite,Foreground,Centre,"sb\dot.png",0,0 C,0,49585,,255,255,255 F,1,49585,50185,1,0 S,1,49585,50185,1,0.2 MX,1,49585,50185,200,141 MY,1,49585,50185,439,461
Sprite,Foreground,Centre,"sb\dot.png",0,0 C,0,49585,,255,255,255 F,1,49585,50185,1,0 S,1,49585,50185,1,0.2 MX,1,49585,50185,200,163 MY,1,49585,50185,439,477
Sprite,Foreground,Centre,"sb\dot.png",0,0 C,0,49585,,255,255,255 F,1,49585,50185,1,0 S,1,49585,50185,1,0.2 MX,1,49585,50185,200,161 MY,1,49585,50185,439,417
Sprite,Foreground,Centre,"sb\dot.png",0,0 C,0,49585,,255,255,255 F,1,49585,50185,1,0 S,1,49585,50185,1,0.2 MX,1,49585,50185,200,167 MY,1,49585,50185,439,495
Sprite,Foreground,Centre,"sb\dot.png",0,0 C,0,49585,,255,255,255 F,1,49585,50185,1,0 S,1,49585,50185,1,0.2 MX,1,49585,50185,200,227 MY,1,49585,50185,439,391
Sprite,Foreground,Centre,"sb\dot.png",0,0 C,0,49585,,255,255,255 F,1,49585,50185,1,0 S,1,49585,50185,1,0.2 MX,1,49585,50185,200,185 MY,1,49585,50185,439,456
Sprite,Foreground,Centre,"sb\dot.png",0,0 C,0,49585,,255,255,255 F,1,49585,50185,1,0 S,1,49585,50185,1,0.2 MX,1,49585,50185,200,203 MY,1,49585,50185,439,413
Sprite,Foreground,Centre,"sb\dot.png",0,0 C,0,49585,,255,255,255 F,1,49585,50185,1,0 S,1,49585,50185,1,0.2 MX,1,49585,50185,200,168 MY,1,49585,50185,439,471
Sprite,Foreground,Centre,"sb\dot.png",0,0 C,0,49585,,255,255,255 F,1,49585,50185,1,0 S,1,49585,50185,1,0.2 MX,1,49585,50185,200,158 MY,1,49585,50185,439,480
Sprite,Foreground,Centre,"sb\dot.png",0,0 C,0,49585,,255,255,255 F,1,49585,50185,1,0 S,1,49585,50185,1,0.2 MX,1,49585,50185,200,189 MY,1,49585,50185,439,413
Sprite,Foreground,Centre,"sb\dot.png",0,0 C,0,49585,,255,255,255 F,1,49585,50185,1,0 S,1,49585,50185,1,0.2 MX,1,49585,50185,200,164 MY,1,49585,50185,439,435
Sprite,Foreground,Centre,"sb\dot.png",0,0 C,0,49585,,255,255,255 F,1,49585,50185,1,0 S,1,49585,50185,1,0.2 MX,1,49585,50185,200,178 MY,1,49585,50185,439,474
Sprite,Foreground,Centre,"sb\dot.png",0,0 C,0,49585,,255,255,255 F,1,49585,50185,1,0 S,1,49585,50185,1,0.2 MX,1,49585,50185,200,145 MY,1,49585,50185,439,419
Sprite,Foreground,Centre,"sb\dot.png",0,0 C,0,49585,,255,255,255 F,1,49585,50185,1,0 S,1,49585,50185,1,0.2 MX,1,49585,50185,200,257 MY,1,49585,50185,439,470
Sprite,Foreground,Centre,"sb\dot.png",0,0 C,0,49585,,255,255,255 F,1,49585,50185,1,0 S,1,49585,50185,1,0.2 MX,1,49585,50185,200,166 MY,1,49585,50185,439,451
Sprite,Foreground,Centre,"sb\dot.png",0,0 C,0,49585,,255,255,255 F,1,49585,50185,1,0 S,1,49585,50185,1,0.2 MX,1,49585,50185,200,203 MY,1,49585,50185,439,381
Sprite,Foreground,Centre,"sb\dot.png",0,0 C,0,49585,,255,255,255 F,1,49585,50185,1,0 S,1,49585,50185,1,0.2 MX,1,49585,50185,200,145 MY,1,49585,50185,439,387
Sprite,Foreground,Centre,"sb\dot.png",0,0 C,0,49585,,255,255,255 F,1,49585,50185,1,0 S,1,49585,50185,1,0.2 MX,1,49585,50185,200,192 MY,1,49585,50185,439,488
Sprite,Foreground,Centre,"sb\dot.png",0,0 C,0,49585,,255,255,255 F,1,49585,50185,1,0 S,1,49585,50185,1,0.2 MX,1,49585,50185,200,214 MY,1,49585,50185,439,435
Sprite,Foreground,Centre,"sb\dot.png",0,0 C,0,49585,,255,255,255 F,1,49585,50185,1,0 S,1,49585,50185,1,0.2 MX,1,49585,50185,200,250 MY,1,49585,50185,439,494
Sprite,Foreground,Centre,"sb\dot.png",0,0 C,0,49585,,255,255,255 F,1,49585,50185,1,0 S,1,49585,50185,1,0.2 MX,1,49585,50185,200,195 MY,1,49585,50185,439,422
Sprite,Foreground,Centre,"sb\dot.png",0,0 C,0,49585,,255,255,255 F,1,49585,50185,1,0 S,1,49585,50185,1,0.2 MX,1,49585,50185,200,192 MY,1,49585,50185,439,395
Sprite,Foreground,Centre,"sb\dot.png",0,0 C,0,49749,,255,255,255 F,1,49749,50349,1,0 S,1,49749,50349,1,0.2 MX,1,49749,50349,371,319 MY,1,49749,50349,383,337
Sprite,Foreground,Centre,"sb\dot.png",0,0 C,0,49749,,255,255,255 F,1,49749,50349,1,0 S,1,49749,50349,1,0.2 MX,1,49749,50349,371,425 MY,1,49749,50349,383,327
Sprite,Foreground,Centre,"sb\dot.png",0,0 C,0,49749,,255,255,255 F,1,49749,50349,1,0 S,1,49749,50349,1,0.2 MX,1,49749,50349,371,405 MY,1,49749,50349,383,385
Sprite,Foreground,Centre,"sb\dot.png",0,0 C,0,49749,,255,255,255 F,1,49749,50349,1,0 S,1,49749,50349,1,0.2 MX,1,49749,50349,371,356 MY,1,49749,50349,383,407
Sprite,Foreground,Centre,"sb\dot.png",0,0 C,0,49749,,255,255,255 F,1,49749,50349,1,0 S,1,49749,50349,1,0.2 MX,1,49749,50349,371,361 MY,1,49749,50349,383,394
Sprite,Foreground,Centre,"sb\dot.png",0,0 C,0,49749,,255,255,255 F,1,49749,50349,1,0 S,1,49749,50349,1,0.2 MX,1,49749,50349,371,387 MY,1,49749,50349,383,388
Sprite,Foreground,Centre,"sb\dot.png",0,0 C,0,49749,,255,255,255 F,1,49749,50349,1,0 S,1,49749,50349,1,0.2 MX,1,49749,50349,371,355 MY,1,49749,50349,383,370
Sprite,Foreground,Centre,"sb\dot.png",0,0 C,0,49749,,255,255,255 F,1,49749,50349,1,0 S,1,49749,50349,1,0.2 MX,1,49749,50349,371,403 MY,1,49749,50349,383,424
Sprite,Foreground,Centre,"sb\dot.png",0,0 C,0,49749,,255,255,255 F,1,49749,50349,1,0 S,1,49749,50349,1,0.2 MX,1,49749,50349,371,351 MY,1,49749,50349,383,379
Sprite,Foreground,Centre,"sb\dot.png",0,0 C,0,49749,,255,255,255 F,1,49749,50349,1,0 S,1,49749,50349,1,0.2 MX,1,49749,50349,371,401 MY,1,49749,50349,383,338
Sprite,Foreground,Centre,"sb\dot.png",0,0 C,0,49749,,255,255,255 F,1,49749,50349,1,0 S,1,49749,50349,1,0.2 MX,1,49749,50349,371,379 MY,1,49749,50349,383,366
Sprite,Foreground,Centre,"sb\dot.png",0,0 C,0,49749,,255,255,255 F,1,49749,50349,1,0 S,1,49749,50349,1,0.2 MX,1,49749,50349,371,382 MY,1,49749,50349,383,378
Sprite,Foreground,Centre,"sb\dot.png",0,0 C,0,49749,,255,255,255 F,1,49749,50349,1,0 S,1,49749,50349,1,0.2 MX,1,49749,50349,371,412 MY,1,49749,50349,383,361
Sprite,Foreground,Centre,"sb\dot.png",0,0 C,0,49749,,255,255,255 F,1,49749,50349,1,0 S,1,49749,50349,1,0.2 MX,1,49749,50349,371,329 MY,1,49749,50349,383,404
Sprite,Foreground,Centre,"sb\dot.png",0,0 C,0,49749,,255,255,255 F,1,49749,50349,1,0 S,1,49749,50349,1,0.2 MX,1,49749,50349,371,421 MY,1,49749,50349,383,377
Sprite,Foreground,Centre,"sb\dot.png",0,0 C,0,49749,,255,255,255 F,1,49749,50349,1,0 S,1,49749,50349,1,0.2 MX,1,49749,50349,371,410 MY,1,49749,50349,383,424
Sprite,Foreground,Centre,"sb\dot.png",0,0 C,0,49749,,255,255,255 F,1,49749,50349,1,0 S,1,49749,50349,1,0.2 MX,1,49749,50349,371,314 MY,1,49749,50349,383,345
Sprite,Foreground,Centre,"sb\dot.png",0,0 C,0,49749,,255,255,255 F,1,49749,50349,1,0 S,1,49749,50349,1,0.2 MX,1,49749,50349,371,398 MY,1,49749,50349,383,434
Sprite,Foreground,Centre,"sb\dot.png",0,0 C,0,49749,,255,255,255 F,1,49749,50349,1,0 S,1,49749,50349,1,0.2 MX,1,49749,50349,371,356 MY,1,49749,50349,383,436
Sprite,Foreground,Centre,"sb\dot.png",0,0 C,0,49749,,255,255,255 F,1,49749,50349,1,0 S,1,49749,50349,1,0.2 MX,1,49749,50349,371,427 MY,1,49749,50349,383,406
Sprite,Foreground,Centre,"sb\dot.png",0,0 C,0,49749,,255,255,255 F,1,49749,50349,1,0 S,1,49749,50349,1,0.2 MX,1,49749,50349,371,337 MY,1,49749,50349,383,422
Sprite,Foreground,Centre,"sb\dot.png",0,0 C,0,49749,,255,255,255 F,1,49749,50349,1,0 S,1,49749,50349,1,0.2 MX,1,49749,50349,371,382 MY,1,49749,50349,383,377
Sprite,Foreground,Centre,"sb\dot.png",0,0 C,0,49749,,255,255,255 F,1,49749,50349,1,0 S,1,49749,50349,1,0.2 MX,1,49749,50349,371,363 MY,1,49749,50349,383,430
Sprite,Foreground,Centre,"sb\dot.png",0,0 C,0,49749,,255,255,255 F,1,49749,50349,1,0 S,1,49749,50349,1,0.2 MX,1,49749,50349,371,376 MY,1,49749,50349,383,349
Sprite,Foreground,Centre,"sb\dot.png",0,0 C,0,49749,,255,255,255 F,1,49749,50349,1,0 S,1,49749,50349,1,0.2 MX,1,49749,50349,371,395 MY,1,49749,50349,383,332
Sprite,Foreground,Centre,"sb\dot.png",0,0 C,0,49749,,255,255,255 F,1,49749,50349,1,0 S,1,49749,50349,1,0.2 MX,1,49749,50349,371,385 MY,1,49749,50349,383,442
Sprite,Foreground,Centre,"sb\dot.png",0,0 C,0,49749,,255,255,255 F,1,49749,50349,1,0 S,1,49749,50349,1,0.2 MX,1,49749,50349,371,384 MY,1,49749,50349,383,360
Sprite,Foreground,Centre,"sb\dot.png",0,0 C,0,49749,,255,255,255 F,1,49749,50349,1,0 S,1,49749,50349,1,0.2 MX,1,49749,50349,371,378 MY,1,49749,50349,383,408
Sprite,Foreground,Centre,"sb\dot.png",0,0 C,0,49749,,255,255,255 F,1,49749,50349,1,0 S,1,49749,50349,1,0.2 MX,1,49749,50349,371,374 MY,1,49749,50349,383,382
Sprite,Foreground,Centre,"sb\dot.png",0,0 C,0,49749,,255,255,255 F,1,49749,50349,1,0 S,1,49749,50349,1,0.2 MX,1,49749,50349,371,333 MY,1,49749,50349,383,378
Sprite,Foreground,Centre,"sb\dot.png",0,0 C,0,49914,,255,255,255 F,1,49914,50514,1,0 S,1,49914,50514,1,0.2 MX,1,49914,50514,191,175 MY,1,49914,50514,388,411
Sprite,Foreground,Centre,"sb\dot.png",0,0 C,0,49914,,255,255,255 F,1,49914,50514,1,0 S,1,49914,50514,1,0.2 MX,1,49914,50514,191,225 MY,1,49914,50514,388,444
Sprite,Foreground,Centre,"sb\dot.png",0,0 C,0,49914,,255,255,255 F,1,49914,50514,1,0 S,1,49914,50514,1,0.2 MX,1,49914,50514,191,222 MY,1,49914,50514,388,422
Sprite,Foreground,Centre,"sb\dot.png",0,0 C,0,49914,,255,255,255 F,1,49914,50514,1,0 S,1,49914,50514,1,0.2 MX,1,49914,50514,191,192 MY,1,49914,50514,388,349
Sprite,Foreground,Centre,"sb\dot.png",0,0 C,0,49914,,255,255,255 F,1,49914,50514,1,0 S,1,49914,50514,1,0.2 MX,1,49914,50514,191,210 MY,1,49914,50514,388,429
Sprite,Foreground,Centre,"sb\dot.png",0,0 C,0,49914,,255,255,255 F,1,49914,50514,1,0 S,1,49914,50514,1,0.2 MX,1,49914,50514,191,186 MY,1,49914,50514,388,375
Sprite,Foreground,Centre,"sb\dot.png",0,0 C,0,49914,,255,255,255 F,1,49914,50514,1,0 S,1,49914,50514,1,0.2 MX,1,49914,50514,191,190 MY,1,49914,50514,388,334
Sprite,Foreground,Centre,"sb\dot.png",0,0 C,0,49914,,255,255,255 F,1,49914,50514,1,0 S,1,49914,50514,1,0.2 MX,1,49914,50514,191,239 MY,1,49914,50514,388,417
Sprite,Foreground,Centre,"sb\dot.png",0,0 C,0,49914,,255,255,255 F,1,49914,50514,1,0 S,1,49914,50514,1,0.2 MX,1,49914,50514,191,222 MY,1,49914,50514,388,344
Sprite,Foreground,Centre,"sb\dot.png",0,0 C,0,49914,,255,255,255 F,1,49914,50514,1,0 S,1,49914,50514,1,0.2 MX,1,49914,50514,191,133 MY,1,49914,50514,388,442
Sprite,Foreground,Centre,"sb\dot.png",0,0 C,0,49914,,255,255,255 F,1,49914,50514,1,0 S,1,49914,50514,1,0.2 MX,1,49914,50514,191,224 MY,1,49914,50514,388,439
Sprite,Foreground,Centre,"sb\dot.png",0,0 C,0,49914,,255,255,255 F,1,49914,50514,1,0 S,1,49914,50514,1,0.2 MX,1,49914,50514,191,248 MY,1,49914,50514,388,429
Sprite,Foreground,Centre,"sb\dot.png",0,0 C,0,49914,,255,255,255 F,1,49914,50514,1,0 S,1,49914,50514,1,0.2 MX,1,49914,50514,191,230 MY,1,49914,50514,388,428
Sprite,Foreground,Centre,"sb\dot.png",0,0 C,0,49914,,255,255,255 F,1,49914,50514,1,0 S,1,49914,50514,1,0.2 MX,1,49914,50514,191,159 MY,1,49914,50514,388,414
Sprite,Foreground,Centre,"sb\dot.png",0,0 C,0,49914,,255,255,255 F,1,49914,50514,1,0 S,1,49914,50514,1,0.2 MX,1,49914,50514,191,205 MY,1,49914,50514,388,330
Sprite,Foreground,Centre,"sb\dot.png",0,0 C,0,49914,,255,255,255 F,1,49914,50514,1,0 S,1,49914,50514,1,0.2 MX,1,49914,50514,191,178 MY,1,49914,50514,388,434
Sprite,Foreground,Centre,"sb\dot.png",0,0 C,0,49914,,255,255,255 F,1,49914,50514,1,0 S,1,49914,50514,1,0.2 MX,1,49914,50514,191,221 MY,1,49914,50514,388
Sprite,Foreground,Centre,"sb\dot.png",0,0 C,0,49914,,255,255,255 F,1,49914,50514,1,0 S,1,49914,50514,1,0.2 MX,1,49914,50514,191,170 MY,1,49914,50514,388,390
Sprite,Foreground,Centre,"sb\dot.png",0,0 C,0,49914,,255,255,255 F,1,49914,50514,1,0 S,1,49914,50514,1,0.2 MX,1,49914,50514,191,136 MY,1,49914,50514,388,403
Sprite,Foreground,Centre,"sb\dot.png",0,0 C,0,49914,,255,255,255 F,1,49914,50514,1,0 S,1,49914,50514,1,0.2 MX,1,49914,50514,191,213 MY,1,49914,50514,388,405
Sprite,Foreground,Centre,"sb\dot.png",0,0 C,0,49914,,255,255,255 F,1,49914,50514,1,0 S,1,49914,50514,1,0.2 MX,1,49914,50514,191,176 MY,1,49914,50514,388,371
Sprite,Foreground,Centre,"sb\dot.png",0,0 C,0,49914,,255,255,255 F,1,49914,50514,1,0 S,1,49914,50514,1,0.2 MX,1,49914,50514,191,198 MY,1,49914,50514,388,430
Sprite,Foreground,Centre,"sb\dot.png",0,0 C,0,49914,,255,255,255 F,1,49914,50514,1,0 S,1,49914,50514,1,0.2 MX,1,49914,50514,191,204 MY,1,49914,50514,388,354
Sprite,Foreground,Centre,"sb\dot.png",0,0 C,0,49914,,255,255,255 F,1,49914,50514,1,0 S,1,49914,50514,1,0.2 MX,1,49914,50514,191,190 MY,1,49914,50514,388,395
Sprite,Foreground,Centre,"sb\dot.png",0,0 C,0,49914,,255,255,255 F,1,49914,50514,1,0 S,1,49914,50514,1,0.2 MX,1,49914,50514,191,179 MY,1,49914,50514,388,426
Sprite,Foreground,Centre,"sb\dot.png",0,0 C,0,49914,,255,255,255 F,1,49914,50514,1,0 S,1,49914,50514,1,0.2 MX,1,49914,50514,191,244 MY,1,49914,50514,388,374
Sprite,Foreground,Centre,"sb\dot.png",0,0 C,0,49914,,255,255,255 F,1,49914,50514,1,0 S,1,49914,50514,1,0.2 MX,1,49914,50514,191,187 MY,1,49914,50514,388,355
Sprite,Foreground,Centre,"sb\dot.png",0,0 C,0,49914,,255,255,255 F,1,49914,50514,1,0 S,1,49914,50514,1,0.2 MX,1,49914,50514,191,213 MY,1,49914,50514,388,380
Sprite,Foreground,Centre,"sb\dot.png",0,0 C,0,49914,,255,255,255 F,1,49914,50514,1,0 S,1,49914,50514,1,0.2 MX,1,49914,50514,191,217 MY,1,49914,50514,388,441
Sprite,Foreground,Centre,"sb\dot.png",0,0 C,0,49914,,255,255,255 F,1,49914,50514,1,0 S,1,49914,50514,1,0.2 MX,1,49914,50514,191,147 MY,1,49914,50514,388,439
Sprite,Foreground,Centre,"sb\dot.png",0,0 C,0,50242,,255,255,255 F,1,50242,50842,1,0 S,1,50242,50842,1,0.2 MX,1,50242,50842,64,69 MY,1,50242,50842,176,210
Sprite,Foreground,Centre,"sb\dot.png",0,0 C,0,50242,,255,255,255 F,1,50242,50842,1,0 S,1,50242,50842,1,0.2 MX,1,50242,50842,64,70 MY,1,50242,50842,176,193
Sprite,Foreground,Centre,"sb\dot.png",0,0 C,0,50242,,255,255,255 F,1,50242,50842,1,0 S,1,50242,50842,1,0.2 MX,1,50242,50842,64,57 MY,1,50242,50842,176,185
Sprite,Foreground,Centre,"sb\dot.png",0,0 C,0,50242,,255,255,255 F,1,50242,50842,1,0 S,1,50242,50842,1,0.2 MX,1,50242,50842,64,81 MY,1,50242,50842,176,234
Sprite,Foreground,Centre,"sb\dot.png",0,0 C,0,50242,,255,255,255 F,1,50242,50842,1,0 S,1,50242,50842,1,0.2 MX,1,50242,50842,64,90 MY,1,50242,50842,176,162
Sprite,Foreground,Centre,"sb\dot.png",0,0 C,0,50242,,255,255,255 F,1,50242,50842,1,0 S,1,50242,50842,1,0.2 MX,1,50242,50842,64,88 MY,1,50242,50842,176,131
Sprite,Foreground,Centre,"sb\dot.png",0,0 C,0,50242,,255,255,255 F,1,50242,50842,1,0 S,1,50242,50842,1,0.2 MX,1,50242,50842,64,58 MY,1,50242,50842,176,161
Sprite,Foreground,Centre,"sb\dot.png",0,0 C,0,50242,,255,255,255 F,1,50242,50842,1,0 S,1,50242,50842,1,0.2 MX,1,50242,50842,64,73 MY,1,50242,50842,176,165
Sprite,Foreground,Centre,"sb\dot.png",0,0 C,0,50242,,255,255,255 F,1,50242,50842,1,0 S,1,50242,50842,1,0.2 MX,1,50242,50842,64,48 MY,1,50242,50842,176,131
Sprite,Foreground,Centre,"sb\dot.png",0,0 C,0,50242,,255,255,255 F,1,50242,50842,1,0 S,1,50242,50842,1,0.2 MX,1,50242,50842,64,31 MY,1,50242,50842,176,188
Sprite,Foreground,Centre,"sb\dot.png",0,0 C,0,50242,,255,255,255 F,1,50242,50842,1,0 S,1,50242,50842,1,0.2 MX,1,50242,50842,64,44 MY,1,50242,50842,176,197
Sprite,Foreground,Centre,"sb\dot.png",0,0 C,0,50242,,255,255,255 F,1,50242,50842,1,0 S,1,50242,50842,1,0.2 MX,1,50242,50842,64,42 MY,1,50242,50842,176,212
Sprite,Foreground,Centre,"sb\dot.png",0,0 C,0,50242,,255,255,255 F,1,50242,50842,1,0 S,1,50242,50842,1,0.2 MX,1,50242,50842,64,12 MY,1,50242,50842,176,117
Sprite,Foreground,Centre,"sb\dot.png",0,0 C,0,50242,,255,255,255 F,1,50242,50842,1,0 S,1,50242,50842,1,0.2 MX,1,50242,50842,64,53 MY,1,50242,50842,176,178
Sprite,Foreground,Centre,"sb\dot.png",0,0 C,0,50242,,255,255,255 F,1,50242,50842,1,0 S,1,50242,50842,1,0.2 MX,1,50242,50842,64,102 MY,1,50242,50842,176,222
Sprite,Foreground,Centre,"sb\dot.png",0,0 C,0,50242,,255,255,255 F,1,50242,50842,1,0 S,1,50242,50842,1,0.2 MX,1,50242,50842,64,100 MY,1,50242,50842,176,128
Sprite,Foreground,Centre,"sb\dot.png",0,0 C,0,50242,,255,255,255 F,1,50242,50842,1,0 S,1,50242,50842,1,0.2 MX,1,50242,50842,64,62 MY,1,50242,50842,176,206
Sprite,Foreground,Centre,"sb\dot.png",0,0 C,0,50242,,255,255,255 F,1,50242,50842,1,0 S,1,50242,50842,1,0.2 MX,1,50242,50842,64,15 MY,1,50242,50842,176,186
Sprite,Foreground,Centre,"sb\dot.png",0,0 C,0,50242,,255,255,255 F,1,50242,50842,1,0 S,1,50242,50842,1,0.2 MX,1,50242,50842,64,101 MY,1,50242,50842,176,226
Sprite,Foreground,Centre,"sb\dot.png",0,0 C,0,50242,,255,255,255 F,1,50242,50842,1,0 S,1,50242,50842,1,0.2 MX,1,50242,50842,64,52 MY,1,50242,50842,176,119
Sprite,Foreground,Centre,"sb\dot.png",0,0 C,0,50242,,255,255,255 F,1,50242,50842,1,0 S,1,50242,50842,1,0.2 MX,1,50242,50842,64,73 MY,1,50242,50842,176,177
Sprite,Foreground,Centre,"sb\dot.png",0,0 C,0,50242,,255,255,255 F,1,50242,50842,1,0 S,1,50242,50842,1,0.2 MX,1,50242,50842,64,104 MY,1,50242,50842,176,117
Sprite,Foreground,Centre,"sb\dot.png",0,0 C,0,50242,,255,255,255 F,1,50242,50842,1,0 S,1,50242,50842,1,0.2 MX,1,50242,50842,64,18 MY,1,50242,50842,176,214
Sprite,Foreground,Centre,"sb\dot.png",0,0 C,0,50242,,255,255,255 F,1,50242,50842,1,0 S,1,50242,50842,1,0.2 MX,1,50242,50842,64,116 MY,1,50242,50842,176,127
Sprite,Foreground,Centre,"sb\dot.png",0,0 C,0,50242,,255,255,255 F,1,50242,50842,1,0 S,1,50242,50842,1,0.2 MX,1,50242,50842,64,82 MY,1,50242,50842,176,148
Sprite,Foreground,Centre,"sb\dot.png",0,0 C,0,50242,,255,255,255 F,1,50242,50842,1,0 S,1,50242,50842,1,0.2 MX,1,50242,50842,64,12 MY,1,50242,50842,176,187
Sprite,Foreground,Centre,"sb\dot.png",0,0 C,0,50242,,255,255,255 F,1,50242,50842,1,0 S,1,50242,50842,1,0.2 MX,1,50242,50842,64,89 MY,1,50242,50842,176,180
Sprite,Foreground,Centre,"sb\dot.png",0,0 C,0,50242,,255,255,255 F,1,50242,50842,1,0 S,1,50242,50842,1,0.2 MX,1,50242,50842,64,75 MY,1,50242,50842,176,220
Sprite,Foreground,Centre,"sb\dot.png",0,0 C,0,50242,,255,255,255 F,1,50242,50842,1,0 S,1,50242,50842,1,0.2 MX,1,50242,50842,64,60 MY,1,50242,50842,176,205
Sprite,Foreground,Centre,"sb\dot.png",0,0 C,0,50242,,255,255,255 F,1,50242,50842,1,0 S,1,50242,50842,1,0.2 MX,1,50242,50842,64,72 MY,1,50242,50842,176,168
Sprite,Foreground,Centre,"sb\dot.png",0,0 C,0,50488,,255,255,255 F,1,50488,51088,1,0 S,1,50488,51088,1,0.2 MX,1,50488,51088,224,184 MY,1,50488,51088,72,26
Sprite,Foreground,Centre,"sb\dot.png",0,0 C,0,50488,,255,255,255 F,1,50488,51088,1,0 S,1,50488,51088,1,0.2 MX,1,50488,51088,224,184 MY,1,50488,51088,72,111
Sprite,Foreground,Centre,"sb\dot.png",0,0 C,0,50488,,255,255,255 F,1,50488,51088,1,0 S,1,50488,51088,1,0.2 MX,1,50488,51088,224,234 MY,1,50488,51088,72,83
Sprite,Foreground,Centre,"sb\dot.png",0,0 C,0,50488,,255,255,255 F,1,50488,51088,1,0 S,1,50488,51088,1,0.2 MX,1,50488,51088,224,241 MY,1,50488,51088,72,95
Sprite,Foreground,Centre,"sb\dot.png",0,0 C,0,50488,,255,255,255 F,1,50488,51088,1,0 S,1,50488,51088,1,0.2 MX,1,50488,51088,224,197 MY,1,50488,51088,72,130
Sprite,Foreground,Centre,"sb\dot.png",0,0 C,0,50488,,255,255,255 F,1,50488,51088,1,0 S,1,50488,51088,1,0.2 MX,1,50488,51088,224,236 MY,1,50488,51088,72,66
Sprite,Foreground,Centre,"sb\dot.png",0,0 C,0,50488,,255,255,255 F,1,50488,51088,1,0 S,1,50488,51088,1,0.2 MX,1,50488,51088,224,250 MY,1,50488,51088,72,35
Sprite,Foreground,Centre,"sb\dot.png",0,0 C,0,50488,,255,255,255 F,1,50488,51088,1,0 S,1,50488,51088,1,0.2 MX,1,50488,51088,224,166 MY,1,50488,51088,72,111
Sprite,Foreground,Centre,"sb\dot.png",0,0 C,0,50488,,255,255,255 F,1,50488,51088,1,0 S,1,50488,51088,1,0.2 MX,1,50488,51088,224,265 MY,1,50488,51088,72,48
Sprite,Foreground,Centre,"sb\dot.png",0,0 C,0,50488,,255,255,255 F,1,50488,51088,1,0 S,1,50488,51088,1,0.2 MX,1,50488,51088,224,246 MY,1,50488,51088,72,42
Sprite,Foreground,Centre,"sb\dot.png",0,0 C,0,50488,,255,255,255 F,1,50488,51088,1,0 S,1,50488,51088,1,0.2 MX,1,50488,51088,224,172 MY,1,50488,51088,72,49
Sprite,Foreground,Centre,"sb\dot.png",0,0 C,0,50488,,255,255,255 F,1,50488,51088,1,0 S,1,50488,51088,1,0.2 MX,1,50488,51088,224,267 MY,1,50488,51088,72,77
Sprite,Foreground,Centre,"sb\dot.png",0,0 C,0,50488,,255,255,255 F,1,50488,51088,1,0 S,1,50488,51088,1,0.2 MX,1,50488,51088,224,262 MY,1,50488,51088,72,36
Sprite,Foreground,Centre,"sb\dot.png",0,0 C,0,50488,,255,255,255 F,1,50488,51088,1,0 S,1,50488,51088,1,0.2 MX,1,50488,51088,224,210 MY,1,50488,51088,72,126
Sprite,Foreground,Centre,"sb\dot.png",0,0 C,0,50488,,255,255,255 F,1,50488,51088,1,0 S,1,50488,51088,1,0.2 MX,1,50488,51088,224,183 MY,1,50488,51088,72,39
Sprite,Foreground,Centre,"sb\dot.png",0,0 C,0,50488,,255,255,255 F,1,50488,51088,1,0 S,1,50488,51088,1,0.2 MX,1,50488,51088,224,177 MY,1,50488,51088,72,19
Sprite,Foreground,Centre,"sb\dot.png",0,0 C,0,50488,,255,255,255 F,1,50488,51088,1,0 S,1,50488,51088,1,0.2 MX,1,50488,51088,224,206 MY,1,50488,51088,72,127
Sprite,Foreground,Centre,"sb\dot.png",0,0 C,0,50488,,255,255,255 F,1,50488,51088,1,0 S,1,50488,51088,1,0.2 MX,1,50488,51088,224,267 MY,1,50488,51088,72,67
Sprite,Foreground,Centre,"sb\dot.png",0,0 C,0,50488,,255,255,255 F,1,50488,51088,1,0 S,1,50488,51088,1,0.2 MX,1,50488,51088,224,205 MY,1,50488,51088,72,13
Sprite,Foreground,Centre,"sb\dot.png",0,0 C,0,50488,,255,255,255 F,1,50488,51088,1,0 S,1,50488,51088,1,0.2 MX,1,50488,51088,224,215 MY,1,50488,51088,72,74
Sprite,Foreground,Centre,"sb\dot.png",0,0 C,0,50488,,255,255,255 F,1,50488,51088,1,0 S,1,50488,51088,1,0.2 MX,1,50488,51088,224,184 MY,1,50488,51088,72,41
Sprite,Foreground,Centre,"sb\dot.png",0,0 C,0,50488,,255,255,255 F,1,50488,51088,1,0 S,1,50488,51088,1,0.2 MX,1,50488,51088,224,262 MY,1,50488,51088,72,92
Sprite,Foreground,Centre,"sb\dot.png",0,0 C,0,50488,,255,255,255 F,1,50488,51088,1,0 S,1,50488,51088,1,0.2 MX,1,50488,51088,224,244 MY,1,50488,51088,72,86
Sprite,Foreground,Centre,"sb\dot.png",0,0 C,0,50488,,255,255,255 F,1,50488,51088,1,0 S,1,50488,51088,1,0.2 MX,1,50488,51088,224,268 MY,1,50488,51088,72,73
Sprite,Foreground,Centre,"sb\dot.png",0,0 C,0,50488,,255,255,255 F,1,50488,51088,1,0 S,1,50488,51088,1,0.2 MX,1,50488,51088,224,225 MY,1,50488,51088,72,103
Sprite,Foreground,Centre,"sb\dot.png",0,0 C,0,50488,,255,255,255 F,1,50488,51088,1,0 S,1,50488,51088,1,0.2 MX,1,50488,51088,224,167 MY,1,50488,51088,72,32
Sprite,Foreground,Centre,"sb\dot.png",0,0 C,0,50488,,255,255,255 F,1,50488,51088,1,0 S,1,50488,51088,1,0.2 MX,1,50488,51088,224,171 MY,1,50488,51088,72,49
Sprite,Foreground,Centre,"sb\dot.png",0,0 C,0,50488,,255,255,255 F,1,50488,51088,1,0 S,1,50488,51088,1,0.2 MX,1,50488,51088,224,208 MY,1,50488,51088,72,114
Sprite,Foreground,Centre,"sb\dot.png",0,0 C,0,50488,,255,255,255 F,1,50488,51088,1,0 S,1,50488,51088,1,0.2 MX,1,50488,51088,224,195 MY,1,50488,51088,72,86
Sprite,Foreground,Centre,"sb\dot.png",0,0 C,0,50488,,255,255,255 F,1,50488,51088,1,0 S,1,50488,51088,1,0.2 MX,1,50488,51088,224,165 MY,1,50488,51088,72,57
Sprite,Foreground,Centre,"sb\dot.png",0,0 C,0,50570,,255,255,255 F,1,50570,51170,1,0 S,1,50570,51170,1,0.2 MX,1,50570,51170,224,189 MY,1,50570,51170,72,94
Sprite,Foreground,Centre,"sb\dot.png",0,0 C,0,50570,,255,255,255 F,1,50570,51170,1,0 S,1,50570,51170,1,0.2 MX,1,50570,51170,224,227 MY,1,50570,51170,72,17
Sprite,Foreground,Centre,"sb\dot.png",0,0 C,0,50570,,255,255,255 F,1,50570,51170,1,0 S,1,50570,51170,1,0.2 MX,1,50570,51170,224,268 MY,1,50570,51170,72,77
Sprite,Foreground,Centre,"sb\dot.png",0,0 C,0,50570,,255,255,255 F,1,50570,51170,1,0 S,1,50570,51170,1,0.2 MX,1,50570,51170,224,176 MY,1,50570,51170,72,102
Sprite,Foreground,Centre,"sb\dot.png",0,0 C,0,50570,,255,255,255 F,1,50570,51170,1,0 S,1,50570,51170,1,0.2 MX,1,50570,51170,224,204 MY,1,50570,51170,72,79
Sprite,Foreground,Centre,"sb\dot.png",0,0 C,0,50570,,255,255,255 F,1,50570,51170,1,0 S,1,50570,51170,1,0.2 MX,1,50570,51170,224,222 MY,1,50570,51170,72,112
Sprite,Foreground,Centre,"sb\dot.png",0,0 C,0,50570,,255,255,255 F,1,50570,51170,1,0 S,1,50570,51170,1,0.2 MX,1,50570,51170,224,269 MY,1,50570,51170,72,32
Sprite,Foreground,Centre,"sb\dot.png",0,0 C,0,50570,,255,255,255 F,1,50570,51170,1,0 S,1,50570,51170,1,0.2 MX,1,50570,51170,224,173 MY,1,50570,51170,72,111
Sprite,Foreground,Centre,"sb\dot.png",0,0 C,0,50570,,255,255,255 F,1,50570,51170,1,0 S,1,50570,51170,1,0.2 MX,1,50570,51170,224,223 MY,1,50570,51170,72,35
Sprite,Foreground,Centre,"sb\dot.png",0,0 C,0,50570,,255,255,255 F,1,50570,51170,1,0 S,1,50570,51170,1,0.2 MX,1,50570,51170,224,269 MY,1,50570,51170,72,35
Sprite,Foreground,Centre,"sb\dot.png",0,0 C,0,50570,,255,255,255 F,1,50570,51170,1,0 S,1,50570,51170,1,0.2 MX,1,50570,51170,224,204 MY,1,50570,51170,72,117
Sprite,Foreground,Centre,"sb\dot.png",0,0 C,0,50570,,255,255,255 F,1,50570,51170,1,0 S,1,50570,51170,1,0.2 MX,1,50570,51170,224,217 MY,1,50570,51170,72,59
Sprite,Foreground,Centre,"sb\dot.png",0,0 C,0,50570,,255,255,255 F,1,50570,51170,1,0 S,1,50570,51170,1,0.2 MX,1,50570,51170,224,188 MY,1,50570,51170,72,125
Sprite,Foreground,Centre,"sb\dot.png",0,0 C,0,50570,,255,255,255 F,1,50570,51170,1,0 S,1,50570,51170,1,0.2 MX,1,50570,51170,224,283 MY,1,50570,51170,72,16
Sprite,Foreground,Centre,"sb\dot.png",0,0 C,0,50570,,255,255,255 F,1,50570,51170,1,0 S,1,50570,51170,1,0.2 MX,1,50570,51170,224,235 MY,1,50570,51170,72,13
Sprite,Foreground,Centre,"sb\dot.png",0,0 C,0,50570,,255,255,255 F,1,50570,51170,1,0 S,1,50570,51170,1,0.2 MX,1,50570,51170,224,187 MY,1,50570,51170,72,98
Sprite,Foreground,Centre,"sb\dot.png",0,0 C,0,50570,,255,255,255 F,1,50570,51170,1,0 S,1,50570,51170,1,0.2 MX,1,50570,51170,224,283 MY,1,50570,51170,72,18
Sprite,Foreground,Centre,"sb\dot.png",0,0 C,0,50570,,255,255,255 F,1,50570,51170,1,0 S,1,50570,51170,1,0.2 MX,1,50570,51170,224,201 MY,1,50570,51170,72,70
Sprite,Foreground,Centre,"sb\dot.png",0,0 C,0,50570,,255,255,255 F,1,50570,51170,1,0 S,1,50570,51170,1,0.2 MX,1,50570,51170,224,249 MY,1,50570,51170,72,104
Sprite,Foreground,Centre,"sb\dot.png",0,0 C,0,50570,,255,255,255 F,1,50570,51170,1,0 S,1,50570,51170,1,0.2 MX,1,50570,51170,224,259 MY,1,50570,51170,72,26
Sprite,Foreground,Centre,"sb\dot.png",0,0 C,0,50570,,255,255,255 F,1,50570,51170,1,0 S,1,50570,51170,1,0.2 MX,1,50570,51170,224,226 MY,1,50570,51170,72,25
Sprite,Foreground,Centre,"sb\dot.png",0,0 C,0,50570,,255,255,255 F,1,50570,51170,1,0 S,1,50570,51170,1,0.2 MX,1,50570,51170,224,185 MY,1,50570,51170,72,125
Sprite,Foreground,Centre,"sb\dot.png",0,0 C,0,50570,,255,255,255 F,1,50570,51170,1,0 S,1,50570,51170,1,0.2 MX,1,50570,51170,224,197 MY,1,50570,51170,72,35
Sprite,Foreground,Centre,"sb\dot.png",0,0 C,0,50570,,255,255,255 F,1,50570,51170,1,0 S,1,50570,51170,1,0.2 MX,1,50570,51170,224,198 MY,1,50570,51170,72,119
Sprite,Foreground,Centre,"sb\dot.png",0,0 C,0,50570,,255,255,255 F,1,50570,51170,1,0 S,1,50570,51170,1,0.2 MX,1,50570,51170,224,191 MY,1,50570,51170,72,76
Sprite,Foreground,Centre,"sb\dot.png",0,0 C,0,50570,,255,255,255 F,1,50570,51170,1,0 S,1,50570,51170,1,0.2 MX,1,50570,51170,224,206 MY,1,50570,51170,72,19
Sprite,Foreground,Centre,"sb\dot.png",0,0 C,0,50570,,255,255,255 F,1,50570,51170,1,0 S,1,50570,51170,1,0.2 MX,1,50570,51170,224,252 MY,1,50570,51170,72,109
Sprite,Foreground,Centre,"sb\dot.png",0,0 C,0,50570,,255,255,255 F,1,50570,51170,1,0 S,1,50570,51170,1,0.2 MX,1,50570,51170,224,169 MY,1,50570,51170,72,51
Sprite,Foreground,Centre,"sb\dot.png",0,0 C,0,50570,,255,255,255 F,1,50570,51170,1,0 S,1,50570,51170,1,0.2 MX,1,50570,51170,224,192 MY,1,50570,51170,72,27
Sprite,Foreground,Centre,"sb\dot.png",0,0 C,0,50570,,255,255,255 F,1,50570,51170,1,0 S,1,50570,51170,1,0.2 MX,1,50570,51170,224,265 MY,1,50570,51170,72,122
Sprite,Foreground,Centre,"sb\dot.png",0,0 C,0,50816,,255,255,255 F,1,50816,51416,1,0 S,1,50816,51416,1,0.2 MX,1,50816,51416,320,325 MY,1,50816,51416,248,195
Sprite,Foreground,Centre,"sb\dot.png",0,0 C,0,50816,,255,255,255 F,1,50816,51416,1,0 S,1,50816,51416,1,0.2 MX,1,50816,51416,320,278 MY,1,50816,51416,248,227
Sprite,Foreground,Centre,"sb\dot.png",0,0 C,0,50816,,255,255,255 F,1,50816,51416,1,0 S,1,50816,51416,1,0.2 MX,1,50816,51416,320,303 MY,1,50816,51416,248,279
Sprite,Foreground,Centre,"sb\dot.png",0,0 C,0,50816,,255,255,255 F,1,50816,51416,1,0 S,1,50816,51416,1,0.2 MX,1,50816,51416,320,360 MY,1,50816,51416,248,287
Sprite,Foreground,Centre,"sb\dot.png",0,0 C,0,50816,,255,255,255 F,1,50816,51416,1,0 S,1,50816,51416,1,0.2 MX,1,50816,51416,320,363 MY,1,50816,51416,248,259
Sprite,Foreground,Centre,"sb\dot.png",0,0 C,0,50816,,255,255,255 F,1,50816,51416,1,0 S,1,50816,51416,1,0.2 MX,1,50816,51416,320,273 MY,1,50816,51416,248,275
Sprite,Foreground,Centre,"sb\dot.png",0,0 C,0,50816,,255,255,255 F,1,50816,51416,1,0 S,1,50816,51416,1,0.2 MX,1,50816,51416,320,307 MY,1,50816,51416,248,279
Sprite,Foreground,Centre,"sb\dot.png",0,0 C,0,50816,,255,255,255 F,1,50816,51416,1,0 S,1,50816,51416,1,0.2 MX,1,50816,51416,320,341 MY,1,50816,51416,248,214
Sprite,Foreground,Centre,"sb\dot.png",0,0 C,0,50816,,255,255,255 F,1,50816,51416,1,0 S,1,50816,51416,1,0.2 MX,1,50816,51416,320,344 MY,1,50816,51416,248
Sprite,Foreground,Centre,"sb\dot.png",0,0 C,0,50816,,255,255,255 F,1,50816,51416,1,0 S,1,50816,51416,1,0.2 MX,1,50816,51416,320,274 MY,1,50816,51416,248,189
Sprite,Foreground,Centre,"sb\dot.png",0,0 C,0,50816,,255,255,255 F,1,50816,51416,1,0 S,1,50816,51416,1,0.2 MX,1,50816,51416,320,339 MY,1,50816,51416,248,200
Sprite,Foreground,Centre,"sb\dot.png",0,0 C,0,50816,,255,255,255 F,1,50816,51416,1,0 S,1,50816,51416,1,0.2 MX,1,50816,51416,320,357 MY,1,50816,51416,248,195
Sprite,Foreground,Centre,"sb\dot.png",0,0 C,0,50816,,255,255,255 F,1,50816,51416,1,0 S,1,50816,51416,1,0.2 MX,1,50816,51416,320,338 MY,1,50816,51416,248,204
Sprite,Foreground,Centre,"sb\dot.png",0,0 C,0,50816,,255,255,255 F,1,50816,51416,1,0 S,1,50816,51416,1,0.2 MX,1,50816,51416,320,378 MY,1,50816,51416,248,210
Sprite,Foreground,Centre,"sb\dot.png",0,0 C,0,50816,,255,255,255 F,1,50816,51416,1,0 S,1,50816,51416,1,0.2 MX,1,50816,51416,320,260 MY,1,50816,51416,248,305
Sprite,Foreground,Centre,"sb\dot.png",0,0 C,0,50816,,255,255,255 F,1,50816,51416,1,0 S,1,50816,51416,1,0.2 MX,1,50816,51416,320,289 MY,1,50816,51416,248,258
Sprite,Foreground,Centre,"sb\dot.png",0,0 C,0,50816,,255,255,255 F,1,50816,51416,1,0 S,1,50816,51416,1,0.2 MX,1,50816,51416,320,370 MY,1,50816,51416,248,293
Sprite,Foreground,Centre,"sb\dot.png",0,0 C,0,50816,,255,255,255 F,1,50816,51416,1,0 S,1,50816,51416,1,0.2 MX,1,50816,51416,320,329 MY,1,50816,51416,248,242
Sprite,Foreground,Centre,"sb\dot.png",0,0 C,0,50816,,255,255,255 F,1,50816,51416,1,0 S,1,50816,51416,1,0.2 MX,1,50816,51416,320,375 MY,1,50816,51416,248,289
Sprite,Foreground,Centre,"sb\dot.png",0,0 C,0,50816,,255,255,255 F,1,50816,51416,1,0 S,1,50816,51416,1,0.2 MX,1,50816,51416,320,329 MY,1,50816,51416,248,249
Sprite,Foreground,Centre,"sb\dot.png",0,0 C,0,50816,,255,255,255 F,1,50816,51416,1,0 S,1,50816,51416,1,0.2 MX,1,50816,51416,320,302 MY,1,50816,51416,248,243
Sprite,Foreground,Centre,"sb\dot.png",0,0 C,0,50816,,255,255,255 F,1,50816,51416,1,0 S,1,50816,51416,1,0.2 MX,1,50816,51416,320,263 MY,1,50816,51416,248,263
Sprite,Foreground,Centre,"sb\dot.png",0,0 C,0,50816,,255,255,255 F,1,50816,51416,1,0 S,1,50816,51416,1,0.2 MX,1,50816,51416,320,310 MY,1,50816,51416,248,262
Sprite,Foreground,Centre,"sb\dot.png",0,0 C,0,50816,,255,255,255 F,1,50816,51416,1,0 S,1,50816,51416,1,0.2 MX,1,50816,51416,320,340 MY,1,50816,51416,248,305
Sprite,Foreground,Centre,"sb\dot.png",0,0 C,0,50816,,255,255,255 F,1,50816,51416,1,0 S,1,50816,51416,1,0.2 MX,1,50816,51416,320,275 MY,1,50816,51416,248,286
Sprite,Foreground,Centre,"sb\dot.png",0,0 C,0,50816,,255,255,255 F,1,50816,51416,1,0 S,1,50816,51416,1,0.2 MX,1,50816,51416,320,335 MY,1,50816,51416,248,276
Sprite,Foreground,Centre,"sb\dot.png",0,0 C,0,50816,,255,255,255 F,1,50816,51416,1,0 S,1,50816,51416,1,0.2 MX,1,50816,51416,320,260 MY,1,50816,51416,248,288
Sprite,Foreground,Centre,"sb\dot.png",0,0 C,0,50816,,255,255,255 F,1,50816,51416,1,0 S,1,50816,51416,1,0.2 MX,1,50816,51416,320,291 MY,1,50816,51416,248,240
Sprite,Foreground,Centre,"sb\dot.png",0,0 C,0,50816,,255,255,255 F,1,50816,51416,1,0 S,1,50816,51416,1,0.2 MX,1,50816,51416,320,289 MY,1,50816,51416,248,199
Sprite,Foreground,Centre,"sb\dot.png",0,0 C,0,50816,,255,255,255 F,1,50816,51416,1,0 S,1,50816,51416,1,0.2 MX,1,50816,51416,320,340 MY,1,50816,51416,248,215
Sprite,Foreground,Centre,"sb\dot.png",0,0 C,0,50898,,255,255,255 F,1,50898,51498,1,0 S,1,50898,51498,1,0.2 MX,1,50898,51498,320,353 MY,1,50898,51498,248,266
Sprite,Foreground,Centre,"sb\dot.png",0,0 C,0,50898,,255,255,255 F,1,50898,51498,1,0 S,1,50898,51498,1,0.2 MX,1,50898,51498,320,358 MY,1,50898,51498,248,294
Sprite,Foreground,Centre,"sb\dot.png",0,0 C,0,50898,,255,255,255 F,1,50898,51498,1,0 S,1,50898,51498,1,0.2 MX,1,50898,51498,320,301 MY,1,50898,51498,248,251
Sprite,Foreground,Centre,"sb\dot.png",0,0 C,0,50898,,255,255,255 F,1,50898,51498,1,0 S,1,50898,51498,1,0.2 MX,1,50898,51498,320,357 MY,1,50898,51498,248,249
Sprite,Foreground,Centre,"sb\dot.png",0,0 C,0,50898,,255,255,255 F,1,50898,51498,1,0 S,1,50898,51498,1,0.2 MX,1,50898,51498,320,281 MY,1,50898,51498,248,215
Sprite,Foreground,Centre,"sb\dot.png",0,0 C,0,50898,,255,255,255 F,1,50898,51498,1,0 S,1,50898,51498,1,0.2 MX,1,50898,51498,320,291 MY,1,50898,51498,248,290
Sprite,Foreground,Centre,"sb\dot.png",0,0 C,0,50898,,255,255,255 F,1,50898,51498,1,0 S,1,50898,51498,1,0.2 MX,1,50898,51498,320,371 MY,1,50898,51498,248,260
Sprite,Foreground,Centre,"sb\dot.png",0,0 C,0,50898,,255,255,255 F,1,50898,51498,1,0 S,1,50898,51498,1,0.2 MX,1,50898,51498,320,338 MY,1,50898,51498,248,211
Sprite,Foreground,Centre,"sb\dot.png",0,0 C,0,50898,,255,255,255 F,1,50898,51498,1,0 S,1,50898,51498,1,0.2 MX,1,50898,51498,320,268 MY,1,50898,51498,248,209
Sprite,Foreground,Centre,"sb\dot.png",0,0 C,0,50898,,255,255,255 F,1,50898,51498,1,0 S,1,50898,51498,1,0.2 MX,1,50898,51498,320,336 MY,1,50898,51498,248,192
Sprite,Foreground,Centre,"sb\dot.png",0,0 C,0,50898,,255,255,255 F,1,50898,51498,1,0 S,1,50898,51498,1,0.2 MX,1,50898,51498,320,315 MY,1,50898,51498,248,189
Sprite,Foreground,Centre,"sb\dot.png",0,0 C,0,50898,,255,255,255 F,1,50898,51498,1,0 S,1,50898,51498,1,0.2 MX,1,50898,51498,320,266 MY,1,50898,51498,248,209
Sprite,Foreground,Centre,"sb\dot.png",0,0 C,0,50898,,255,255,255 F,1,50898,51498,1,0 S,1,50898,51498,1,0.2 MX,1,50898,51498,320,301 MY,1,50898,51498,248,249
Sprite,Foreground,Centre,"sb\dot.png",0,0 C,0,50898,,255,255,255 F,1,50898,51498,1,0 S,1,50898,51498,1,0.2 MX,1,50898,51498,320,329 MY,1,50898,51498,248,198
Sprite,Foreground,Centre,"sb\dot.png",0,0 C,0,50898,,255,255,255 F,1,50898,51498,1,0 S,1,50898,51498,1,0.2 MX,1,50898,51498,320,333 MY,1,50898,51498,248,204
Sprite,Foreground,Centre,"sb\dot.png",0,0 C,0,50898,,255,255,255 F,1,50898,51498,1,0 S,1,50898,51498,1,0.2 MX,1,50898,51498,320,284 MY,1,50898,51498,248,291
Sprite,Foreground,Centre,"sb\dot.png",0,0 C,0,50898,,255,255,255 F,1,50898,51498,1,0 S,1,50898,51498,1,0.2 MX,1,50898,51498,320,281 MY,1,50898,51498,248,229
Sprite,Foreground,Centre,"sb\dot.png",0,0 C,0,50898,,255,255,255 F,1,50898,51498,1,0 S,1,50898,51498,1,0.2 MX,1,50898,51498,320,348 MY,1,50898,51498,248,272
Sprite,Foreground,Centre,"sb\dot.png",0,0 C,0,50898,,255,255,255 F,1,50898,51498,1,0 S,1,50898,51498,1,0.2 MX,1,50898,51498,320,337 MY,1,50898,51498,248,205
Sprite,Foreground,Centre,"sb\dot.png",0,0 C,0,50898,,255,255,255 F,1,50898,51498,1,0 S,1,50898,51498,1,0.2 MX,1,50898,51498,320,293 MY,1,50898,51498,248,295
Sprite,Foreground,Centre,"sb\dot.png",0,0 C,0,50898,,255,255,255 F,1,50898,51498,1,0 S,1,50898,51498,1,0.2 MX,1,50898,51498,320,357 MY,1,50898,51498,248,206
Sprite,Foreground,Centre,"sb\dot.png",0,0 C,0,50898,,255,255,255 F,1,50898,51498,1,0 S,1,50898,51498,1,0.2 MX,1,50898,51498,320,355 MY,1,50898,51498,248,296
Sprite,Foreground,Centre,"sb\dot.png",0,0 C,0,50898,,255,255,255 F,1,50898,51498,1,0 S,1,50898,51498,1,0.2 MX,1,50898,51498,320,327 MY,1,50898,51498,248,281
Sprite,Foreground,Centre,"sb\dot.png",0,0 C,0,50898,,255,255,255 F,1,50898,51498,1,0 S,1,50898,51498,1,0.2 MX,1,50898,51498,320,357 MY,1,50898,51498,248,236
Sprite,Foreground,Centre,"sb\dot.png",0,0 C,0,50898,,255,255,255 F,1,50898,51498,1,0 S,1,50898,51498,1,0.2 MX,1,50898,51498,320,281 MY,1,50898,51498,248,196
Sprite,Foreground,Centre,"sb\dot.png",0,0 C,0,50898,,255,255,255 F,1,50898,51498,1,0 S,1,50898,51498,1,0.2 MX,1,50898,51498,320,303 MY,1,50898,51498,248,196
Sprite,Foreground,Centre,"sb\dot.png",0,0 C,0,50898,,255,255,255 F,1,50898,51498,1,0 S,1,50898,51498,1,0.2 MX,1,50898,51498,320,315 MY,1,50898,51498,248,263
Sprite,Foreground,Centre,"sb\dot.png",0,0 C,0,50898,,255,255,255 F,1,50898,51498,1,0 S,1,50898,51498,1,0.2 MX,1,50898,51498,320,352 MY,1,50898,51498,248,280
Sprite,Foreground,Centre,"sb\dot.png",0,0 C,0,50898,,255,255,255 F,1,50898,51498,1,0 S,1,50898,51498,1,0.2 MX,1,50898,51498,320,331 MY,1,50898,51498,248,264
Sprite,Foreground,Centre,"sb\dot.png",0,0 C,0,50898,,255,255,255 F,1,50898,51498,1,0 S,1,50898,51498,1,0.2 MX,1,50898,51498,320,324 MY,1,50898,51498,248,288
Sprite,Foreground,Centre,"sb\dot.png",0,0 C,0,51226,,255,255,255 F,1,51226,51826,1,0 S,1,51226,51826,1,0.2 MX,1,51226,51826,370,424 MY,1,51226,51826,167,193
Sprite,Foreground,Centre,"sb\dot.png",0,0 C,0,51226,,255,255,255 F,1,51226,51826,1,0 S,1,51226,51826,1,0.2 MX,1,51226,51826,370,417 MY,1,51226,51826,167,112
Sprite,Foreground,Centre,"sb\dot.png",0,0 C,0,51226,,255,255,255 F,1,51226,51826,1,0 S,1,51226,51826,1,0.2 MX,1,51226,51826,370,312 MY,1,51226,51826,167,154
Sprite,Foreground,Centre,"sb\dot.png",0,0 C,0,51226,,255,255,255 F,1,51226,51826,1,0 S,1,51226,51826,1,0.2 MX,1,51226,51826,370,390 MY,1,51226,51826,167,176
Sprite,Foreground,Centre,"sb\dot.png",0,0 C,0,51226,,255,255,255 F,1,51226,51826,1,0 S,1,51226,51826,1,0.2 MX,1,51226,51826,370,414 MY,1,51226,51826,167,220
Sprite,Foreground,Centre,"sb\dot.png",0,0 C,0,51226,,255,255,255 F,1,51226,51826,1,0 S,1,51226,51826,1,0.2 MX,1,51226,51826,370,375 MY,1,51226,51826,167,218
Sprite,Foreground,Centre,"sb\dot.png",0,0 C,0,51226,,255,255,255 F,1,51226,51826,1,0 S,1,51226,51826,1,0.2 MX,1,51226,51826,370,417 MY,1,51226,51826,167,195
Sprite,Foreground,Centre,"sb\dot.png",0,0 C,0,51226,,255,255,255 F,1,51226,51826,1,0 S,1,51226,51826,1,0.2 MX,1,51226,51826,370,336 MY,1,51226,51826,167,143
Sprite,Foreground,Centre,"sb\dot.png",0,0 C,0,51226,,255,255,255 F,1,51226,51826,1,0 S,1,51226,51826,1,0.2 MX,1,51226,51826,370,335 MY,1,51226,51826,167,124
Sprite,Foreground,Centre,"sb\dot.png",0,0 C,0,51226,,255,255,255 F,1,51226,51826,1,0 S,1,51226,51826,1,0.2 MX,1,51226,51826,370,383 MY,1,51226,51826,167,174
Sprite,Foreground,Centre,"sb\dot.png",0,0 C,0,51226,,255,255,255 F,1,51226,51826,1,0 S,1,51226,51826,1,0.2 MX,1,51226,51826,370,393 MY,1,51226,51826,167,127
Sprite,Foreground,Centre,"sb\dot.png",0,0 C,0,51226,,255,255,255 F,1,51226,51826,1,0 S,1,51226,51826,1,0.2 MX,1,51226,51826,370,418 MY,1,51226,51826,167,172
Sprite,Foreground,Centre,"sb\dot.png",0,0 C,0,51226,,255,255,255 F,1,51226,51826,1,0 S,1,51226,51826,1,0.2 MX,1,51226,51826,370,403 MY,1,51226,51826,167,123
Sprite,Foreground,Centre,"sb\dot.png",0,0 C,0,51226,,255,255,255 F,1,51226,51826,1,0 S,1,51226,51826,1,0.2 MX,1,51226,51826,370,358 MY,1,51226,51826,167,172
Sprite,Foreground,Centre,"sb\dot.png",0,0 C,0,51226,,255,255,255 F,1,51226,51826,1,0 S,1,51226,51826,1,0.2 MX,1,51226,51826,370,378 MY,1,51226,51826,167,223
Sprite,Foreground,Centre,"sb\dot.png",0,0 C,0,51226,,255,255,255 F,1,51226,51826,1,0 S,1,51226,51826,1,0.2 MX,1,51226,51826,370,322 MY,1,51226,51826,167,108
Sprite,Foreground,Centre,"sb\dot.png",0,0 C,0,51226,,255,255,255 F,1,51226,51826,1,0 S,1,51226,51826,1,0.2 MX,1,51226,51826,370,382 MY,1,51226,51826,167,160
Sprite,Foreground,Centre,"sb\dot.png",0,0 C,0,51226,,255,255,255 F,1,51226,51826,1,0 S,1,51226,51826,1,0.2 MX,1,51226,51826,370,423 MY,1,51226,51826,167,117
Sprite,Foreground,Centre,"sb\dot.png",0,0 C,0,51226,,255,255,255 F,1,51226,51826,1,0 S,1,51226,51826,1,0.2 MX,1,51226,51826,370,340 MY,1,51226,51826,167,197
Sprite,Foreground,Centre,"sb\dot.png",0,0 C,0,51226,,255,255,255 F,1,51226,51826,1,0 S,1,51226,51826,1,0.2 MX,1,51226,51826,370,416 MY,1,51226,51826,167,127
Sprite,Foreground,Centre,"sb\dot.png",0,0 C,0,51226,,255,255,255 F,1,51226,51826,1,0 S,1,51226,51826,1,0.2 MX,1,51226,51826,370,322 MY,1,51226,51826,167,134
Sprite,Foreground,Centre,"sb\dot.png",0,0 C,0,51226,,255,255,255 F,1,51226,51826,1,0 S,1,51226,51826,1,0.2 MX,1,51226,51826,370,374 MY,1,51226,51826,167,135
Sprite,Foreground,Centre,"sb\dot.png",0,0 C,0,51226,,255,255,255 F,1,51226,51826,1,0 S,1,51226,51826,1,0.2 MX,1,51226,51826,370,373 MY,1,51226,51826,167,159
Sprite,Foreground,Centre,"sb\dot.png",0,0 C,0,51226,,255,255,255 F,1,51226,51826,1,0 S,1,51226,51826,1,0.2 MX,1,51226,51826,370,330 MY,1,51226,51826,167,193
Sprite,Foreground,Centre,"sb\dot.png",0,0 C,0,51226,,255,255,255 F,1,51226,51826,1,0 S,1,51226,51826,1,0.2 MX,1,51226,51826,370,359 MY,1,51226,51826,167,163
Sprite,Foreground,Centre,"sb\dot.png",0,0 C,0,51226,,255,255,255 F,1,51226,51826,1,0 S,1,51226,51826,1,0.2 MX,1,51226,51826,370,376 MY,1,51226,51826,167,160
Sprite,Foreground,Centre,"sb\dot.png",0,0 C,0,51226,,255,255,255 F,1,51226,51826,1,0 S,1,51226,51826,1,0.2 MX,1,51226,51826,370,312 MY,1,51226,51826,167,224
Sprite,Foreground,Centre,"sb\dot.png",0,0 C,0,51226,,255,255,255 F,1,51226,51826,1,0 S,1,51226,51826,1,0.2 MX,1,51226,51826,370,327 MY,1,51226,51826,167,200
Sprite,Foreground,Centre,"sb\dot.png",0,0 C,0,51226,,255,255,255 F,1,51226,51826,1,0 S,1,51226,51826,1,0.2 MX,1,51226,51826,370,408 MY,1,51226,51826,167,149
Sprite,Foreground,Centre,"sb\dot.png",0,0 C,0,51226,,255,255,255 F,1,51226,51826,1,0 S,1,51226,51826,1,0.2 MX,1,51226,51826,370,341 MY,1,51226,51826,167,212
Sprite,Foreground,Centre,"sb\dot.png",0,0 C,0,51472,,255,255,255 F,1,51472,52072,1,0 S,1,51472,52072,1,0.2 MX,1,51472,52072,555,614 MY,1,51472,52072,295,249
Sprite,Foreground,Centre,"sb\dot.png",0,0 C,0,51472,,255,255,255 F,1,51472,52072,1,0 S,1,51472,52072,1,0.2 MX,1,51472,52072,555,496 MY,1,51472,52072,295,342
Sprite,Foreground,Centre,"sb\dot.png",0,0 C,0,51472,,255,255,255 F,1,51472,52072,1,0 S,1,51472,52072,1,0.2 MX,1,51472,52072,555,596 MY,1,51472,52072,295,298
Sprite,Foreground,Centre,"sb\dot.png",0,0 C,0,51472,,255,255,255 F,1,51472,52072,1,0 S,1,51472,52072,1,0.2 MX,1,51472,52072,555,533 MY,1,51472,52072,295,289
Sprite,Foreground,Centre,"sb\dot.png",0,0 C,0,51472,,255,255,255 F,1,51472,52072,1,0 S,1,51472,52072,1,0.2 MX,1,51472,52072,555,590 MY,1,51472,52072,295,251
Sprite,Foreground,Centre,"sb\dot.png",0,0 C,0,51472,,255,255,255 F,1,51472,52072,1,0 S,1,51472,52072,1,0.2 MX,1,51472,52072,555,500 MY,1,51472,52072,295,290
Sprite,Foreground,Centre,"sb\dot.png",0,0 C,0,51472,,255,255,255 F,1,51472,52072,1,0 S,1,51472,52072,1,0.2 MX,1,51472,52072,555,526 MY,1,51472,52072,295,288
Sprite,Foreground,Centre,"sb\dot.png",0,0 C,0,51472,,255,255,255 F,1,51472,52072,1,0 S,1,51472,52072,1,0.2 MX,1,51472,52072,555,549 MY,1,51472,52072,295,290
Sprite,Foreground,Centre,"sb\dot.png",0,0 C,0,51472,,255,255,255 F,1,51472,52072,1,0 S,1,51472,52072,1,0.2 MX,1,51472,52072,555,571 MY,1,51472,52072,295,315
Sprite,Foreground,Centre,"sb\dot.png",0,0 C,0,51472,,255,255,255 F,1,51472,52072,1,0 S,1,51472,52072,1,0.2 MX,1,51472,52072,555,497 MY,1,51472,52072,295,275
Sprite,Foreground,Centre,"sb\dot.png",0,0 C,0,51472,,255,255,255 F,1,51472,52072,1,0 S,1,51472,52072,1,0.2 MX,1,51472,52072,555,611 MY,1,51472,52072,295,317
Sprite,Foreground,Centre,"sb\dot.png",0,0 C,0,51472,,255,255,255 F,1,51472,52072,1,0 S,1,51472,52072,1,0.2 MX,1,51472,52072,555,511 MY,1,51472,52072,295,247
Sprite,Foreground,Centre,"sb\dot.png",0,0 C,0,51472,,255,255,255 F,1,51472,52072,1,0 S,1,51472,52072,1,0.2 MX,1,51472,52072,555,544 MY,1,51472,52072,295,314
Sprite,Foreground,Centre,"sb\dot.png",0,0 C,0,51472,,255,255,255 F,1,51472,52072,1,0 S,1,51472,52072,1,0.2 MX,1,51472,52072,555,614 MY,1,51472,52072,295,310
Sprite,Foreground,Centre,"sb\dot.png",0,0 C,0,51472,,255,255,255 F,1,51472,52072,1,0 S,1,51472,52072,1,0.2 MX,1,51472,52072,555,531 MY,1,51472,52072,295,255
Sprite,Foreground,Centre,"sb\dot.png",0,0 C,0,51472,,255,255,255 F,1,51472,52072,1,0 S,1,51472,52072,1,0.2 MX,1,51472,52072,555,526 MY,1,51472,52072,295,343
Sprite,Foreground,Centre,"sb\dot.png",0,0 C,0,51472,,255,255,255 F,1,51472,52072,1,0 S,1,51472,52072,1,0.2 MX,1,51472,52072,555,553 MY,1,51472,52072,295,236
Sprite,Foreground,Centre,"sb\dot.png",0,0 C,0,51472,,255,255,255 F,1,51472,52072,1,0 S,1,51472,52072,1,0.2 MX,1,51472,52072,555,516 MY,1,51472,52072,295,353
Sprite,Foreground,Centre,"sb\dot.png",0,0 C,0,51472,,255,255,255 F,1,51472,52072,1,0 S,1,51472,52072,1,0.2 MX,1,51472,52072,555,521 MY,1,51472,52072,295,311
Sprite,Foreground,Centre,"sb\dot.png",0,0 C,0,51472,,255,255,255 F,1,51472,52072,1,0 S,1,51472,52072,1,0.2 MX,1,51472,52072,555,542 MY,1,51472,52072,295,354
Sprite,Foreground,Centre,"sb\dot.png",0,0 C,0,51472,,255,255,255 F,1,51472,52072,1,0 S,1,51472,52072,1,0.2 MX,1,51472,52072,555,508 MY,1,51472,52072,295,320
Sprite,Foreground,Centre,"sb\dot.png",0,0 C,0,51472,,255,255,255 F,1,51472,52072,1,0 S,1,51472,52072,1,0.2 MX,1,51472,52072,555,605 MY,1,51472,52072,295,268
Sprite,Foreground,Centre,"sb\dot.png",0,0 C,0,51472,,255,255,255 F,1,51472,52072,1,0 S,1,51472,52072,1,0.2 MX,1,51472,52072,555,545 MY,1,51472,52072,295,246
Sprite,Foreground,Centre,"sb\dot.png",0,0 C,0,51472,,255,255,255 F,1,51472,52072,1,0 S,1,51472,52072,1,0.2 MX,1,51472,52072,555,517 MY,1,51472,52072,295,303
Sprite,Foreground,Centre,"sb\dot.png",0,0 C,0,51472,,255,255,255 F,1,51472,52072,1,0 S,1,51472,52072,1,0.2 MX,1,51472,52072,555,557 MY,1,51472,52072,295,316
Sprite,Foreground,Centre,"sb\dot.png",0,0 C,0,51472,,255,255,255 F,1,51472,52072,1,0 S,1,51472,52072,1,0.2 MX,1,51472,52072,555,511 MY,1,51472,52072,295,253
Sprite,Foreground,Centre,"sb\dot.png",0,0 C,0,51472,,255,255,255 F,1,51472,52072,1,0 S,1,51472,52072,1,0.2 MX,1,51472,52072,555,535 MY,1,51472,52072,295,346
Sprite,Foreground,Centre,"sb\dot.png",0,0 C,0,51472,,255,255,255 F,1,51472,52072,1,0 S,1,51472,52072,1,0.2 MX,1,51472,52072,555,603 MY,1,51472,52072,295,272
Sprite,Foreground,Centre,"sb\dot.png",0,0 C,0,51472,,255,255,255 F,1,51472,52072,1,0 S,1,51472,52072,1,0.2 MX,1,51472,52072,555,613 MY,1,51472,52072,295,343
Sprite,Foreground,Centre,"sb\dot.png",0,0 C,0,51472,,255,255,255 F,1,51472,52072,1,0 S,1,51472,52072,1,0.2 MX,1,51472,52072,555,552 MY,1,51472,52072,295,256
Sprite,Foreground,Centre,"sb\dot.png",0,0 C,0,51553,,255,255,255 F,1,51553,52153,1,0 S,1,51553,52153,1,0.2 MX,1,51553,52153,555,559 MY,1,51553,52153,295,318
Sprite,Foreground,Centre,"sb\dot.png",0,0 C,0,51553,,255,255,255 F,1,51553,52153,1,0 S,1,51553,52153,1,0.2 MX,1,51553,52153,555,513 MY,1,51553,52153,295,310
Sprite,Foreground,Centre,"sb\dot.png",0,0 C,0,51553,,255,255,255 F,1,51553,52153,1,0 S,1,51553,52153,1,0.2 MX,1,51553,52153,555,599 MY,1,51553,52153,295,252
Sprite,Foreground,Centre,"sb\dot.png",0,0 C,0,51553,,255,255,255 F,1,51553,52153,1,0 S,1,51553,52153,1,0.2 MX,1,51553,52153,555,611 MY,1,51553,52153,295,265
Sprite,Foreground,Centre,"sb\dot.png",0,0 C,0,51553,,255,255,255 F,1,51553,52153,1,0 S,1,51553,52153,1,0.2 MX,1,51553,52153,555,527 MY,1,51553,52153,295,291
Sprite,Foreground,Centre,"sb\dot.png",0,0 C,0,51553,,255,255,255 F,1,51553,52153,1,0 S,1,51553,52153,1,0.2 MX,1,51553,52153,555,524 MY,1,51553,52153,295,235
Sprite,Foreground,Centre,"sb\dot.png",0,0 C,0,51553,,255,255,255 F,1,51553,52153,1,0 S,1,51553,52153,1,0.2 MX,1,51553,52153,555,528 MY,1,51553,52153,295,238
Sprite,Foreground,Centre,"sb\dot.png",0,0 C,0,51553,,255,255,255 F,1,51553,52153,1,0 S,1,51553,52153,1,0.2 MX,1,51553,52153,555,522 MY,1,51553,52153,295,266
Sprite,Foreground,Centre,"sb\dot.png",0,0 C,0,51553,,255,255,255 F,1,51553,52153,1,0 S,1,51553,52153,1,0.2 MX,1,51553,52153,555,586 MY,1,51553,52153,295,338
Sprite,Foreground,Centre,"sb\dot.png",0,0 C,0,51553,,255,255,255 F,1,51553,52153,1,0 S,1,51553,52153,1,0.2 MX,1,51553,52153,555,576 MY,1,51553,52153,295,273
Sprite,Foreground,Centre,"sb\dot.png",0,0 C,0,51553,,255,255,255 F,1,51553,52153,1,0 S,1,51553,52153,1,0.2 MX,1,51553,52153,555,551 MY,1,51553,52153,295,285
Sprite,Foreground,Centre,"sb\dot.png",0,0 C,0,51553,,255,255,255 F,1,51553,52153,1,0 S,1,51553,52153,1,0.2 MX,1,51553,52153,555,508 MY,1,51553,52153,295,309
Sprite,Foreground,Centre,"sb\dot.png",0,0 C,0,51553,,255,255,255 F,1,51553,52153,1,0 S,1,51553,52153,1,0.2 MX,1,51553,52153,555,498 MY,1,51553,52153,295,248
Sprite,Foreground,Centre,"sb\dot.png",0,0 C,0,51553,,255,255,255 F,1,51553,52153,1,0 S,1,51553,52153,1,0.2 MX,1,51553,52153,555,563 MY,1,51553,52153,295,302
Sprite,Foreground,Centre,"sb\dot.png",0,0 C,0,51553,,255,255,255 F,1,51553,52153,1,0 S,1,51553,52153,1,0.2 MX,1,51553,52153,555,507 MY,1,51553,52153,295,339
Sprite,Foreground,Centre,"sb\dot.png",0,0 C,0,51553,,255,255,255 F,1,51553,52153,1,0 S,1,51553,52153,1,0.2 MX,1,51553,52153,555,614 MY,1,51553,52153,295,273
Sprite,Foreground,Centre,"sb\dot.png",0,0 C,0,51553,,255,255,255 F,1,51553,52153,1,0 S,1,51553,52153,1,0.2 MX,1,51553,52153,555,513 MY,1,51553,52153,295,260
Sprite,Foreground,Centre,"sb\dot.png",0,0 C,0,51553,,255,255,255 F,1,51553,52153,1,0 S,1,51553,52153,1,0.2 MX,1,51553,52153,555,549 MY,1,51553,52153,295,285
Sprite,Foreground,Centre,"sb\dot.png",0,0 C,0,51553,,255,255,255 F,1,51553,52153,1,0 S,1,51553,52153,1,0.2 MX,1,51553,52153,555,562 MY,1,51553,52153,295,270
Sprite,Foreground,Centre,"sb\dot.png",0,0 C,0,51553,,255,255,255 F,1,51553,52153,1,0 S,1,51553,52153,1,0.2 MX,1,51553,52153,555,543 MY,1,51553,52153,295,268
Sprite,Foreground,Centre,"sb\dot.png",0,0 C,0,51553,,255,255,255 F,1,51553,52153,1,0 S,1,51553,52153,1,0.2 MX,1,51553,52153,555,510 MY,1,51553,52153,295,347
Sprite,Foreground,Centre,"sb\dot.png",0,0 C,0,51553,,255,255,255 F,1,51553,52153,1,0 S,1,51553,52153,1,0.2 MX,1,51553,52153,555,531 MY,1,51553,52153,295,240
Sprite,Foreground,Centre,"sb\dot.png",0,0 C,0,51553,,255,255,255 F,1,51553,52153,1,0 S,1,51553,52153,1,0.2 MX,1,51553,52153,555,546 MY,1,51553,52153,295,251
Sprite,Foreground,Centre,"sb\dot.png",0,0 C,0,51553,,255,255,255 F,1,51553,52153,1,0 S,1,51553,52153,1,0.2 MX,1,51553,52153,555,600 MY,1,51553,52153,295,271
Sprite,Foreground,Centre,"sb\dot.png",0,0 C,0,51553,,255,255,255 F,1,51553,52153,1,0 S,1,51553,52153,1,0.2 MX,1,51553,52153,555,579 MY,1,51553,52153,295,312
Sprite,Foreground,Centre,"sb\dot.png",0,0 C,0,51553,,255,255,255 F,1,51553,52153,1,0 S,1,51553,52153,1,0.2 MX,1,51553,52153,555,560 MY,1,51553,52153,295,249
Sprite,Foreground,Centre,"sb\dot.png",0,0 C,0,51553,,255,255,255 F,1,51553,52153,1,0 S,1,51553,52153,1,0.2 MX,1,51553,52153,555,521 MY,1,51553,52153,295,254
Sprite,Foreground,Centre,"sb\dot.png",0,0 C,0,51553,,255,255,255 F,1,51553,52153,1,0 S,1,51553,52153,1,0.2 MX,1,51553,52153,555,579 MY,1,51553,52153,295,249
Sprite,Foreground,Centre,"sb\dot.png",0,0 C,0,51553,,255,255,255 F,1,51553,52153,1,0 S,1,51553,52153,1,0.2 MX,1,51553,52153,555,564 MY,1,51553,52153,295,298
Sprite,Foreground,Centre,"sb\dot.png",0,0 C,0,51553,,255,255,255 F,1,51553,52153,1,0 S,1,51553,52153,1,0.2 MX,1,51553,52153,555,566 MY,1,51553,52153,295,326
Sprite,Foreground,Centre,"sb\dot.png",0,0 C,0,51717,,255,255,255 F,1,51717,52317,1,0 S,1,51717,52317,1,0.2 MX,1,51717,52317,508,516 MY,1,51717,52317,439,428
Sprite,Foreground,Centre,"sb\dot.png",0,0 C,0,51717,,255,255,255 F,1,51717,52317,1,0 S,1,51717,52317,1,0.2 MX,1,51717,52317,508,465 MY,1,51717,52317,439,427
Sprite,Foreground,Centre,"sb\dot.png",0,0 C,0,51717,,255,255,255 F,1,51717,52317,1,0 S,1,51717,52317,1,0.2 MX,1,51717,52317,508,504 MY,1,51717,52317,439,489
Sprite,Foreground,Centre,"sb\dot.png",0,0 C,0,51717,,255,255,255 F,1,51717,52317,1,0 S,1,51717,52317,1,0.2 MX,1,51717,52317,508,549 MY,1,51717,52317,439,386
Sprite,Foreground,Centre,"sb\dot.png",0,0 C,0,51717,,255,255,255 F,1,51717,52317,1,0 S,1,51717,52317,1,0.2 MX,1,51717,52317,508,517 MY,1,51717,52317,439,475
Sprite,Foreground,Centre,"sb\dot.png",0,0 C,0,51717,,255,255,255 F,1,51717,52317,1,0 S,1,51717,52317,1,0.2 MX,1,51717,52317,508,531 MY,1,51717,52317,439,434
Sprite,Foreground,Centre,"sb\dot.png",0,0 C,0,51717,,255,255,255 F,1,51717,52317,1,0 S,1,51717,52317,1,0.2 MX,1,51717,52317,508,502 MY,1,51717,52317,439,427
Sprite,Foreground,Centre,"sb\dot.png",0,0 C,0,51717,,255,255,255 F,1,51717,52317,1,0 S,1,51717,52317,1,0.2 MX,1,51717,52317,508,470 MY,1,51717,52317,439,443
Sprite,Foreground,Centre,"sb\dot.png",0,0 C,0,51717,,255,255,255 F,1,51717,52317,1,0 S,1,51717,52317,1,0.2 MX,1,51717,52317,508,461 MY,1,51717,52317,439,387
Sprite,Foreground,Centre,"sb\dot.png",0,0 C,0,51717,,255,255,255 F,1,51717,52317,1,0 S,1,51717,52317,1,0.2 MX,1,51717,52317,508,470 MY,1,51717,52317,439,486
Sprite,Foreground,Centre,"sb\dot.png",0,0 C,0,51717,,255,255,255 F,1,51717,52317,1,0 S,1,51717,52317,1,0.2 MX,1,51717,52317,508,475 MY,1,51717,52317,439,410
Sprite,Foreground,Centre,"sb\dot.png",0,0 C,0,51717,,255,255,255 F,1,51717,52317,1,0 S,1,51717,52317,1,0.2 MX,1,51717,52317,508,551 MY,1,51717,52317,439,434
Sprite,Foreground,Centre,"sb\dot.png",0,0 C,0,51717,,255,255,255 F,1,51717,52317,1,0 S,1,51717,52317,1,0.2 MX,1,51717,52317,508,486 MY,1,51717,52317,439,484
Sprite,Foreground,Centre,"sb\dot.png",0,0 C,0,51717,,255,255,255 F,1,51717,52317,1,0 S,1,51717,52317,1,0.2 MX,1,51717,52317,508,459 MY,1,51717,52317,439,497
Sprite,Foreground,Centre,"sb\dot.png",0,0 C,0,51717,,255,255,255 F,1,51717,52317,1,0 S,1,51717,52317,1,0.2 MX,1,51717,52317,508 MY,1,51717,52317,439,418
Sprite,Foreground,Centre,"sb\dot.png",0,0 C,0,51717,,255,255,255 F,1,51717,52317,1,0 S,1,51717,52317,1,0.2 MX,1,51717,52317,508,548 MY,1,51717,52317,439,382
Sprite,Foreground,Centre,"sb\dot.png",0,0 C,0,51717,,255,255,255 F,1,51717,52317,1,0 S,1,51717,52317,1,0.2 MX,1,51717,52317,508,532 MY,1,51717,52317,439,456
Sprite,Foreground,Centre,"sb\dot.png",0,0 C,0,51717,,255,255,255 F,1,51717,52317,1,0 S,1,51717,52317,1,0.2 MX,1,51717,52317,508,532 MY,1,51717,52317,439,464
Sprite,Foreground,Centre,"sb\dot.png",0,0 C,0,51717,,255,255,255 F,1,51717,52317,1,0 S,1,51717,52317,1,0.2 MX,1,51717,52317,508,542 MY,1,51717,52317,439,486
Sprite,Foreground,Centre,"sb\dot.png",0,0 C,0,51717,,255,255,255 F,1,51717,52317,1,0 S,1,51717,52317,1,0.2 MX,1,51717,52317,508,516 MY,1,51717,52317,439,440
Sprite,Foreground,Centre,"sb\dot.png",0,0 C,0,51717,,255,255,255 F,1,51717,52317,1,0 S,1,51717,52317,1,0.2 MX,1,51717,52317,508,482 MY,1,51717,52317,439,476
Sprite,Foreground,Centre,"sb\dot.png",0,0 C,0,51717,,255,255,255 F,1,51717,52317,1,0 S,1,51717,52317,1,0.2 MX,1,51717,52317,508,535 MY,1,51717,52317,439,486
Sprite,Foreground,Centre,"sb\dot.png",0,0 C,0,51717,,255,255,255 F,1,51717,52317,1,0 S,1,51717,52317,1,0.2 MX,1,51717,52317,508,561 MY,1,51717,52317,439,388
Sprite,Foreground,Centre,"sb\dot.png",0,0 C,0,51717,,255,255,255 F,1,51717,52317,1,0 S,1,51717,52317,1,0.2 MX,1,51717,52317,508,527 MY,1,51717,52317,439,477
Sprite,Foreground,Centre,"sb\dot.png",0,0 C,0,51717,,255,255,255 F,1,51717,52317,1,0 S,1,51717,52317,1,0.2 MX,1,51717,52317,508,564 MY,1,51717,52317,439,398
Sprite,Foreground,Centre,"sb\dot.png",0,0 C,0,51717,,255,255,255 F,1,51717,52317,1,0 S,1,51717,52317,1,0.2 MX,1,51717,52317,508,448 MY,1,51717,52317,439,440
Sprite,Foreground,Centre,"sb\dot.png",0,0 C,0,51717,,255,255,255 F,1,51717,52317,1,0 S,1,51717,52317,1,0.2 MX,1,51717,52317,508,488 MY,1,51717,52317,439,462
Sprite,Foreground,Centre,"sb\dot.png",0,0 C,0,51717,,255,255,255 F,1,51717,52317,1,0 S,1,51717,52317,1,0.2 MX,1,51717,52317,508,511 MY,1,51717,52317,439,416
Sprite,Foreground,Centre,"sb\dot.png",0,0 C,0,51717,,255,255,255 F,1,51717,52317,1,0 S,1,51717,52317,1,0.2 MX,1,51717,52317,508,513 MY,1,51717,52317,439,460
Sprite,Foreground,Centre,"sb\dot.png",0,0 C,0,51717,,255,255,255 F,1,51717,52317,1,0 S,1,51717,52317,1,0.2 MX,1,51717,52317,508,457 MY,1,51717,52317,439,450
Sprite,Foreground,Centre,"sb\dot.png",0,0 C,0,51799,,255,255,255 F,1,51799,52399,1,0 S,1,51799,52399,1,0.2 MX,1,51799,52399,508,547 MY,1,51799,52399,439,481
Sprite,Foreground,Centre,"sb\dot.png",0,0 C,0,51799,,255,255,255 F,1,51799,52399,1,0 S,1,51799,52399,1,0.2 MX,1,51799,52399,508,515 MY,1,51799,52399,439,408
Sprite,Foreground,Centre,"sb\dot.png",0,0 C,0,51799,,255,255,255 F,1,51799,52399,1,0 S,1,51799,52399,1,0.2 MX,1,51799,52399,508,563 MY,1,51799,52399,439,459
Sprite,Foreground,Centre,"sb\dot.png",0,0 C,0,51799,,255,255,255 F,1,51799,52399,1,0 S,1,51799,52399,1,0.2 MX,1,51799,52399,508,539 MY,1,51799,52399,439,476
Sprite,Foreground,Centre,"sb\dot.png",0,0 C,0,51799,,255,255,255 F,1,51799,52399,1,0 S,1,51799,52399,1,0.2 MX,1,51799,52399,508,531 MY,1,51799,52399,439,435
Sprite,Foreground,Centre,"sb\dot.png",0,0 C,0,51799,,255,255,255 F,1,51799,52399,1,0 S,1,51799,52399,1,0.2 MX,1,51799,52399,508,538 MY,1,51799,52399,439,404
Sprite,Foreground,Centre,"sb\dot.png",0,0 C,0,51799,,255,255,255 F,1,51799,52399,1,0 S,1,51799,52399,1,0.2 MX,1,51799,52399,508,507 MY,1,51799,52399,439,460
Sprite,Foreground,Centre,"sb\dot.png",0,0 C,0,51799,,255,255,255 F,1,51799,52399,1,0 S,1,51799,52399,1,0.2 MX,1,51799,52399,508,521 MY,1,51799,52399,439,428
Sprite,Foreground,Centre,"sb\dot.png",0,0 C,0,51799,,255,255,255 F,1,51799,52399,1,0 S,1,51799,52399,1,0.2 MX,1,51799,52399,508,511 MY,1,51799,52399,439,494
Sprite,Foreground,Centre,"sb\dot.png",0,0 C,0,51799,,255,255,255 F,1,51799,52399,1,0 S,1,51799,52399,1,0.2 MX,1,51799,52399,508,509 MY,1,51799,52399,439,407
Sprite,Foreground,Centre,"sb\dot.png",0,0 C,0,51799,,255,255,255 F,1,51799,52399,1,0 S,1,51799,52399,1,0.2 MX,1,51799,52399,508,473 MY,1,51799,52399,439,412
Sprite,Foreground,Centre,"sb\dot.png",0,0 C,0,51799,,255,255,255 F,1,51799,52399,1,0 S,1,51799,52399,1,0.2 MX,1,51799,52399,508,449 MY,1,51799,52399,439,419
Sprite,Foreground,Centre,"sb\dot.png",0,0 C,0,51799,,255,255,255 F,1,51799,52399,1,0 S,1,51799,52399,1,0.2 MX,1,51799,52399,508,486 MY,1,51799,52399,439,418
Sprite,Foreground,Centre,"sb\dot.png",0,0 C,0,51799,,255,255,255 F,1,51799,52399,1,0 S,1,51799,52399,1,0.2 MX,1,51799,52399,508,531 MY,1,51799,52399,439,379
Sprite,Foreground,Centre,"sb\dot.png",0,0 C,0,51799,,255,255,255 F,1,51799,52399,1,0 S,1,51799,52399,1,0.2 MX,1,51799,52399,508,462 MY,1,51799,52399,439,426
Sprite,Foreground,Centre,"sb\dot.png",0,0 C,0,51799,,255,255,255 F,1,51799,52399,1,0 S,1,51799,52399,1,0.2 MX,1,51799,52399,508,468 MY,1,51799,52399,439,391
Sprite,Foreground,Centre,"sb\dot.png",0,0 C,0,51799,,255,255,255 F,1,51799,52399,1,0 S,1,51799,52399,1,0.2 MX,1,51799,52399,508,546 MY,1,51799,52399,439,495
Sprite,Foreground,Centre,"sb\dot.png",0,0 C,0,51799,,255,255,255 F,1,51799,52399,1,0 S,1,51799,52399,1,0.2 MX,1,51799,52399,508,529 MY,1,51799,52399,439,430
Sprite,Foreground,Centre,"sb\dot.png",0,0 C,0,51799,,255,255,255 F,1,51799,52399,1,0 S,1,51799,52399,1,0.2 MX,1,51799,52399,508,478 MY,1,51799,52399,439,437
Sprite,Foreground,Centre,"sb\dot.png",0,0 C,0,51799,,255,255,255 F,1,51799,52399,1,0 S,1,51799,52399,1,0.2 MX,1,51799,52399,508,559 MY,1,51799,52399,439,412
Sprite,Foreground,Centre,"sb\dot.png",0,0 C,0,51799,,255,255,255 F,1,51799,52399,1,0 S,1,51799,52399,1,0.2 MX,1,51799,52399,508,485 MY,1,51799,52399,439,481
Sprite,Foreground,Centre,"sb\dot.png",0,0 C,0,51799,,255,255,255 F,1,51799,52399,1,0 S,1,51799,52399,1,0.2 MX,1,51799,52399,508,462 MY,1,51799,52399,439,438
Sprite,Foreground,Centre,"sb\dot.png",0,0 C,0,51799,,255,255,255 F,1,51799,52399,1,0 S,1,51799,52399,1,0.2 MX,1,51799,52399,508,497 MY,1,51799,52399,439,473
Sprite,Foreground,Centre,"sb\dot.png",0,0 C,0,51799,,255,255,255 F,1,51799,52399,1,0 S,1,51799,52399,1,0.2 MX,1,51799,52399,508,449 MY,1,51799,52399,439,457
Sprite,Foreground,Centre,"sb\dot.png",0,0 C,0,51799,,255,255,255 F,1,51799,52399,1,0 S,1,51799,52399,1,0.2 MX,1,51799,52399,508,457 MY,1,51799,52399,439,392
Sprite,Foreground,Centre,"sb\dot.png",0,0 C,0,51799,,255,255,255 F,1,51799,52399,1,0 S,1,51799,52399,1,0.2 MX,1,51799,52399,508,542 MY,1,51799,52399,439,448
Sprite,Foreground,Centre,"sb\dot.png",0,0 C,0,51799,,255,255,255 F,1,51799,52399,1,0 S,1,51799,52399,1,0.2 MX,1,51799,52399,508,467 MY,1,51799,52399,439,480
Sprite,Foreground,Centre,"sb\dot.png",0,0 C,0,51799,,255,255,255 F,1,51799,52399,1,0 S,1,51799,52399,1,0.2 MX,1,51799,52399,508,493 MY,1,51799,52399,439,445
Sprite,Foreground,Centre,"sb\dot.png",0,0 C,0,51799,,255,255,255 F,1,51799,52399,1,0 S,1,51799,52399,1,0.2 MX,1,51799,52399,508,549 MY,1,51799,52399,439,405
Sprite,Foreground,Centre,"sb\dot.png",0,0 C,0,51799,,255,255,255 F,1,51799,52399,1,0 S,1,51799,52399,1,0.2 MX,1,51799,52399,508,558 MY,1,51799,52399,439,455
Sprite,Foreground,Centre,"sb\dot.png",0,0 C,0,51881,,255,255,255 F,1,51881,52481,1,0 S,1,51881,52481,1,0.2 MX,1,51881,52481,508,565 MY,1,51881,52481,439,470
Sprite,Foreground,Centre,"sb\dot.png",0,0 C,0,51881,,255,255,255 F,1,51881,52481,1,0 S,1,51881,52481,1,0.2 MX,1,51881,52481,508,531 MY,1,51881,52481,439,415
Sprite,Foreground,Centre,"sb\dot.png",0,0 C,0,51881,,255,255,255 F,1,51881,52481,1,0 S,1,51881,52481,1,0.2 MX,1,51881,52481,508,484 MY,1,51881,52481,439,456
Sprite,Foreground,Centre,"sb\dot.png",0,0 C,0,51881,,255,255,255 F,1,51881,52481,1,0 S,1,51881,52481,1,0.2 MX,1,51881,52481,508,495 MY,1,51881,52481,439,442
Sprite,Foreground,Centre,"sb\dot.png",0,0 C,0,51881,,255,255,255 F,1,51881,52481,1,0 S,1,51881,52481,1,0.2 MX,1,51881,52481,508,448 MY,1,51881,52481,439,401
Sprite,Foreground,Centre,"sb\dot.png",0,0 C,0,51881,,255,255,255 F,1,51881,52481,1,0 S,1,51881,52481,1,0.2 MX,1,51881,52481,508,467 MY,1,51881,52481,439,384
Sprite,Foreground,Centre,"sb\dot.png",0,0 C,0,51881,,255,255,255 F,1,51881,52481,1,0 S,1,51881,52481,1,0.2 MX,1,51881,52481,508,452 MY,1,51881,52481,439,407
Sprite,Foreground,Centre,"sb\dot.png",0,0 C,0,51881,,255,255,255 F,1,51881,52481,1,0 S,1,51881,52481,1,0.2 MX,1,51881,52481,508,558 MY,1,51881,52481,439,422
Sprite,Foreground,Centre,"sb\dot.png",0,0 C,0,51881,,255,255,255 F,1,51881,52481,1,0 S,1,51881,52481,1,0.2 MX,1,51881,52481,508,466 MY,1,51881,52481,439,440
Sprite,Foreground,Centre,"sb\dot.png",0,0 C,0,51881,,255,255,255 F,1,51881,52481,1,0 S,1,51881,52481,1,0.2 MX,1,51881,52481,508,558 MY,1,51881,52481,439,442
Sprite,Foreground,Centre,"sb\dot.png",0,0 C,0,51881,,255,255,255 F,1,51881,52481,1,0 S,1,51881,52481,1,0.2 MX,1,51881,52481,508,485 MY,1,51881,52481,439,383
Sprite,Foreground,Centre,"sb\dot.png",0,0 C,0,51881,,255,255,255 F,1,51881,52481,1,0 S,1,51881,52481,1,0.2 MX,1,51881,52481,508,558 MY,1,51881,52481,439,379
Sprite,Foreground,Centre,"sb\dot.png",0,0 C,0,51881,,255,255,255 F,1,51881,52481,1,0 S,1,51881,52481,1,0.2 MX,1,51881,52481,508,521 MY,1,51881,52481,439,449
Sprite,Foreground,Centre,"sb\dot.png",0,0 C,0,51881,,255,255,255 F,1,51881,52481,1,0 S,1,51881,52481,1,0.2 MX,1,51881,52481,508,560 MY,1,51881,52481,439,495
Sprite,Foreground,Centre,"sb\dot.png",0,0 C,0,51881,,255,255,255 F,1,51881,52481,1,0 S,1,51881,52481,1,0.2 MX,1,51881,52481,508,518 MY,1,51881,52481,439,394
Sprite,Foreground,Centre,"sb\dot.png",0,0 C,0,51881,,255,255,255 F,1,51881,52481,1,0 S,1,51881,52481,1,0.2 MX,1,51881,52481,508,518 MY,1,51881,52481,439,382
Sprite,Foreground,Centre,"sb\dot.png",0,0 C,0,51881,,255,255,255 F,1,51881,52481,1,0 S,1,51881,52481,1,0.2 MX,1,51881,52481,508,515 MY,1,51881,52481,439,413
Sprite,Foreground,Centre,"sb\dot.png",0,0 C,0,51881,,255,255,255 F,1,51881,52481,1,0 S,1,51881,52481,1,0.2 MX,1,51881,52481,508,484 MY,1,51881,52481,439,445
Sprite,Foreground,Centre,"sb\dot.png",0,0 C,0,51881,,255,255,255 F,1,51881,52481,1,0 S,1,51881,52481,1,0.2 MX,1,51881,52481,508,467 MY,1,51881,52481,439,477
Sprite,Foreground,Centre,"sb\dot.png",0,0 C,0,51881,,255,255,255 F,1,51881,52481,1,0 S,1,51881,52481,1,0.2 MX,1,51881,52481,508,471 MY,1,51881,52481,439,471
Sprite,Foreground,Centre,"sb\dot.png",0,0 C,0,51881,,255,255,255 F,1,51881,52481,1,0 S,1,51881,52481,1,0.2 MX,1,51881,52481,508,494 MY,1,51881,52481,439,437
Sprite,Foreground,Centre,"sb\dot.png",0,0 C,0,51881,,255,255,255 F,1,51881,52481,1,0 S,1,51881,52481,1,0.2 MX,1,51881,52481,508,526 MY,1,51881,52481,439,486
Sprite,Foreground,Centre,"sb\dot.png",0,0 C,0,51881,,255,255,255 F,1,51881,52481,1,0 S,1,51881,52481,1,0.2 MX,1,51881,52481,508,562 MY,1,51881,52481,439,467
Sprite,Foreground,Centre,"sb\dot.png",0,0 C,0,51881,,255,255,255 F,1,51881,52481,1,0 S,1,51881,52481,1,0.2 MX,1,51881,52481,508,513 MY,1,51881,52481,439,490
Sprite,Foreground,Centre,"sb\dot.png",0,0 C,0,51881,,255,255,255 F,1,51881,52481,1,0 S,1,51881,52481,1,0.2 MX,1,51881,52481,508,558 MY,1,51881,52481,439,381
Sprite,Foreground,Centre,"sb\dot.png",0,0 C,0,51881,,255,255,255 F,1,51881,52481,1,0 S,1,51881,52481,1,0.2 MX,1,51881,52481,508,495 MY,1,51881,52481,439,418
Sprite,Foreground,Centre,"sb\dot.png",0,0 C,0,51881,,255,255,255 F,1,51881,52481,1,0 S,1,51881,52481,1,0.2 MX,1,51881,52481,508,484 MY,1,51881,52481,439,426
Sprite,Foreground,Centre,"sb\dot.png",0,0 C,0,51881,,255,255,255 F,1,51881,52481,1,0 S,1,51881,52481,1,0.2 MX,1,51881,52481,508,487 MY,1,51881,52481,439,491
Sprite,Foreground,Centre,"sb\dot.png",0,0 C,0,51881,,255,255,255 F,1,51881,52481,1,0 S,1,51881,52481,1,0.2 MX,1,51881,52481,508,548 MY,1,51881,52481,439,461
Sprite,Foreground,Centre,"sb\dot.png",0,0 C,0,51881,,255,255,255 F,1,51881,52481,1,0 S,1,51881,52481,1,0.2 MX,1,51881,52481,508,530 MY,1,51881,52481,439,465
Sprite,Foreground,Centre,"sb\dot.png",0,0 C,0,52045,,255,255,255 F,1,52045,52645,1,0 S,1,52045,52645,1,0.2 MX,1,52045,52645,555,579 MY,1,52045,52645,295,286
Sprite,Foreground,Centre,"sb\dot.png",0,0 C,0,52045,,255,255,255 F,1,52045,52645,1,0 S,1,52045,52645,1,0.2 MX,1,52045,52645,555,607 MY,1,52045,52645,295,339
Sprite,Foreground,Centre,"sb\dot.png",0,0 C,0,52045,,255,255,255 F,1,52045,52645,1,0 S,1,52045,52645,1,0.2 MX,1,52045,52645,555,567 MY,1,52045,52645,295,251
Sprite,Foreground,Centre,"sb\dot.png",0,0 C,0,52045,,255,255,255 F,1,52045,52645,1,0 S,1,52045,52645,1,0.2 MX,1,52045,52645,555,552 MY,1,52045,52645,295,324
Sprite,Foreground,Centre,"sb\dot.png",0,0 C,0,52045,,255,255,255 F,1,52045,52645,1,0 S,1,52045,52645,1,0.2 MX,1,52045,52645,555,607 MY,1,52045,52645,295,279
Sprite,Foreground,Centre,"sb\dot.png",0,0 C,0,52045,,255,255,255 F,1,52045,52645,1,0 S,1,52045,52645,1,0.2 MX,1,52045,52645,555,519 MY,1,52045,52645,295,274
Sprite,Foreground,Centre,"sb\dot.png",0,0 C,0,52045,,255,255,255 F,1,52045,52645,1,0 S,1,52045,52645,1,0.2 MX,1,52045,52645,555,533 MY,1,52045,52645,295,253
Sprite,Foreground,Centre,"sb\dot.png",0,0 C,0,52045,,255,255,255 F,1,52045,52645,1,0 S,1,52045,52645,1,0.2 MX,1,52045,52645,555,511 MY,1,52045,52645,295,333
Sprite,Foreground,Centre,"sb\dot.png",0,0 C,0,52045,,255,255,255 F,1,52045,52645,1,0 S,1,52045,52645,1,0.2 MX,1,52045,52645,555,540 MY,1,52045,52645,295,238
Sprite,Foreground,Centre,"sb\dot.png",0,0 C,0,52045,,255,255,255 F,1,52045,52645,1,0 S,1,52045,52645,1,0.2 MX,1,52045,52645,555,501 MY,1,52045,52645,295,339
Sprite,Foreground,Centre,"sb\dot.png",0,0 C,0,52045,,255,255,255 F,1,52045,52645,1,0 S,1,52045,52645,1,0.2 MX,1,52045,52645,555,499 MY,1,52045,52645,295,236
Sprite,Foreground,Centre,"sb\dot.png",0,0 C,0,52045,,255,255,255 F,1,52045,52645,1,0 S,1,52045,52645,1,0.2 MX,1,52045,52645,555,501 MY,1,52045,52645,295,303
Sprite,Foreground,Centre,"sb\dot.png",0,0 C,0,52045,,255,255,255 F,1,52045,52645,1,0 S,1,52045,52645,1,0.2 MX,1,52045,52645,555,583 MY,1,52045,52645,295,265
Sprite,Foreground,Centre,"sb\dot.png",0,0 C,0,52045,,255,255,255 F,1,52045,52645,1,0 S,1,52045,52645,1,0.2 MX,1,52045,52645,555,582 MY,1,52045,52645,295,255
Sprite,Foreground,Centre,"sb\dot.png",0,0 C,0,52045,,255,255,255 F,1,52045,52645,1,0 S,1,52045,52645,1,0.2 MX,1,52045,52645,555,610 MY,1,52045,52645,295,278
Sprite,Foreground,Centre,"sb\dot.png",0,0 C,0,52045,,255,255,255 F,1,52045,52645,1,0 S,1,52045,52645,1,0.2 MX,1,52045,52645,555,581 MY,1,52045,52645,295,291
Sprite,Foreground,Centre,"sb\dot.png",0,0 C,0,52045,,255,255,255 F,1,52045,52645,1,0 S,1,52045,52645,1,0.2 MX,1,52045,52645,555,511 MY,1,52045,52645,295,291
Sprite,Foreground,Centre,"sb\dot.png",0,0 C,0,52045,,255,255,255 F,1,52045,52645,1,0 S,1,52045,52645,1,0.2 MX,1,52045,52645,555,503 MY,1,52045,52645,295,350
Sprite,Foreground,Centre,"sb\dot.png",0,0 C,0,52045,,255,255,255 F,1,52045,52645,1,0 S,1,52045,52645,1,0.2 MX,1,52045,52645,555,561 MY,1,52045,52645,295,329
Sprite,Foreground,Centre,"sb\dot.png",0,0 C,0,52045,,255,255,255 F,1,52045,52645,1,0 S,1,52045,52645,1,0.2 MX,1,52045,52645,555,530 MY,1,52045,52645,295,333
Sprite,Foreground,Centre,"sb\dot.png",0,0 C,0,52045,,255,255,255 F,1,52045,52645,1,0 S,1,52045,52645,1,0.2 MX,1,52045,52645,555,526 MY,1,52045,52645,295,331
Sprite,Foreground,Centre,"sb\dot.png",0,0 C,0,52045,,255,255,255 F,1,52045,52645,1,0 S,1,52045,52645,1,0.2 MX,1,52045,52645,555,614 MY,1,52045,52645,295,301
Sprite,Foreground,Centre,"sb\dot.png",0,0 C,0,52045,,255,255,255 F,1,52045,52645,1,0 S,1,52045,52645,1,0.2 MX,1,52045,52645,555,593 MY,1,52045,52645,295,243
Sprite,Foreground,Centre,"sb\dot.png",0,0 C,0,52045,,255,255,255 F,1,52045,52645,1,0 S,1,52045,52645,1,0.2 MX,1,52045,52645,555,495 MY,1,52045,52645,295,252
Sprite,Foreground,Centre,"sb\dot.png",0,0 C,0,52045,,255,255,255 F,1,52045,52645,1,0 S,1,52045,52645,1,0.2 MX,1,52045,52645,555,525 MY,1,52045,52645,295
Sprite,Foreground,Centre,"sb\dot.png",0,0 C,0,52045,,255,255,255 F,1,52045,52645,1,0 S,1,52045,52645,1,0.2 MX,1,52045,52645,555,561 MY,1,52045,52645,295,332
Sprite,Foreground,Centre,"sb\dot.png",0,0 C,0,52045,,255,255,255 F,1,52045,52645,1,0 S,1,52045,52645,1,0.2 MX,1,52045,52645,555,570 MY,1,52045,52645,295,333
Sprite,Foreground,Centre,"sb\dot.png",0,0 C,0,52045,,255,255,255 F,1,52045,52645,1,0 S,1,52045,52645,1,0.2 MX,1,52045,52645,555,577 MY,1,52045,52645,295,317
Sprite,Foreground,Centre,"sb\dot.png",0,0 C,0,52045,,255,255,255 F,1,52045,52645,1,0 S,1,52045,52645,1,0.2 MX,1,52045,52645,555,540 MY,1,52045,52645,295,279
Sprite,Foreground,Centre,"sb\dot.png",0,0 C,0,52045,,255,255,255 F,1,52045,52645,1,0 S,1,52045,52645,1,0.2 MX,1,52045,52645,555,511 MY,1,52045,52645,295,276
Sprite,Foreground,Centre,"sb\dot.png",0,0 C,0,52209,,255,255,255 F,1,52209,52809,1,0 S,1,52209,52809,1,0.2 MX,1,52209,52809,487,475 MY,1,52209,52809,421,398
Sprite,Foreground,Centre,"sb\dot.png",0,0 C,0,52209,,255,255,255 F,1,52209,52809,1,0 S,1,52209,52809,1,0.2 MX,1,52209,52809,487,521 MY,1,52209,52809,421,429
Sprite,Foreground,Centre,"sb\dot.png",0,0 C,0,52209,,255,255,255 F,1,52209,52809,1,0 S,1,52209,52809,1,0.2 MX,1,52209,52809,487,504 MY,1,52209,52809,421,448
Sprite,Foreground,Centre,"sb\dot.png",0,0 C,0,52209,,255,255,255 F,1,52209,52809,1,0 S,1,52209,52809,1,0.2 MX,1,52209,52809,487,450 MY,1,52209,52809,421,463
Sprite,Foreground,Centre,"sb\dot.png",0,0 C,0,52209,,255,255,255 F,1,52209,52809,1,0 S,1,52209,52809,1,0.2 MX,1,52209,52809,487,436 MY,1,52209,52809,421,382
Sprite,Foreground,Centre,"sb\dot.png",0,0 C,0,52209,,255,255,255 F,1,52209,52809,1,0 S,1,52209,52809,1,0.2 MX,1,52209,52809,487,459 MY,1,52209,52809,421,432
Sprite,Foreground,Centre,"sb\dot.png",0,0 C,0,52209,,255,255,255 F,1,52209,52809,1,0 S,1,52209,52809,1,0.2 MX,1,52209,52809,487,514 MY,1,52209,52809,421,389
Sprite,Foreground,Centre,"sb\dot.png",0,0 C,0,52209,,255,255,255 F,1,52209,52809,1,0 S,1,52209,52809,1,0.2 MX,1,52209,52809,487,500 MY,1,52209,52809,421,389
Sprite,Foreground,Centre,"sb\dot.png",0,0 C,0,52209,,255,255,255 F,1,52209,52809,1,0 S,1,52209,52809,1,0.2 MX,1,52209,52809,487,429 MY,1,52209,52809,421,420
Sprite,Foreground,Centre,"sb\dot.png",0,0 C,0,52209,,255,255,255 F,1,52209,52809,1,0 S,1,52209,52809,1,0.2 MX,1,52209,52809,487,516 MY,1,52209,52809,421,440
Sprite,Foreground,Centre,"sb\dot.png",0,0 C,0,52209,,255,255,255 F,1,52209,52809,1,0 S,1,52209,52809,1,0.2 MX,1,52209,52809,487,456 MY,1,52209,52809,421,430
Sprite,Foreground,Centre,"sb\dot.png",0,0 C,0,52209,,255,255,255 F,1,52209,52809,1,0 S,1,52209,52809,1,0.2 MX,1,52209,52809,487,537 MY,1,52209,52809,421,415
Sprite,Foreground,Centre,"sb\dot.png",0,0 C,0,52209,,255,255,255 F,1,52209,52809,1,0 S,1,52209,52809,1,0.2 MX,1,52209,52809,487,524 MY,1,52209,52809,421,470
Sprite,Foreground,Centre,"sb\dot.png",0,0 C,0,52209,,255,255,255 F,1,52209,52809,1,0 S,1,52209,52809,1,0.2 MX,1,52209,52809,487,527 MY,1,52209,52809,421,398
Sprite,Foreground,Centre,"sb\dot.png",0,0 C,0,52209,,255,255,255 F,1,52209,52809,1,0 S,1,52209,52809,1,0.2 MX,1,52209,52809,487,521 MY,1,52209,52809,421,406
Sprite,Foreground,Centre,"sb\dot.png",0,0 C,0,52209,,255,255,255 F,1,52209,52809,1,0 S,1,52209,52809,1,0.2 MX,1,52209,52809,487,497 MY,1,52209,52809,421,382
Sprite,Foreground,Centre,"sb\dot.png",0,0 C,0,52209,,255,255,255 F,1,52209,52809,1,0 S,1,52209,52809,1,0.2 MX,1,52209,52809,487,504 MY,1,52209,52809,421,475
Sprite,Foreground,Centre,"sb\dot.png",0,0 C,0,52209,,255,255,255 F,1,52209,52809,1,0 S,1,52209,52809,1,0.2 MX,1,52209,52809,487,476 MY,1,52209,52809,421,474
Sprite,Foreground,Centre,"sb\dot.png",0,0 C,0,52209,,255,255,255 F,1,52209,52809,1,0 S,1,52209,52809,1,0.2 MX,1,52209,52809,487,429 MY,1,52209,52809,421,411
Sprite,Foreground,Centre,"sb\dot.png",0,0 C,0,52209,,255,255,255 F,1,52209,52809,1,0 S,1,52209,52809,1,0.2 MX,1,52209,52809,487,535 MY,1,52209,52809,421,372
Sprite,Foreground,Centre,"sb\dot.png",0,0 C,0,52209,,255,255,255 F,1,52209,52809,1,0 S,1,52209,52809,1,0.2 MX,1,52209,52809,487,531 MY,1,52209,52809,421,379
Sprite,Foreground,Centre,"sb\dot.png",0,0 C,0,52209,,255,255,255 F,1,52209,52809,1,0 S,1,52209,52809,1,0.2 MX,1,52209,52809,487,435 MY,1,52209,52809,421,370
Sprite,Foreground,Centre,"sb\dot.png",0,0 C,0,52209,,255,255,255 F,1,52209,52809,1,0 S,1,52209,52809,1,0.2 MX,1,52209,52809,487,455 MY,1,52209,52809,421,475
Sprite,Foreground,Centre,"sb\dot.png",0,0 C,0,52209,,255,255,255 F,1,52209,52809,1,0 S,1,52209,52809,1,0.2 MX,1,52209,52809,487,436 MY,1,52209,52809,421,408
Sprite,Foreground,Centre,"sb\dot.png",0,0 C,0,52209,,255,255,255 F,1,52209,52809,1,0 S,1,52209,52809,1,0.2 MX,1,52209,52809,487,451 MY,1,52209,52809,421,414
Sprite,Foreground,Centre,"sb\dot.png",0,0 C,0,52209,,255,255,255 F,1,52209,52809,1,0 S,1,52209,52809,1,0.2 MX,1,52209,52809,487,507 MY,1,52209,52809,421,466
Sprite,Foreground,Centre,"sb\dot.png",0,0 C,0,52209,,255,255,255 F,1,52209,52809,1,0 S,1,52209,52809,1,0.2 MX,1,52209,52809,487,501 MY,1,52209,52809,421,417
Sprite,Foreground,Centre,"sb\dot.png",0,0 C,0,52209,,255,255,255 F,1,52209,52809,1,0 S,1,52209,52809,1,0.2 MX,1,52209,52809,487,438 MY,1,52209,52809,421,460
Sprite,Foreground,Centre,"sb\dot.png",0,0 C,0,52209,,255,255,255 F,1,52209,52809,1,0 S,1,52209,52809,1,0.2 MX,1,52209,52809,487,474 MY,1,52209,52809,421,400
Sprite,Foreground,Centre,"sb\dot.png",0,0 C,0,52209,,255,255,255 F,1,52209,52809,1,0 S,1,52209,52809,1,0.2 MX,1,52209,52809,487,518 MY,1,52209,52809,421,449
Sprite,Foreground,Centre,"sb\dot.png",0,0 C,0,52373,,255,255,255 F,1,52373,52973,1,0 S,1,52373,52973,1,0.2 MX,1,52373,52973,459,505 MY,1,52373,52973,304,349
Sprite,Foreground,Centre,"sb\dot.png",0,0 C,0,52373,,255,255,255 F,1,52373,52973,1,0 S,1,52373,52973,1,0.2 MX,1,52373,52973,459,406 MY,1,52373,52973,304,328
Sprite,Foreground,Centre,"sb\dot.png",0,0 C,0,52373,,255,255,255 F,1,52373,52973,1,0 S,1,52373,52973,1,0.2 MX,1,52373,52973,459,469 MY,1,52373,52973,304,254
Sprite,Foreground,Centre,"sb\dot.png",0,0 C,0,52373,,255,255,255 F,1,52373,52973,1,0 S,1,52373,52973,1,0.2 MX,1,52373,52973,459,512 MY,1,52373,52973,304,337
Sprite,Foreground,Centre,"sb\dot.png",0,0 C,0,52373,,255,255,255 F,1,52373,52973,1,0 S,1,52373,52973,1,0.2 MX,1,52373,52973,459,498 MY,1,52373,52973,304,323
Sprite,Foreground,Centre,"sb\dot.png",0,0 C,0,52373,,255,255,255 F,1,52373,52973,1,0 S,1,52373,52973,1,0.2 MX,1,52373,52973,459,425 MY,1,52373,52973,304,315
Sprite,Foreground,Centre,"sb\dot.png",0,0 C,0,52373,,255,255,255 F,1,52373,52973,1,0 S,1,52373,52973,1,0.2 MX,1,52373,52973,459,469 MY,1,52373,52973,304,322
Sprite,Foreground,Centre,"sb\dot.png",0,0 C,0,52373,,255,255,255 F,1,52373,52973,1,0 S,1,52373,52973,1,0.2 MX,1,52373,52973,459,494 MY,1,52373,52973,304,255
Sprite,Foreground,Centre,"sb\dot.png",0,0 C,0,52373,,255,255,255 F,1,52373,52973,1,0 S,1,52373,52973,1,0.2 MX,1,52373,52973,459,460 MY,1,52373,52973,304,344
Sprite,Foreground,Centre,"sb\dot.png",0,0 C,0,52373,,255,255,255 F,1,52373,52973,1,0 S,1,52373,52973,1,0.2 MX,1,52373,52973,459,425 MY,1,52373,52973,304,346
Sprite,Foreground,Centre,"sb\dot.png",0,0 C,0,52373,,255,255,255 F,1,52373,52973,1,0 S,1,52373,52973,1,0.2 MX,1,52373,52973,459,499 MY,1,52373,52973,304,297
Sprite,Foreground,Centre,"sb\dot.png",0,0 C,0,52373,,255,255,255 F,1,52373,52973,1,0 S,1,52373,52973,1,0.2 MX,1,52373,52973,459,411 MY,1,52373,52973,304,284
Sprite,Foreground,Centre,"sb\dot.png",0,0 C,0,52373,,255,255,255 F,1,52373,52973,1,0 S,1,52373,52973,1,0.2 MX,1,52373,52973,459,484 MY,1,52373,52973,304,329
Sprite,Foreground,Centre,"sb\dot.png",0,0 C,0,52373,,255,255,255 F,1,52373,52973,1,0 S,1,52373,52973,1,0.2 MX,1,52373,52973,459,466 MY,1,52373,52973,304,265
Sprite,Foreground,Centre,"sb\dot.png",0,0 C,0,52373,,255,255,255 F,1,52373,52973,1,0 S,1,52373,52973,1,0.2 MX,1,52373,52973,459,501 MY,1,52373,52973,304,313
Sprite,Foreground,Centre,"sb\dot.png",0,0 C,0,52373,,255,255,255 F,1,52373,52973,1,0 S,1,52373,52973,1,0.2 MX,1,52373,52973,459,465 MY,1,52373,52973,304,326
Sprite,Foreground,Centre,"sb\dot.png",0,0 C,0,52373,,255,255,255 F,1,52373,52973,1,0 S,1,52373,52973,1,0.2 MX,1,52373,52973,459,478 MY,1,52373,52973,304,264
Sprite,Foreground,Centre,"sb\dot.png",0,0 C,0,52373,,255,255,255 F,1,52373,52973,1,0 S,1,52373,52973,1,0.2 MX,1,52373,52973,459,424 MY,1,52373,52973,304,363
Sprite,Foreground,Centre,"sb\dot.png",0,0 C,0,52373,,255,255,255 F,1,52373,52973,1,0 S,1,52373,52973,1,0.2 MX,1,52373,52973,459,409 MY,1,52373,52973,304,287
Sprite,Foreground,Centre,"sb\dot.png",0,0 C,0,52373,,255,255,255 F,1,52373,52973,1,0 S,1,52373,52973,1,0.2 MX,1,52373,52973,459,457 MY,1,52373,52973,304,261
Sprite,Foreground,Centre,"sb\dot.png",0,0 C,0,52373,,255,255,255 F,1,52373,52973,1,0 S,1,52373,52973,1,0.2 MX,1,52373,52973,459,400 MY,1,52373,52973,304,280
Sprite,Foreground,Centre,"sb\dot.png",0,0 C,0,52373,,255,255,255 F,1,52373,52973,1,0 S,1,52373,52973,1,0.2 MX,1,52373,52973,459,467 MY,1,52373,52973,304,309
Sprite,Foreground,Centre,"sb\dot.png",0,0 C,0,52373,,255,255,255 F,1,52373,52973,1,0 S,1,52373,52973,1,0.2 MX,1,52373,52973,459,426 MY,1,52373,52973,304,252
Sprite,Foreground,Centre,"sb\dot.png",0,0 C,0,52373,,255,255,255 F,1,52373,52973,1,0 S,1,52373,52973,1,0.2 MX,1,52373,52973,459,433 MY,1,52373,52973,304,360
Sprite,Foreground,Centre,"sb\dot.png",0,0 C,0,52373,,255,255,255 F,1,52373,52973,1,0 S,1,52373,52973,1,0.2 MX,1,52373,52973,459,480 MY,1,52373,52973,304,244
Sprite,Foreground,Centre,"sb\dot.png",0,0 C,0,52373,,255,255,255 F,1,52373,52973,1,0 S,1,52373,52973,1,0.2 MX,1,52373,52973,459,437 MY,1,52373,52973,304,310
Sprite,Foreground,Centre,"sb\dot.png",0,0 C,0,52373,,255,255,255 F,1,52373,52973,1,0 S,1,52373,52973,1,0.2 MX,1,52373,52973,459,411 MY,1,52373,52973,304,352
Sprite,Foreground,Centre,"sb\dot.png",0,0 C,0,52373,,255,255,255 F,1,52373,52973,1,0 S,1,52373,52973,1,0.2 MX,1,52373,52973,459,507 MY,1,52373,52973,304,296
Sprite,Foreground,Centre,"sb\dot.png",0,0 C,0,52373,,255,255,255 F,1,52373,52973,1,0 S,1,52373,52973,1,0.2 MX,1,52373,52973,459,491 MY,1,52373,52973,304,330
Sprite,Foreground,Centre,"sb\dot.png",0,0 C,0,52373,,255,255,255 F,1,52373,52973,1,0 S,1,52373,52973,1,0.2 MX,1,52373,52973,459,517 MY,1,52373,52973,304,349
Sprite,Foreground,Centre,"sb\DiffByAJT.png",320,240 M,0,43357,,320,240 F,0,43357,43685,0,1 S,0,43357,44914,0.7498183 F,0,43685,44914,1 F,0,44914,44996,1,0 S,0,44914,44996,0.7498183,1.186182
//Storyboard Layer 4 (Overlay)
//Storyboard Sound Samples

[TimingPoints]
1390,327.868852459016,4,2,1,50,1,0
11553,-83.3333333333333,4,2,1,50,0,0
11881,-83.3333333333333,4,2,1,50,0,0
21389,-133.333333333333,4,2,1,50,0,0
22209,-50,4,2,1,50,0,0
22537,-83.3333333333333,4,2,1,50,0,0
23521,-100,4,2,1,50,0,0
25652,-83.3333333333333,4,2,1,50,0,0
27455,-50,4,2,1,50,0,0
27783,-83.3333333333333,4,2,1,50,0,0
28439,-100,4,2,1,50,0,0
32209,-100,4,2,1,50,0,0
32455,-100,4,2,1,5,0,0
32537,-100,4,2,1,50,0,0
32865,-66.6666666666667,4,2,1,60,0,1
43357,-66.6666666666667,4,2,1,60,0,0
53274,-66.6666666666667,4,2,1,5,0,0
53356,-66.6666666666667,4,2,1,60,0,0
53602,-66.6666666666667,4,2,1,5,0,0
53684,-66.6666666666667,4,2,1,50,0,0
53848,-83.3333333333333,4,2,1,50,0,0
63356,-133.333333333333,4,2,1,50,0,0
64176,-50,4,2,1,50,0,0
64504,-83.3333333333333,4,2,1,50,0,0
65488,-100,4,2,1,50,0,0
67619,-83.3333333333333,4,2,1,50,0,0
69421,-50,4,2,1,50,0,0
69749,-83.3333333333333,4,2,1,50,0,0
70406,-100,4,2,1,50,0,0
74176,-100,4,2,1,50,0,0
74422,-100,4,2,1,5,0,0
74504,-100,4,2,1,50,0,0
74832,-66.6666666666667,4,2,1,60,0,1
80078,-50,4,2,1,60,0,1
80406,-66.6666666666667,4,2,1,60,0,1
84668,-44.4444444444445,4,2,1,60,0,1
85160,-50,4,2,1,50,0,0
86143,-100,4,2,1,50,0,0

[Colours]
Combo1 : 124,202,231
Combo2 : 218,103,106
Combo3 : 51,174,221
Combo4 : 225,221,40

[HitObjects]
484,358,1390,6,0,P|481:320|476:231,1,120,6|0,0:3|0:0,0:0:0:0:
432,126,1799,2,0,P|416:137|393:138,1,40
343,119,1963,1,0,0:0:0:0:
343,119,2045,2,0,P|330:75|327:33,1,80,2|0,0:0|0:0,0:0:0:0:
243,127,2373,2,0,P|242:81|233:40,1,80,2|0,0:0|0:0,0:0:0:0:
160,208,2701,6,0,P|122:205|33:200,1,120,2|0,0:3|0:0,0:0:0:0:
256,368,3111,2,0,P|245:353|244:330,1,40
263,279,3274,1,0,0:0:0:0:
263,279,3357,2,0,P|307:267|349:264,1,80,2|0,0:0|0:0,0:0:0:0:
432,192,3685,2,0,P|478:192|519:201,1,80,2|0,0:0|0:0,0:0:0:0:
304,128,4012,6,0,P|307:90|312:1,1,120,2|0,0:3|0:0,0:0:0:0:
208,192,4422,2,0,P|219:177|220:154,1,40
201,103,4586,1,0,0:0:0:0:
201,103,4668,2,0,P|157:91|115:88,1,80,2|0,0:0|0:0,0:0:0:0:
29,11,4996,1,2,0:0:0:0:
13,129,5159,1,0,0:0:0:0:
122,87,5324,5,2,0:3:0:0:
122,87,5980,2,0,P|186:79|250:111,1,120,2|0,0:0|0:0,0:0:0:0:
265,152,6308,2,0,P|288:209|279:270,1,120,2|0,0:0|0:0,0:0:0:0:
253,319,6635,6,0,P|196:342|135:333,2,120,4|2|0,1:0|0:0|0:0,0:0:0:0:
352,384,7291,1,2,0:0:0:0:
464,368,7455,1,0,0:0:0:0:
384,272,7619,1,2,0:0:0:0:
496,256,7783,2,0,L|488:188,1,40,0|0,3:0|0:0,0:0:0:0:
452,169,7947,2,0,P|475:112|466:51,1,120,2|0,0:0|0:0,0:0:0:0:
256,0,8439,5,0,0:0:0:0:
256,0,8603,1,2,0:0:0:0:
144,43,8767,1,0,0:0:0:0:
178,157,8931,1,2,0:0:0:0:
83,231,9095,2,0,L|91:299,1,40,0|0,3:0|0:0,0:0:0:0:
112,325,9259,2,0,P|169:348|230:339,2,120,2|0|0,0:0|0:0|0:0,0:0:0:0:
83,231,9914,1,2,0:0:0:0:
63,116,10078,5,2,0:0:0:0:
63,116,10242,1,2,0:0:0:0:
256,384,10488,1,0,0:0:0:0:
256,384,10570,1,2,0:0:0:0:
256,288,10898,1,2,0:0:0:0:
256,192,11226,1,2,0:0:0:0:
208,80,11389,1,0,3:0:0:0:
208,80,11470,1,0,3:0:0:0:
208,80,11553,2,0,B|134:86|139:29|54:42,1,143.999995605469,4|0,2:0|0:0,0:0:0:0:
41,82,11881,6,0,L|29:195,1,95.9999970703126,0|0,1:0|0:0,0:0:0:0:
30,177,12127,1,0,0:0:0:0:
30,177,12209,2,0,L|18:290,1,95.9999970703126,8|0,0:0|0:0,0:0:0:0:
96,384,12537,5,0,1:0:0:0:
176,272,12701,1,0,0:0:0:0:
176,272,12782,1,0,0:0:0:0:
176,272,12865,1,8,0:0:0:0:
288,320,13029,1,2,0:0:0:0:
352,192,13193,6,0,L|465:204,1,95.9999970703126,0|0,1:0|0:0,0:0:0:0:
447,202,13439,1,0,0:0:0:0:
447,202,13520,1,8,0:0:0:0:
368,0,13685,1,2,0:0:0:0:
320,72,13849,2,0,L|207:84,1,95.9999970703126,0|0,1:0|0:0,0:0:0:0:
224,82,14094,1,0,0:0:0:0:
224,82,14175,1,8,0:0:0:0:
144,32,14340,1,2,0:0:0:0:
368,0,14504,6,0,B|427:33|460:-1|533:48,1,143.999995605469,0|0,1:0|0:0,0:0:0:0:
506,32,14832,2,0,P|476:81|470:130,1,95.9999970703126,8|0,0:0|0:0,0:0:0:0:
256,192,15160,2,0,P|305:222|354:228,1,95.9999970703126,0|0,1:0|0:0,0:0:0:0:
342,228,15406,1,0,0:0:0:0:
342,228,15488,2,0,P|391:198|440:192,2,95.9999970703126,8|0|0,0:0|0:0|1:0,0:0:0:0:
342,228,16062,1,0,0:0:0:0:
342,228,16143,1,8,0:0:0:0:
0,0,16471,2,0,P|46:15|99:50,1,95.9999970703126,0|0,1:0|0:0,0:0:0:0:
92,134,16718,1,0,0:0:0:0:
92,134,16799,2,0,P|138:149|126:190,1,95.9999970703126,8|0,0:0|0:0,0:0:0:0:
304,0,17127,6,0,L|316:113,1,95.9999970703126,0|0,1:0|0:0,0:0:0:0:
315,95,17373,1,0,0:0:0:0:
315,95,17455,2,0,L|327:208,1,95.9999970703126,8|0,0:0|0:0,0:0:0:0:
480,256,17783,1,0,1:0:0:0:
352,358,17947,1,0,0:0:0:0:
352,358,18028,1,0,0:0:0:0:
352,358,18111,1,8,0:0:0:0:
480,256,18275,1,2,0:0:0:0:
416,192,18439,6,0,P|432:72|440:42,1,143.999995605469,0|0,1:0|0:0,0:0:0:0:
437,49,18767,2,0,P|386:34|343:32,1,95.9999970703126,8|0,0:0|0:0,0:0:0:0:
144,96,19095,2,0,L|132:209,1,95.9999970703126,0|0,1:0|0:0,0:0:0:0:
134,192,19340,1,0,0:0:0:0:
134,192,19421,1,8,0:0:0:0:
0,272,19586,1,2,0:0:0:0:
112,384,19750,6,0,B|171:351|204:385|277:336,1,143.999995605469,0|0,1:0|0:0,0:0:0:0:
250,352,20078,2,0,P|220:303|214:254,1,95.9999970703126,8|0,0:0|0:0,0:0:0:0:
288,144,20406,2,0,P|337:114|386:108,1,95.9999970703126,0|0,1:0|0:0,0:0:0:0:
374,108,20652,1,0,0:0:0:0:
374,108,20734,2,0,P|423:138|472:144,2,95.9999970703126,8|2|0,0:0|0:0|1:0,0:0:0:0:
154,12,21308,1,0,0:0:0:0:
154,12,21389,6,0,P|89:32|35:76,2,120.000004577637,8|2|8,0:0|0:0|0:0,0:0:0:0:
256,0,22209,6,0,B|296:-20|314:95|371:-2|404:41,1,160,2|4,0:0|0:0,0:0:0:0:
356,94,22537,2,0,B|332:105|321:38|288:95|269:69,2,95.9999970703126,2|8|0,0:0|0:0|0:0,0:0:0:0:
0,384,23193,1,2,0:0:0:0:
68,317,23357,1,8,0:0:0:0:
68,317,23521,2,0,P|62:240|40:154,2,160,2|2|2,0:0|0:0|0:0,0:0:0:0:
444,317,24668,1,8,0:0:0:0:
444,317,24831,1,0,0:0:0:0:
371,208,24996,6,0,P|351:174|347:128,1,80,2|0,0:0|0:0,0:0:0:0:
427,107,25324,2,0,P|447:141|451:187,1,80,8|0,0:0|0:0,0:0:0:0:
256,272,25652,2,0,P|216:248|161:243,1,95.9999970703126,2|0,0:0|0:0,0:0:0:0:
137,337,25980,2,0,P|176:360|231:365,1,95.9999970703126,8|0,0:0|0:0,0:0:0:0:
272,96,26308,5,2,0:0:0:0:
272,96,26471,1,0,0:0:0:0:
80,0,26799,1,2,0:0:0:0:
80,0,26963,2,0,P|146:27|221:26,1,143.999995605469,2|0,0:0|0:0,0:0:0:0:
218,27,27291,1,8,0:0:0:0:
160,144,27455,6,0,B|120:124|102:239|45:142|12:185,1,160,2|4,0:0|0:0,0:0:0:0:
60,238,27783,2,0,B|84:249|95:182|128:239|147:213,2,95.9999970703126,2|8|0,0:0|0:0|0:0,0:0:0:0:
512,384,28439,1,2,0:0:0:0:
444,317,28603,1,8,0:0:0:0:
444,317,28767,2,0,P|450:240|472:154,2,160,2|2|2,0:0|0:0|0:0,0:0:0:0:
68,317,29914,1,8,0:0:0:0:
68,317,30077,1,0,0:0:0:0:
141,208,30242,5,2,0:0:0:0:
75,169,30405,1,0,0:0:0:0:
234,104,30570,1,8,0:0:0:0:
204,34,30733,1,0,0:0:0:0:
256,272,30898,5,2,0:0:0:0:
328,241,31061,1,0,0:0:0:0:
512,192,31226,1,8,0:0:0:0:
439,163,31389,1,0,0:0:0:0:
368,384,31554,5,2,0:0:0:0:
368,384,31717,1,0,0:0:0:0:
16,112,32209,2,0,P|-12:185|58:170,1,160,2|2,0:0|0:0,0:0:0:0:
44,188,32865,6,0,B|92:157|104:200|163:174,1,120.000004577637,4|0,1:0|0:0,0:0:0:0:
185,267,33111,1,0,0:0:0:0:
185,267,33193,2,0,P|153:277|120:271,2,60.0000022888184,8|0|0,0:0|0:0|0:0,0:0:0:0:
368,192,33521,1,0,1:0:0:0:
500,165,33685,2,0,P|493:125|482:98,1,60.0000022888184
465,34,33849,1,8,0:0:0:0:
332,61,34012,1,2,0:0:0:0:
298,238,34176,6,0,B|267:286|310:298|284:357,1,120.000004577637,0|0,1:0|0:0,0:0:0:0:
201,383,34422,1,0,0:0:0:0:
201,383,34504,2,0,P|169:373|136:379,2,60.0000022888184,8|0|0,0:0|0:0|0:0,0:0:0:0:
27,330,34832,1,0,1:0:0:0:
96,256,34996,2,0,P|89:216|78:189,1,60.0000022888184
0,48,35160,1,8,0:0:0:0:
119,173,35323,1,2,0:0:0:0:
256,48,35488,6,0,B|281:35|281:35|342:88|438:88,1,180.000006866455,0|0,1:0|0:0,0:0:0:0:
484,165,35816,1,8,0:0:0:0:
484,165,35898,1,0,0:0:0:0:
484,165,35980,2,0,P|482:202|469:229,1,60.0000022888184
434,305,36144,5,0,1:0:0:0:
320,179,36308,1,0,0:0:0:0:
320,179,36389,1,0,0:0:0:0:
320,179,36471,1,8,0:0:0:0:
407,336,36635,1,2,0:0:0:0:
278,210,36799,2,0,B|217:181|186:310|116:263,1,180.000006866455,0|0,1:0|0:0,0:0:0:0:
41,278,37127,2,0,P|31:318|97:374,1,120.000004577637,8|0,0:0|0:0,0:0:0:0:
66,165,37455,6,0,B|55:120|52:46,1,120.000004577637,0|0,1:0|0:0,0:0:0:0:
142,41,37701,1,0,0:0:0:0:
142,41,37783,2,0,P|218:73|200:-1,1,180.000006866455,8|0,0:0|0:0,0:0:0:0:
320,32,38111,2,0,B|317:106|306:151,1,120.000004577637,0|0,1:0|0:0,0:0:0:0:
374,218,38357,1,0,0:0:0:0:
374,218,38439,2,0,P|406:208|439:214,2,60.0000022888184,8|0|0,0:0|0:0|0:0,0:0:0:0:
248,348,38767,1,0,1:0:0:0:
221,216,38931,2,0,P|181:223|154:234,1,60.0000022888184
90,251,39095,1,8,0:0:0:0:
117,384,39258,1,2,0:0:0:0:
285,320,39422,6,0,B|333:351|345:308|404:334,1,120.000004577637,0|0,1:0|0:0,0:0:0:0:
454,260,39668,1,0,0:0:0:0:
454,260,39750,2,0,P|486:250|519:256,2,60.0000022888184,8|0|0,0:0|0:0|0:0,0:0:0:0:
249,237,40078,1,0,1:0:0:0:
272,42,40242,1,0,0:0:0:0:
272,42,40323,1,0,0:0:0:0:
272,42,40406,2,0,P|214:71|159:54,1,120.000004577637,8|2,0:0|0:0,0:0:0:0:
320,141,40734,6,0,B|295:128|295:128|235:167|170:148|170:148|141:175,1,180.000006866455,0|0,1:0|0:0,0:0:0:0:
101,237,41062,1,8,0:0:0:0:
101,237,41144,1,0,0:0:0:0:
101,237,41226,2,0,P|103:274|116:301,1,60.0000022888184
224,352,41390,5,0,1:0:0:0:
391,381,41554,1,0,0:0:0:0:
391,381,41635,1,0,0:0:0:0:
391,381,41717,1,8,0:0:0:0:
226,311,41881,1,2,0:0:0:0:
405,331,42045,2,0,B|470:316|415:195|500:189,1,180.000006866455,0|0,1:0|0:0,0:0:0:0:
504,198,42373,2,0,P|514:238|448:294,1,120.000004577637,8|0,0:0|0:0,0:0:0:0:
483,100,42701,2,0,B|437:83|364:86,1,120.000004577637,2|0,0:0|0:0,0:0:0:0:
501,7,42947,1,0,0:0:0:0:
501,7,43029,2,0,P|423:10|362:102,1,180.000006866455,8|0,0:0|0:0,0:0:0:0:
274,103,43357,5,4,1:0:0:0:
87,298,43603,1,0,0:0:0:0:
87,298,43685,1,8,0:0:0:0:
262,370,43849,1,0,0:0:0:0:
262,370,43930,1,0,0:0:0:0:
262,370,44012,2,0,P|260:308|234:238,1,120.000004577637,0|0,1:0|0:0,0:0:0:0:
393,353,44340,2,0,P|374:295|373:236,1,120.000004577637,8|0,0:0|0:0,0:0:0:0:
281,78,44668,5,0,1:0:0:0:
53,222,44914,1,0,0:0:0:0:
53,222,44996,2,0,P|51:160|25:90,1,120.000004577637,8|0,0:0|0:0,0:0:0:0:
58,5,45324,1,0,1:0:0:0:
143,205,45488,1,0,0:0:0:0:
143,205,45570,1,0,0:0:0:0:
143,205,45652,2,0,P|142:145|124:89,1,120.000004577637,8|0,0:0|0:0,0:0:0:0:
385,9,45980,5,0,1:0:0:0:
229,231,46226,1,0,0:0:0:0:
229,231,46308,1,8,0:0:0:0:
377,331,46471,1,0,0:0:0:0:
202,374,46635,5,0,1:0:0:0:
122,358,46799,1,0,0:0:0:0:
377,331,46963,5,8,0:0:0:0:
457,315,47127,1,0,0:0:0:0:
496,128,47291,5,0,1:0:0:0:
512,48,47455,1,2,0:0:0:0:
384,192,47619,5,8,0:0:0:0:
304,176,47783,1,2,0:0:0:0:
496,128,47947,5,0,1:0:0:0:
384,192,48111,1,2,0:0:0:0:
384,192,48193,1,0,0:0:0:0:
384,192,48275,1,8,0:0:0:0:
482,253,48439,1,2,0:0:0:0:
382,81,48603,6,0,B|357:68|357:68|296:121|200:121,1,180.000006866455,0|0,1:0|0:0,0:0:0:0:
153,183,48930,1,8,0:0:0:0:
153,183,49094,2,0,P|155:220|168:247,1,60.0000022888184
306,369,49258,1,0,1:0:0:0:
136,383,49422,1,0,0:0:0:0:
136,383,49503,1,0,0:0:0:0:
136,383,49585,1,8,0:0:0:0:
307,327,49749,1,2,0:0:0:0:
127,332,49914,2,0,B|62:311|127:196|44:182,1,180.000006866455,0|0,1:0|0:0,0:0:0:0:
0,120,50242,6,0,P|19:83|106:87,1,120.000004577637,8|0,0:0|0:0,0:0:0:0:
160,16,50488,1,0,0:0:0:0:
160,16,50570,2,0,P|197:35|193:122,1,120.000004577637,0|0,1:0|0:0,0:0:0:0:
256,192,50816,1,0,0:0:0:0:
256,192,50898,2,0,P|237:229|150:225,1,120.000004577637,8|2,0:0|0:0,0:0:0:0:
306,111,51226,5,0,1:0:0:0:
491,239,51472,1,0,0:0:0:0:
491,239,51553,1,8,0:0:0:0:
444,383,51717,1,0,0:0:0:0:
444,383,51799,1,0,0:0:0:0:
444,383,51881,5,0,1:0:0:0:
491,239,52045,1,0,0:0:0:0:
423,365,52209,1,8,0:0:0:0:
395,248,52373,1,0,0:0:0:0:
376,166,52537,1,2,0:0:0:0:
376,166,53193,6,0,B|353:150|353:150|322:154,1,60.0000022888184,0|0,1:0|0:0,0:0:0:0:
376,166,53521,2,0,B|353:150|353:150|322:154,1,60.0000022888184,0|0,1:0|0:0,0:0:0:0:
41,82,53849,6,0,L|24:231,1,143.999995605469,0|0,1:0|0:0,0:0:0:0:
100,233,54176,2,0,L|111:138,1,95.9999970703126,8|0,0:0|0:0,0:0:0:0:
111,137,54421,1,0,0:0:0:0:
111,137,54505,1,0,1:0:0:0:
129,0,54669,1,0,0:0:0:0:
129,0,54750,1,0,0:0:0:0:
129,0,54833,1,8,0:0:0:0:
242,88,54997,1,2,0:0:0:0:
138,167,55161,6,0,L|126:280,1,95.9999970703126,0|0,1:0|0:0,0:0:0:0:
127,262,55407,1,0,0:0:0:0:
127,262,55488,1,8,0:0:0:0:
80,336,55653,1,0,0:0:0:0:
272,269,55817,2,0,L|385:281,1,95.9999970703126,0|0,1:0|0:0,0:0:0:0:
367,279,56062,1,0,0:0:0:0:
367,279,56143,1,8,0:0:0:0:
315,362,56308,1,2,0:0:0:0:
315,362,57456,6,0,P|364:332|413:326,2,95.9999970703126,8|0|0,0:0|0:0|1:0,0:0:0:0:
315,362,58030,1,0,0:0:0:0:
315,362,58111,1,8,0:0:0:0:
0,0,58439,2,0,P|46:15|99:50,1,95.9999970703126,0|0,1:0|0:0,0:0:0:0:
64,128,58686,1,0,0:0:0:0:
64,128,58767,2,0,P|110:143|98:184,1,95.9999970703126,8|0,0:0|0:0,0:0:0:0:
43,263,59012,1,0,0:0:0:0:
43,263,59095,6,0,L|31:376,1,95.9999970703126,0|0,1:0|0:0,0:0:0:0:
116,370,59341,1,0,0:0:0:0:
116,370,59423,2,0,L|128:257,1,95.9999970703126,8|0,0:0|0:0,0:0:0:0:
126,274,59668,1,0,0:0:0:0:
480,336,60407,6,0,P|496:216|504:186,1,143.999995605469,0|0,1:0|0:0,0:0:0:0:
501,193,60735,2,0,P|450:178|407:176,1,95.9999970703126,8|0,0:0|0:0,0:0:0:0:
452,38,61063,1,0,1:0:0:0:
368,256,61226,1,0,0:0:0:0:
368,256,61308,1,0,0:0:0:0:
368,256,61389,1,8,0:0:0:0:
304,192,61554,1,2,0:0:0:0:
256,352,61718,6,0,B|197:319|164:353|91:304,1,143.999995605469,0|0,1:0|0:0,0:0:0:0:
31,356,62046,2,0,P|77:346|117:319,1,95.9999970703126,8|0,0:0|0:0,0:0:0:0:
176,192,62374,2,0,P|146:143|140:94,1,95.9999970703126,0|0,1:0|0:0,0:0:0:0:
17,177,62620,1,0,0:0:0:0:
17,177,62702,2,0,P|47:128|53:79,1,95.9999970703126,8|0,0:0|0:0,0:0:0:0:
110,0,63029,1,0,1:0:0:0:
358,12,63276,1,0,0:0:0:0:
358,12,63357,6,0,P|423:32|477:76,2,120.000004577637,8|2|8,0:0|0:0|0:0,0:0:0:0:
279,86,64177,6,2,B|317:109|229:185|341:182|322:233,1,160,2|4,0:0|0:0,0:0:0:0:
253,221,64505,2,0,B|230:206|281:161|216:163|228:133,2,95.9999970703126,2|8|0,0:0|0:0|0:0,0:0:0:0:
224,384,65161,1,2,0:0:0:0:
157,316,65325,1,8,0:0:0:0:
157,316,65489,2,0,P|80:322|-6:344,2,160,2|2|2,0:0|0:0|0:0,0:0:0:0:
157,316,66636,1,8,0:0:0:0:
157,316,66799,1,0,0:0:0:0:
240,228,66964,6,0,P|260:194|264:148,1,80,2|0,0:0|0:0,0:0:0:0:
184,127,67292,2,0,P|164:161|160:207,1,80,8|0,0:0|0:0,0:0:0:0:
383,291,67620,2,0,P|423:267|478:262,1,95.9999970703126,2|0,0:0|0:0,0:0:0:0:
502,356,67948,2,0,P|463:379|408:384,1,95.9999970703126,8|0,0:0|0:0,0:0:0:0:
368,96,68276,5,2,0:0:0:0:
368,96,68439,1,0,0:0:0:0:
336,16,68767,1,2,0:0:0:0:
336,16,68931,2,0,P|267:-5|193:2,1,143.999995605469,2|0,0:0|0:0,0:0:0:0:
196,1,69259,1,8,0:0:0:0:
144,128,69422,6,0,B|182:151|94:227|206:224|187:275,1,160,2|4,0:0|0:0,0:0:0:0:
118,263,69750,2,0,B|95:248|146:203|81:205|93:175,2,95.9999970703126,2|8|2,0:0|0:0|0:0,0:0:0:0:
288,384,70406,1,2,0:0:0:0:
355,316,70570,1,8,0:0:0:0:
355,316,70734,2,0,P|432:322|518:344,1,160,2|2,0:0|0:0,0:0:0:0:
256,192,71226,1,8,0:0:0:0:
256,192,71390,2,0,P|179:198|93:220,1,160,2|2,0:0|0:0,0:0:0:0:
68,317,71882,1,8,0:0:0:0:
68,317,72045,1,0,0:0:0:0:
256,384,72210,5,2,0:0:0:0:
432,331,72373,1,0,0:0:0:0:
502,384,72537,5,8,0:0:0:0:
449,207,72700,1,0,0:0:0:0:
502,137,72865,5,2,0:0:0:0:
326,190,73028,1,0,0:0:0:0:
256,137,73192,5,8,0:0:0:0:
308,313,73357,1,0,0:0:0:0:
400,80,73521,6,0,L|407:0,1,80,2|2,0:0|0:0,0:0:0:0:
16,112,74177,2,0,P|-12:185|58:170,1,160,2|2,0:0|0:0,0:0:0:0:
44,188,74833,6,0,B|92:157|104:200|163:174,1,120.000004577637,4|0,1:0|0:0,0:0:0:0:
220,250,75079,1,0,0:0:0:0:
220,250,75161,2,0,P|230:282|224:315,3,60.0000022888184,8|0|0|0,0:0|0:0|0:0|0:0,0:0:0:0:
156,366,75489,1,0,1:0:0:0:
1,281,75653,2,0,P|41:288|68:299,1,60.0000022888184
156,366,75817,1,8,0:0:0:0:
13,370,75980,1,2,0:0:0:0:
220,250,76144,6,0,B|268:219|280:262|339:236,1,120.000004577637,0|0,1:0|0:0,0:0:0:0:
425,211,76390,1,0,0:0:0:0:
425,211,76472,2,0,P|435:179|429:146,3,60.0000022888184,8|0|0|0,0:0|0:0|0:0|0:0,0:0:0:0:
380,77,76800,1,0,1:0:0:0:
204,35,76964,2,0,P|232:25|262:21,1,60.0000022888184
464,0,77128,1,8,0:0:0:0:
380,77,77291,1,2,0:0:0:0:
112,16,77456,6,0,B|99:41|99:41|152:102|152:198,1,180.000006866455,0|0,1:0|0:0,0:0:0:0:
61,196,77784,1,8,0:0:0:0:
61,196,77866,1,0,0:0:0:0:
61,196,77948,2,0,P|63:233|76:260,1,60.0000022888184
27,333,78112,5,0,1:0:0:0:
230,246,78276,1,0,0:0:0:0:
230,246,78357,1,0,0:0:0:0:
230,246,78439,1,8,0:0:0:0:
41,384,78603,1,2,0:0:0:0:
244,300,78767,2,0,B|305:271|336:400|406:353,1,180.000006866455,0|0,1:0|0:0,0:0:0:0:
500,377,79095,2,0,P|472:346|389:369,1,120.000004577637,8|0,0:0|0:0,0:0:0:0:
512,192,79423,6,0,B|467:203|393:206,1,120.000004577637,0|0,1:0|0:0,0:0:0:0:
364,124,79669,1,0,0:0:0:0:
364,123,79750,2,0,P|333:53|283:110,1,180.000006866455,8|0,0:0|0:0,0:0:0:0:
222,214,80078,2,0,P|173:299|129:211,1,240,0|0,1:0|0:0,0:0:0:0:
39,192,80406,2,0,P|29:224|35:257,3,60.0000022888184,8|0|0|0,0:0|0:0|0:0|0:0,0:0:0:0:
69,334,80735,1,0,1:0:0:0:
189,127,80899,1,0,0:0:0:0:
189,127,80980,1,0,0:0:0:0:
189,127,81063,1,8,0:0:0:0:
112,64,81226,1,2,0:0:0:0:
304,16,81390,6,0,B|352:-15|364:28|423:2,1,120.000004577637,0|0,1:0|0:0,0:0:0:0:
487,71,81636,1,0,0:0:0:0:
487,71,81718,2,0,P|497:103|491:136,3,60.0000022888184,8|0|0|0,0:0|0:0|0:0|0:0,0:0:0:0:
436,199,82046,1,0,1:0:0:0:
296,102,82210,1,0,0:0:0:0:
296,102,82291,1,0,0:0:0:0:
296,102,82374,2,0,P|238:131|183:114,1,120.000004577637,8|2,0:0|0:0,0:0:0:0:
348,200,82702,6,0,B|323:187|323:187|263:226|198:207|198:207|169:234,1,180.000006866455,0|0,1:0|0:0,0:0:0:0:
100,212,83030,1,8,0:0:0:0:
100,212,83112,1,0,0:0:0:0:
100,212,83194,2,0,P|102:249|115:276,1,60.0000022888184
224,375,83357,5,0,1:0:0:0:
440,326,83521,1,0,0:0:0:0:
440,326,83602,1,0,0:0:0:0:
440,326,83684,1,8,0:0:0:0:
206,326,83848,1,2,0:0:0:0:
419,274,84012,6,0,B|485:261|434:139|518:135,1,180.000006866455,2|0,0:3|0:0,0:0:0:0:
504,270,84340,2,0,B|440:265|476:138|400:144,1,180.000006866455,8|0,0:0|0:0,0:0:0:0:
419,274,84668,2,0,B|485:261|434:139|518:135,1,180.000006866455,2|0,0:0|0:0,0:0:0:0:
511,135,84914,1,0,0:0:0:0:
511,135,84996,1,12,0:0:0:0:
320,224,85160,6,0,B|280:244|262:129|205:226|172:183,1,160,2|4,0:0|0:0,0:0:0:0:
144,80,86144,1,2,0:0:0:0:
211,12,86308,1,8,0:0:0:0:
211,12,86472,2,0,P|288:18|374:40,2,160,2|2|2,0:0|0:0|0:0,0:0:0:0:
444,317,87619,1,8,0:0:0:0:
444,317,87782,1,0,0:0:0:0:
371,208,87947,5,2,0:0:0:0:
437,169,88110,1,0,0:0:0:0:
278,104,88275,1,8,0:0:0:0:
308,34,88438,1,0,0:0:0:0:
256,272,88603,5,2,0:0:0:0:
184,241,88766,1,0,0:0:0:0:
0,192,88931,1,8,0:0:0:0:
73,163,89094,1,0,0:0:0:0:
0,0,89258,5,4,0:0:0:0:
256,192,89340,12,0,90898,0:0:0:0:
