osu file format v14

[General]
AudioFilename: audio.mp3
AudioLeadIn: 0
PreviewTime: 27291
Countdown: 0
SampleSet: Soft
StackLeniency: 0.5
Mode: 0
LetterboxInBreaks: 0
EpilepsyWarning: 1
WidescreenStoryboard: 1

[Editor]
Bookmarks: 36062
DistanceSpacing: 1.5
BeatDivisor: 4
GridSize: 16
TimelineZoom: 3.899997

[Metadata]
Title:Acapulco (Sped Up Ver.)
TitleUnicode:Acapulco (Sped Up Ver.)
Artist:Jason Derulo
ArtistUnicode:Jason Derulo
Creator:AJT
Version:Hard
Source:
Tags:english dance electronic nightcore beach pop apo11o apollo mrowswares hhjkl wetdog123 ziin tachibana_ euryalle sheesh
BeatmapID:3473538
BeatmapSetID:1699922

[Difficulty]
HPDrainRate:4
CircleSize:3.5
OverallDifficulty:6
ApproachRate:8
SliderMultiplier:1.4
SliderTickRate:1

[Events]
//Background and Video events
0,0,"bg.jpg",0,0
//Break Periods
//Storyboard Layer 0 (Background)
//Storyboard Layer 1 (Fail)
//Storyboard Layer 2 (Pass)
//Storyboard Layer 3 (Foreground)
Sprite,Foreground,Centre,"sb\dot.png",0,0 C,0,43357,,255,255,255 F,1,43357,43957,1,0 S,1,43357,43957,1,0.2 MX,1,43357,43957,561,588 MY,1,43357,43957,242,280
Sprite,Foreground,Centre,"sb\dot.png",0,0 C,0,43357,,255,255,255 F,1,43357,43957,1,0 S,1,43357,43957,1,0.2 MX,1,43357,43957,561,593 MY,1,43357,43957,242,248
Sprite,Foreground,Centre,"sb\dot.png",0,0 C,0,43357,,255,255,255 F,1,43357,43957,1,0 S,1,43357,43957,1,0.2 MX,1,43357,43957,561,525 MY,1,43357,43957,242,249
Sprite,Foreground,Centre,"sb\dot.png",0,0 C,0,43357,,255,255,255 F,1,43357,43957,1,0 S,1,43357,43957,1,0.2 MX,1,43357,43957,561,609 MY,1,43357,43957,242,235
Sprite,Foreground,Centre,"sb\dot.png",0,0 C,0,43357,,255,255,255 F,1,43357,43957,1,0 S,1,43357,43957,1,0.2 MX,1,43357,43957,561,618 MY,1,43357,43957,242,214
Sprite,Foreground,Centre,"sb\dot.png",0,0 C,0,43357,,255,255,255 F,1,43357,43957,1,0 S,1,43357,43957,1,0.2 MX,1,43357,43957,561,536 MY,1,43357,43957,242,238
Sprite,Foreground,Centre,"sb\dot.png",0,0 C,0,43357,,255,255,255 F,1,43357,43957,1,0 S,1,43357,43957,1,0.2 MX,1,43357,43957,561,576 MY,1,43357,43957,242,238
Sprite,Foreground,Centre,"sb\dot.png",0,0 C,0,43357,,255,255,255 F,1,43357,43957,1,0 S,1,43357,43957,1,0.2 MX,1,43357,43957,561,618 MY,1,43357,43957,242,185
Sprite,Foreground,Centre,"sb\dot.png",0,0 C,0,43357,,255,255,255 F,1,43357,43957,1,0 S,1,43357,43957,1,0.2 MX,1,43357,43957,561,604 MY,1,43357,43957,242,301
Sprite,Foreground,Centre,"sb\dot.png",0,0 C,0,43357,,255,255,255 F,1,43357,43957,1,0 S,1,43357,43957,1,0.2 MX,1,43357,43957,561,582 MY,1,43357,43957,242,219
Sprite,Foreground,Centre,"sb\dot.png",0,0 C,0,43357,,255,255,255 F,1,43357,43957,1,0 S,1,43357,43957,1,0.2 MX,1,43357,43957,561,599 MY,1,43357,43957,242,283
Sprite,Foreground,Centre,"sb\dot.png",0,0 C,0,43357,,255,255,255 F,1,43357,43957,1,0 S,1,43357,43957,1,0.2 MX,1,43357,43957,561,620 MY,1,43357,43957,242,185
Sprite,Foreground,Centre,"sb\dot.png",0,0 C,0,43357,,255,255,255 F,1,43357,43957,1,0 S,1,43357,43957,1,0.2 MX,1,43357,43957,561,584 MY,1,43357,43957,242,245
Sprite,Foreground,Centre,"sb\dot.png",0,0 C,0,43357,,255,255,255 F,1,43357,43957,1,0 S,1,43357,43957,1,0.2 MX,1,43357,43957,561,613 MY,1,43357,43957,242,264
Sprite,Foreground,Centre,"sb\dot.png",0,0 C,0,43357,,255,255,255 F,1,43357,43957,1,0 S,1,43357,43957,1,0.2 MX,1,43357,43957,561,566 MY,1,43357,43957,242,191
Sprite,Foreground,Centre,"sb\dot.png",0,0 C,0,43357,,255,255,255 F,1,43357,43957,1,0 S,1,43357,43957,1,0.2 MX,1,43357,43957,561,523 MY,1,43357,43957,242,236
Sprite,Foreground,Centre,"sb\dot.png",0,0 C,0,43357,,255,255,255 F,1,43357,43957,1,0 S,1,43357,43957,1,0.2 MX,1,43357,43957,561,536 MY,1,43357,43957,242,300
Sprite,Foreground,Centre,"sb\dot.png",0,0 C,0,43357,,255,255,255 F,1,43357,43957,1,0 S,1,43357,43957,1,0.2 MX,1,43357,43957,561,578 MY,1,43357,43957,242,273
Sprite,Foreground,Centre,"sb\dot.png",0,0 C,0,43357,,255,255,255 F,1,43357,43957,1,0 S,1,43357,43957,1,0.2 MX,1,43357,43957,561,504 MY,1,43357,43957,242,227
Sprite,Foreground,Centre,"sb\dot.png",0,0 C,0,43357,,255,255,255 F,1,43357,43957,1,0 S,1,43357,43957,1,0.2 MX,1,43357,43957,561,542 MY,1,43357,43957,242,296
Sprite,Foreground,Centre,"sb\dot.png",0,0 C,0,43357,,255,255,255 F,1,43357,43957,1,0 S,1,43357,43957,1,0.2 MX,1,43357,43957,561 MY,1,43357,43957,242,267
Sprite,Foreground,Centre,"sb\dot.png",0,0 C,0,43357,,255,255,255 F,1,43357,43957,1,0 S,1,43357,43957,1,0.2 MX,1,43357,43957,561,515 MY,1,43357,43957,242,214
Sprite,Foreground,Centre,"sb\dot.png",0,0 C,0,43357,,255,255,255 F,1,43357,43957,1,0 S,1,43357,43957,1,0.2 MX,1,43357,43957,561,609 MY,1,43357,43957,242,277
Sprite,Foreground,Centre,"sb\dot.png",0,0 C,0,43357,,255,255,255 F,1,43357,43957,1,0 S,1,43357,43957,1,0.2 MX,1,43357,43957,561,541 MY,1,43357,43957,242,236
Sprite,Foreground,Centre,"sb\dot.png",0,0 C,0,43357,,255,255,255 F,1,43357,43957,1,0 S,1,43357,43957,1,0.2 MX,1,43357,43957,561,518 MY,1,43357,43957,242,208
Sprite,Foreground,Centre,"sb\dot.png",0,0 C,0,43357,,255,255,255 F,1,43357,43957,1,0 S,1,43357,43957,1,0.2 MX,1,43357,43957,561,550 MY,1,43357,43957,242,268
Sprite,Foreground,Centre,"sb\dot.png",0,0 C,0,43357,,255,255,255 F,1,43357,43957,1,0 S,1,43357,43957,1,0.2 MX,1,43357,43957,561,575 MY,1,43357,43957,242,240
Sprite,Foreground,Centre,"sb\dot.png",0,0 C,0,43357,,255,255,255 F,1,43357,43957,1,0 S,1,43357,43957,1,0.2 MX,1,43357,43957,561,524 MY,1,43357,43957,242,287
Sprite,Foreground,Centre,"sb\dot.png",0,0 C,0,43357,,255,255,255 F,1,43357,43957,1,0 S,1,43357,43957,1,0.2 MX,1,43357,43957,561,600 MY,1,43357,43957,242,270
Sprite,Foreground,Centre,"sb\dot.png",0,0 C,0,43357,,255,255,255 F,1,43357,43957,1,0 S,1,43357,43957,1,0.2 MX,1,43357,43957,561,603 MY,1,43357,43957,242,263
Sprite,Foreground,Centre,"sb\dot.png",0,0 C,0,43685,,255,255,255 F,1,43685,44285,1,0 S,1,43685,44285,1,0.2 MX,1,43685,44285,547,561 MY,1,43685,44285,397,363
Sprite,Foreground,Centre,"sb\dot.png",0,0 C,0,43685,,255,255,255 F,1,43685,44285,1,0 S,1,43685,44285,1,0.2 MX,1,43685,44285,547,594 MY,1,43685,44285,397,444
Sprite,Foreground,Centre,"sb\dot.png",0,0 C,0,43685,,255,255,255 F,1,43685,44285,1,0 S,1,43685,44285,1,0.2 MX,1,43685,44285,547,497 MY,1,43685,44285,397,437
Sprite,Foreground,Centre,"sb\dot.png",0,0 C,0,43685,,255,255,255 F,1,43685,44285,1,0 S,1,43685,44285,1,0.2 MX,1,43685,44285,547,507 MY,1,43685,44285,397,414
Sprite,Foreground,Centre,"sb\dot.png",0,0 C,0,43685,,255,255,255 F,1,43685,44285,1,0 S,1,43685,44285,1,0.2 MX,1,43685,44285,547,586 MY,1,43685,44285,397,363
Sprite,Foreground,Centre,"sb\dot.png",0,0 C,0,43685,,255,255,255 F,1,43685,44285,1,0 S,1,43685,44285,1,0.2 MX,1,43685,44285,547,606 MY,1,43685,44285,397,394
Sprite,Foreground,Centre,"sb\dot.png",0,0 C,0,43685,,255,255,255 F,1,43685,44285,1,0 S,1,43685,44285,1,0.2 MX,1,43685,44285,547,565 MY,1,43685,44285,397,423
Sprite,Foreground,Centre,"sb\dot.png",0,0 C,0,43685,,255,255,255 F,1,43685,44285,1,0 S,1,43685,44285,1,0.2 MX,1,43685,44285,547,584 MY,1,43685,44285,397,349
Sprite,Foreground,Centre,"sb\dot.png",0,0 C,0,43685,,255,255,255 F,1,43685,44285,1,0 S,1,43685,44285,1,0.2 MX,1,43685,44285,547,574 MY,1,43685,44285,397,423
Sprite,Foreground,Centre,"sb\dot.png",0,0 C,0,43685,,255,255,255 F,1,43685,44285,1,0 S,1,43685,44285,1,0.2 MX,1,43685,44285,547,502 MY,1,43685,44285,397,445
Sprite,Foreground,Centre,"sb\dot.png",0,0 C,0,43685,,255,255,255 F,1,43685,44285,1,0 S,1,43685,44285,1,0.2 MX,1,43685,44285,547,509 MY,1,43685,44285,397,394
Sprite,Foreground,Centre,"sb\dot.png",0,0 C,0,43685,,255,255,255 F,1,43685,44285,1,0 S,1,43685,44285,1,0.2 MX,1,43685,44285,547,551 MY,1,43685,44285,397,376
Sprite,Foreground,Centre,"sb\dot.png",0,0 C,0,43685,,255,255,255 F,1,43685,44285,1,0 S,1,43685,44285,1,0.2 MX,1,43685,44285,547,567 MY,1,43685,44285,397,393
Sprite,Foreground,Centre,"sb\dot.png",0,0 C,0,43685,,255,255,255 F,1,43685,44285,1,0 S,1,43685,44285,1,0.2 MX,1,43685,44285,547,587 MY,1,43685,44285,397,434
Sprite,Foreground,Centre,"sb\dot.png",0,0 C,0,43685,,255,255,255 F,1,43685,44285,1,0 S,1,43685,44285,1,0.2 MX,1,43685,44285,547,582 MY,1,43685,44285,397,428
Sprite,Foreground,Centre,"sb\dot.png",0,0 C,0,43685,,255,255,255 F,1,43685,44285,1,0 S,1,43685,44285,1,0.2 MX,1,43685,44285,547,599 MY,1,43685,44285,397,372
Sprite,Foreground,Centre,"sb\dot.png",0,0 C,0,43685,,255,255,255 F,1,43685,44285,1,0 S,1,43685,44285,1,0.2 MX,1,43685,44285,547,549 MY,1,43685,44285,397,416
Sprite,Foreground,Centre,"sb\dot.png",0,0 C,0,43685,,255,255,255 F,1,43685,44285,1,0 S,1,43685,44285,1,0.2 MX,1,43685,44285,547,526 MY,1,43685,44285,397,371
Sprite,Foreground,Centre,"sb\dot.png",0,0 C,0,43685,,255,255,255 F,1,43685,44285,1,0 S,1,43685,44285,1,0.2 MX,1,43685,44285,547,585 MY,1,43685,44285,397,363
Sprite,Foreground,Centre,"sb\dot.png",0,0 C,0,43685,,255,255,255 F,1,43685,44285,1,0 S,1,43685,44285,1,0.2 MX,1,43685,44285,547,509 MY,1,43685,44285,397,345
Sprite,Foreground,Centre,"sb\dot.png",0,0 C,0,43685,,255,255,255 F,1,43685,44285,1,0 S,1,43685,44285,1,0.2 MX,1,43685,44285,547,561 MY,1,43685,44285,397,420
Sprite,Foreground,Centre,"sb\dot.png",0,0 C,0,43685,,255,255,255 F,1,43685,44285,1,0 S,1,43685,44285,1,0.2 MX,1,43685,44285,547,562 MY,1,43685,44285,397,448
Sprite,Foreground,Centre,"sb\dot.png",0,0 C,0,43685,,255,255,255 F,1,43685,44285,1,0 S,1,43685,44285,1,0.2 MX,1,43685,44285,547,513 MY,1,43685,44285,397,448
Sprite,Foreground,Centre,"sb\dot.png",0,0 C,0,43685,,255,255,255 F,1,43685,44285,1,0 S,1,43685,44285,1,0.2 MX,1,43685,44285,547,494 MY,1,43685,44285,397,445
Sprite,Foreground,Centre,"sb\dot.png",0,0 C,0,43685,,255,255,255 F,1,43685,44285,1,0 S,1,43685,44285,1,0.2 MX,1,43685,44285,547,568 MY,1,43685,44285,397,348
Sprite,Foreground,Centre,"sb\dot.png",0,0 C,0,43685,,255,255,255 F,1,43685,44285,1,0 S,1,43685,44285,1,0.2 MX,1,43685,44285,547,504 MY,1,43685,44285,397,349
Sprite,Foreground,Centre,"sb\dot.png",0,0 C,0,43685,,255,255,255 F,1,43685,44285,1,0 S,1,43685,44285,1,0.2 MX,1,43685,44285,547,560 MY,1,43685,44285,397,451
Sprite,Foreground,Centre,"sb\dot.png",0,0 C,0,43685,,255,255,255 F,1,43685,44285,1,0 S,1,43685,44285,1,0.2 MX,1,43685,44285,547,545 MY,1,43685,44285,397,354
Sprite,Foreground,Centre,"sb\dot.png",0,0 C,0,43685,,255,255,255 F,1,43685,44285,1,0 S,1,43685,44285,1,0.2 MX,1,43685,44285,547,568 MY,1,43685,44285,397,405
Sprite,Foreground,Centre,"sb\dot.png",0,0 C,0,43685,,255,255,255 F,1,43685,44285,1,0 S,1,43685,44285,1,0.2 MX,1,43685,44285,547,514 MY,1,43685,44285,397,411
Sprite,Foreground,Centre,"sb\dot.png",0,0 C,0,44012,,255,255,255 F,1,44012,44612,1,0 S,1,44012,44612,1,0.2 MX,1,44012,44612,412,352 MY,1,44012,44612,375,358
Sprite,Foreground,Centre,"sb\dot.png",0,0 C,0,44012,,255,255,255 F,1,44012,44612,1,0 S,1,44012,44612,1,0.2 MX,1,44012,44612,412,454 MY,1,44012,44612,375,322
Sprite,Foreground,Centre,"sb\dot.png",0,0 C,0,44012,,255,255,255 F,1,44012,44612,1,0 S,1,44012,44612,1,0.2 MX,1,44012,44612,412,385 MY,1,44012,44612,375,399
Sprite,Foreground,Centre,"sb\dot.png",0,0 C,0,44012,,255,255,255 F,1,44012,44612,1,0 S,1,44012,44612,1,0.2 MX,1,44012,44612,412,467 MY,1,44012,44612,375,433
Sprite,Foreground,Centre,"sb\dot.png",0,0 C,0,44012,,255,255,255 F,1,44012,44612,1,0 S,1,44012,44612,1,0.2 MX,1,44012,44612,412,398 MY,1,44012,44612,375,377
Sprite,Foreground,Centre,"sb\dot.png",0,0 C,0,44012,,255,255,255 F,1,44012,44612,1,0 S,1,44012,44612,1,0.2 MX,1,44012,44612,412,385 MY,1,44012,44612,375
Sprite,Foreground,Centre,"sb\dot.png",0,0 C,0,44012,,255,255,255 F,1,44012,44612,1,0 S,1,44012,44612,1,0.2 MX,1,44012,44612,412,415 MY,1,44012,44612,375,321
Sprite,Foreground,Centre,"sb\dot.png",0,0 C,0,44012,,255,255,255 F,1,44012,44612,1,0 S,1,44012,44612,1,0.2 MX,1,44012,44612,412,385 MY,1,44012,44612,375,374
Sprite,Foreground,Centre,"sb\dot.png",0,0 C,0,44012,,255,255,255 F,1,44012,44612,1,0 S,1,44012,44612,1,0.2 MX,1,44012,44612,412,453 MY,1,44012,44612,375,388
Sprite,Foreground,Centre,"sb\dot.png",0,0 C,0,44012,,255,255,255 F,1,44012,44612,1,0 S,1,44012,44612,1,0.2 MX,1,44012,44612,412,364 MY,1,44012,44612,375,404
Sprite,Foreground,Centre,"sb\dot.png",0,0 C,0,44012,,255,255,255 F,1,44012,44612,1,0 S,1,44012,44612,1,0.2 MX,1,44012,44612,412,400 MY,1,44012,44612,375,427
Sprite,Foreground,Centre,"sb\dot.png",0,0 C,0,44012,,255,255,255 F,1,44012,44612,1,0 S,1,44012,44612,1,0.2 MX,1,44012,44612,412,367 MY,1,44012,44612,375,398
Sprite,Foreground,Centre,"sb\dot.png",0,0 C,0,44012,,255,255,255 F,1,44012,44612,1,0 S,1,44012,44612,1,0.2 MX,1,44012,44612,412,425 MY,1,44012,44612,375,414
Sprite,Foreground,Centre,"sb\dot.png",0,0 C,0,44012,,255,255,255 F,1,44012,44612,1,0 S,1,44012,44612,1,0.2 MX,1,44012,44612,412,434 MY,1,44012,44612,375,383
Sprite,Foreground,Centre,"sb\dot.png",0,0 C,0,44012,,255,255,255 F,1,44012,44612,1,0 S,1,44012,44612,1,0.2 MX,1,44012,44612,412,372 MY,1,44012,44612,375,337
Sprite,Foreground,Centre,"sb\dot.png",0,0 C,0,44012,,255,255,255 F,1,44012,44612,1,0 S,1,44012,44612,1,0.2 MX,1,44012,44612,412,425 MY,1,44012,44612,375,345
Sprite,Foreground,Centre,"sb\dot.png",0,0 C,0,44012,,255,255,255 F,1,44012,44612,1,0 S,1,44012,44612,1,0.2 MX,1,44012,44612,412,471 MY,1,44012,44612,375,383
Sprite,Foreground,Centre,"sb\dot.png",0,0 C,0,44012,,255,255,255 F,1,44012,44612,1,0 S,1,44012,44612,1,0.2 MX,1,44012,44612,412,359 MY,1,44012,44612,375,346
Sprite,Foreground,Centre,"sb\dot.png",0,0 C,0,44012,,255,255,255 F,1,44012,44612,1,0 S,1,44012,44612,1,0.2 MX,1,44012,44612,412,453 MY,1,44012,44612,375,383
Sprite,Foreground,Centre,"sb\dot.png",0,0 C,0,44012,,255,255,255 F,1,44012,44612,1,0 S,1,44012,44612,1,0.2 MX,1,44012,44612,412,429 MY,1,44012,44612,375,376
Sprite,Foreground,Centre,"sb\dot.png",0,0 C,0,44012,,255,255,255 F,1,44012,44612,1,0 S,1,44012,44612,1,0.2 MX,1,44012,44612,412,468 MY,1,44012,44612,375,324
Sprite,Foreground,Centre,"sb\dot.png",0,0 C,0,44012,,255,255,255 F,1,44012,44612,1,0 S,1,44012,44612,1,0.2 MX,1,44012,44612,412,413 MY,1,44012,44612,375,333
Sprite,Foreground,Centre,"sb\dot.png",0,0 C,0,44012,,255,255,255 F,1,44012,44612,1,0 S,1,44012,44612,1,0.2 MX,1,44012,44612,412,449 MY,1,44012,44612,375,392
Sprite,Foreground,Centre,"sb\dot.png",0,0 C,0,44012,,255,255,255 F,1,44012,44612,1,0 S,1,44012,44612,1,0.2 MX,1,44012,44612,412,421 MY,1,44012,44612,375,381
Sprite,Foreground,Centre,"sb\dot.png",0,0 C,0,44012,,255,255,255 F,1,44012,44612,1,0 S,1,44012,44612,1,0.2 MX,1,44012,44612,412,432 MY,1,44012,44612,375,434
Sprite,Foreground,Centre,"sb\dot.png",0,0 C,0,44012,,255,255,255 F,1,44012,44612,1,0 S,1,44012,44612,1,0.2 MX,1,44012,44612,412,388 MY,1,44012,44612,375,322
Sprite,Foreground,Centre,"sb\dot.png",0,0 C,0,44012,,255,255,255 F,1,44012,44612,1,0 S,1,44012,44612,1,0.2 MX,1,44012,44612,412,407 MY,1,44012,44612,375,372
Sprite,Foreground,Centre,"sb\dot.png",0,0 C,0,44012,,255,255,255 F,1,44012,44612,1,0 S,1,44012,44612,1,0.2 MX,1,44012,44612,412,377 MY,1,44012,44612,375,323
Sprite,Foreground,Centre,"sb\dot.png",0,0 C,0,44012,,255,255,255 F,1,44012,44612,1,0 S,1,44012,44612,1,0.2 MX,1,44012,44612,412,379 MY,1,44012,44612,375,333
Sprite,Foreground,Centre,"sb\dot.png",0,0 C,0,44012,,255,255,255 F,1,44012,44612,1,0 S,1,44012,44612,1,0.2 MX,1,44012,44612,412,405 MY,1,44012,44612,375,369
Sprite,Foreground,Centre,"sb\dot.png",0,0 C,0,44176,,255,255,255 F,1,44176,44776,1,0 S,1,44176,44776,1,0.2 MX,1,44176,44776,310,252 MY,1,44176,44776,403,389
Sprite,Foreground,Centre,"sb\dot.png",0,0 C,0,44176,,255,255,255 F,1,44176,44776,1,0 S,1,44176,44776,1,0.2 MX,1,44176,44776,310,347 MY,1,44176,44776,403,367
Sprite,Foreground,Centre,"sb\dot.png",0,0 C,0,44176,,255,255,255 F,1,44176,44776,1,0 S,1,44176,44776,1,0.2 MX,1,44176,44776,310,359 MY,1,44176,44776,403,346
Sprite,Foreground,Centre,"sb\dot.png",0,0 C,0,44176,,255,255,255 F,1,44176,44776,1,0 S,1,44176,44776,1,0.2 MX,1,44176,44776,310,311 MY,1,44176,44776,403,458
Sprite,Foreground,Centre,"sb\dot.png",0,0 C,0,44176,,255,255,255 F,1,44176,44776,1,0 S,1,44176,44776,1,0.2 MX,1,44176,44776,310,369 MY,1,44176,44776,403,345
Sprite,Foreground,Centre,"sb\dot.png",0,0 C,0,44176,,255,255,255 F,1,44176,44776,1,0 S,1,44176,44776,1,0.2 MX,1,44176,44776,310,328 MY,1,44176,44776,403,376
Sprite,Foreground,Centre,"sb\dot.png",0,0 C,0,44176,,255,255,255 F,1,44176,44776,1,0 S,1,44176,44776,1,0.2 MX,1,44176,44776,310,366 MY,1,44176,44776,403,413
Sprite,Foreground,Centre,"sb\dot.png",0,0 C,0,44176,,255,255,255 F,1,44176,44776,1,0 S,1,44176,44776,1,0.2 MX,1,44176,44776,310,342 MY,1,44176,44776,403,381
Sprite,Foreground,Centre,"sb\dot.png",0,0 C,0,44176,,255,255,255 F,1,44176,44776,1,0 S,1,44176,44776,1,0.2 MX,1,44176,44776,310,300 MY,1,44176,44776,403,459
Sprite,Foreground,Centre,"sb\dot.png",0,0 C,0,44176,,255,255,255 F,1,44176,44776,1,0 S,1,44176,44776,1,0.2 MX,1,44176,44776,310,356 MY,1,44176,44776,403,459
Sprite,Foreground,Centre,"sb\dot.png",0,0 C,0,44176,,255,255,255 F,1,44176,44776,1,0 S,1,44176,44776,1,0.2 MX,1,44176,44776,310,280 MY,1,44176,44776,403,358
Sprite,Foreground,Centre,"sb\dot.png",0,0 C,0,44176,,255,255,255 F,1,44176,44776,1,0 S,1,44176,44776,1,0.2 MX,1,44176,44776,310,357 MY,1,44176,44776,403,364
Sprite,Foreground,Centre,"sb\dot.png",0,0 C,0,44176,,255,255,255 F,1,44176,44776,1,0 S,1,44176,44776,1,0.2 MX,1,44176,44776,310,355 MY,1,44176,44776,403,408
Sprite,Foreground,Centre,"sb\dot.png",0,0 C,0,44176,,255,255,255 F,1,44176,44776,1,0 S,1,44176,44776,1,0.2 MX,1,44176,44776,310,344 MY,1,44176,44776,403,404
Sprite,Foreground,Centre,"sb\dot.png",0,0 C,0,44176,,255,255,255 F,1,44176,44776,1,0 S,1,44176,44776,1,0.2 MX,1,44176,44776,310,292 MY,1,44176,44776,403,462
Sprite,Foreground,Centre,"sb\dot.png",0,0 C,0,44176,,255,255,255 F,1,44176,44776,1,0 S,1,44176,44776,1,0.2 MX,1,44176,44776,310,254 MY,1,44176,44776,403,426
Sprite,Foreground,Centre,"sb\dot.png",0,0 C,0,44176,,255,255,255 F,1,44176,44776,1,0 S,1,44176,44776,1,0.2 MX,1,44176,44776,310,264 MY,1,44176,44776,403,366
Sprite,Foreground,Centre,"sb\dot.png",0,0 C,0,44176,,255,255,255 F,1,44176,44776,1,0 S,1,44176,44776,1,0.2 MX,1,44176,44776,310,309 MY,1,44176,44776,403,412
Sprite,Foreground,Centre,"sb\dot.png",0,0 C,0,44176,,255,255,255 F,1,44176,44776,1,0 S,1,44176,44776,1,0.2 MX,1,44176,44776,310,281 MY,1,44176,44776,403,380
Sprite,Foreground,Centre,"sb\dot.png",0,0 C,0,44176,,255,255,255 F,1,44176,44776,1,0 S,1,44176,44776,1,0.2 MX,1,44176,44776,310,279 MY,1,44176,44776,403,437
Sprite,Foreground,Centre,"sb\dot.png",0,0 C,0,44176,,255,255,255 F,1,44176,44776,1,0 S,1,44176,44776,1,0.2 MX,1,44176,44776,310,265 MY,1,44176,44776,403,416
Sprite,Foreground,Centre,"sb\dot.png",0,0 C,0,44176,,255,255,255 F,1,44176,44776,1,0 S,1,44176,44776,1,0.2 MX,1,44176,44776,310,317 MY,1,44176,44776,403,421
Sprite,Foreground,Centre,"sb\dot.png",0,0 C,0,44176,,255,255,255 F,1,44176,44776,1,0 S,1,44176,44776,1,0.2 MX,1,44176,44776,310,290 MY,1,44176,44776,403,345
Sprite,Foreground,Centre,"sb\dot.png",0,0 C,0,44176,,255,255,255 F,1,44176,44776,1,0 S,1,44176,44776,1,0.2 MX,1,44176,44776,310,261 MY,1,44176,44776,403,448
Sprite,Foreground,Centre,"sb\dot.png",0,0 C,0,44176,,255,255,255 F,1,44176,44776,1,0 S,1,44176,44776,1,0.2 MX,1,44176,44776,310,335 MY,1,44176,44776,403,450
Sprite,Foreground,Centre,"sb\dot.png",0,0 C,0,44176,,255,255,255 F,1,44176,44776,1,0 S,1,44176,44776,1,0.2 MX,1,44176,44776,310,328 MY,1,44176,44776,403,373
Sprite,Foreground,Centre,"sb\dot.png",0,0 C,0,44176,,255,255,255 F,1,44176,44776,1,0 S,1,44176,44776,1,0.2 MX,1,44176,44776,310,281 MY,1,44176,44776,403,399
Sprite,Foreground,Centre,"sb\dot.png",0,0 C,0,44176,,255,255,255 F,1,44176,44776,1,0 S,1,44176,44776,1,0.2 MX,1,44176,44776,310,273 MY,1,44176,44776,403,449
Sprite,Foreground,Centre,"sb\dot.png",0,0 C,0,44176,,255,255,255 F,1,44176,44776,1,0 S,1,44176,44776,1,0.2 MX,1,44176,44776,310,308 MY,1,44176,44776,403,419
Sprite,Foreground,Centre,"sb\dot.png",0,0 C,0,44176,,255,255,255 F,1,44176,44776,1,0 S,1,44176,44776,1,0.2 MX,1,44176,44776,310,288 MY,1,44176,44776,403,387
Sprite,Foreground,Centre,"sb\dot.png",0,0 C,0,44504,,255,255,255 F,1,44504,45104,1,0 S,1,44504,45104,1,0.2 MX,1,44504,45104,210,179 MY,1,44504,45104,367,426
Sprite,Foreground,Centre,"sb\dot.png",0,0 C,0,44504,,255,255,255 F,1,44504,45104,1,0 S,1,44504,45104,1,0.2 MX,1,44504,45104,210,223 MY,1,44504,45104,367,307
Sprite,Foreground,Centre,"sb\dot.png",0,0 C,0,44504,,255,255,255 F,1,44504,45104,1,0 S,1,44504,45104,1,0.2 MX,1,44504,45104,210,268 MY,1,44504,45104,367,422
Sprite,Foreground,Centre,"sb\dot.png",0,0 C,0,44504,,255,255,255 F,1,44504,45104,1,0 S,1,44504,45104,1,0.2 MX,1,44504,45104,210,168 MY,1,44504,45104,367,399
Sprite,Foreground,Centre,"sb\dot.png",0,0 C,0,44504,,255,255,255 F,1,44504,45104,1,0 S,1,44504,45104,1,0.2 MX,1,44504,45104,210,160 MY,1,44504,45104,367,329
Sprite,Foreground,Centre,"sb\dot.png",0,0 C,0,44504,,255,255,255 F,1,44504,45104,1,0 S,1,44504,45104,1,0.2 MX,1,44504,45104,210,157 MY,1,44504,45104,367,320
Sprite,Foreground,Centre,"sb\dot.png",0,0 C,0,44504,,255,255,255 F,1,44504,45104,1,0 S,1,44504,45104,1,0.2 MX,1,44504,45104,210,237 MY,1,44504,45104,367,319
Sprite,Foreground,Centre,"sb\dot.png",0,0 C,0,44504,,255,255,255 F,1,44504,45104,1,0 S,1,44504,45104,1,0.2 MX,1,44504,45104,210,250 MY,1,44504,45104,367,384
Sprite,Foreground,Centre,"sb\dot.png",0,0 C,0,44504,,255,255,255 F,1,44504,45104,1,0 S,1,44504,45104,1,0.2 MX,1,44504,45104,210,218 MY,1,44504,45104,367,335
Sprite,Foreground,Centre,"sb\dot.png",0,0 C,0,44504,,255,255,255 F,1,44504,45104,1,0 S,1,44504,45104,1,0.2 MX,1,44504,45104,210,250 MY,1,44504,45104,367,410
Sprite,Foreground,Centre,"sb\dot.png",0,0 C,0,44504,,255,255,255 F,1,44504,45104,1,0 S,1,44504,45104,1,0.2 MX,1,44504,45104,210,203 MY,1,44504,45104,367,415
Sprite,Foreground,Centre,"sb\dot.png",0,0 C,0,44504,,255,255,255 F,1,44504,45104,1,0 S,1,44504,45104,1,0.2 MX,1,44504,45104,210,246 MY,1,44504,45104,367,362
Sprite,Foreground,Centre,"sb\dot.png",0,0 C,0,44504,,255,255,255 F,1,44504,45104,1,0 S,1,44504,45104,1,0.2 MX,1,44504,45104,210,190 MY,1,44504,45104,367,400
Sprite,Foreground,Centre,"sb\dot.png",0,0 C,0,44504,,255,255,255 F,1,44504,45104,1,0 S,1,44504,45104,1,0.2 MX,1,44504,45104,210,201 MY,1,44504,45104,367,384
Sprite,Foreground,Centre,"sb\dot.png",0,0 C,0,44504,,255,255,255 F,1,44504,45104,1,0 S,1,44504,45104,1,0.2 MX,1,44504,45104,210,269 MY,1,44504,45104,367,380
Sprite,Foreground,Centre,"sb\dot.png",0,0 C,0,44504,,255,255,255 F,1,44504,45104,1,0 S,1,44504,45104,1,0.2 MX,1,44504,45104,210,160 MY,1,44504,45104,367,381
Sprite,Foreground,Centre,"sb\dot.png",0,0 C,0,44504,,255,255,255 F,1,44504,45104,1,0 S,1,44504,45104,1,0.2 MX,1,44504,45104,210,268 MY,1,44504,45104,367,411
Sprite,Foreground,Centre,"sb\dot.png",0,0 C,0,44504,,255,255,255 F,1,44504,45104,1,0 S,1,44504,45104,1,0.2 MX,1,44504,45104,210,214 MY,1,44504,45104,367,323
Sprite,Foreground,Centre,"sb\dot.png",0,0 C,0,44504,,255,255,255 F,1,44504,45104,1,0 S,1,44504,45104,1,0.2 MX,1,44504,45104,210,150 MY,1,44504,45104,367,373
Sprite,Foreground,Centre,"sb\dot.png",0,0 C,0,44504,,255,255,255 F,1,44504,45104,1,0 S,1,44504,45104,1,0.2 MX,1,44504,45104,210,230 MY,1,44504,45104,367,352
Sprite,Foreground,Centre,"sb\dot.png",0,0 C,0,44504,,255,255,255 F,1,44504,45104,1,0 S,1,44504,45104,1,0.2 MX,1,44504,45104,210,253 MY,1,44504,45104,367,346
Sprite,Foreground,Centre,"sb\dot.png",0,0 C,0,44504,,255,255,255 F,1,44504,45104,1,0 S,1,44504,45104,1,0.2 MX,1,44504,45104,210,244 MY,1,44504,45104,367,369
Sprite,Foreground,Centre,"sb\dot.png",0,0 C,0,44504,,255,255,255 F,1,44504,45104,1,0 S,1,44504,45104,1,0.2 MX,1,44504,45104,210,249 MY,1,44504,45104,367,371
Sprite,Foreground,Centre,"sb\dot.png",0,0 C,0,44504,,255,255,255 F,1,44504,45104,1,0 S,1,44504,45104,1,0.2 MX,1,44504,45104,210,212 MY,1,44504,45104,367,326
Sprite,Foreground,Centre,"sb\dot.png",0,0 C,0,44504,,255,255,255 F,1,44504,45104,1,0 S,1,44504,45104,1,0.2 MX,1,44504,45104,210,226 MY,1,44504,45104,367,373
Sprite,Foreground,Centre,"sb\dot.png",0,0 C,0,44504,,255,255,255 F,1,44504,45104,1,0 S,1,44504,45104,1,0.2 MX,1,44504,45104,210,187 MY,1,44504,45104,367,336
Sprite,Foreground,Centre,"sb\dot.png",0,0 C,0,44504,,255,255,255 F,1,44504,45104,1,0 S,1,44504,45104,1,0.2 MX,1,44504,45104,210,246 MY,1,44504,45104,367,362
Sprite,Foreground,Centre,"sb\dot.png",0,0 C,0,44504,,255,255,255 F,1,44504,45104,1,0 S,1,44504,45104,1,0.2 MX,1,44504,45104,210,260 MY,1,44504,45104,367,347
Sprite,Foreground,Centre,"sb\dot.png",0,0 C,0,44504,,255,255,255 F,1,44504,45104,1,0 S,1,44504,45104,1,0.2 MX,1,44504,45104,210,173 MY,1,44504,45104,367,325
Sprite,Foreground,Centre,"sb\dot.png",0,0 C,0,44504,,255,255,255 F,1,44504,45104,1,0 S,1,44504,45104,1,0.2 MX,1,44504,45104,210,229 MY,1,44504,45104,367,331
Sprite,Foreground,Centre,"sb\dot.png",0,0 C,0,44668,,255,255,255 F,1,44668,45268,1,0 S,1,44668,45268,1,0.2 MX,1,44668,45268,204,208 MY,1,44668,45268,262,263
Sprite,Foreground,Centre,"sb\dot.png",0,0 C,0,44668,,255,255,255 F,1,44668,45268,1,0 S,1,44668,45268,1,0.2 MX,1,44668,45268,204,236 MY,1,44668,45268,262,259
Sprite,Foreground,Centre,"sb\dot.png",0,0 C,0,44668,,255,255,255 F,1,44668,45268,1,0 S,1,44668,45268,1,0.2 MX,1,44668,45268,204,156 MY,1,44668,45268,262,254
Sprite,Foreground,Centre,"sb\dot.png",0,0 C,0,44668,,255,255,255 F,1,44668,45268,1,0 S,1,44668,45268,1,0.2 MX,1,44668,45268,204,158 MY,1,44668,45268,262,305
Sprite,Foreground,Centre,"sb\dot.png",0,0 C,0,44668,,255,255,255 F,1,44668,45268,1,0 S,1,44668,45268,1,0.2 MX,1,44668,45268,204,211 MY,1,44668,45268,262,286
Sprite,Foreground,Centre,"sb\dot.png",0,0 C,0,44668,,255,255,255 F,1,44668,45268,1,0 S,1,44668,45268,1,0.2 MX,1,44668,45268,204,220 MY,1,44668,45268,262,203
Sprite,Foreground,Centre,"sb\dot.png",0,0 C,0,44668,,255,255,255 F,1,44668,45268,1,0 S,1,44668,45268,1,0.2 MX,1,44668,45268,204,212 MY,1,44668,45268,262,256
Sprite,Foreground,Centre,"sb\dot.png",0,0 C,0,44668,,255,255,255 F,1,44668,45268,1,0 S,1,44668,45268,1,0.2 MX,1,44668,45268,204,263 MY,1,44668,45268,262,216
Sprite,Foreground,Centre,"sb\dot.png",0,0 C,0,44668,,255,255,255 F,1,44668,45268,1,0 S,1,44668,45268,1,0.2 MX,1,44668,45268,204,158 MY,1,44668,45268,262,235
Sprite,Foreground,Centre,"sb\dot.png",0,0 C,0,44668,,255,255,255 F,1,44668,45268,1,0 S,1,44668,45268,1,0.2 MX,1,44668,45268,204,219 MY,1,44668,45268,262,297
Sprite,Foreground,Centre,"sb\dot.png",0,0 C,0,44668,,255,255,255 F,1,44668,45268,1,0 S,1,44668,45268,1,0.2 MX,1,44668,45268,204,174 MY,1,44668,45268,262,233
Sprite,Foreground,Centre,"sb\dot.png",0,0 C,0,44668,,255,255,255 F,1,44668,45268,1,0 S,1,44668,45268,1,0.2 MX,1,44668,45268,204,145 MY,1,44668,45268,262,255
Sprite,Foreground,Centre,"sb\dot.png",0,0 C,0,44668,,255,255,255 F,1,44668,45268,1,0 S,1,44668,45268,1,0.2 MX,1,44668,45268,204,179 MY,1,44668,45268,262,302
Sprite,Foreground,Centre,"sb\dot.png",0,0 C,0,44668,,255,255,255 F,1,44668,45268,1,0 S,1,44668,45268,1,0.2 MX,1,44668,45268,204,242 MY,1,44668,45268,262,265
Sprite,Foreground,Centre,"sb\dot.png",0,0 C,0,44668,,255,255,255 F,1,44668,45268,1,0 S,1,44668,45268,1,0.2 MX,1,44668,45268,204,258 MY,1,44668,45268,262,226
Sprite,Foreground,Centre,"sb\dot.png",0,0 C,0,44668,,255,255,255 F,1,44668,45268,1,0 S,1,44668,45268,1,0.2 MX,1,44668,45268,204,257 MY,1,44668,45268,262,304
Sprite,Foreground,Centre,"sb\dot.png",0,0 C,0,44668,,255,255,255 F,1,44668,45268,1,0 S,1,44668,45268,1,0.2 MX,1,44668,45268,204,251 MY,1,44668,45268,262,258
Sprite,Foreground,Centre,"sb\dot.png",0,0 C,0,44668,,255,255,255 F,1,44668,45268,1,0 S,1,44668,45268,1,0.2 MX,1,44668,45268,204,245 MY,1,44668,45268,262,244
Sprite,Foreground,Centre,"sb\dot.png",0,0 C,0,44668,,255,255,255 F,1,44668,45268,1,0 S,1,44668,45268,1,0.2 MX,1,44668,45268,204,210 MY,1,44668,45268,262,238
Sprite,Foreground,Centre,"sb\dot.png",0,0 C,0,44668,,255,255,255 F,1,44668,45268,1,0 S,1,44668,45268,1,0.2 MX,1,44668,45268,204,194 MY,1,44668,45268,262,248
Sprite,Foreground,Centre,"sb\dot.png",0,0 C,0,44668,,255,255,255 F,1,44668,45268,1,0 S,1,44668,45268,1,0.2 MX,1,44668,45268,204,194 MY,1,44668,45268,262,281
Sprite,Foreground,Centre,"sb\dot.png",0,0 C,0,44668,,255,255,255 F,1,44668,45268,1,0 S,1,44668,45268,1,0.2 MX,1,44668,45268,204,216 MY,1,44668,45268,262,313
Sprite,Foreground,Centre,"sb\dot.png",0,0 C,0,44668,,255,255,255 F,1,44668,45268,1,0 S,1,44668,45268,1,0.2 MX,1,44668,45268,204,253 MY,1,44668,45268,262,237
Sprite,Foreground,Centre,"sb\dot.png",0,0 C,0,44668,,255,255,255 F,1,44668,45268,1,0 S,1,44668,45268,1,0.2 MX,1,44668,45268,204,225 MY,1,44668,45268,262,243
Sprite,Foreground,Centre,"sb\dot.png",0,0 C,0,44668,,255,255,255 F,1,44668,45268,1,0 S,1,44668,45268,1,0.2 MX,1,44668,45268,204,200 MY,1,44668,45268,262,297
Sprite,Foreground,Centre,"sb\dot.png",0,0 C,0,44668,,255,255,255 F,1,44668,45268,1,0 S,1,44668,45268,1,0.2 MX,1,44668,45268,204,170 MY,1,44668,45268,262,311
Sprite,Foreground,Centre,"sb\dot.png",0,0 C,0,44668,,255,255,255 F,1,44668,45268,1,0 S,1,44668,45268,1,0.2 MX,1,44668,45268,204,206 MY,1,44668,45268,262,305
Sprite,Foreground,Centre,"sb\dot.png",0,0 C,0,44668,,255,255,255 F,1,44668,45268,1,0 S,1,44668,45268,1,0.2 MX,1,44668,45268,204,257 MY,1,44668,45268,262,234
Sprite,Foreground,Centre,"sb\dot.png",0,0 C,0,44668,,255,255,255 F,1,44668,45268,1,0 S,1,44668,45268,1,0.2 MX,1,44668,45268,204,203 MY,1,44668,45268,262,241
Sprite,Foreground,Centre,"sb\dot.png",0,0 C,0,44668,,255,255,255 F,1,44668,45268,1,0 S,1,44668,45268,1,0.2 MX,1,44668,45268,204,166 MY,1,44668,45268,262,233
Sprite,Foreground,Centre,"sb\dot.png",0,0 C,0,44996,,255,255,255 F,1,44996,45596,1,0 S,1,44996,45596,1,0.2 MX,1,44996,45596,352,365 MY,1,44996,45596,246,256
Sprite,Foreground,Centre,"sb\dot.png",0,0 C,0,44996,,255,255,255 F,1,44996,45596,1,0 S,1,44996,45596,1,0.2 MX,1,44996,45596,352,400 MY,1,44996,45596,246,229
Sprite,Foreground,Centre,"sb\dot.png",0,0 C,0,44996,,255,255,255 F,1,44996,45596,1,0 S,1,44996,45596,1,0.2 MX,1,44996,45596,352,382 MY,1,44996,45596,246,280
Sprite,Foreground,Centre,"sb\dot.png",0,0 C,0,44996,,255,255,255 F,1,44996,45596,1,0 S,1,44996,45596,1,0.2 MX,1,44996,45596,352,306 MY,1,44996,45596,246,198
Sprite,Foreground,Centre,"sb\dot.png",0,0 C,0,44996,,255,255,255 F,1,44996,45596,1,0 S,1,44996,45596,1,0.2 MX,1,44996,45596,352,365 MY,1,44996,45596,246,262
Sprite,Foreground,Centre,"sb\dot.png",0,0 C,0,44996,,255,255,255 F,1,44996,45596,1,0 S,1,44996,45596,1,0.2 MX,1,44996,45596,352,360 MY,1,44996,45596,246,283
Sprite,Foreground,Centre,"sb\dot.png",0,0 C,0,44996,,255,255,255 F,1,44996,45596,1,0 S,1,44996,45596,1,0.2 MX,1,44996,45596,352,395 MY,1,44996,45596,246,214
Sprite,Foreground,Centre,"sb\dot.png",0,0 C,0,44996,,255,255,255 F,1,44996,45596,1,0 S,1,44996,45596,1,0.2 MX,1,44996,45596,352,337 MY,1,44996,45596,246,257
Sprite,Foreground,Centre,"sb\dot.png",0,0 C,0,44996,,255,255,255 F,1,44996,45596,1,0 S,1,44996,45596,1,0.2 MX,1,44996,45596,352,371 MY,1,44996,45596,246,195
Sprite,Foreground,Centre,"sb\dot.png",0,0 C,0,44996,,255,255,255 F,1,44996,45596,1,0 S,1,44996,45596,1,0.2 MX,1,44996,45596,352,355 MY,1,44996,45596,246,305
Sprite,Foreground,Centre,"sb\dot.png",0,0 C,0,44996,,255,255,255 F,1,44996,45596,1,0 S,1,44996,45596,1,0.2 MX,1,44996,45596,352,311 MY,1,44996,45596,246,243
Sprite,Foreground,Centre,"sb\dot.png",0,0 C,0,44996,,255,255,255 F,1,44996,45596,1,0 S,1,44996,45596,1,0.2 MX,1,44996,45596,352,299 MY,1,44996,45596,246,204
Sprite,Foreground,Centre,"sb\dot.png",0,0 C,0,44996,,255,255,255 F,1,44996,45596,1,0 S,1,44996,45596,1,0.2 MX,1,44996,45596,352,410 MY,1,44996,45596,246,190
Sprite,Foreground,Centre,"sb\dot.png",0,0 C,0,44996,,255,255,255 F,1,44996,45596,1,0 S,1,44996,45596,1,0.2 MX,1,44996,45596,352,331 MY,1,44996,45596,246,190
Sprite,Foreground,Centre,"sb\dot.png",0,0 C,0,44996,,255,255,255 F,1,44996,45596,1,0 S,1,44996,45596,1,0.2 MX,1,44996,45596,352,354 MY,1,44996,45596,246,254
Sprite,Foreground,Centre,"sb\dot.png",0,0 C,0,44996,,255,255,255 F,1,44996,45596,1,0 S,1,44996,45596,1,0.2 MX,1,44996,45596,352,395 MY,1,44996,45596,246,212
Sprite,Foreground,Centre,"sb\dot.png",0,0 C,0,44996,,255,255,255 F,1,44996,45596,1,0 S,1,44996,45596,1,0.2 MX,1,44996,45596,352,305 MY,1,44996,45596,246,204
Sprite,Foreground,Centre,"sb\dot.png",0,0 C,0,44996,,255,255,255 F,1,44996,45596,1,0 S,1,44996,45596,1,0.2 MX,1,44996,45596,352,385 MY,1,44996,45596,246,285
Sprite,Foreground,Centre,"sb\dot.png",0,0 C,0,44996,,255,255,255 F,1,44996,45596,1,0 S,1,44996,45596,1,0.2 MX,1,44996,45596,352,382 MY,1,44996,45596,246,214
Sprite,Foreground,Centre,"sb\dot.png",0,0 C,0,44996,,255,255,255 F,1,44996,45596,1,0 S,1,44996,45596,1,0.2 MX,1,44996,45596,352,313 MY,1,44996,45596,246,200
Sprite,Foreground,Centre,"sb\dot.png",0,0 C,0,44996,,255,255,255 F,1,44996,45596,1,0 S,1,44996,45596,1,0.2 MX,1,44996,45596,352,313 MY,1,44996,45596,246,255
Sprite,Foreground,Centre,"sb\dot.png",0,0 C,0,44996,,255,255,255 F,1,44996,45596,1,0 S,1,44996,45596,1,0.2 MX,1,44996,45596,352,379 MY,1,44996,45596,246,285
Sprite,Foreground,Centre,"sb\dot.png",0,0 C,0,44996,,255,255,255 F,1,44996,45596,1,0 S,1,44996,45596,1,0.2 MX,1,44996,45596,352,319 MY,1,44996,45596,246,234
Sprite,Foreground,Centre,"sb\dot.png",0,0 C,0,44996,,255,255,255 F,1,44996,45596,1,0 S,1,44996,45596,1,0.2 MX,1,44996,45596,352,297 MY,1,44996,45596,246,219
Sprite,Foreground,Centre,"sb\dot.png",0,0 C,0,44996,,255,255,255 F,1,44996,45596,1,0 S,1,44996,45596,1,0.2 MX,1,44996,45596,352,350 MY,1,44996,45596,246,228
Sprite,Foreground,Centre,"sb\dot.png",0,0 C,0,44996,,255,255,255 F,1,44996,45596,1,0 S,1,44996,45596,1,0.2 MX,1,44996,45596,352,364 MY,1,44996,45596,246,235
Sprite,Foreground,Centre,"sb\dot.png",0,0 C,0,44996,,255,255,255 F,1,44996,45596,1,0 S,1,44996,45596,1,0.2 MX,1,44996,45596,352,387 MY,1,44996,45596,246,209
Sprite,Foreground,Centre,"sb\dot.png",0,0 C,0,44996,,255,255,255 F,1,44996,45596,1,0 S,1,44996,45596,1,0.2 MX,1,44996,45596,352,304 MY,1,44996,45596,246,202
Sprite,Foreground,Centre,"sb\dot.png",0,0 C,0,44996,,255,255,255 F,1,44996,45596,1,0 S,1,44996,45596,1,0.2 MX,1,44996,45596,352,355 MY,1,44996,45596,246,276
Sprite,Foreground,Centre,"sb\dot.png",0,0 C,0,44996,,255,255,255 F,1,44996,45596,1,0 S,1,44996,45596,1,0.2 MX,1,44996,45596,352,336 MY,1,44996,45596,246,272
Sprite,Foreground,Centre,"sb\dot.png",0,0 C,0,45323,,255,255,255 F,1,45323,45923,1,0 S,1,45323,45923,1,0.2 MX,1,45323,45923,438,432 MY,1,45323,45923,100,50
Sprite,Foreground,Centre,"sb\dot.png",0,0 C,0,45323,,255,255,255 F,1,45323,45923,1,0 S,1,45323,45923,1,0.2 MX,1,45323,45923,438,448 MY,1,45323,45923,100,44
Sprite,Foreground,Centre,"sb\dot.png",0,0 C,0,45323,,255,255,255 F,1,45323,45923,1,0 S,1,45323,45923,1,0.2 MX,1,45323,45923,438,471 MY,1,45323,45923,100,81
Sprite,Foreground,Centre,"sb\dot.png",0,0 C,0,45323,,255,255,255 F,1,45323,45923,1,0 S,1,45323,45923,1,0.2 MX,1,45323,45923,438,461 MY,1,45323,45923,100,124
Sprite,Foreground,Centre,"sb\dot.png",0,0 C,0,45323,,255,255,255 F,1,45323,45923,1,0 S,1,45323,45923,1,0.2 MX,1,45323,45923,438,433 MY,1,45323,45923,100,105
Sprite,Foreground,Centre,"sb\dot.png",0,0 C,0,45323,,255,255,255 F,1,45323,45923,1,0 S,1,45323,45923,1,0.2 MX,1,45323,45923,438,478 MY,1,45323,45923,100,90
Sprite,Foreground,Centre,"sb\dot.png",0,0 C,0,45323,,255,255,255 F,1,45323,45923,1,0 S,1,45323,45923,1,0.2 MX,1,45323,45923,438,486 MY,1,45323,45923,100,89
Sprite,Foreground,Centre,"sb\dot.png",0,0 C,0,45323,,255,255,255 F,1,45323,45923,1,0 S,1,45323,45923,1,0.2 MX,1,45323,45923,438,475 MY,1,45323,45923,100,109
Sprite,Foreground,Centre,"sb\dot.png",0,0 C,0,45323,,255,255,255 F,1,45323,45923,1,0 S,1,45323,45923,1,0.2 MX,1,45323,45923,438,468 MY,1,45323,45923,100,68
Sprite,Foreground,Centre,"sb\dot.png",0,0 C,0,45323,,255,255,255 F,1,45323,45923,1,0 S,1,45323,45923,1,0.2 MX,1,45323,45923,438,488 MY,1,45323,45923,100,110
Sprite,Foreground,Centre,"sb\dot.png",0,0 C,0,45323,,255,255,255 F,1,45323,45923,1,0 S,1,45323,45923,1,0.2 MX,1,45323,45923,438,497 MY,1,45323,45923,100,46
Sprite,Foreground,Centre,"sb\dot.png",0,0 C,0,45323,,255,255,255 F,1,45323,45923,1,0 S,1,45323,45923,1,0.2 MX,1,45323,45923,438,443 MY,1,45323,45923,100,59
Sprite,Foreground,Centre,"sb\dot.png",0,0 C,0,45323,,255,255,255 F,1,45323,45923,1,0 S,1,45323,45923,1,0.2 MX,1,45323,45923,438,493 MY,1,45323,45923,100,93
Sprite,Foreground,Centre,"sb\dot.png",0,0 C,0,45323,,255,255,255 F,1,45323,45923,1,0 S,1,45323,45923,1,0.2 MX,1,45323,45923,438,429 MY,1,45323,45923,100,150
Sprite,Foreground,Centre,"sb\dot.png",0,0 C,0,45323,,255,255,255 F,1,45323,45923,1,0 S,1,45323,45923,1,0.2 MX,1,45323,45923,438,384 MY,1,45323,45923,100,116
Sprite,Foreground,Centre,"sb\dot.png",0,0 C,0,45323,,255,255,255 F,1,45323,45923,1,0 S,1,45323,45923,1,0.2 MX,1,45323,45923,438,414 MY,1,45323,45923,100,159
Sprite,Foreground,Centre,"sb\dot.png",0,0 C,0,45323,,255,255,255 F,1,45323,45923,1,0 S,1,45323,45923,1,0.2 MX,1,45323,45923,438,481 MY,1,45323,45923,100,94
Sprite,Foreground,Centre,"sb\dot.png",0,0 C,0,45323,,255,255,255 F,1,45323,45923,1,0 S,1,45323,45923,1,0.2 MX,1,45323,45923,438,458 MY,1,45323,45923,100,51
Sprite,Foreground,Centre,"sb\dot.png",0,0 C,0,45323,,255,255,255 F,1,45323,45923,1,0 S,1,45323,45923,1,0.2 MX,1,45323,45923,438,497 MY,1,45323,45923,100,122
Sprite,Foreground,Centre,"sb\dot.png",0,0 C,0,45323,,255,255,255 F,1,45323,45923,1,0 S,1,45323,45923,1,0.2 MX,1,45323,45923,438,384 MY,1,45323,45923,100,145
Sprite,Foreground,Centre,"sb\dot.png",0,0 C,0,45323,,255,255,255 F,1,45323,45923,1,0 S,1,45323,45923,1,0.2 MX,1,45323,45923,438,462 MY,1,45323,45923,100,80
Sprite,Foreground,Centre,"sb\dot.png",0,0 C,0,45323,,255,255,255 F,1,45323,45923,1,0 S,1,45323,45923,1,0.2 MX,1,45323,45923,438,475 MY,1,45323,45923,100,152
Sprite,Foreground,Centre,"sb\dot.png",0,0 C,0,45323,,255,255,255 F,1,45323,45923,1,0 S,1,45323,45923,1,0.2 MX,1,45323,45923,438,440 MY,1,45323,45923,100,62
Sprite,Foreground,Centre,"sb\dot.png",0,0 C,0,45323,,255,255,255 F,1,45323,45923,1,0 S,1,45323,45923,1,0.2 MX,1,45323,45923,438,439 MY,1,45323,45923,100,86
Sprite,Foreground,Centre,"sb\dot.png",0,0 C,0,45323,,255,255,255 F,1,45323,45923,1,0 S,1,45323,45923,1,0.2 MX,1,45323,45923,438,423 MY,1,45323,45923,100,102
Sprite,Foreground,Centre,"sb\dot.png",0,0 C,0,45323,,255,255,255 F,1,45323,45923,1,0 S,1,45323,45923,1,0.2 MX,1,45323,45923,438,424 MY,1,45323,45923,100,74
Sprite,Foreground,Centre,"sb\dot.png",0,0 C,0,45323,,255,255,255 F,1,45323,45923,1,0 S,1,45323,45923,1,0.2 MX,1,45323,45923,438,477 MY,1,45323,45923,100,134
Sprite,Foreground,Centre,"sb\dot.png",0,0 C,0,45323,,255,255,255 F,1,45323,45923,1,0 S,1,45323,45923,1,0.2 MX,1,45323,45923,438,465 MY,1,45323,45923,100,88
Sprite,Foreground,Centre,"sb\dot.png",0,0 C,0,45323,,255,255,255 F,1,45323,45923,1,0 S,1,45323,45923,1,0.2 MX,1,45323,45923,438,442 MY,1,45323,45923,100,90
Sprite,Foreground,Centre,"sb\dot.png",0,0 C,0,45323,,255,255,255 F,1,45323,45923,1,0 S,1,45323,45923,1,0.2 MX,1,45323,45923,438,386 MY,1,45323,45923,100,80
Sprite,Foreground,Centre,"sb\dot.png",0,0 C,0,45488,,255,255,255 F,1,45488,46088,1,0 S,1,45488,46088,1,0.2 MX,1,45488,46088,533,582 MY,1,45488,46088,144,177
Sprite,Foreground,Centre,"sb\dot.png",0,0 C,0,45488,,255,255,255 F,1,45488,46088,1,0 S,1,45488,46088,1,0.2 MX,1,45488,46088,533,551 MY,1,45488,46088,144,182
Sprite,Foreground,Centre,"sb\dot.png",0,0 C,0,45488,,255,255,255 F,1,45488,46088,1,0 S,1,45488,46088,1,0.2 MX,1,45488,46088,533,501 MY,1,45488,46088,144,184
Sprite,Foreground,Centre,"sb\dot.png",0,0 C,0,45488,,255,255,255 F,1,45488,46088,1,0 S,1,45488,46088,1,0.2 MX,1,45488,46088,533,539 MY,1,45488,46088,144,138
Sprite,Foreground,Centre,"sb\dot.png",0,0 C,0,45488,,255,255,255 F,1,45488,46088,1,0 S,1,45488,46088,1,0.2 MX,1,45488,46088,533,562 MY,1,45488,46088,144,170
Sprite,Foreground,Centre,"sb\dot.png",0,0 C,0,45488,,255,255,255 F,1,45488,46088,1,0 S,1,45488,46088,1,0.2 MX,1,45488,46088,533,543 MY,1,45488,46088,144,91
Sprite,Foreground,Centre,"sb\dot.png",0,0 C,0,45488,,255,255,255 F,1,45488,46088,1,0 S,1,45488,46088,1,0.2 MX,1,45488,46088,533,494 MY,1,45488,46088,144,88
Sprite,Foreground,Centre,"sb\dot.png",0,0 C,0,45488,,255,255,255 F,1,45488,46088,1,0 S,1,45488,46088,1,0.2 MX,1,45488,46088,533,579 MY,1,45488,46088,144,162
Sprite,Foreground,Centre,"sb\dot.png",0,0 C,0,45488,,255,255,255 F,1,45488,46088,1,0 S,1,45488,46088,1,0.2 MX,1,45488,46088,533,501 MY,1,45488,46088,144,157
Sprite,Foreground,Centre,"sb\dot.png",0,0 C,0,45488,,255,255,255 F,1,45488,46088,1,0 S,1,45488,46088,1,0.2 MX,1,45488,46088,533,549 MY,1,45488,46088,144,177
Sprite,Foreground,Centre,"sb\dot.png",0,0 C,0,45488,,255,255,255 F,1,45488,46088,1,0 S,1,45488,46088,1,0.2 MX,1,45488,46088,533,584 MY,1,45488,46088,144,89
Sprite,Foreground,Centre,"sb\dot.png",0,0 C,0,45488,,255,255,255 F,1,45488,46088,1,0 S,1,45488,46088,1,0.2 MX,1,45488,46088,533,538 MY,1,45488,46088,144,148
Sprite,Foreground,Centre,"sb\dot.png",0,0 C,0,45488,,255,255,255 F,1,45488,46088,1,0 S,1,45488,46088,1,0.2 MX,1,45488,46088,533,503 MY,1,45488,46088,144,86
Sprite,Foreground,Centre,"sb\dot.png",0,0 C,0,45488,,255,255,255 F,1,45488,46088,1,0 S,1,45488,46088,1,0.2 MX,1,45488,46088,533,493 MY,1,45488,46088,144,92
Sprite,Foreground,Centre,"sb\dot.png",0,0 C,0,45488,,255,255,255 F,1,45488,46088,1,0 S,1,45488,46088,1,0.2 MX,1,45488,46088,533,560 MY,1,45488,46088,144,115
Sprite,Foreground,Centre,"sb\dot.png",0,0 C,0,45488,,255,255,255 F,1,45488,46088,1,0 S,1,45488,46088,1,0.2 MX,1,45488,46088,533,540 MY,1,45488,46088,144,152
Sprite,Foreground,Centre,"sb\dot.png",0,0 C,0,45488,,255,255,255 F,1,45488,46088,1,0 S,1,45488,46088,1,0.2 MX,1,45488,46088,533,546 MY,1,45488,46088,144,170
Sprite,Foreground,Centre,"sb\dot.png",0,0 C,0,45488,,255,255,255 F,1,45488,46088,1,0 S,1,45488,46088,1,0.2 MX,1,45488,46088,533,588 MY,1,45488,46088,144,194
Sprite,Foreground,Centre,"sb\dot.png",0,0 C,0,45488,,255,255,255 F,1,45488,46088,1,0 S,1,45488,46088,1,0.2 MX,1,45488,46088,533,555 MY,1,45488,46088,144,203
Sprite,Foreground,Centre,"sb\dot.png",0,0 C,0,45488,,255,255,255 F,1,45488,46088,1,0 S,1,45488,46088,1,0.2 MX,1,45488,46088,533,557 MY,1,45488,46088,144,165
Sprite,Foreground,Centre,"sb\dot.png",0,0 C,0,45488,,255,255,255 F,1,45488,46088,1,0 S,1,45488,46088,1,0.2 MX,1,45488,46088,533,548 MY,1,45488,46088,144,91
Sprite,Foreground,Centre,"sb\dot.png",0,0 C,0,45488,,255,255,255 F,1,45488,46088,1,0 S,1,45488,46088,1,0.2 MX,1,45488,46088,533,550 MY,1,45488,46088,144,162
Sprite,Foreground,Centre,"sb\dot.png",0,0 C,0,45488,,255,255,255 F,1,45488,46088,1,0 S,1,45488,46088,1,0.2 MX,1,45488,46088,533,584 MY,1,45488,46088,144,122
Sprite,Foreground,Centre,"sb\dot.png",0,0 C,0,45488,,255,255,255 F,1,45488,46088,1,0 S,1,45488,46088,1,0.2 MX,1,45488,46088,533,485 MY,1,45488,46088,144,178
Sprite,Foreground,Centre,"sb\dot.png",0,0 C,0,45488,,255,255,255 F,1,45488,46088,1,0 S,1,45488,46088,1,0.2 MX,1,45488,46088,533,581 MY,1,45488,46088,144,92
Sprite,Foreground,Centre,"sb\dot.png",0,0 C,0,45488,,255,255,255 F,1,45488,46088,1,0 S,1,45488,46088,1,0.2 MX,1,45488,46088,533,493 MY,1,45488,46088,144,195
Sprite,Foreground,Centre,"sb\dot.png",0,0 C,0,45488,,255,255,255 F,1,45488,46088,1,0 S,1,45488,46088,1,0.2 MX,1,45488,46088,533,567 MY,1,45488,46088,144,119
Sprite,Foreground,Centre,"sb\dot.png",0,0 C,0,45488,,255,255,255 F,1,45488,46088,1,0 S,1,45488,46088,1,0.2 MX,1,45488,46088,533,521 MY,1,45488,46088,144,188
Sprite,Foreground,Centre,"sb\dot.png",0,0 C,0,45488,,255,255,255 F,1,45488,46088,1,0 S,1,45488,46088,1,0.2 MX,1,45488,46088,533,500 MY,1,45488,46088,144,98
Sprite,Foreground,Centre,"sb\dot.png",0,0 C,0,45488,,255,255,255 F,1,45488,46088,1,0 S,1,45488,46088,1,0.2 MX,1,45488,46088,533,540 MY,1,45488,46088,144,110
Sprite,Foreground,Centre,"sb\dot.png",0,0 C,0,45815,,255,255,255 F,1,45815,46415,1,0 S,1,45815,46415,1,0.2 MX,1,45815,46415,500,520 MY,1,45815,46415,244,241
Sprite,Foreground,Centre,"sb\dot.png",0,0 C,0,45815,,255,255,255 F,1,45815,46415,1,0 S,1,45815,46415,1,0.2 MX,1,45815,46415,500,527 MY,1,45815,46415,244,241
Sprite,Foreground,Centre,"sb\dot.png",0,0 C,0,45815,,255,255,255 F,1,45815,46415,1,0 S,1,45815,46415,1,0.2 MX,1,45815,46415,500,459 MY,1,45815,46415,244,186
Sprite,Foreground,Centre,"sb\dot.png",0,0 C,0,45815,,255,255,255 F,1,45815,46415,1,0 S,1,45815,46415,1,0.2 MX,1,45815,46415,500,493 MY,1,45815,46415,244,239
Sprite,Foreground,Centre,"sb\dot.png",0,0 C,0,45815,,255,255,255 F,1,45815,46415,1,0 S,1,45815,46415,1,0.2 MX,1,45815,46415,500,448 MY,1,45815,46415,244,299
Sprite,Foreground,Centre,"sb\dot.png",0,0 C,0,45815,,255,255,255 F,1,45815,46415,1,0 S,1,45815,46415,1,0.2 MX,1,45815,46415,500,556 MY,1,45815,46415,244,213
Sprite,Foreground,Centre,"sb\dot.png",0,0 C,0,45815,,255,255,255 F,1,45815,46415,1,0 S,1,45815,46415,1,0.2 MX,1,45815,46415,500,548 MY,1,45815,46415,244,299
Sprite,Foreground,Centre,"sb\dot.png",0,0 C,0,45815,,255,255,255 F,1,45815,46415,1,0 S,1,45815,46415,1,0.2 MX,1,45815,46415,500,458 MY,1,45815,46415,244,288
Sprite,Foreground,Centre,"sb\dot.png",0,0 C,0,45815,,255,255,255 F,1,45815,46415,1,0 S,1,45815,46415,1,0.2 MX,1,45815,46415,500,488 MY,1,45815,46415,244,290
Sprite,Foreground,Centre,"sb\dot.png",0,0 C,0,45815,,255,255,255 F,1,45815,46415,1,0 S,1,45815,46415,1,0.2 MX,1,45815,46415,500,512 MY,1,45815,46415,244,296
Sprite,Foreground,Centre,"sb\dot.png",0,0 C,0,45815,,255,255,255 F,1,45815,46415,1,0 S,1,45815,46415,1,0.2 MX,1,45815,46415,500,549 MY,1,45815,46415,244,229
Sprite,Foreground,Centre,"sb\dot.png",0,0 C,0,45815,,255,255,255 F,1,45815,46415,1,0 S,1,45815,46415,1,0.2 MX,1,45815,46415,500,460 MY,1,45815,46415,244,262
Sprite,Foreground,Centre,"sb\dot.png",0,0 C,0,45815,,255,255,255 F,1,45815,46415,1,0 S,1,45815,46415,1,0.2 MX,1,45815,46415,500,451 MY,1,45815,46415,244,259
Sprite,Foreground,Centre,"sb\dot.png",0,0 C,0,45815,,255,255,255 F,1,45815,46415,1,0 S,1,45815,46415,1,0.2 MX,1,45815,46415,500,534 MY,1,45815,46415,244,222
Sprite,Foreground,Centre,"sb\dot.png",0,0 C,0,45815,,255,255,255 F,1,45815,46415,1,0 S,1,45815,46415,1,0.2 MX,1,45815,46415,500,477 MY,1,45815,46415,244,195
Sprite,Foreground,Centre,"sb\dot.png",0,0 C,0,45815,,255,255,255 F,1,45815,46415,1,0 S,1,45815,46415,1,0.2 MX,1,45815,46415,500,523 MY,1,45815,46415,244,252
Sprite,Foreground,Centre,"sb\dot.png",0,0 C,0,45815,,255,255,255 F,1,45815,46415,1,0 S,1,45815,46415,1,0.2 MX,1,45815,46415,500,491 MY,1,45815,46415,244,242
Sprite,Foreground,Centre,"sb\dot.png",0,0 C,0,45815,,255,255,255 F,1,45815,46415,1,0 S,1,45815,46415,1,0.2 MX,1,45815,46415,500,440 MY,1,45815,46415,244,201
Sprite,Foreground,Centre,"sb\dot.png",0,0 C,0,45815,,255,255,255 F,1,45815,46415,1,0 S,1,45815,46415,1,0.2 MX,1,45815,46415,500,480 MY,1,45815,46415,244,203
Sprite,Foreground,Centre,"sb\dot.png",0,0 C,0,45815,,255,255,255 F,1,45815,46415,1,0 S,1,45815,46415,1,0.2 MX,1,45815,46415,500,499 MY,1,45815,46415,244,293
Sprite,Foreground,Centre,"sb\dot.png",0,0 C,0,45815,,255,255,255 F,1,45815,46415,1,0 S,1,45815,46415,1,0.2 MX,1,45815,46415,500,544 MY,1,45815,46415,244,261
Sprite,Foreground,Centre,"sb\dot.png",0,0 C,0,45815,,255,255,255 F,1,45815,46415,1,0 S,1,45815,46415,1,0.2 MX,1,45815,46415,500,525 MY,1,45815,46415,244,297
Sprite,Foreground,Centre,"sb\dot.png",0,0 C,0,45815,,255,255,255 F,1,45815,46415,1,0 S,1,45815,46415,1,0.2 MX,1,45815,46415,500,452 MY,1,45815,46415,244,294
Sprite,Foreground,Centre,"sb\dot.png",0,0 C,0,45815,,255,255,255 F,1,45815,46415,1,0 S,1,45815,46415,1,0.2 MX,1,45815,46415,500,442 MY,1,45815,46415,244,282
Sprite,Foreground,Centre,"sb\dot.png",0,0 C,0,45815,,255,255,255 F,1,45815,46415,1,0 S,1,45815,46415,1,0.2 MX,1,45815,46415,500,456 MY,1,45815,46415,244,247
Sprite,Foreground,Centre,"sb\dot.png",0,0 C,0,45815,,255,255,255 F,1,45815,46415,1,0 S,1,45815,46415,1,0.2 MX,1,45815,46415,500,496 MY,1,45815,46415,244,224
Sprite,Foreground,Centre,"sb\dot.png",0,0 C,0,45815,,255,255,255 F,1,45815,46415,1,0 S,1,45815,46415,1,0.2 MX,1,45815,46415,500,501 MY,1,45815,46415,244,259
Sprite,Foreground,Centre,"sb\dot.png",0,0 C,0,45815,,255,255,255 F,1,45815,46415,1,0 S,1,45815,46415,1,0.2 MX,1,45815,46415,500,477 MY,1,45815,46415,244,219
Sprite,Foreground,Centre,"sb\dot.png",0,0 C,0,45815,,255,255,255 F,1,45815,46415,1,0 S,1,45815,46415,1,0.2 MX,1,45815,46415,500,477 MY,1,45815,46415,244,192
Sprite,Foreground,Centre,"sb\dot.png",0,0 C,0,45815,,255,255,255 F,1,45815,46415,1,0 S,1,45815,46415,1,0.2 MX,1,45815,46415,500,486 MY,1,45815,46415,244,247
Sprite,Foreground,Centre,"sb\dot.png",0,0 C,0,45980,,255,255,255 F,1,45980,46580,1,0 S,1,45980,46580,1,0.2 MX,1,45980,46580,465,433 MY,1,45980,46580,343,298
Sprite,Foreground,Centre,"sb\dot.png",0,0 C,0,45980,,255,255,255 F,1,45980,46580,1,0 S,1,45980,46580,1,0.2 MX,1,45980,46580,465,423 MY,1,45980,46580,343,400
Sprite,Foreground,Centre,"sb\dot.png",0,0 C,0,45980,,255,255,255 F,1,45980,46580,1,0 S,1,45980,46580,1,0.2 MX,1,45980,46580,465,436 MY,1,45980,46580,343,331
Sprite,Foreground,Centre,"sb\dot.png",0,0 C,0,45980,,255,255,255 F,1,45980,46580,1,0 S,1,45980,46580,1,0.2 MX,1,45980,46580,465,503 MY,1,45980,46580,343,333
Sprite,Foreground,Centre,"sb\dot.png",0,0 C,0,45980,,255,255,255 F,1,45980,46580,1,0 S,1,45980,46580,1,0.2 MX,1,45980,46580,465,519 MY,1,45980,46580,343,284
Sprite,Foreground,Centre,"sb\dot.png",0,0 C,0,45980,,255,255,255 F,1,45980,46580,1,0 S,1,45980,46580,1,0.2 MX,1,45980,46580,465,469 MY,1,45980,46580,343,312
Sprite,Foreground,Centre,"sb\dot.png",0,0 C,0,45980,,255,255,255 F,1,45980,46580,1,0 S,1,45980,46580,1,0.2 MX,1,45980,46580,465,452 MY,1,45980,46580,343,365
Sprite,Foreground,Centre,"sb\dot.png",0,0 C,0,45980,,255,255,255 F,1,45980,46580,1,0 S,1,45980,46580,1,0.2 MX,1,45980,46580,465,412 MY,1,45980,46580,343,315
Sprite,Foreground,Centre,"sb\dot.png",0,0 C,0,45980,,255,255,255 F,1,45980,46580,1,0 S,1,45980,46580,1,0.2 MX,1,45980,46580,465,484 MY,1,45980,46580,343,309
Sprite,Foreground,Centre,"sb\dot.png",0,0 C,0,45980,,255,255,255 F,1,45980,46580,1,0 S,1,45980,46580,1,0.2 MX,1,45980,46580,465,470 MY,1,45980,46580,343,303
Sprite,Foreground,Centre,"sb\dot.png",0,0 C,0,45980,,255,255,255 F,1,45980,46580,1,0 S,1,45980,46580,1,0.2 MX,1,45980,46580,465,478 MY,1,45980,46580,343,398
Sprite,Foreground,Centre,"sb\dot.png",0,0 C,0,45980,,255,255,255 F,1,45980,46580,1,0 S,1,45980,46580,1,0.2 MX,1,45980,46580,465,427 MY,1,45980,46580,343,377
Sprite,Foreground,Centre,"sb\dot.png",0,0 C,0,45980,,255,255,255 F,1,45980,46580,1,0 S,1,45980,46580,1,0.2 MX,1,45980,46580,465,480 MY,1,45980,46580,343,325
Sprite,Foreground,Centre,"sb\dot.png",0,0 C,0,45980,,255,255,255 F,1,45980,46580,1,0 S,1,45980,46580,1,0.2 MX,1,45980,46580,465,411 MY,1,45980,46580,343,378
Sprite,Foreground,Centre,"sb\dot.png",0,0 C,0,45980,,255,255,255 F,1,45980,46580,1,0 S,1,45980,46580,1,0.2 MX,1,45980,46580,465,425 MY,1,45980,46580,343,368
Sprite,Foreground,Centre,"sb\dot.png",0,0 C,0,45980,,255,255,255 F,1,45980,46580,1,0 S,1,45980,46580,1,0.2 MX,1,45980,46580,465,504 MY,1,45980,46580,343,314
Sprite,Foreground,Centre,"sb\dot.png",0,0 C,0,45980,,255,255,255 F,1,45980,46580,1,0 S,1,45980,46580,1,0.2 MX,1,45980,46580,465,497 MY,1,45980,46580,343,398
Sprite,Foreground,Centre,"sb\dot.png",0,0 C,0,45980,,255,255,255 F,1,45980,46580,1,0 S,1,45980,46580,1,0.2 MX,1,45980,46580,465,485 MY,1,45980,46580,343,372
Sprite,Foreground,Centre,"sb\dot.png",0,0 C,0,45980,,255,255,255 F,1,45980,46580,1,0 S,1,45980,46580,1,0.2 MX,1,45980,46580,465,463 MY,1,45980,46580,343,371
Sprite,Foreground,Centre,"sb\dot.png",0,0 C,0,45980,,255,255,255 F,1,45980,46580,1,0 S,1,45980,46580,1,0.2 MX,1,45980,46580,465,486 MY,1,45980,46580,343,367
Sprite,Foreground,Centre,"sb\dot.png",0,0 C,0,45980,,255,255,255 F,1,45980,46580,1,0 S,1,45980,46580,1,0.2 MX,1,45980,46580,465,417 MY,1,45980,46580,343,354
Sprite,Foreground,Centre,"sb\dot.png",0,0 C,0,45980,,255,255,255 F,1,45980,46580,1,0 S,1,45980,46580,1,0.2 MX,1,45980,46580,465,509 MY,1,45980,46580,343,298
Sprite,Foreground,Centre,"sb\dot.png",0,0 C,0,45980,,255,255,255 F,1,45980,46580,1,0 S,1,45980,46580,1,0.2 MX,1,45980,46580,465,523 MY,1,45980,46580,343,309
Sprite,Foreground,Centre,"sb\dot.png",0,0 C,0,45980,,255,255,255 F,1,45980,46580,1,0 S,1,45980,46580,1,0.2 MX,1,45980,46580,465,518 MY,1,45980,46580,343,382
Sprite,Foreground,Centre,"sb\dot.png",0,0 C,0,45980,,255,255,255 F,1,45980,46580,1,0 S,1,45980,46580,1,0.2 MX,1,45980,46580,465,472 MY,1,45980,46580,343,288
Sprite,Foreground,Centre,"sb\dot.png",0,0 C,0,45980,,255,255,255 F,1,45980,46580,1,0 S,1,45980,46580,1,0.2 MX,1,45980,46580,465,481 MY,1,45980,46580,343,294
Sprite,Foreground,Centre,"sb\dot.png",0,0 C,0,45980,,255,255,255 F,1,45980,46580,1,0 S,1,45980,46580,1,0.2 MX,1,45980,46580,465,468 MY,1,45980,46580,343,309
Sprite,Foreground,Centre,"sb\dot.png",0,0 C,0,45980,,255,255,255 F,1,45980,46580,1,0 S,1,45980,46580,1,0.2 MX,1,45980,46580,465,515 MY,1,45980,46580,343,316
Sprite,Foreground,Centre,"sb\dot.png",0,0 C,0,45980,,255,255,255 F,1,45980,46580,1,0 S,1,45980,46580,1,0.2 MX,1,45980,46580,465,517 MY,1,45980,46580,343,326
Sprite,Foreground,Centre,"sb\dot.png",0,0 C,0,45980,,255,255,255 F,1,45980,46580,1,0 S,1,45980,46580,1,0.2 MX,1,45980,46580,465,447 MY,1,45980,46580,343,392
Sprite,Foreground,Centre,"sb\dot.png",0,0 C,0,46226,,255,255,255 F,1,46226,46826,1,0 S,1,46226,46826,1,0.2 MX,1,46226,46826,391,373 MY,1,46226,46826,369,311
Sprite,Foreground,Centre,"sb\dot.png",0,0 C,0,46226,,255,255,255 F,1,46226,46826,1,0 S,1,46226,46826,1,0.2 MX,1,46226,46826,391,361 MY,1,46226,46826,369,337
Sprite,Foreground,Centre,"sb\dot.png",0,0 C,0,46226,,255,255,255 F,1,46226,46826,1,0 S,1,46226,46826,1,0.2 MX,1,46226,46826,391,352 MY,1,46226,46826,369,342
Sprite,Foreground,Centre,"sb\dot.png",0,0 C,0,46226,,255,255,255 F,1,46226,46826,1,0 S,1,46226,46826,1,0.2 MX,1,46226,46826,391,387 MY,1,46226,46826,369,360
Sprite,Foreground,Centre,"sb\dot.png",0,0 C,0,46226,,255,255,255 F,1,46226,46826,1,0 S,1,46226,46826,1,0.2 MX,1,46226,46826,391,332 MY,1,46226,46826,369,346
Sprite,Foreground,Centre,"sb\dot.png",0,0 C,0,46226,,255,255,255 F,1,46226,46826,1,0 S,1,46226,46826,1,0.2 MX,1,46226,46826,391,424 MY,1,46226,46826,369,419
Sprite,Foreground,Centre,"sb\dot.png",0,0 C,0,46226,,255,255,255 F,1,46226,46826,1,0 S,1,46226,46826,1,0.2 MX,1,46226,46826,391,395 MY,1,46226,46826,369,410
Sprite,Foreground,Centre,"sb\dot.png",0,0 C,0,46226,,255,255,255 F,1,46226,46826,1,0 S,1,46226,46826,1,0.2 MX,1,46226,46826,391,338 MY,1,46226,46826,369,310
Sprite,Foreground,Centre,"sb\dot.png",0,0 C,0,46226,,255,255,255 F,1,46226,46826,1,0 S,1,46226,46826,1,0.2 MX,1,46226,46826,391,342 MY,1,46226,46826,369,316
Sprite,Foreground,Centre,"sb\dot.png",0,0 C,0,46226,,255,255,255 F,1,46226,46826,1,0 S,1,46226,46826,1,0.2 MX,1,46226,46826,391,426 MY,1,46226,46826,369,357
Sprite,Foreground,Centre,"sb\dot.png",0,0 C,0,46226,,255,255,255 F,1,46226,46826,1,0 S,1,46226,46826,1,0.2 MX,1,46226,46826,391,380 MY,1,46226,46826,369,336
Sprite,Foreground,Centre,"sb\dot.png",0,0 C,0,46226,,255,255,255 F,1,46226,46826,1,0 S,1,46226,46826,1,0.2 MX,1,46226,46826,391,358 MY,1,46226,46826,369,324
Sprite,Foreground,Centre,"sb\dot.png",0,0 C,0,46226,,255,255,255 F,1,46226,46826,1,0 S,1,46226,46826,1,0.2 MX,1,46226,46826,391,340 MY,1,46226,46826,369,397
Sprite,Foreground,Centre,"sb\dot.png",0,0 C,0,46226,,255,255,255 F,1,46226,46826,1,0 S,1,46226,46826,1,0.2 MX,1,46226,46826,391,419 MY,1,46226,46826,369,375
Sprite,Foreground,Centre,"sb\dot.png",0,0 C,0,46226,,255,255,255 F,1,46226,46826,1,0 S,1,46226,46826,1,0.2 MX,1,46226,46826,391,336 MY,1,46226,46826,369,356
Sprite,Foreground,Centre,"sb\dot.png",0,0 C,0,46226,,255,255,255 F,1,46226,46826,1,0 S,1,46226,46826,1,0.2 MX,1,46226,46826,391,427 MY,1,46226,46826,369,324
Sprite,Foreground,Centre,"sb\dot.png",0,0 C,0,46226,,255,255,255 F,1,46226,46826,1,0 S,1,46226,46826,1,0.2 MX,1,46226,46826,391,377 MY,1,46226,46826,369,401
Sprite,Foreground,Centre,"sb\dot.png",0,0 C,0,46226,,255,255,255 F,1,46226,46826,1,0 S,1,46226,46826,1,0.2 MX,1,46226,46826,391,373 MY,1,46226,46826,369,319
Sprite,Foreground,Centre,"sb\dot.png",0,0 C,0,46226,,255,255,255 F,1,46226,46826,1,0 S,1,46226,46826,1,0.2 MX,1,46226,46826,391,372 MY,1,46226,46826,369,384
Sprite,Foreground,Centre,"sb\dot.png",0,0 C,0,46226,,255,255,255 F,1,46226,46826,1,0 S,1,46226,46826,1,0.2 MX,1,46226,46826,391,444 MY,1,46226,46826,369,394
Sprite,Foreground,Centre,"sb\dot.png",0,0 C,0,46226,,255,255,255 F,1,46226,46826,1,0 S,1,46226,46826,1,0.2 MX,1,46226,46826,391,421 MY,1,46226,46826,369,370
Sprite,Foreground,Centre,"sb\dot.png",0,0 C,0,46226,,255,255,255 F,1,46226,46826,1,0 S,1,46226,46826,1,0.2 MX,1,46226,46826,391,428 MY,1,46226,46826,369,338
Sprite,Foreground,Centre,"sb\dot.png",0,0 C,0,46226,,255,255,255 F,1,46226,46826,1,0 S,1,46226,46826,1,0.2 MX,1,46226,46826,391,363 MY,1,46226,46826,369,394
Sprite,Foreground,Centre,"sb\dot.png",0,0 C,0,46226,,255,255,255 F,1,46226,46826,1,0 S,1,46226,46826,1,0.2 MX,1,46226,46826,391,397 MY,1,46226,46826,369,391
Sprite,Foreground,Centre,"sb\dot.png",0,0 C,0,46226,,255,255,255 F,1,46226,46826,1,0 S,1,46226,46826,1,0.2 MX,1,46226,46826,391,349 MY,1,46226,46826,369,417
Sprite,Foreground,Centre,"sb\dot.png",0,0 C,0,46226,,255,255,255 F,1,46226,46826,1,0 S,1,46226,46826,1,0.2 MX,1,46226,46826,391,352 MY,1,46226,46826,369,414
Sprite,Foreground,Centre,"sb\dot.png",0,0 C,0,46226,,255,255,255 F,1,46226,46826,1,0 S,1,46226,46826,1,0.2 MX,1,46226,46826,391,398 MY,1,46226,46826,369,422
Sprite,Foreground,Centre,"sb\dot.png",0,0 C,0,46226,,255,255,255 F,1,46226,46826,1,0 S,1,46226,46826,1,0.2 MX,1,46226,46826,391 MY,1,46226,46826,369,323
Sprite,Foreground,Centre,"sb\dot.png",0,0 C,0,46226,,255,255,255 F,1,46226,46826,1,0 S,1,46226,46826,1,0.2 MX,1,46226,46826,391,426 MY,1,46226,46826,369,323
Sprite,Foreground,Centre,"sb\dot.png",0,0 C,0,46226,,255,255,255 F,1,46226,46826,1,0 S,1,46226,46826,1,0.2 MX,1,46226,46826,391,350 MY,1,46226,46826,369,362
Sprite,Foreground,Centre,"sb\dot.png",0,0 C,0,46308,,255,255,255 F,1,46308,46908,1,0 S,1,46308,46908,1,0.2 MX,1,46308,46908,375,380 MY,1,46308,46908,364,413
Sprite,Foreground,Centre,"sb\dot.png",0,0 C,0,46308,,255,255,255 F,1,46308,46908,1,0 S,1,46308,46908,1,0.2 MX,1,46308,46908,375,361 MY,1,46308,46908,364,378
Sprite,Foreground,Centre,"sb\dot.png",0,0 C,0,46308,,255,255,255 F,1,46308,46908,1,0 S,1,46308,46908,1,0.2 MX,1,46308,46908,375,376 MY,1,46308,46908,364,381
Sprite,Foreground,Centre,"sb\dot.png",0,0 C,0,46308,,255,255,255 F,1,46308,46908,1,0 S,1,46308,46908,1,0.2 MX,1,46308,46908,375,379 MY,1,46308,46908,364,396
Sprite,Foreground,Centre,"sb\dot.png",0,0 C,0,46308,,255,255,255 F,1,46308,46908,1,0 S,1,46308,46908,1,0.2 MX,1,46308,46908,375,373 MY,1,46308,46908,364,421
Sprite,Foreground,Centre,"sb\dot.png",0,0 C,0,46308,,255,255,255 F,1,46308,46908,1,0 S,1,46308,46908,1,0.2 MX,1,46308,46908,375,395 MY,1,46308,46908,364,359
Sprite,Foreground,Centre,"sb\dot.png",0,0 C,0,46308,,255,255,255 F,1,46308,46908,1,0 S,1,46308,46908,1,0.2 MX,1,46308,46908,375,328 MY,1,46308,46908,364,314
Sprite,Foreground,Centre,"sb\dot.png",0,0 C,0,46308,,255,255,255 F,1,46308,46908,1,0 S,1,46308,46908,1,0.2 MX,1,46308,46908,375,392 MY,1,46308,46908,364,411
Sprite,Foreground,Centre,"sb\dot.png",0,0 C,0,46308,,255,255,255 F,1,46308,46908,1,0 S,1,46308,46908,1,0.2 MX,1,46308,46908,375,364 MY,1,46308,46908,364,421
Sprite,Foreground,Centre,"sb\dot.png",0,0 C,0,46308,,255,255,255 F,1,46308,46908,1,0 S,1,46308,46908,1,0.2 MX,1,46308,46908,375,418 MY,1,46308,46908,364,347
Sprite,Foreground,Centre,"sb\dot.png",0,0 C,0,46308,,255,255,255 F,1,46308,46908,1,0 S,1,46308,46908,1,0.2 MX,1,46308,46908,375,336 MY,1,46308,46908,364,309
Sprite,Foreground,Centre,"sb\dot.png",0,0 C,0,46308,,255,255,255 F,1,46308,46908,1,0 S,1,46308,46908,1,0.2 MX,1,46308,46908,375,362 MY,1,46308,46908,364,321
Sprite,Foreground,Centre,"sb\dot.png",0,0 C,0,46308,,255,255,255 F,1,46308,46908,1,0 S,1,46308,46908,1,0.2 MX,1,46308,46908,375,340 MY,1,46308,46908,364,414
Sprite,Foreground,Centre,"sb\dot.png",0,0 C,0,46308,,255,255,255 F,1,46308,46908,1,0 S,1,46308,46908,1,0.2 MX,1,46308,46908,375,382 MY,1,46308,46908,364,356
Sprite,Foreground,Centre,"sb\dot.png",0,0 C,0,46308,,255,255,255 F,1,46308,46908,1,0 S,1,46308,46908,1,0.2 MX,1,46308,46908,375,347 MY,1,46308,46908,364,331
Sprite,Foreground,Centre,"sb\dot.png",0,0 C,0,46308,,255,255,255 F,1,46308,46908,1,0 S,1,46308,46908,1,0.2 MX,1,46308,46908,375,350 MY,1,46308,46908,364,331
Sprite,Foreground,Centre,"sb\dot.png",0,0 C,0,46308,,255,255,255 F,1,46308,46908,1,0 S,1,46308,46908,1,0.2 MX,1,46308,46908,375,370 MY,1,46308,46908,364,363
Sprite,Foreground,Centre,"sb\dot.png",0,0 C,0,46308,,255,255,255 F,1,46308,46908,1,0 S,1,46308,46908,1,0.2 MX,1,46308,46908,375,334 MY,1,46308,46908,364,404
Sprite,Foreground,Centre,"sb\dot.png",0,0 C,0,46308,,255,255,255 F,1,46308,46908,1,0 S,1,46308,46908,1,0.2 MX,1,46308,46908,375,329 MY,1,46308,46908,364,327
Sprite,Foreground,Centre,"sb\dot.png",0,0 C,0,46308,,255,255,255 F,1,46308,46908,1,0 S,1,46308,46908,1,0.2 MX,1,46308,46908,375,403 MY,1,46308,46908,364,378
Sprite,Foreground,Centre,"sb\dot.png",0,0 C,0,46308,,255,255,255 F,1,46308,46908,1,0 S,1,46308,46908,1,0.2 MX,1,46308,46908,375,335 MY,1,46308,46908,364,398
Sprite,Foreground,Centre,"sb\dot.png",0,0 C,0,46308,,255,255,255 F,1,46308,46908,1,0 S,1,46308,46908,1,0.2 MX,1,46308,46908,375,338 MY,1,46308,46908,364,325
Sprite,Foreground,Centre,"sb\dot.png",0,0 C,0,46308,,255,255,255 F,1,46308,46908,1,0 S,1,46308,46908,1,0.2 MX,1,46308,46908,375,343 MY,1,46308,46908,364,390
Sprite,Foreground,Centre,"sb\dot.png",0,0 C,0,46308,,255,255,255 F,1,46308,46908,1,0 S,1,46308,46908,1,0.2 MX,1,46308,46908,375,406 MY,1,46308,46908,364,360
Sprite,Foreground,Centre,"sb\dot.png",0,0 C,0,46308,,255,255,255 F,1,46308,46908,1,0 S,1,46308,46908,1,0.2 MX,1,46308,46908,375,351 MY,1,46308,46908,364,376
Sprite,Foreground,Centre,"sb\dot.png",0,0 C,0,46308,,255,255,255 F,1,46308,46908,1,0 S,1,46308,46908,1,0.2 MX,1,46308,46908,375,399 MY,1,46308,46908,364,401
Sprite,Foreground,Centre,"sb\dot.png",0,0 C,0,46308,,255,255,255 F,1,46308,46908,1,0 S,1,46308,46908,1,0.2 MX,1,46308,46908,375,346 MY,1,46308,46908,364,400
Sprite,Foreground,Centre,"sb\dot.png",0,0 C,0,46308,,255,255,255 F,1,46308,46908,1,0 S,1,46308,46908,1,0.2 MX,1,46308,46908,375,346 MY,1,46308,46908,364,363
Sprite,Foreground,Centre,"sb\dot.png",0,0 C,0,46308,,255,255,255 F,1,46308,46908,1,0 S,1,46308,46908,1,0.2 MX,1,46308,46908,375,377 MY,1,46308,46908,364,333
Sprite,Foreground,Centre,"sb\dot.png",0,0 C,0,46308,,255,255,255 F,1,46308,46908,1,0 S,1,46308,46908,1,0.2 MX,1,46308,46908,375,363 MY,1,46308,46908,364,374
Sprite,Foreground,Centre,"sb\dot.png",0,0 C,0,46635,,255,255,255 F,1,46635,47235,1,0 S,1,46635,47235,1,0.2 MX,1,46635,47235,210,160 MY,1,46635,47235,402,354
Sprite,Foreground,Centre,"sb\dot.png",0,0 C,0,46635,,255,255,255 F,1,46635,47235,1,0 S,1,46635,47235,1,0.2 MX,1,46635,47235,210 MY,1,46635,47235,402,373
Sprite,Foreground,Centre,"sb\dot.png",0,0 C,0,46635,,255,255,255 F,1,46635,47235,1,0 S,1,46635,47235,1,0.2 MX,1,46635,47235,210,231 MY,1,46635,47235,402,395
Sprite,Foreground,Centre,"sb\dot.png",0,0 C,0,46635,,255,255,255 F,1,46635,47235,1,0 S,1,46635,47235,1,0.2 MX,1,46635,47235,210,150 MY,1,46635,47235,402,416
Sprite,Foreground,Centre,"sb\dot.png",0,0 C,0,46635,,255,255,255 F,1,46635,47235,1,0 S,1,46635,47235,1,0.2 MX,1,46635,47235,210,261 MY,1,46635,47235,402,438
Sprite,Foreground,Centre,"sb\dot.png",0,0 C,0,46635,,255,255,255 F,1,46635,47235,1,0 S,1,46635,47235,1,0.2 MX,1,46635,47235,210,243 MY,1,46635,47235,402,368
Sprite,Foreground,Centre,"sb\dot.png",0,0 C,0,46635,,255,255,255 F,1,46635,47235,1,0 S,1,46635,47235,1,0.2 MX,1,46635,47235,210,178 MY,1,46635,47235,402,371
Sprite,Foreground,Centre,"sb\dot.png",0,0 C,0,46635,,255,255,255 F,1,46635,47235,1,0 S,1,46635,47235,1,0.2 MX,1,46635,47235,210,172 MY,1,46635,47235,402,389
Sprite,Foreground,Centre,"sb\dot.png",0,0 C,0,46635,,255,255,255 F,1,46635,47235,1,0 S,1,46635,47235,1,0.2 MX,1,46635,47235,210,252 MY,1,46635,47235,402,367
Sprite,Foreground,Centre,"sb\dot.png",0,0 C,0,46635,,255,255,255 F,1,46635,47235,1,0 S,1,46635,47235,1,0.2 MX,1,46635,47235,210,258 MY,1,46635,47235,402,401
Sprite,Foreground,Centre,"sb\dot.png",0,0 C,0,46635,,255,255,255 F,1,46635,47235,1,0 S,1,46635,47235,1,0.2 MX,1,46635,47235,210,169 MY,1,46635,47235,402,352
Sprite,Foreground,Centre,"sb\dot.png",0,0 C,0,46635,,255,255,255 F,1,46635,47235,1,0 S,1,46635,47235,1,0.2 MX,1,46635,47235,210,166 MY,1,46635,47235,402,421
Sprite,Foreground,Centre,"sb\dot.png",0,0 C,0,46635,,255,255,255 F,1,46635,47235,1,0 S,1,46635,47235,1,0.2 MX,1,46635,47235,210,212 MY,1,46635,47235,402,399
Sprite,Foreground,Centre,"sb\dot.png",0,0 C,0,46635,,255,255,255 F,1,46635,47235,1,0 S,1,46635,47235,1,0.2 MX,1,46635,47235,210,265 MY,1,46635,47235,402,421
Sprite,Foreground,Centre,"sb\dot.png",0,0 C,0,46635,,255,255,255 F,1,46635,47235,1,0 S,1,46635,47235,1,0.2 MX,1,46635,47235,210,177 MY,1,46635,47235,402,422
Sprite,Foreground,Centre,"sb\dot.png",0,0 C,0,46635,,255,255,255 F,1,46635,47235,1,0 S,1,46635,47235,1,0.2 MX,1,46635,47235,210,188 MY,1,46635,47235,402,447
Sprite,Foreground,Centre,"sb\dot.png",0,0 C,0,46635,,255,255,255 F,1,46635,47235,1,0 S,1,46635,47235,1,0.2 MX,1,46635,47235,210,245 MY,1,46635,47235,402,360
Sprite,Foreground,Centre,"sb\dot.png",0,0 C,0,46635,,255,255,255 F,1,46635,47235,1,0 S,1,46635,47235,1,0.2 MX,1,46635,47235,210,213 MY,1,46635,47235,402,350
Sprite,Foreground,Centre,"sb\dot.png",0,0 C,0,46635,,255,255,255 F,1,46635,47235,1,0 S,1,46635,47235,1,0.2 MX,1,46635,47235,210,183 MY,1,46635,47235,402,454
Sprite,Foreground,Centre,"sb\dot.png",0,0 C,0,46635,,255,255,255 F,1,46635,47235,1,0 S,1,46635,47235,1,0.2 MX,1,46635,47235,210 MY,1,46635,47235,402,437
Sprite,Foreground,Centre,"sb\dot.png",0,0 C,0,46635,,255,255,255 F,1,46635,47235,1,0 S,1,46635,47235,1,0.2 MX,1,46635,47235,210,236 MY,1,46635,47235,402,359
Sprite,Foreground,Centre,"sb\dot.png",0,0 C,0,46635,,255,255,255 F,1,46635,47235,1,0 S,1,46635,47235,1,0.2 MX,1,46635,47235,210,215 MY,1,46635,47235,402,401
Sprite,Foreground,Centre,"sb\dot.png",0,0 C,0,46635,,255,255,255 F,1,46635,47235,1,0 S,1,46635,47235,1,0.2 MX,1,46635,47235,210,249 MY,1,46635,47235,402,400
Sprite,Foreground,Centre,"sb\dot.png",0,0 C,0,46635,,255,255,255 F,1,46635,47235,1,0 S,1,46635,47235,1,0.2 MX,1,46635,47235,210,218 MY,1,46635,47235,402,343
Sprite,Foreground,Centre,"sb\dot.png",0,0 C,0,46635,,255,255,255 F,1,46635,47235,1,0 S,1,46635,47235,1,0.2 MX,1,46635,47235,210,223 MY,1,46635,47235,402,446
Sprite,Foreground,Centre,"sb\dot.png",0,0 C,0,46635,,255,255,255 F,1,46635,47235,1,0 S,1,46635,47235,1,0.2 MX,1,46635,47235,210,227 MY,1,46635,47235,402,378
Sprite,Foreground,Centre,"sb\dot.png",0,0 C,0,46635,,255,255,255 F,1,46635,47235,1,0 S,1,46635,47235,1,0.2 MX,1,46635,47235,210,190 MY,1,46635,47235,402,450
Sprite,Foreground,Centre,"sb\dot.png",0,0 C,0,46635,,255,255,255 F,1,46635,47235,1,0 S,1,46635,47235,1,0.2 MX,1,46635,47235,210,201 MY,1,46635,47235,402,342
Sprite,Foreground,Centre,"sb\dot.png",0,0 C,0,46635,,255,255,255 F,1,46635,47235,1,0 S,1,46635,47235,1,0.2 MX,1,46635,47235,210,266 MY,1,46635,47235,402,442
Sprite,Foreground,Centre,"sb\dot.png",0,0 C,0,46635,,255,255,255 F,1,46635,47235,1,0 S,1,46635,47235,1,0.2 MX,1,46635,47235,210,238 MY,1,46635,47235,402,365
Sprite,Foreground,Centre,"sb\dot.png",0,0 C,0,46799,,255,255,255 F,1,46799,47399,1,0 S,1,46799,47399,1,0.2 MX,1,46799,47399,106,103 MY,1,46799,47399,422,402
Sprite,Foreground,Centre,"sb\dot.png",0,0 C,0,46799,,255,255,255 F,1,46799,47399,1,0 S,1,46799,47399,1,0.2 MX,1,46799,47399,106,93 MY,1,46799,47399,422,393
Sprite,Foreground,Centre,"sb\dot.png",0,0 C,0,46799,,255,255,255 F,1,46799,47399,1,0 S,1,46799,47399,1,0.2 MX,1,46799,47399,106,103 MY,1,46799,47399,422,469
Sprite,Foreground,Centre,"sb\dot.png",0,0 C,0,46799,,255,255,255 F,1,46799,47399,1,0 S,1,46799,47399,1,0.2 MX,1,46799,47399,106,97 MY,1,46799,47399,422,372
Sprite,Foreground,Centre,"sb\dot.png",0,0 C,0,46799,,255,255,255 F,1,46799,47399,1,0 S,1,46799,47399,1,0.2 MX,1,46799,47399,106,131 MY,1,46799,47399,422,376
Sprite,Foreground,Centre,"sb\dot.png",0,0 C,0,46799,,255,255,255 F,1,46799,47399,1,0 S,1,46799,47399,1,0.2 MX,1,46799,47399,106,59 MY,1,46799,47399,422,471
Sprite,Foreground,Centre,"sb\dot.png",0,0 C,0,46799,,255,255,255 F,1,46799,47399,1,0 S,1,46799,47399,1,0.2 MX,1,46799,47399,106,131 MY,1,46799,47399,422,375
Sprite,Foreground,Centre,"sb\dot.png",0,0 C,0,46799,,255,255,255 F,1,46799,47399,1,0 S,1,46799,47399,1,0.2 MX,1,46799,47399,106,139 MY,1,46799,47399,422,363
Sprite,Foreground,Centre,"sb\dot.png",0,0 C,0,46799,,255,255,255 F,1,46799,47399,1,0 S,1,46799,47399,1,0.2 MX,1,46799,47399,106,110 MY,1,46799,47399,422,438
Sprite,Foreground,Centre,"sb\dot.png",0,0 C,0,46799,,255,255,255 F,1,46799,47399,1,0 S,1,46799,47399,1,0.2 MX,1,46799,47399,106,146 MY,1,46799,47399,422,366
Sprite,Foreground,Centre,"sb\dot.png",0,0 C,0,46799,,255,255,255 F,1,46799,47399,1,0 S,1,46799,47399,1,0.2 MX,1,46799,47399,106,155 MY,1,46799,47399,422,475
Sprite,Foreground,Centre,"sb\dot.png",0,0 C,0,46799,,255,255,255 F,1,46799,47399,1,0 S,1,46799,47399,1,0.2 MX,1,46799,47399,106,51 MY,1,46799,47399,422,405
Sprite,Foreground,Centre,"sb\dot.png",0,0 C,0,46799,,255,255,255 F,1,46799,47399,1,0 S,1,46799,47399,1,0.2 MX,1,46799,47399,106,48 MY,1,46799,47399,422,364
Sprite,Foreground,Centre,"sb\dot.png",0,0 C,0,46799,,255,255,255 F,1,46799,47399,1,0 S,1,46799,47399,1,0.2 MX,1,46799,47399,106,110 MY,1,46799,47399,422,468
Sprite,Foreground,Centre,"sb\dot.png",0,0 C,0,46799,,255,255,255 F,1,46799,47399,1,0 S,1,46799,47399,1,0.2 MX,1,46799,47399,106,133 MY,1,46799,47399,422,425
Sprite,Foreground,Centre,"sb\dot.png",0,0 C,0,46799,,255,255,255 F,1,46799,47399,1,0 S,1,46799,47399,1,0.2 MX,1,46799,47399,106,58 MY,1,46799,47399,422,415
Sprite,Foreground,Centre,"sb\dot.png",0,0 C,0,46799,,255,255,255 F,1,46799,47399,1,0 S,1,46799,47399,1,0.2 MX,1,46799,47399,106,69 MY,1,46799,47399,422,398
Sprite,Foreground,Centre,"sb\dot.png",0,0 C,0,46799,,255,255,255 F,1,46799,47399,1,0 S,1,46799,47399,1,0.2 MX,1,46799,47399,106,83 MY,1,46799,47399,422,407
Sprite,Foreground,Centre,"sb\dot.png",0,0 C,0,46799,,255,255,255 F,1,46799,47399,1,0 S,1,46799,47399,1,0.2 MX,1,46799,47399,106,136 MY,1,46799,47399,422,396
Sprite,Foreground,Centre,"sb\dot.png",0,0 C,0,46799,,255,255,255 F,1,46799,47399,1,0 S,1,46799,47399,1,0.2 MX,1,46799,47399,106,47 MY,1,46799,47399,422,473
Sprite,Foreground,Centre,"sb\dot.png",0,0 C,0,46799,,255,255,255 F,1,46799,47399,1,0 S,1,46799,47399,1,0.2 MX,1,46799,47399,106,52 MY,1,46799,47399,422,420
Sprite,Foreground,Centre,"sb\dot.png",0,0 C,0,46799,,255,255,255 F,1,46799,47399,1,0 S,1,46799,47399,1,0.2 MX,1,46799,47399,106,82 MY,1,46799,47399,422,421
Sprite,Foreground,Centre,"sb\dot.png",0,0 C,0,46799,,255,255,255 F,1,46799,47399,1,0 S,1,46799,47399,1,0.2 MX,1,46799,47399,106,136 MY,1,46799,47399,422,449
Sprite,Foreground,Centre,"sb\dot.png",0,0 C,0,46799,,255,255,255 F,1,46799,47399,1,0 S,1,46799,47399,1,0.2 MX,1,46799,47399,106,116 MY,1,46799,47399,422,388
Sprite,Foreground,Centre,"sb\dot.png",0,0 C,0,46799,,255,255,255 F,1,46799,47399,1,0 S,1,46799,47399,1,0.2 MX,1,46799,47399,106,60 MY,1,46799,47399,422,411
Sprite,Foreground,Centre,"sb\dot.png",0,0 C,0,46799,,255,255,255 F,1,46799,47399,1,0 S,1,46799,47399,1,0.2 MX,1,46799,47399,106,101 MY,1,46799,47399,422,401
Sprite,Foreground,Centre,"sb\dot.png",0,0 C,0,46799,,255,255,255 F,1,46799,47399,1,0 S,1,46799,47399,1,0.2 MX,1,46799,47399,106,46 MY,1,46799,47399,422,446
Sprite,Foreground,Centre,"sb\dot.png",0,0 C,0,46799,,255,255,255 F,1,46799,47399,1,0 S,1,46799,47399,1,0.2 MX,1,46799,47399,106,80 MY,1,46799,47399,422,425
Sprite,Foreground,Centre,"sb\dot.png",0,0 C,0,46799,,255,255,255 F,1,46799,47399,1,0 S,1,46799,47399,1,0.2 MX,1,46799,47399,106,81 MY,1,46799,47399,422,365
Sprite,Foreground,Centre,"sb\dot.png",0,0 C,0,46799,,255,255,255 F,1,46799,47399,1,0 S,1,46799,47399,1,0.2 MX,1,46799,47399,106,74 MY,1,46799,47399,422,417
Sprite,Foreground,Centre,"sb\dot.png",0,0 C,0,46963,,255,255,255 F,1,46963,47563,1,0 S,1,46963,47563,1,0.2 MX,1,46963,47563,83,66 MY,1,46963,47563,319,324
Sprite,Foreground,Centre,"sb\dot.png",0,0 C,0,46963,,255,255,255 F,1,46963,47563,1,0 S,1,46963,47563,1,0.2 MX,1,46963,47563,83,66 MY,1,46963,47563,319,280
Sprite,Foreground,Centre,"sb\dot.png",0,0 C,0,46963,,255,255,255 F,1,46963,47563,1,0 S,1,46963,47563,1,0.2 MX,1,46963,47563,83,25 MY,1,46963,47563,319,339
Sprite,Foreground,Centre,"sb\dot.png",0,0 C,0,46963,,255,255,255 F,1,46963,47563,1,0 S,1,46963,47563,1,0.2 MX,1,46963,47563,83,108 MY,1,46963,47563,319,308
Sprite,Foreground,Centre,"sb\dot.png",0,0 C,0,46963,,255,255,255 F,1,46963,47563,1,0 S,1,46963,47563,1,0.2 MX,1,46963,47563,83,118 MY,1,46963,47563,319,307
Sprite,Foreground,Centre,"sb\dot.png",0,0 C,0,46963,,255,255,255 F,1,46963,47563,1,0 S,1,46963,47563,1,0.2 MX,1,46963,47563,83,54 MY,1,46963,47563,319,288
Sprite,Foreground,Centre,"sb\dot.png",0,0 C,0,46963,,255,255,255 F,1,46963,47563,1,0 S,1,46963,47563,1,0.2 MX,1,46963,47563,83,97 MY,1,46963,47563,319,368
Sprite,Foreground,Centre,"sb\dot.png",0,0 C,0,46963,,255,255,255 F,1,46963,47563,1,0 S,1,46963,47563,1,0.2 MX,1,46963,47563,83,141 MY,1,46963,47563,319,310
Sprite,Foreground,Centre,"sb\dot.png",0,0 C,0,46963,,255,255,255 F,1,46963,47563,1,0 S,1,46963,47563,1,0.2 MX,1,46963,47563,83,100 MY,1,46963,47563,319,325
Sprite,Foreground,Centre,"sb\dot.png",0,0 C,0,46963,,255,255,255 F,1,46963,47563,1,0 S,1,46963,47563,1,0.2 MX,1,46963,47563,83,95 MY,1,46963,47563,319,294
Sprite,Foreground,Centre,"sb\dot.png",0,0 C,0,46963,,255,255,255 F,1,46963,47563,1,0 S,1,46963,47563,1,0.2 MX,1,46963,47563,83,74 MY,1,46963,47563,319,296
Sprite,Foreground,Centre,"sb\dot.png",0,0 C,0,46963,,255,255,255 F,1,46963,47563,1,0 S,1,46963,47563,1,0.2 MX,1,46963,47563,83,114 MY,1,46963,47563,319,296
Sprite,Foreground,Centre,"sb\dot.png",0,0 C,0,46963,,255,255,255 F,1,46963,47563,1,0 S,1,46963,47563,1,0.2 MX,1,46963,47563,83,31 MY,1,46963,47563,319,351
Sprite,Foreground,Centre,"sb\dot.png",0,0 C,0,46963,,255,255,255 F,1,46963,47563,1,0 S,1,46963,47563,1,0.2 MX,1,46963,47563,83,76 MY,1,46963,47563,319,318
Sprite,Foreground,Centre,"sb\dot.png",0,0 C,0,46963,,255,255,255 F,1,46963,47563,1,0 S,1,46963,47563,1,0.2 MX,1,46963,47563,83,24 MY,1,46963,47563,319,353
Sprite,Foreground,Centre,"sb\dot.png",0,0 C,0,46963,,255,255,255 F,1,46963,47563,1,0 S,1,46963,47563,1,0.2 MX,1,46963,47563,83,33 MY,1,46963,47563,319,345
Sprite,Foreground,Centre,"sb\dot.png",0,0 C,0,46963,,255,255,255 F,1,46963,47563,1,0 S,1,46963,47563,1,0.2 MX,1,46963,47563,83,29 MY,1,46963,47563,319,325
Sprite,Foreground,Centre,"sb\dot.png",0,0 C,0,46963,,255,255,255 F,1,46963,47563,1,0 S,1,46963,47563,1,0.2 MX,1,46963,47563,83,91 MY,1,46963,47563,319,320
Sprite,Foreground,Centre,"sb\dot.png",0,0 C,0,46963,,255,255,255 F,1,46963,47563,1,0 S,1,46963,47563,1,0.2 MX,1,46963,47563,83,37 MY,1,46963,47563,319,273
Sprite,Foreground,Centre,"sb\dot.png",0,0 C,0,46963,,255,255,255 F,1,46963,47563,1,0 S,1,46963,47563,1,0.2 MX,1,46963,47563,83,79 MY,1,46963,47563,319,268
Sprite,Foreground,Centre,"sb\dot.png",0,0 C,0,46963,,255,255,255 F,1,46963,47563,1,0 S,1,46963,47563,1,0.2 MX,1,46963,47563,83,24 MY,1,46963,47563,319,280
Sprite,Foreground,Centre,"sb\dot.png",0,0 C,0,46963,,255,255,255 F,1,46963,47563,1,0 S,1,46963,47563,1,0.2 MX,1,46963,47563,83,74 MY,1,46963,47563,319,345
Sprite,Foreground,Centre,"sb\dot.png",0,0 C,0,46963,,255,255,255 F,1,46963,47563,1,0 S,1,46963,47563,1,0.2 MX,1,46963,47563,83,40 MY,1,46963,47563,319,284
Sprite,Foreground,Centre,"sb\dot.png",0,0 C,0,46963,,255,255,255 F,1,46963,47563,1,0 S,1,46963,47563,1,0.2 MX,1,46963,47563,83,107 MY,1,46963,47563,319,269
Sprite,Foreground,Centre,"sb\dot.png",0,0 C,0,46963,,255,255,255 F,1,46963,47563,1,0 S,1,46963,47563,1,0.2 MX,1,46963,47563,83,108 MY,1,46963,47563,319,362
Sprite,Foreground,Centre,"sb\dot.png",0,0 C,0,46963,,255,255,255 F,1,46963,47563,1,0 S,1,46963,47563,1,0.2 MX,1,46963,47563,83,128 MY,1,46963,47563,319,347
Sprite,Foreground,Centre,"sb\dot.png",0,0 C,0,46963,,255,255,255 F,1,46963,47563,1,0 S,1,46963,47563,1,0.2 MX,1,46963,47563,83,73 MY,1,46963,47563,319,372
Sprite,Foreground,Centre,"sb\dot.png",0,0 C,0,46963,,255,255,255 F,1,46963,47563,1,0 S,1,46963,47563,1,0.2 MX,1,46963,47563,83,27 MY,1,46963,47563,319,264
Sprite,Foreground,Centre,"sb\dot.png",0,0 C,0,46963,,255,255,255 F,1,46963,47563,1,0 S,1,46963,47563,1,0.2 MX,1,46963,47563,83,116 MY,1,46963,47563,319,264
Sprite,Foreground,Centre,"sb\dot.png",0,0 C,0,46963,,255,255,255 F,1,46963,47563,1,0 S,1,46963,47563,1,0.2 MX,1,46963,47563,83,36 MY,1,46963,47563,319,289
Sprite,Foreground,Centre,"sb\dot.png",0,0 C,0,47127,,255,255,255 F,1,47127,47727,1,0 S,1,47127,47727,1,0.2 MX,1,47127,47727,187,154 MY,1,47127,47727,299,264
Sprite,Foreground,Centre,"sb\dot.png",0,0 C,0,47127,,255,255,255 F,1,47127,47727,1,0 S,1,47127,47727,1,0.2 MX,1,47127,47727,187,175 MY,1,47127,47727,299,239
Sprite,Foreground,Centre,"sb\dot.png",0,0 C,0,47127,,255,255,255 F,1,47127,47727,1,0 S,1,47127,47727,1,0.2 MX,1,47127,47727,187,165 MY,1,47127,47727,299,304
Sprite,Foreground,Centre,"sb\dot.png",0,0 C,0,47127,,255,255,255 F,1,47127,47727,1,0 S,1,47127,47727,1,0.2 MX,1,47127,47727,187,150 MY,1,47127,47727,299,247
Sprite,Foreground,Centre,"sb\dot.png",0,0 C,0,47127,,255,255,255 F,1,47127,47727,1,0 S,1,47127,47727,1,0.2 MX,1,47127,47727,187,167 MY,1,47127,47727,299,295
Sprite,Foreground,Centre,"sb\dot.png",0,0 C,0,47127,,255,255,255 F,1,47127,47727,1,0 S,1,47127,47727,1,0.2 MX,1,47127,47727,187,163 MY,1,47127,47727,299,301
Sprite,Foreground,Centre,"sb\dot.png",0,0 C,0,47127,,255,255,255 F,1,47127,47727,1,0 S,1,47127,47727,1,0.2 MX,1,47127,47727,187,137 MY,1,47127,47727,299,302
Sprite,Foreground,Centre,"sb\dot.png",0,0 C,0,47127,,255,255,255 F,1,47127,47727,1,0 S,1,47127,47727,1,0.2 MX,1,47127,47727,187,160 MY,1,47127,47727,299,268
Sprite,Foreground,Centre,"sb\dot.png",0,0 C,0,47127,,255,255,255 F,1,47127,47727,1,0 S,1,47127,47727,1,0.2 MX,1,47127,47727,187,233 MY,1,47127,47727,299,244
Sprite,Foreground,Centre,"sb\dot.png",0,0 C,0,47127,,255,255,255 F,1,47127,47727,1,0 S,1,47127,47727,1,0.2 MX,1,47127,47727,187,146 MY,1,47127,47727,299,341
Sprite,Foreground,Centre,"sb\dot.png",0,0 C,0,47127,,255,255,255 F,1,47127,47727,1,0 S,1,47127,47727,1,0.2 MX,1,47127,47727,187,134 MY,1,47127,47727,299,281
Sprite,Foreground,Centre,"sb\dot.png",0,0 C,0,47127,,255,255,255 F,1,47127,47727,1,0 S,1,47127,47727,1,0.2 MX,1,47127,47727,187,221 MY,1,47127,47727,299,256
Sprite,Foreground,Centre,"sb\dot.png",0,0 C,0,47127,,255,255,255 F,1,47127,47727,1,0 S,1,47127,47727,1,0.2 MX,1,47127,47727,187,236 MY,1,47127,47727,299,280
Sprite,Foreground,Centre,"sb\dot.png",0,0 C,0,47127,,255,255,255 F,1,47127,47727,1,0 S,1,47127,47727,1,0.2 MX,1,47127,47727,187,162 MY,1,47127,47727,299,252
Sprite,Foreground,Centre,"sb\dot.png",0,0 C,0,47127,,255,255,255 F,1,47127,47727,1,0 S,1,47127,47727,1,0.2 MX,1,47127,47727,187,188 MY,1,47127,47727,299,301
Sprite,Foreground,Centre,"sb\dot.png",0,0 C,0,47127,,255,255,255 F,1,47127,47727,1,0 S,1,47127,47727,1,0.2 MX,1,47127,47727,187,214 MY,1,47127,47727,299,247
Sprite,Foreground,Centre,"sb\dot.png",0,0 C,0,47127,,255,255,255 F,1,47127,47727,1,0 S,1,47127,47727,1,0.2 MX,1,47127,47727,187,127 MY,1,47127,47727,299,265
Sprite,Foreground,Centre,"sb\dot.png",0,0 C,0,47127,,255,255,255 F,1,47127,47727,1,0 S,1,47127,47727,1,0.2 MX,1,47127,47727,187,229 MY,1,47127,47727,299,334
Sprite,Foreground,Centre,"sb\dot.png",0,0 C,0,47127,,255,255,255 F,1,47127,47727,1,0 S,1,47127,47727,1,0.2 MX,1,47127,47727,187,220 MY,1,47127,47727,299,289
Sprite,Foreground,Centre,"sb\dot.png",0,0 C,0,47127,,255,255,255 F,1,47127,47727,1,0 S,1,47127,47727,1,0.2 MX,1,47127,47727,187,174 MY,1,47127,47727,299,311
Sprite,Foreground,Centre,"sb\dot.png",0,0 C,0,47127,,255,255,255 F,1,47127,47727,1,0 S,1,47127,47727,1,0.2 MX,1,47127,47727,187,129 MY,1,47127,47727,299,315
Sprite,Foreground,Centre,"sb\dot.png",0,0 C,0,47127,,255,255,255 F,1,47127,47727,1,0 S,1,47127,47727,1,0.2 MX,1,47127,47727,187,216 MY,1,47127,47727,299,267
Sprite,Foreground,Centre,"sb\dot.png",0,0 C,0,47127,,255,255,255 F,1,47127,47727,1,0 S,1,47127,47727,1,0.2 MX,1,47127,47727,187,194 MY,1,47127,47727,299,281
Sprite,Foreground,Centre,"sb\dot.png",0,0 C,0,47127,,255,255,255 F,1,47127,47727,1,0 S,1,47127,47727,1,0.2 MX,1,47127,47727,187,205 MY,1,47127,47727,299,346
Sprite,Foreground,Centre,"sb\dot.png",0,0 C,0,47127,,255,255,255 F,1,47127,47727,1,0 S,1,47127,47727,1,0.2 MX,1,47127,47727,187,206 MY,1,47127,47727,299,333
Sprite,Foreground,Centre,"sb\dot.png",0,0 C,0,47127,,255,255,255 F,1,47127,47727,1,0 S,1,47127,47727,1,0.2 MX,1,47127,47727,187,145 MY,1,47127,47727,299,326
Sprite,Foreground,Centre,"sb\dot.png",0,0 C,0,47127,,255,255,255 F,1,47127,47727,1,0 S,1,47127,47727,1,0.2 MX,1,47127,47727,187,233 MY,1,47127,47727,299,270
Sprite,Foreground,Centre,"sb\dot.png",0,0 C,0,47127,,255,255,255 F,1,47127,47727,1,0 S,1,47127,47727,1,0.2 MX,1,47127,47727,187,149 MY,1,47127,47727,299,344
Sprite,Foreground,Centre,"sb\dot.png",0,0 C,0,47127,,255,255,255 F,1,47127,47727,1,0 S,1,47127,47727,1,0.2 MX,1,47127,47727,187,178 MY,1,47127,47727,299,269
Sprite,Foreground,Centre,"sb\dot.png",0,0 C,0,47127,,255,255,255 F,1,47127,47727,1,0 S,1,47127,47727,1,0.2 MX,1,47127,47727,187,138 MY,1,47127,47727,299,355
Sprite,Foreground,Centre,"sb\dot.png",0,0 C,0,47291,,255,255,255 F,1,47291,47891,1,0 S,1,47291,47891,1,0.2 MX,1,47291,47891,268,238 MY,1,47291,47891,232,182
Sprite,Foreground,Centre,"sb\dot.png",0,0 C,0,47291,,255,255,255 F,1,47291,47891,1,0 S,1,47291,47891,1,0.2 MX,1,47291,47891,268,274 MY,1,47291,47891,232,270
Sprite,Foreground,Centre,"sb\dot.png",0,0 C,0,47291,,255,255,255 F,1,47291,47891,1,0 S,1,47291,47891,1,0.2 MX,1,47291,47891,268,297 MY,1,47291,47891,232,199
Sprite,Foreground,Centre,"sb\dot.png",0,0 C,0,47291,,255,255,255 F,1,47291,47891,1,0 S,1,47291,47891,1,0.2 MX,1,47291,47891,268,270 MY,1,47291,47891,232,275
Sprite,Foreground,Centre,"sb\dot.png",0,0 C,0,47291,,255,255,255 F,1,47291,47891,1,0 S,1,47291,47891,1,0.2 MX,1,47291,47891,268,289 MY,1,47291,47891,232,229
Sprite,Foreground,Centre,"sb\dot.png",0,0 C,0,47291,,255,255,255 F,1,47291,47891,1,0 S,1,47291,47891,1,0.2 MX,1,47291,47891,268,264 MY,1,47291,47891,232,228
Sprite,Foreground,Centre,"sb\dot.png",0,0 C,0,47291,,255,255,255 F,1,47291,47891,1,0 S,1,47291,47891,1,0.2 MX,1,47291,47891,268,285 MY,1,47291,47891,232,239
Sprite,Foreground,Centre,"sb\dot.png",0,0 C,0,47291,,255,255,255 F,1,47291,47891,1,0 S,1,47291,47891,1,0.2 MX,1,47291,47891,268,308 MY,1,47291,47891,232,223
Sprite,Foreground,Centre,"sb\dot.png",0,0 C,0,47291,,255,255,255 F,1,47291,47891,1,0 S,1,47291,47891,1,0.2 MX,1,47291,47891,268,280 MY,1,47291,47891,232,237
Sprite,Foreground,Centre,"sb\dot.png",0,0 C,0,47291,,255,255,255 F,1,47291,47891,1,0 S,1,47291,47891,1,0.2 MX,1,47291,47891,268,278 MY,1,47291,47891,232,238
Sprite,Foreground,Centre,"sb\dot.png",0,0 C,0,47291,,255,255,255 F,1,47291,47891,1,0 S,1,47291,47891,1,0.2 MX,1,47291,47891,268,291 MY,1,47291,47891,232,219
Sprite,Foreground,Centre,"sb\dot.png",0,0 C,0,47291,,255,255,255 F,1,47291,47891,1,0 S,1,47291,47891,1,0.2 MX,1,47291,47891,268,261 MY,1,47291,47891,232,259
Sprite,Foreground,Centre,"sb\dot.png",0,0 C,0,47291,,255,255,255 F,1,47291,47891,1,0 S,1,47291,47891,1,0.2 MX,1,47291,47891,268,251 MY,1,47291,47891,232,172
Sprite,Foreground,Centre,"sb\dot.png",0,0 C,0,47291,,255,255,255 F,1,47291,47891,1,0 S,1,47291,47891,1,0.2 MX,1,47291,47891,268,230 MY,1,47291,47891,232,261
Sprite,Foreground,Centre,"sb\dot.png",0,0 C,0,47291,,255,255,255 F,1,47291,47891,1,0 S,1,47291,47891,1,0.2 MX,1,47291,47891,268,211 MY,1,47291,47891,232,289
Sprite,Foreground,Centre,"sb\dot.png",0,0 C,0,47291,,255,255,255 F,1,47291,47891,1,0 S,1,47291,47891,1,0.2 MX,1,47291,47891,268,252 MY,1,47291,47891,232,234
Sprite,Foreground,Centre,"sb\dot.png",0,0 C,0,47291,,255,255,255 F,1,47291,47891,1,0 S,1,47291,47891,1,0.2 MX,1,47291,47891,268,246 MY,1,47291,47891,232,223
Sprite,Foreground,Centre,"sb\dot.png",0,0 C,0,47291,,255,255,255 F,1,47291,47891,1,0 S,1,47291,47891,1,0.2 MX,1,47291,47891,268,250 MY,1,47291,47891,232,284
Sprite,Foreground,Centre,"sb\dot.png",0,0 C,0,47291,,255,255,255 F,1,47291,47891,1,0 S,1,47291,47891,1,0.2 MX,1,47291,47891,268,217 MY,1,47291,47891,232,283
Sprite,Foreground,Centre,"sb\dot.png",0,0 C,0,47291,,255,255,255 F,1,47291,47891,1,0 S,1,47291,47891,1,0.2 MX,1,47291,47891,268,267 MY,1,47291,47891,232,211
Sprite,Foreground,Centre,"sb\dot.png",0,0 C,0,47291,,255,255,255 F,1,47291,47891,1,0 S,1,47291,47891,1,0.2 MX,1,47291,47891,268,308 MY,1,47291,47891,232,266
Sprite,Foreground,Centre,"sb\dot.png",0,0 C,0,47291,,255,255,255 F,1,47291,47891,1,0 S,1,47291,47891,1,0.2 MX,1,47291,47891,268,234 MY,1,47291,47891,232,193
Sprite,Foreground,Centre,"sb\dot.png",0,0 C,0,47291,,255,255,255 F,1,47291,47891,1,0 S,1,47291,47891,1,0.2 MX,1,47291,47891,268,245 MY,1,47291,47891,232,254
Sprite,Foreground,Centre,"sb\dot.png",0,0 C,0,47291,,255,255,255 F,1,47291,47891,1,0 S,1,47291,47891,1,0.2 MX,1,47291,47891,268,217 MY,1,47291,47891,232,211
Sprite,Foreground,Centre,"sb\dot.png",0,0 C,0,47291,,255,255,255 F,1,47291,47891,1,0 S,1,47291,47891,1,0.2 MX,1,47291,47891,268,258 MY,1,47291,47891,232,263
Sprite,Foreground,Centre,"sb\dot.png",0,0 C,0,47291,,255,255,255 F,1,47291,47891,1,0 S,1,47291,47891,1,0.2 MX,1,47291,47891,268,240 MY,1,47291,47891,232,278
Sprite,Foreground,Centre,"sb\dot.png",0,0 C,0,47291,,255,255,255 F,1,47291,47891,1,0 S,1,47291,47891,1,0.2 MX,1,47291,47891,268,288 MY,1,47291,47891,232,236
Sprite,Foreground,Centre,"sb\dot.png",0,0 C,0,47291,,255,255,255 F,1,47291,47891,1,0 S,1,47291,47891,1,0.2 MX,1,47291,47891,268,241 MY,1,47291,47891,232,274
Sprite,Foreground,Centre,"sb\dot.png",0,0 C,0,47291,,255,255,255 F,1,47291,47891,1,0 S,1,47291,47891,1,0.2 MX,1,47291,47891,268,284 MY,1,47291,47891,232,271
Sprite,Foreground,Centre,"sb\dot.png",0,0 C,0,47291,,255,255,255 F,1,47291,47891,1,0 S,1,47291,47891,1,0.2 MX,1,47291,47891,268,262 MY,1,47291,47891,232,260
Sprite,Foreground,Centre,"sb\dot.png",0,0 C,0,47537,,255,255,255 F,1,47537,48137,1,0 S,1,47537,48137,1,0.2 MX,1,47537,48137,360,304 MY,1,47537,48137,273,305
Sprite,Foreground,Centre,"sb\dot.png",0,0 C,0,47537,,255,255,255 F,1,47537,48137,1,0 S,1,47537,48137,1,0.2 MX,1,47537,48137,360,399 MY,1,47537,48137,273,296
Sprite,Foreground,Centre,"sb\dot.png",0,0 C,0,47537,,255,255,255 F,1,47537,48137,1,0 S,1,47537,48137,1,0.2 MX,1,47537,48137,360,313 MY,1,47537,48137,273,326
Sprite,Foreground,Centre,"sb\dot.png",0,0 C,0,47537,,255,255,255 F,1,47537,48137,1,0 S,1,47537,48137,1,0.2 MX,1,47537,48137,360,317 MY,1,47537,48137,273,239
Sprite,Foreground,Centre,"sb\dot.png",0,0 C,0,47537,,255,255,255 F,1,47537,48137,1,0 S,1,47537,48137,1,0.2 MX,1,47537,48137,360,324 MY,1,47537,48137,273,321
Sprite,Foreground,Centre,"sb\dot.png",0,0 C,0,47537,,255,255,255 F,1,47537,48137,1,0 S,1,47537,48137,1,0.2 MX,1,47537,48137,360,341 MY,1,47537,48137,273,293
Sprite,Foreground,Centre,"sb\dot.png",0,0 C,0,47537,,255,255,255 F,1,47537,48137,1,0 S,1,47537,48137,1,0.2 MX,1,47537,48137,360,305 MY,1,47537,48137,273,243
Sprite,Foreground,Centre,"sb\dot.png",0,0 C,0,47537,,255,255,255 F,1,47537,48137,1,0 S,1,47537,48137,1,0.2 MX,1,47537,48137,360,386 MY,1,47537,48137,273,321
Sprite,Foreground,Centre,"sb\dot.png",0,0 C,0,47537,,255,255,255 F,1,47537,48137,1,0 S,1,47537,48137,1,0.2 MX,1,47537,48137,360,321 MY,1,47537,48137,273,245
Sprite,Foreground,Centre,"sb\dot.png",0,0 C,0,47537,,255,255,255 F,1,47537,48137,1,0 S,1,47537,48137,1,0.2 MX,1,47537,48137,360,350 MY,1,47537,48137,273,294
Sprite,Foreground,Centre,"sb\dot.png",0,0 C,0,47537,,255,255,255 F,1,47537,48137,1,0 S,1,47537,48137,1,0.2 MX,1,47537,48137,360,410 MY,1,47537,48137,273,316
Sprite,Foreground,Centre,"sb\dot.png",0,0 C,0,47537,,255,255,255 F,1,47537,48137,1,0 S,1,47537,48137,1,0.2 MX,1,47537,48137,360,339 MY,1,47537,48137,273,245
Sprite,Foreground,Centre,"sb\dot.png",0,0 C,0,47537,,255,255,255 F,1,47537,48137,1,0 S,1,47537,48137,1,0.2 MX,1,47537,48137,360,384 MY,1,47537,48137,273,270
Sprite,Foreground,Centre,"sb\dot.png",0,0 C,0,47537,,255,255,255 F,1,47537,48137,1,0 S,1,47537,48137,1,0.2 MX,1,47537,48137,360,402 MY,1,47537,48137,273,306
Sprite,Foreground,Centre,"sb\dot.png",0,0 C,0,47537,,255,255,255 F,1,47537,48137,1,0 S,1,47537,48137,1,0.2 MX,1,47537,48137,360,318 MY,1,47537,48137,273
Sprite,Foreground,Centre,"sb\dot.png",0,0 C,0,47537,,255,255,255 F,1,47537,48137,1,0 S,1,47537,48137,1,0.2 MX,1,47537,48137,360,336 MY,1,47537,48137,273,243
Sprite,Foreground,Centre,"sb\dot.png",0,0 C,0,47537,,255,255,255 F,1,47537,48137,1,0 S,1,47537,48137,1,0.2 MX,1,47537,48137,360,356 MY,1,47537,48137,273,303
Sprite,Foreground,Centre,"sb\dot.png",0,0 C,0,47537,,255,255,255 F,1,47537,48137,1,0 S,1,47537,48137,1,0.2 MX,1,47537,48137,360,335 MY,1,47537,48137,273,221
Sprite,Foreground,Centre,"sb\dot.png",0,0 C,0,47537,,255,255,255 F,1,47537,48137,1,0 S,1,47537,48137,1,0.2 MX,1,47537,48137,360,415 MY,1,47537,48137,273,275
Sprite,Foreground,Centre,"sb\dot.png",0,0 C,0,47537,,255,255,255 F,1,47537,48137,1,0 S,1,47537,48137,1,0.2 MX,1,47537,48137,360,307 MY,1,47537,48137,273,256
Sprite,Foreground,Centre,"sb\dot.png",0,0 C,0,47537,,255,255,255 F,1,47537,48137,1,0 S,1,47537,48137,1,0.2 MX,1,47537,48137,360,364 MY,1,47537,48137,273,316
Sprite,Foreground,Centre,"sb\dot.png",0,0 C,0,47537,,255,255,255 F,1,47537,48137,1,0 S,1,47537,48137,1,0.2 MX,1,47537,48137,360,314 MY,1,47537,48137,273,275
Sprite,Foreground,Centre,"sb\dot.png",0,0 C,0,47537,,255,255,255 F,1,47537,48137,1,0 S,1,47537,48137,1,0.2 MX,1,47537,48137,360,349 MY,1,47537,48137,273,285
Sprite,Foreground,Centre,"sb\dot.png",0,0 C,0,47537,,255,255,255 F,1,47537,48137,1,0 S,1,47537,48137,1,0.2 MX,1,47537,48137,360,401 MY,1,47537,48137,273,263
Sprite,Foreground,Centre,"sb\dot.png",0,0 C,0,47537,,255,255,255 F,1,47537,48137,1,0 S,1,47537,48137,1,0.2 MX,1,47537,48137,360,398 MY,1,47537,48137,273,257
Sprite,Foreground,Centre,"sb\dot.png",0,0 C,0,47537,,255,255,255 F,1,47537,48137,1,0 S,1,47537,48137,1,0.2 MX,1,47537,48137,360,381 MY,1,47537,48137,273,256
Sprite,Foreground,Centre,"sb\dot.png",0,0 C,0,47537,,255,255,255 F,1,47537,48137,1,0 S,1,47537,48137,1,0.2 MX,1,47537,48137,360,348 MY,1,47537,48137,273,306
Sprite,Foreground,Centre,"sb\dot.png",0,0 C,0,47537,,255,255,255 F,1,47537,48137,1,0 S,1,47537,48137,1,0.2 MX,1,47537,48137,360,398 MY,1,47537,48137,273,234
Sprite,Foreground,Centre,"sb\dot.png",0,0 C,0,47537,,255,255,255 F,1,47537,48137,1,0 S,1,47537,48137,1,0.2 MX,1,47537,48137,360,352 MY,1,47537,48137,273,280
Sprite,Foreground,Centre,"sb\dot.png",0,0 C,0,47537,,255,255,255 F,1,47537,48137,1,0 S,1,47537,48137,1,0.2 MX,1,47537,48137,360,419 MY,1,47537,48137,273,289
Sprite,Foreground,Centre,"sb\dot.png",0,0 C,0,47619,,255,255,255 F,1,47619,48219,1,0 S,1,47619,48219,1,0.2 MX,1,47619,48219,382,333 MY,1,47619,48219,300,284
Sprite,Foreground,Centre,"sb\dot.png",0,0 C,0,47619,,255,255,255 F,1,47619,48219,1,0 S,1,47619,48219,1,0.2 MX,1,47619,48219,382,330 MY,1,47619,48219,300,324
Sprite,Foreground,Centre,"sb\dot.png",0,0 C,0,47619,,255,255,255 F,1,47619,48219,1,0 S,1,47619,48219,1,0.2 MX,1,47619,48219,382,394 MY,1,47619,48219,300,251
Sprite,Foreground,Centre,"sb\dot.png",0,0 C,0,47619,,255,255,255 F,1,47619,48219,1,0 S,1,47619,48219,1,0.2 MX,1,47619,48219,382,345 MY,1,47619,48219,300,274
Sprite,Foreground,Centre,"sb\dot.png",0,0 C,0,47619,,255,255,255 F,1,47619,48219,1,0 S,1,47619,48219,1,0.2 MX,1,47619,48219,382,436 MY,1,47619,48219,300,317
Sprite,Foreground,Centre,"sb\dot.png",0,0 C,0,47619,,255,255,255 F,1,47619,48219,1,0 S,1,47619,48219,1,0.2 MX,1,47619,48219,382,435 MY,1,47619,48219,300,318
Sprite,Foreground,Centre,"sb\dot.png",0,0 C,0,47619,,255,255,255 F,1,47619,48219,1,0 S,1,47619,48219,1,0.2 MX,1,47619,48219,382,346 MY,1,47619,48219,300,246
Sprite,Foreground,Centre,"sb\dot.png",0,0 C,0,47619,,255,255,255 F,1,47619,48219,1,0 S,1,47619,48219,1,0.2 MX,1,47619,48219,382,338 MY,1,47619,48219,300,247
Sprite,Foreground,Centre,"sb\dot.png",0,0 C,0,47619,,255,255,255 F,1,47619,48219,1,0 S,1,47619,48219,1,0.2 MX,1,47619,48219,382,411 MY,1,47619,48219,300,336
Sprite,Foreground,Centre,"sb\dot.png",0,0 C,0,47619,,255,255,255 F,1,47619,48219,1,0 S,1,47619,48219,1,0.2 MX,1,47619,48219,382,424 MY,1,47619,48219,300,252
Sprite,Foreground,Centre,"sb\dot.png",0,0 C,0,47619,,255,255,255 F,1,47619,48219,1,0 S,1,47619,48219,1,0.2 MX,1,47619,48219,382,397 MY,1,47619,48219,300,291
Sprite,Foreground,Centre,"sb\dot.png",0,0 C,0,47619,,255,255,255 F,1,47619,48219,1,0 S,1,47619,48219,1,0.2 MX,1,47619,48219,382,436 MY,1,47619,48219,300,333
Sprite,Foreground,Centre,"sb\dot.png",0,0 C,0,47619,,255,255,255 F,1,47619,48219,1,0 S,1,47619,48219,1,0.2 MX,1,47619,48219,382,421 MY,1,47619,48219,300,352
Sprite,Foreground,Centre,"sb\dot.png",0,0 C,0,47619,,255,255,255 F,1,47619,48219,1,0 S,1,47619,48219,1,0.2 MX,1,47619,48219,382,423 MY,1,47619,48219,300,323
Sprite,Foreground,Centre,"sb\dot.png",0,0 C,0,47619,,255,255,255 F,1,47619,48219,1,0 S,1,47619,48219,1,0.2 MX,1,47619,48219,382,434 MY,1,47619,48219,300,253
Sprite,Foreground,Centre,"sb\dot.png",0,0 C,0,47619,,255,255,255 F,1,47619,48219,1,0 S,1,47619,48219,1,0.2 MX,1,47619,48219,382,397 MY,1,47619,48219,300,288
Sprite,Foreground,Centre,"sb\dot.png",0,0 C,0,47619,,255,255,255 F,1,47619,48219,1,0 S,1,47619,48219,1,0.2 MX,1,47619,48219,382,385 MY,1,47619,48219,300,291
Sprite,Foreground,Centre,"sb\dot.png",0,0 C,0,47619,,255,255,255 F,1,47619,48219,1,0 S,1,47619,48219,1,0.2 MX,1,47619,48219,382,353 MY,1,47619,48219,300,260
Sprite,Foreground,Centre,"sb\dot.png",0,0 C,0,47619,,255,255,255 F,1,47619,48219,1,0 S,1,47619,48219,1,0.2 MX,1,47619,48219,382,416 MY,1,47619,48219,300,289
Sprite,Foreground,Centre,"sb\dot.png",0,0 C,0,47619,,255,255,255 F,1,47619,48219,1,0 S,1,47619,48219,1,0.2 MX,1,47619,48219,382,432 MY,1,47619,48219,300,278
Sprite,Foreground,Centre,"sb\dot.png",0,0 C,0,47619,,255,255,255 F,1,47619,48219,1,0 S,1,47619,48219,1,0.2 MX,1,47619,48219,382,370 MY,1,47619,48219,300,307
Sprite,Foreground,Centre,"sb\dot.png",0,0 C,0,47619,,255,255,255 F,1,47619,48219,1,0 S,1,47619,48219,1,0.2 MX,1,47619,48219,382,377 MY,1,47619,48219,300,261
Sprite,Foreground,Centre,"sb\dot.png",0,0 C,0,47619,,255,255,255 F,1,47619,48219,1,0 S,1,47619,48219,1,0.2 MX,1,47619,48219,382,372 MY,1,47619,48219,300,242
Sprite,Foreground,Centre,"sb\dot.png",0,0 C,0,47619,,255,255,255 F,1,47619,48219,1,0 S,1,47619,48219,1,0.2 MX,1,47619,48219,382,341 MY,1,47619,48219,300,282
Sprite,Foreground,Centre,"sb\dot.png",0,0 C,0,47619,,255,255,255 F,1,47619,48219,1,0 S,1,47619,48219,1,0.2 MX,1,47619,48219,382,399 MY,1,47619,48219,300,331
Sprite,Foreground,Centre,"sb\dot.png",0,0 C,0,47619,,255,255,255 F,1,47619,48219,1,0 S,1,47619,48219,1,0.2 MX,1,47619,48219,382,374 MY,1,47619,48219,300,315
Sprite,Foreground,Centre,"sb\dot.png",0,0 C,0,47619,,255,255,255 F,1,47619,48219,1,0 S,1,47619,48219,1,0.2 MX,1,47619,48219,382,406 MY,1,47619,48219,300,347
Sprite,Foreground,Centre,"sb\dot.png",0,0 C,0,47619,,255,255,255 F,1,47619,48219,1,0 S,1,47619,48219,1,0.2 MX,1,47619,48219,382,322 MY,1,47619,48219,300,320
Sprite,Foreground,Centre,"sb\dot.png",0,0 C,0,47619,,255,255,255 F,1,47619,48219,1,0 S,1,47619,48219,1,0.2 MX,1,47619,48219,382,371 MY,1,47619,48219,300,274
Sprite,Foreground,Centre,"sb\dot.png",0,0 C,0,47619,,255,255,255 F,1,47619,48219,1,0 S,1,47619,48219,1,0.2 MX,1,47619,48219,382,427 MY,1,47619,48219,300,319
Sprite,Foreground,Centre,"sb\dot.png",0,0 C,0,47947,,255,255,255 F,1,47947,48547,1,0 S,1,47947,48547,1,0.2 MX,1,47947,48547,523,492 MY,1,47947,48547,207
Sprite,Foreground,Centre,"sb\dot.png",0,0 C,0,47947,,255,255,255 F,1,47947,48547,1,0 S,1,47947,48547,1,0.2 MX,1,47947,48547,523,504 MY,1,47947,48547,207,248
Sprite,Foreground,Centre,"sb\dot.png",0,0 C,0,47947,,255,255,255 F,1,47947,48547,1,0 S,1,47947,48547,1,0.2 MX,1,47947,48547,523,465 MY,1,47947,48547,207,212
Sprite,Foreground,Centre,"sb\dot.png",0,0 C,0,47947,,255,255,255 F,1,47947,48547,1,0 S,1,47947,48547,1,0.2 MX,1,47947,48547,523,478 MY,1,47947,48547,207,239
Sprite,Foreground,Centre,"sb\dot.png",0,0 C,0,47947,,255,255,255 F,1,47947,48547,1,0 S,1,47947,48547,1,0.2 MX,1,47947,48547,523,557 MY,1,47947,48547,207,262
Sprite,Foreground,Centre,"sb\dot.png",0,0 C,0,47947,,255,255,255 F,1,47947,48547,1,0 S,1,47947,48547,1,0.2 MX,1,47947,48547,523,495 MY,1,47947,48547,207,186
Sprite,Foreground,Centre,"sb\dot.png",0,0 C,0,47947,,255,255,255 F,1,47947,48547,1,0 S,1,47947,48547,1,0.2 MX,1,47947,48547,523,569 MY,1,47947,48547,207,210
Sprite,Foreground,Centre,"sb\dot.png",0,0 C,0,47947,,255,255,255 F,1,47947,48547,1,0 S,1,47947,48547,1,0.2 MX,1,47947,48547,523,547 MY,1,47947,48547,207,155
Sprite,Foreground,Centre,"sb\dot.png",0,0 C,0,47947,,255,255,255 F,1,47947,48547,1,0 S,1,47947,48547,1,0.2 MX,1,47947,48547,523,578 MY,1,47947,48547,207,240
Sprite,Foreground,Centre,"sb\dot.png",0,0 C,0,47947,,255,255,255 F,1,47947,48547,1,0 S,1,47947,48547,1,0.2 MX,1,47947,48547,523,505 MY,1,47947,48547,207,243
Sprite,Foreground,Centre,"sb\dot.png",0,0 C,0,47947,,255,255,255 F,1,47947,48547,1,0 S,1,47947,48547,1,0.2 MX,1,47947,48547,523,555 MY,1,47947,48547,207,206
Sprite,Foreground,Centre,"sb\dot.png",0,0 C,0,47947,,255,255,255 F,1,47947,48547,1,0 S,1,47947,48547,1,0.2 MX,1,47947,48547,523,469 MY,1,47947,48547,207,168
Sprite,Foreground,Centre,"sb\dot.png",0,0 C,0,47947,,255,255,255 F,1,47947,48547,1,0 S,1,47947,48547,1,0.2 MX,1,47947,48547,523,544 MY,1,47947,48547,207,266
Sprite,Foreground,Centre,"sb\dot.png",0,0 C,0,47947,,255,255,255 F,1,47947,48547,1,0 S,1,47947,48547,1,0.2 MX,1,47947,48547,523,546 MY,1,47947,48547,207,222
Sprite,Foreground,Centre,"sb\dot.png",0,0 C,0,47947,,255,255,255 F,1,47947,48547,1,0 S,1,47947,48547,1,0.2 MX,1,47947,48547,523,513 MY,1,47947,48547,207,218
Sprite,Foreground,Centre,"sb\dot.png",0,0 C,0,47947,,255,255,255 F,1,47947,48547,1,0 S,1,47947,48547,1,0.2 MX,1,47947,48547,523,554 MY,1,47947,48547,207,206
Sprite,Foreground,Centre,"sb\dot.png",0,0 C,0,47947,,255,255,255 F,1,47947,48547,1,0 S,1,47947,48547,1,0.2 MX,1,47947,48547,523,527 MY,1,47947,48547,207,177
Sprite,Foreground,Centre,"sb\dot.png",0,0 C,0,47947,,255,255,255 F,1,47947,48547,1,0 S,1,47947,48547,1,0.2 MX,1,47947,48547,523,471 MY,1,47947,48547,207,254
Sprite,Foreground,Centre,"sb\dot.png",0,0 C,0,47947,,255,255,255 F,1,47947,48547,1,0 S,1,47947,48547,1,0.2 MX,1,47947,48547,523,488 MY,1,47947,48547,207,221
Sprite,Foreground,Centre,"sb\dot.png",0,0 C,0,47947,,255,255,255 F,1,47947,48547,1,0 S,1,47947,48547,1,0.2 MX,1,47947,48547,523,482 MY,1,47947,48547,207,252
Sprite,Foreground,Centre,"sb\dot.png",0,0 C,0,47947,,255,255,255 F,1,47947,48547,1,0 S,1,47947,48547,1,0.2 MX,1,47947,48547,523,570 MY,1,47947,48547,207,193
Sprite,Foreground,Centre,"sb\dot.png",0,0 C,0,47947,,255,255,255 F,1,47947,48547,1,0 S,1,47947,48547,1,0.2 MX,1,47947,48547,523,530 MY,1,47947,48547,207,228
Sprite,Foreground,Centre,"sb\dot.png",0,0 C,0,47947,,255,255,255 F,1,47947,48547,1,0 S,1,47947,48547,1,0.2 MX,1,47947,48547,523,521 MY,1,47947,48547,207,159
Sprite,Foreground,Centre,"sb\dot.png",0,0 C,0,47947,,255,255,255 F,1,47947,48547,1,0 S,1,47947,48547,1,0.2 MX,1,47947,48547,523,552 MY,1,47947,48547,207,168
Sprite,Foreground,Centre,"sb\dot.png",0,0 C,0,47947,,255,255,255 F,1,47947,48547,1,0 S,1,47947,48547,1,0.2 MX,1,47947,48547,523,486 MY,1,47947,48547,207,259
Sprite,Foreground,Centre,"sb\dot.png",0,0 C,0,47947,,255,255,255 F,1,47947,48547,1,0 S,1,47947,48547,1,0.2 MX,1,47947,48547,523,547 MY,1,47947,48547,207,222
Sprite,Foreground,Centre,"sb\dot.png",0,0 C,0,47947,,255,255,255 F,1,47947,48547,1,0 S,1,47947,48547,1,0.2 MX,1,47947,48547,523,574 MY,1,47947,48547,207,156
Sprite,Foreground,Centre,"sb\dot.png",0,0 C,0,47947,,255,255,255 F,1,47947,48547,1,0 S,1,47947,48547,1,0.2 MX,1,47947,48547,523,570 MY,1,47947,48547,207,237
Sprite,Foreground,Centre,"sb\dot.png",0,0 C,0,47947,,255,255,255 F,1,47947,48547,1,0 S,1,47947,48547,1,0.2 MX,1,47947,48547,523,517 MY,1,47947,48547,207,167
Sprite,Foreground,Centre,"sb\dot.png",0,0 C,0,47947,,255,255,255 F,1,47947,48547,1,0 S,1,47947,48547,1,0.2 MX,1,47947,48547,523,482 MY,1,47947,48547,207,149
Sprite,Foreground,Centre,"sb\dot.png",0,0 C,0,48111,,255,255,255 F,1,48111,48711,1,0 S,1,48111,48711,1,0.2 MX,1,48111,48711,474,516 MY,1,48111,48711,113,112
Sprite,Foreground,Centre,"sb\dot.png",0,0 C,0,48111,,255,255,255 F,1,48111,48711,1,0 S,1,48111,48711,1,0.2 MX,1,48111,48711,474,456 MY,1,48111,48711,113,76
Sprite,Foreground,Centre,"sb\dot.png",0,0 C,0,48111,,255,255,255 F,1,48111,48711,1,0 S,1,48111,48711,1,0.2 MX,1,48111,48711,474,438 MY,1,48111,48711,113,145
Sprite,Foreground,Centre,"sb\dot.png",0,0 C,0,48111,,255,255,255 F,1,48111,48711,1,0 S,1,48111,48711,1,0.2 MX,1,48111,48711,474,509 MY,1,48111,48711,113,129
Sprite,Foreground,Centre,"sb\dot.png",0,0 C,0,48111,,255,255,255 F,1,48111,48711,1,0 S,1,48111,48711,1,0.2 MX,1,48111,48711,474,468 MY,1,48111,48711,113,149
Sprite,Foreground,Centre,"sb\dot.png",0,0 C,0,48111,,255,255,255 F,1,48111,48711,1,0 S,1,48111,48711,1,0.2 MX,1,48111,48711,474,517 MY,1,48111,48711,113,94
Sprite,Foreground,Centre,"sb\dot.png",0,0 C,0,48111,,255,255,255 F,1,48111,48711,1,0 S,1,48111,48711,1,0.2 MX,1,48111,48711,474,488 MY,1,48111,48711,113,110
Sprite,Foreground,Centre,"sb\dot.png",0,0 C,0,48111,,255,255,255 F,1,48111,48711,1,0 S,1,48111,48711,1,0.2 MX,1,48111,48711,474,522 MY,1,48111,48711,113,99
Sprite,Foreground,Centre,"sb\dot.png",0,0 C,0,48111,,255,255,255 F,1,48111,48711,1,0 S,1,48111,48711,1,0.2 MX,1,48111,48711,474,526 MY,1,48111,48711,113,97
Sprite,Foreground,Centre,"sb\dot.png",0,0 C,0,48111,,255,255,255 F,1,48111,48711,1,0 S,1,48111,48711,1,0.2 MX,1,48111,48711,474,496 MY,1,48111,48711,113,121
Sprite,Foreground,Centre,"sb\dot.png",0,0 C,0,48111,,255,255,255 F,1,48111,48711,1,0 S,1,48111,48711,1,0.2 MX,1,48111,48711,474,444 MY,1,48111,48711,113,115
Sprite,Foreground,Centre,"sb\dot.png",0,0 C,0,48111,,255,255,255 F,1,48111,48711,1,0 S,1,48111,48711,1,0.2 MX,1,48111,48711,474,466 MY,1,48111,48711,113,111
Sprite,Foreground,Centre,"sb\dot.png",0,0 C,0,48111,,255,255,255 F,1,48111,48711,1,0 S,1,48111,48711,1,0.2 MX,1,48111,48711,474,520 MY,1,48111,48711,113,68
Sprite,Foreground,Centre,"sb\dot.png",0,0 C,0,48111,,255,255,255 F,1,48111,48711,1,0 S,1,48111,48711,1,0.2 MX,1,48111,48711,474,481 MY,1,48111,48711,113,108
Sprite,Foreground,Centre,"sb\dot.png",0,0 C,0,48111,,255,255,255 F,1,48111,48711,1,0 S,1,48111,48711,1,0.2 MX,1,48111,48711,474,457 MY,1,48111,48711,113,91
Sprite,Foreground,Centre,"sb\dot.png",0,0 C,0,48111,,255,255,255 F,1,48111,48711,1,0 S,1,48111,48711,1,0.2 MX,1,48111,48711,474,467 MY,1,48111,48711,113,57
Sprite,Foreground,Centre,"sb\dot.png",0,0 C,0,48111,,255,255,255 F,1,48111,48711,1,0 S,1,48111,48711,1,0.2 MX,1,48111,48711,474,468 MY,1,48111,48711,113,69
Sprite,Foreground,Centre,"sb\dot.png",0,0 C,0,48111,,255,255,255 F,1,48111,48711,1,0 S,1,48111,48711,1,0.2 MX,1,48111,48711,474,417 MY,1,48111,48711,113,101
Sprite,Foreground,Centre,"sb\dot.png",0,0 C,0,48111,,255,255,255 F,1,48111,48711,1,0 S,1,48111,48711,1,0.2 MX,1,48111,48711,474,418 MY,1,48111,48711,113,96
Sprite,Foreground,Centre,"sb\dot.png",0,0 C,0,48111,,255,255,255 F,1,48111,48711,1,0 S,1,48111,48711,1,0.2 MX,1,48111,48711,474,471 MY,1,48111,48711,113,139
Sprite,Foreground,Centre,"sb\dot.png",0,0 C,0,48111,,255,255,255 F,1,48111,48711,1,0 S,1,48111,48711,1,0.2 MX,1,48111,48711,474,451 MY,1,48111,48711,113,66
Sprite,Foreground,Centre,"sb\dot.png",0,0 C,0,48111,,255,255,255 F,1,48111,48711,1,0 S,1,48111,48711,1,0.2 MX,1,48111,48711,474,500 MY,1,48111,48711,113,99
Sprite,Foreground,Centre,"sb\dot.png",0,0 C,0,48111,,255,255,255 F,1,48111,48711,1,0 S,1,48111,48711,1,0.2 MX,1,48111,48711,474,422 MY,1,48111,48711,113,95
Sprite,Foreground,Centre,"sb\dot.png",0,0 C,0,48111,,255,255,255 F,1,48111,48711,1,0 S,1,48111,48711,1,0.2 MX,1,48111,48711,474,414 MY,1,48111,48711,113,107
Sprite,Foreground,Centre,"sb\dot.png",0,0 C,0,48111,,255,255,255 F,1,48111,48711,1,0 S,1,48111,48711,1,0.2 MX,1,48111,48711,474,434 MY,1,48111,48711,113
Sprite,Foreground,Centre,"sb\dot.png",0,0 C,0,48111,,255,255,255 F,1,48111,48711,1,0 S,1,48111,48711,1,0.2 MX,1,48111,48711,474,512 MY,1,48111,48711,113,62
Sprite,Foreground,Centre,"sb\dot.png",0,0 C,0,48111,,255,255,255 F,1,48111,48711,1,0 S,1,48111,48711,1,0.2 MX,1,48111,48711,474,472 MY,1,48111,48711,113,124
Sprite,Foreground,Centre,"sb\dot.png",0,0 C,0,48111,,255,255,255 F,1,48111,48711,1,0 S,1,48111,48711,1,0.2 MX,1,48111,48711,474,506 MY,1,48111,48711,113,93
Sprite,Foreground,Centre,"sb\dot.png",0,0 C,0,48111,,255,255,255 F,1,48111,48711,1,0 S,1,48111,48711,1,0.2 MX,1,48111,48711,474,420 MY,1,48111,48711,113,156
Sprite,Foreground,Centre,"sb\dot.png",0,0 C,0,48111,,255,255,255 F,1,48111,48711,1,0 S,1,48111,48711,1,0.2 MX,1,48111,48711,474,450 MY,1,48111,48711,113,61
Sprite,Foreground,Centre,"sb\dot.png",0,0 C,0,48439,,255,255,255 F,1,48439,49039,1,0 S,1,48439,49039,1,0.2 MX,1,48439,49039,311,275 MY,1,48439,49039,146,125
Sprite,Foreground,Centre,"sb\dot.png",0,0 C,0,48439,,255,255,255 F,1,48439,49039,1,0 S,1,48439,49039,1,0.2 MX,1,48439,49039,311,283 MY,1,48439,49039,146,102
Sprite,Foreground,Centre,"sb\dot.png",0,0 C,0,48439,,255,255,255 F,1,48439,49039,1,0 S,1,48439,49039,1,0.2 MX,1,48439,49039,311,293 MY,1,48439,49039,146,185
Sprite,Foreground,Centre,"sb\dot.png",0,0 C,0,48439,,255,255,255 F,1,48439,49039,1,0 S,1,48439,49039,1,0.2 MX,1,48439,49039,311,358 MY,1,48439,49039,146,143
Sprite,Foreground,Centre,"sb\dot.png",0,0 C,0,48439,,255,255,255 F,1,48439,49039,1,0 S,1,48439,49039,1,0.2 MX,1,48439,49039,311,304 MY,1,48439,49039,146
Sprite,Foreground,Centre,"sb\dot.png",0,0 C,0,48439,,255,255,255 F,1,48439,49039,1,0 S,1,48439,49039,1,0.2 MX,1,48439,49039,311,293 MY,1,48439,49039,146,154
Sprite,Foreground,Centre,"sb\dot.png",0,0 C,0,48439,,255,255,255 F,1,48439,49039,1,0 S,1,48439,49039,1,0.2 MX,1,48439,49039,311,358 MY,1,48439,49039,146,202
Sprite,Foreground,Centre,"sb\dot.png",0,0 C,0,48439,,255,255,255 F,1,48439,49039,1,0 S,1,48439,49039,1,0.2 MX,1,48439,49039,311,281 MY,1,48439,49039,146,103
Sprite,Foreground,Centre,"sb\dot.png",0,0 C,0,48439,,255,255,255 F,1,48439,49039,1,0 S,1,48439,49039,1,0.2 MX,1,48439,49039,311,346 MY,1,48439,49039,146,91
Sprite,Foreground,Centre,"sb\dot.png",0,0 C,0,48439,,255,255,255 F,1,48439,49039,1,0 S,1,48439,49039,1,0.2 MX,1,48439,49039,311,300 MY,1,48439,49039,146,150
Sprite,Foreground,Centre,"sb\dot.png",0,0 C,0,48439,,255,255,255 F,1,48439,49039,1,0 S,1,48439,49039,1,0.2 MX,1,48439,49039,311,265 MY,1,48439,49039,146,99
Sprite,Foreground,Centre,"sb\dot.png",0,0 C,0,48439,,255,255,255 F,1,48439,49039,1,0 S,1,48439,49039,1,0.2 MX,1,48439,49039,311,285 MY,1,48439,49039,146,188
Sprite,Foreground,Centre,"sb\dot.png",0,0 C,0,48439,,255,255,255 F,1,48439,49039,1,0 S,1,48439,49039,1,0.2 MX,1,48439,49039,311 MY,1,48439,49039,146,130
Sprite,Foreground,Centre,"sb\dot.png",0,0 C,0,48439,,255,255,255 F,1,48439,49039,1,0 S,1,48439,49039,1,0.2 MX,1,48439,49039,311,316 MY,1,48439,49039,146,189
Sprite,Foreground,Centre,"sb\dot.png",0,0 C,0,48439,,255,255,255 F,1,48439,49039,1,0 S,1,48439,49039,1,0.2 MX,1,48439,49039,311,295 MY,1,48439,49039,146,169
Sprite,Foreground,Centre,"sb\dot.png",0,0 C,0,48439,,255,255,255 F,1,48439,49039,1,0 S,1,48439,49039,1,0.2 MX,1,48439,49039,311,292 MY,1,48439,49039,146,106
Sprite,Foreground,Centre,"sb\dot.png",0,0 C,0,48439,,255,255,255 F,1,48439,49039,1,0 S,1,48439,49039,1,0.2 MX,1,48439,49039,311,257 MY,1,48439,49039,146,134
Sprite,Foreground,Centre,"sb\dot.png",0,0 C,0,48439,,255,255,255 F,1,48439,49039,1,0 S,1,48439,49039,1,0.2 MX,1,48439,49039,311,312 MY,1,48439,49039,146,203
Sprite,Foreground,Centre,"sb\dot.png",0,0 C,0,48439,,255,255,255 F,1,48439,49039,1,0 S,1,48439,49039,1,0.2 MX,1,48439,49039,311,351 MY,1,48439,49039,146,155
Sprite,Foreground,Centre,"sb\dot.png",0,0 C,0,48439,,255,255,255 F,1,48439,49039,1,0 S,1,48439,49039,1,0.2 MX,1,48439,49039,311,255 MY,1,48439,49039,146,115
Sprite,Foreground,Centre,"sb\dot.png",0,0 C,0,48439,,255,255,255 F,1,48439,49039,1,0 S,1,48439,49039,1,0.2 MX,1,48439,49039,311,306 MY,1,48439,49039,146,149
Sprite,Foreground,Centre,"sb\dot.png",0,0 C,0,48439,,255,255,255 F,1,48439,49039,1,0 S,1,48439,49039,1,0.2 MX,1,48439,49039,311,252 MY,1,48439,49039,146,166
Sprite,Foreground,Centre,"sb\dot.png",0,0 C,0,48439,,255,255,255 F,1,48439,49039,1,0 S,1,48439,49039,1,0.2 MX,1,48439,49039,311,269 MY,1,48439,49039,146,116
Sprite,Foreground,Centre,"sb\dot.png",0,0 C,0,48439,,255,255,255 F,1,48439,49039,1,0 S,1,48439,49039,1,0.2 MX,1,48439,49039,311,272 MY,1,48439,49039,146,148
Sprite,Foreground,Centre,"sb\dot.png",0,0 C,0,48439,,255,255,255 F,1,48439,49039,1,0 S,1,48439,49039,1,0.2 MX,1,48439,49039,311,291 MY,1,48439,49039,146,160
Sprite,Foreground,Centre,"sb\dot.png",0,0 C,0,48439,,255,255,255 F,1,48439,49039,1,0 S,1,48439,49039,1,0.2 MX,1,48439,49039,311,315 MY,1,48439,49039,146,87
Sprite,Foreground,Centre,"sb\dot.png",0,0 C,0,48439,,255,255,255 F,1,48439,49039,1,0 S,1,48439,49039,1,0.2 MX,1,48439,49039,311,304 MY,1,48439,49039,146,178
Sprite,Foreground,Centre,"sb\dot.png",0,0 C,0,48439,,255,255,255 F,1,48439,49039,1,0 S,1,48439,49039,1,0.2 MX,1,48439,49039,311,364 MY,1,48439,49039,146,97
Sprite,Foreground,Centre,"sb\dot.png",0,0 C,0,48439,,255,255,255 F,1,48439,49039,1,0 S,1,48439,49039,1,0.2 MX,1,48439,49039,311,256 MY,1,48439,49039,146,136
Sprite,Foreground,Centre,"sb\dot.png",0,0 C,0,48439,,255,255,255 F,1,48439,49039,1,0 S,1,48439,49039,1,0.2 MX,1,48439,49039,311,327 MY,1,48439,49039,146,204
Sprite,Foreground,Centre,"sb\dot.png",0,0 C,0,48603,,255,255,255 F,1,48603,49203,1,0 S,1,48603,49203,1,0.2 MX,1,48603,49203,217,190 MY,1,48603,49203,194,138
Sprite,Foreground,Centre,"sb\dot.png",0,0 C,0,48603,,255,255,255 F,1,48603,49203,1,0 S,1,48603,49203,1,0.2 MX,1,48603,49203,217,170 MY,1,48603,49203,194,224
Sprite,Foreground,Centre,"sb\dot.png",0,0 C,0,48603,,255,255,255 F,1,48603,49203,1,0 S,1,48603,49203,1,0.2 MX,1,48603,49203,217,176 MY,1,48603,49203,194,155
Sprite,Foreground,Centre,"sb\dot.png",0,0 C,0,48603,,255,255,255 F,1,48603,49203,1,0 S,1,48603,49203,1,0.2 MX,1,48603,49203,217,218 MY,1,48603,49203,194,192
Sprite,Foreground,Centre,"sb\dot.png",0,0 C,0,48603,,255,255,255 F,1,48603,49203,1,0 S,1,48603,49203,1,0.2 MX,1,48603,49203,217,211 MY,1,48603,49203,194,166
Sprite,Foreground,Centre,"sb\dot.png",0,0 C,0,48603,,255,255,255 F,1,48603,49203,1,0 S,1,48603,49203,1,0.2 MX,1,48603,49203,217,193 MY,1,48603,49203,194,159
Sprite,Foreground,Centre,"sb\dot.png",0,0 C,0,48603,,255,255,255 F,1,48603,49203,1,0 S,1,48603,49203,1,0.2 MX,1,48603,49203,217,158 MY,1,48603,49203,194,154
Sprite,Foreground,Centre,"sb\dot.png",0,0 C,0,48603,,255,255,255 F,1,48603,49203,1,0 S,1,48603,49203,1,0.2 MX,1,48603,49203,217,165 MY,1,48603,49203,194,205
Sprite,Foreground,Centre,"sb\dot.png",0,0 C,0,48603,,255,255,255 F,1,48603,49203,1,0 S,1,48603,49203,1,0.2 MX,1,48603,49203,217,169 MY,1,48603,49203,194,208
Sprite,Foreground,Centre,"sb\dot.png",0,0 C,0,48603,,255,255,255 F,1,48603,49203,1,0 S,1,48603,49203,1,0.2 MX,1,48603,49203,217,240 MY,1,48603,49203,194,164
Sprite,Foreground,Centre,"sb\dot.png",0,0 C,0,48603,,255,255,255 F,1,48603,49203,1,0 S,1,48603,49203,1,0.2 MX,1,48603,49203,217,179 MY,1,48603,49203,194,136
Sprite,Foreground,Centre,"sb\dot.png",0,0 C,0,48603,,255,255,255 F,1,48603,49203,1,0 S,1,48603,49203,1,0.2 MX,1,48603,49203,217,219 MY,1,48603,49203,194,223
Sprite,Foreground,Centre,"sb\dot.png",0,0 C,0,48603,,255,255,255 F,1,48603,49203,1,0 S,1,48603,49203,1,0.2 MX,1,48603,49203,217,175 MY,1,48603,49203,194,174
Sprite,Foreground,Centre,"sb\dot.png",0,0 C,0,48603,,255,255,255 F,1,48603,49203,1,0 S,1,48603,49203,1,0.2 MX,1,48603,49203,217,243 MY,1,48603,49203,194,168
Sprite,Foreground,Centre,"sb\dot.png",0,0 C,0,48603,,255,255,255 F,1,48603,49203,1,0 S,1,48603,49203,1,0.2 MX,1,48603,49203,217,211 MY,1,48603,49203,194,183
Sprite,Foreground,Centre,"sb\dot.png",0,0 C,0,48603,,255,255,255 F,1,48603,49203,1,0 S,1,48603,49203,1,0.2 MX,1,48603,49203,217,269 MY,1,48603,49203,194,184
Sprite,Foreground,Centre,"sb\dot.png",0,0 C,0,48603,,255,255,255 F,1,48603,49203,1,0 S,1,48603,49203,1,0.2 MX,1,48603,49203,217,270 MY,1,48603,49203,194,140
Sprite,Foreground,Centre,"sb\dot.png",0,0 C,0,48603,,255,255,255 F,1,48603,49203,1,0 S,1,48603,49203,1,0.2 MX,1,48603,49203,217,272 MY,1,48603,49203,194,185
Sprite,Foreground,Centre,"sb\dot.png",0,0 C,0,48603,,255,255,255 F,1,48603,49203,1,0 S,1,48603,49203,1,0.2 MX,1,48603,49203,217,206 MY,1,48603,49203,194,164
Sprite,Foreground,Centre,"sb\dot.png",0,0 C,0,48603,,255,255,255 F,1,48603,49203,1,0 S,1,48603,49203,1,0.2 MX,1,48603,49203,217 MY,1,48603,49203,194,251
Sprite,Foreground,Centre,"sb\dot.png",0,0 C,0,48603,,255,255,255 F,1,48603,49203,1,0 S,1,48603,49203,1,0.2 MX,1,48603,49203,217,245 MY,1,48603,49203,194,216
Sprite,Foreground,Centre,"sb\dot.png",0,0 C,0,48603,,255,255,255 F,1,48603,49203,1,0 S,1,48603,49203,1,0.2 MX,1,48603,49203,217,164 MY,1,48603,49203,194,141
Sprite,Foreground,Centre,"sb\dot.png",0,0 C,0,48603,,255,255,255 F,1,48603,49203,1,0 S,1,48603,49203,1,0.2 MX,1,48603,49203,217,195 MY,1,48603,49203,194,172
Sprite,Foreground,Centre,"sb\dot.png",0,0 C,0,48603,,255,255,255 F,1,48603,49203,1,0 S,1,48603,49203,1,0.2 MX,1,48603,49203,217,276 MY,1,48603,49203,194,167
Sprite,Foreground,Centre,"sb\dot.png",0,0 C,0,48603,,255,255,255 F,1,48603,49203,1,0 S,1,48603,49203,1,0.2 MX,1,48603,49203,217,241 MY,1,48603,49203,194,176
Sprite,Foreground,Centre,"sb\dot.png",0,0 C,0,48603,,255,255,255 F,1,48603,49203,1,0 S,1,48603,49203,1,0.2 MX,1,48603,49203,217,276 MY,1,48603,49203,194,185
Sprite,Foreground,Centre,"sb\dot.png",0,0 C,0,48603,,255,255,255 F,1,48603,49203,1,0 S,1,48603,49203,1,0.2 MX,1,48603,49203,217,243 MY,1,48603,49203,194,180
Sprite,Foreground,Centre,"sb\dot.png",0,0 C,0,48603,,255,255,255 F,1,48603,49203,1,0 S,1,48603,49203,1,0.2 MX,1,48603,49203,217,252 MY,1,48603,49203,194,164
Sprite,Foreground,Centre,"sb\dot.png",0,0 C,0,48603,,255,255,255 F,1,48603,49203,1,0 S,1,48603,49203,1,0.2 MX,1,48603,49203,217,218 MY,1,48603,49203,194,177
Sprite,Foreground,Centre,"sb\dot.png",0,0 C,0,48603,,255,255,255 F,1,48603,49203,1,0 S,1,48603,49203,1,0.2 MX,1,48603,49203,217,228 MY,1,48603,49203,194,232
Sprite,Foreground,Centre,"sb\dot.png",0,0 C,0,48931,,255,255,255 F,1,48931,49531,1,0 S,1,48931,49531,1,0.2 MX,1,48931,49531,141,136 MY,1,48931,49531,79,46
Sprite,Foreground,Centre,"sb\dot.png",0,0 C,0,48931,,255,255,255 F,1,48931,49531,1,0 S,1,48931,49531,1,0.2 MX,1,48931,49531,141,85 MY,1,48931,49531,79,24
Sprite,Foreground,Centre,"sb\dot.png",0,0 C,0,48931,,255,255,255 F,1,48931,49531,1,0 S,1,48931,49531,1,0.2 MX,1,48931,49531,141,121 MY,1,48931,49531,79,125
Sprite,Foreground,Centre,"sb\dot.png",0,0 C,0,48931,,255,255,255 F,1,48931,49531,1,0 S,1,48931,49531,1,0.2 MX,1,48931,49531,141,113 MY,1,48931,49531,79,134
Sprite,Foreground,Centre,"sb\dot.png",0,0 C,0,48931,,255,255,255 F,1,48931,49531,1,0 S,1,48931,49531,1,0.2 MX,1,48931,49531,141,105 MY,1,48931,49531,79,96
Sprite,Foreground,Centre,"sb\dot.png",0,0 C,0,48931,,255,255,255 F,1,48931,49531,1,0 S,1,48931,49531,1,0.2 MX,1,48931,49531,141,103 MY,1,48931,49531,79,120
Sprite,Foreground,Centre,"sb\dot.png",0,0 C,0,48931,,255,255,255 F,1,48931,49531,1,0 S,1,48931,49531,1,0.2 MX,1,48931,49531,141,94 MY,1,48931,49531,79,105
Sprite,Foreground,Centre,"sb\dot.png",0,0 C,0,48931,,255,255,255 F,1,48931,49531,1,0 S,1,48931,49531,1,0.2 MX,1,48931,49531,141,142 MY,1,48931,49531,79,78
Sprite,Foreground,Centre,"sb\dot.png",0,0 C,0,48931,,255,255,255 F,1,48931,49531,1,0 S,1,48931,49531,1,0.2 MX,1,48931,49531,141,196 MY,1,48931,49531,79,73
Sprite,Foreground,Centre,"sb\dot.png",0,0 C,0,48931,,255,255,255 F,1,48931,49531,1,0 S,1,48931,49531,1,0.2 MX,1,48931,49531,141,132 MY,1,48931,49531,79,119
Sprite,Foreground,Centre,"sb\dot.png",0,0 C,0,48931,,255,255,255 F,1,48931,49531,1,0 S,1,48931,49531,1,0.2 MX,1,48931,49531,141,121 MY,1,48931,49531,79,71
Sprite,Foreground,Centre,"sb\dot.png",0,0 C,0,48931,,255,255,255 F,1,48931,49531,1,0 S,1,48931,49531,1,0.2 MX,1,48931,49531,141,150 MY,1,48931,49531,79,31
Sprite,Foreground,Centre,"sb\dot.png",0,0 C,0,48931,,255,255,255 F,1,48931,49531,1,0 S,1,48931,49531,1,0.2 MX,1,48931,49531,141,131 MY,1,48931,49531,79,80
Sprite,Foreground,Centre,"sb\dot.png",0,0 C,0,48931,,255,255,255 F,1,48931,49531,1,0 S,1,48931,49531,1,0.2 MX,1,48931,49531,141,164 MY,1,48931,49531,79,86
Sprite,Foreground,Centre,"sb\dot.png",0,0 C,0,48931,,255,255,255 F,1,48931,49531,1,0 S,1,48931,49531,1,0.2 MX,1,48931,49531,141,111 MY,1,48931,49531,79,104
Sprite,Foreground,Centre,"sb\dot.png",0,0 C,0,48931,,255,255,255 F,1,48931,49531,1,0 S,1,48931,49531,1,0.2 MX,1,48931,49531,141,190 MY,1,48931,49531,79,24
Sprite,Foreground,Centre,"sb\dot.png",0,0 C,0,48931,,255,255,255 F,1,48931,49531,1,0 S,1,48931,49531,1,0.2 MX,1,48931,49531,141,160 MY,1,48931,49531,79,101
Sprite,Foreground,Centre,"sb\dot.png",0,0 C,0,48931,,255,255,255 F,1,48931,49531,1,0 S,1,48931,49531,1,0.2 MX,1,48931,49531,141,142 MY,1,48931,49531,79,80
Sprite,Foreground,Centre,"sb\dot.png",0,0 C,0,48931,,255,255,255 F,1,48931,49531,1,0 S,1,48931,49531,1,0.2 MX,1,48931,49531,141,159 MY,1,48931,49531,79,21
Sprite,Foreground,Centre,"sb\dot.png",0,0 C,0,48931,,255,255,255 F,1,48931,49531,1,0 S,1,48931,49531,1,0.2 MX,1,48931,49531,141,167 MY,1,48931,49531,79,70
Sprite,Foreground,Centre,"sb\dot.png",0,0 C,0,48931,,255,255,255 F,1,48931,49531,1,0 S,1,48931,49531,1,0.2 MX,1,48931,49531,141,87 MY,1,48931,49531,79,23
Sprite,Foreground,Centre,"sb\dot.png",0,0 C,0,48931,,255,255,255 F,1,48931,49531,1,0 S,1,48931,49531,1,0.2 MX,1,48931,49531,141,90 MY,1,48931,49531,79,25
Sprite,Foreground,Centre,"sb\dot.png",0,0 C,0,48931,,255,255,255 F,1,48931,49531,1,0 S,1,48931,49531,1,0.2 MX,1,48931,49531,141,100 MY,1,48931,49531,79,37
Sprite,Foreground,Centre,"sb\dot.png",0,0 C,0,48931,,255,255,255 F,1,48931,49531,1,0 S,1,48931,49531,1,0.2 MX,1,48931,49531,141,118 MY,1,48931,49531,79,138
Sprite,Foreground,Centre,"sb\dot.png",0,0 C,0,48931,,255,255,255 F,1,48931,49531,1,0 S,1,48931,49531,1,0.2 MX,1,48931,49531,141,185 MY,1,48931,49531,79,55
Sprite,Foreground,Centre,"sb\dot.png",0,0 C,0,48931,,255,255,255 F,1,48931,49531,1,0 S,1,48931,49531,1,0.2 MX,1,48931,49531,141,116 MY,1,48931,49531,79,25
Sprite,Foreground,Centre,"sb\dot.png",0,0 C,0,48931,,255,255,255 F,1,48931,49531,1,0 S,1,48931,49531,1,0.2 MX,1,48931,49531,141,193 MY,1,48931,49531,79,110
Sprite,Foreground,Centre,"sb\dot.png",0,0 C,0,48931,,255,255,255 F,1,48931,49531,1,0 S,1,48931,49531,1,0.2 MX,1,48931,49531,141,139 MY,1,48931,49531,79,21
Sprite,Foreground,Centre,"sb\dot.png",0,0 C,0,48931,,255,255,255 F,1,48931,49531,1,0 S,1,48931,49531,1,0.2 MX,1,48931,49531,141,158 MY,1,48931,49531,79,130
Sprite,Foreground,Centre,"sb\dot.png",0,0 C,0,48931,,255,255,255 F,1,48931,49531,1,0 S,1,48931,49531,1,0.2 MX,1,48931,49531,141,156 MY,1,48931,49531,79,118
Sprite,Foreground,Centre,"sb\dot.png",0,0 C,0,49258,,255,255,255 F,1,49258,49858,1,0 S,1,49258,49858,1,0.2 MX,1,49258,49858,102,64 MY,1,49258,49858,234,258
Sprite,Foreground,Centre,"sb\dot.png",0,0 C,0,49258,,255,255,255 F,1,49258,49858,1,0 S,1,49258,49858,1,0.2 MX,1,49258,49858,102,126 MY,1,49258,49858,234,233
Sprite,Foreground,Centre,"sb\dot.png",0,0 C,0,49258,,255,255,255 F,1,49258,49858,1,0 S,1,49258,49858,1,0.2 MX,1,49258,49858,102,130 MY,1,49258,49858,234,190
Sprite,Foreground,Centre,"sb\dot.png",0,0 C,0,49258,,255,255,255 F,1,49258,49858,1,0 S,1,49258,49858,1,0.2 MX,1,49258,49858,102,63 MY,1,49258,49858,234,225
Sprite,Foreground,Centre,"sb\dot.png",0,0 C,0,49258,,255,255,255 F,1,49258,49858,1,0 S,1,49258,49858,1,0.2 MX,1,49258,49858,102,67 MY,1,49258,49858,234,174
Sprite,Foreground,Centre,"sb\dot.png",0,0 C,0,49258,,255,255,255 F,1,49258,49858,1,0 S,1,49258,49858,1,0.2 MX,1,49258,49858,102,142 MY,1,49258,49858,234,286
Sprite,Foreground,Centre,"sb\dot.png",0,0 C,0,49258,,255,255,255 F,1,49258,49858,1,0 S,1,49258,49858,1,0.2 MX,1,49258,49858,102,130 MY,1,49258,49858,234,293
Sprite,Foreground,Centre,"sb\dot.png",0,0 C,0,49258,,255,255,255 F,1,49258,49858,1,0 S,1,49258,49858,1,0.2 MX,1,49258,49858,102,135 MY,1,49258,49858,234,209
Sprite,Foreground,Centre,"sb\dot.png",0,0 C,0,49258,,255,255,255 F,1,49258,49858,1,0 S,1,49258,49858,1,0.2 MX,1,49258,49858,102,85 MY,1,49258,49858,234,237
Sprite,Foreground,Centre,"sb\dot.png",0,0 C,0,49258,,255,255,255 F,1,49258,49858,1,0 S,1,49258,49858,1,0.2 MX,1,49258,49858,102,154 MY,1,49258,49858,234,205
Sprite,Foreground,Centre,"sb\dot.png",0,0 C,0,49258,,255,255,255 F,1,49258,49858,1,0 S,1,49258,49858,1,0.2 MX,1,49258,49858,102,65 MY,1,49258,49858,234,258
Sprite,Foreground,Centre,"sb\dot.png",0,0 C,0,49258,,255,255,255 F,1,49258,49858,1,0 S,1,49258,49858,1,0.2 MX,1,49258,49858,102,124 MY,1,49258,49858,234,287
Sprite,Foreground,Centre,"sb\dot.png",0,0 C,0,49258,,255,255,255 F,1,49258,49858,1,0 S,1,49258,49858,1,0.2 MX,1,49258,49858,102,91 MY,1,49258,49858,234,276
Sprite,Foreground,Centre,"sb\dot.png",0,0 C,0,49258,,255,255,255 F,1,49258,49858,1,0 S,1,49258,49858,1,0.2 MX,1,49258,49858,102,55 MY,1,49258,49858,234,282
Sprite,Foreground,Centre,"sb\dot.png",0,0 C,0,49258,,255,255,255 F,1,49258,49858,1,0 S,1,49258,49858,1,0.2 MX,1,49258,49858,102,66 MY,1,49258,49858,234,233
Sprite,Foreground,Centre,"sb\dot.png",0,0 C,0,49258,,255,255,255 F,1,49258,49858,1,0 S,1,49258,49858,1,0.2 MX,1,49258,49858,102,145 MY,1,49258,49858,234,261
Sprite,Foreground,Centre,"sb\dot.png",0,0 C,0,49258,,255,255,255 F,1,49258,49858,1,0 S,1,49258,49858,1,0.2 MX,1,49258,49858,102,89 MY,1,49258,49858,234,281
Sprite,Foreground,Centre,"sb\dot.png",0,0 C,0,49258,,255,255,255 F,1,49258,49858,1,0 S,1,49258,49858,1,0.2 MX,1,49258,49858,102,71 MY,1,49258,49858,234,215
Sprite,Foreground,Centre,"sb\dot.png",0,0 C,0,49258,,255,255,255 F,1,49258,49858,1,0 S,1,49258,49858,1,0.2 MX,1,49258,49858,102,82 MY,1,49258,49858,234,243
Sprite,Foreground,Centre,"sb\dot.png",0,0 C,0,49258,,255,255,255 F,1,49258,49858,1,0 S,1,49258,49858,1,0.2 MX,1,49258,49858,102,80 MY,1,49258,49858,234,177
Sprite,Foreground,Centre,"sb\dot.png",0,0 C,0,49258,,255,255,255 F,1,49258,49858,1,0 S,1,49258,49858,1,0.2 MX,1,49258,49858,102,158 MY,1,49258,49858,234,280
Sprite,Foreground,Centre,"sb\dot.png",0,0 C,0,49258,,255,255,255 F,1,49258,49858,1,0 S,1,49258,49858,1,0.2 MX,1,49258,49858,102,136 MY,1,49258,49858,234,278
Sprite,Foreground,Centre,"sb\dot.png",0,0 C,0,49258,,255,255,255 F,1,49258,49858,1,0 S,1,49258,49858,1,0.2 MX,1,49258,49858,102,97 MY,1,49258,49858,234,216
Sprite,Foreground,Centre,"sb\dot.png",0,0 C,0,49258,,255,255,255 F,1,49258,49858,1,0 S,1,49258,49858,1,0.2 MX,1,49258,49858,102,80 MY,1,49258,49858,234,286
Sprite,Foreground,Centre,"sb\dot.png",0,0 C,0,49258,,255,255,255 F,1,49258,49858,1,0 S,1,49258,49858,1,0.2 MX,1,49258,49858,102,159 MY,1,49258,49858,234,196
Sprite,Foreground,Centre,"sb\dot.png",0,0 C,0,49258,,255,255,255 F,1,49258,49858,1,0 S,1,49258,49858,1,0.2 MX,1,49258,49858,102,120 MY,1,49258,49858,234,188
Sprite,Foreground,Centre,"sb\dot.png",0,0 C,0,49258,,255,255,255 F,1,49258,49858,1,0 S,1,49258,49858,1,0.2 MX,1,49258,49858,102,161 MY,1,49258,49858,234,217
Sprite,Foreground,Centre,"sb\dot.png",0,0 C,0,49258,,255,255,255 F,1,49258,49858,1,0 S,1,49258,49858,1,0.2 MX,1,49258,49858,102,118 MY,1,49258,49858,234,232
Sprite,Foreground,Centre,"sb\dot.png",0,0 C,0,49258,,255,255,255 F,1,49258,49858,1,0 S,1,49258,49858,1,0.2 MX,1,49258,49858,102,44 MY,1,49258,49858,234,264
Sprite,Foreground,Centre,"sb\dot.png",0,0 C,0,49258,,255,255,255 F,1,49258,49858,1,0 S,1,49258,49858,1,0.2 MX,1,49258,49858,102,51 MY,1,49258,49858,234,279
Sprite,Foreground,Centre,"sb\dot.png",0,0 C,0,49422,,255,255,255 F,1,49422,50022,1,0 S,1,49422,50022,1,0.2 MX,1,49422,50022,169,111 MY,1,49422,50022,314,287
Sprite,Foreground,Centre,"sb\dot.png",0,0 C,0,49422,,255,255,255 F,1,49422,50022,1,0 S,1,49422,50022,1,0.2 MX,1,49422,50022,169,136 MY,1,49422,50022,314,339
Sprite,Foreground,Centre,"sb\dot.png",0,0 C,0,49422,,255,255,255 F,1,49422,50022,1,0 S,1,49422,50022,1,0.2 MX,1,49422,50022,169,125 MY,1,49422,50022,314,267
Sprite,Foreground,Centre,"sb\dot.png",0,0 C,0,49422,,255,255,255 F,1,49422,50022,1,0 S,1,49422,50022,1,0.2 MX,1,49422,50022,169,174 MY,1,49422,50022,314,354
Sprite,Foreground,Centre,"sb\dot.png",0,0 C,0,49422,,255,255,255 F,1,49422,50022,1,0 S,1,49422,50022,1,0.2 MX,1,49422,50022,169,199 MY,1,49422,50022,314,305
Sprite,Foreground,Centre,"sb\dot.png",0,0 C,0,49422,,255,255,255 F,1,49422,50022,1,0 S,1,49422,50022,1,0.2 MX,1,49422,50022,169,224 MY,1,49422,50022,314,347
Sprite,Foreground,Centre,"sb\dot.png",0,0 C,0,49422,,255,255,255 F,1,49422,50022,1,0 S,1,49422,50022,1,0.2 MX,1,49422,50022,169,133 MY,1,49422,50022,314,362
Sprite,Foreground,Centre,"sb\dot.png",0,0 C,0,49422,,255,255,255 F,1,49422,50022,1,0 S,1,49422,50022,1,0.2 MX,1,49422,50022,169,144 MY,1,49422,50022,314,290
Sprite,Foreground,Centre,"sb\dot.png",0,0 C,0,49422,,255,255,255 F,1,49422,50022,1,0 S,1,49422,50022,1,0.2 MX,1,49422,50022,169,218 MY,1,49422,50022,314,351
Sprite,Foreground,Centre,"sb\dot.png",0,0 C,0,49422,,255,255,255 F,1,49422,50022,1,0 S,1,49422,50022,1,0.2 MX,1,49422,50022,169,166 MY,1,49422,50022,314,261
Sprite,Foreground,Centre,"sb\dot.png",0,0 C,0,49422,,255,255,255 F,1,49422,50022,1,0 S,1,49422,50022,1,0.2 MX,1,49422,50022,169,172 MY,1,49422,50022,314,274
Sprite,Foreground,Centre,"sb\dot.png",0,0 C,0,49422,,255,255,255 F,1,49422,50022,1,0 S,1,49422,50022,1,0.2 MX,1,49422,50022,169,219 MY,1,49422,50022,314,255
Sprite,Foreground,Centre,"sb\dot.png",0,0 C,0,49422,,255,255,255 F,1,49422,50022,1,0 S,1,49422,50022,1,0.2 MX,1,49422,50022,169,210 MY,1,49422,50022,314,343
Sprite,Foreground,Centre,"sb\dot.png",0,0 C,0,49422,,255,255,255 F,1,49422,50022,1,0 S,1,49422,50022,1,0.2 MX,1,49422,50022,169,196 MY,1,49422,50022,314,258
Sprite,Foreground,Centre,"sb\dot.png",0,0 C,0,49422,,255,255,255 F,1,49422,50022,1,0 S,1,49422,50022,1,0.2 MX,1,49422,50022,169,140 MY,1,49422,50022,314,344
Sprite,Foreground,Centre,"sb\dot.png",0,0 C,0,49422,,255,255,255 F,1,49422,50022,1,0 S,1,49422,50022,1,0.2 MX,1,49422,50022,169,148 MY,1,49422,50022,314,323
Sprite,Foreground,Centre,"sb\dot.png",0,0 C,0,49422,,255,255,255 F,1,49422,50022,1,0 S,1,49422,50022,1,0.2 MX,1,49422,50022,169 MY,1,49422,50022,314,307
Sprite,Foreground,Centre,"sb\dot.png",0,0 C,0,49422,,255,255,255 F,1,49422,50022,1,0 S,1,49422,50022,1,0.2 MX,1,49422,50022,169,109 MY,1,49422,50022,314,336
Sprite,Foreground,Centre,"sb\dot.png",0,0 C,0,49422,,255,255,255 F,1,49422,50022,1,0 S,1,49422,50022,1,0.2 MX,1,49422,50022,169,188 MY,1,49422,50022,314,262
Sprite,Foreground,Centre,"sb\dot.png",0,0 C,0,49422,,255,255,255 F,1,49422,50022,1,0 S,1,49422,50022,1,0.2 MX,1,49422,50022,169,197 MY,1,49422,50022,314,296
Sprite,Foreground,Centre,"sb\dot.png",0,0 C,0,49422,,255,255,255 F,1,49422,50022,1,0 S,1,49422,50022,1,0.2 MX,1,49422,50022,169,206 MY,1,49422,50022,314,311
Sprite,Foreground,Centre,"sb\dot.png",0,0 C,0,49422,,255,255,255 F,1,49422,50022,1,0 S,1,49422,50022,1,0.2 MX,1,49422,50022,169,131 MY,1,49422,50022,314,319
Sprite,Foreground,Centre,"sb\dot.png",0,0 C,0,49422,,255,255,255 F,1,49422,50022,1,0 S,1,49422,50022,1,0.2 MX,1,49422,50022,169,135 MY,1,49422,50022,314,358
Sprite,Foreground,Centre,"sb\dot.png",0,0 C,0,49422,,255,255,255 F,1,49422,50022,1,0 S,1,49422,50022,1,0.2 MX,1,49422,50022,169,218 MY,1,49422,50022,314,264
Sprite,Foreground,Centre,"sb\dot.png",0,0 C,0,49422,,255,255,255 F,1,49422,50022,1,0 S,1,49422,50022,1,0.2 MX,1,49422,50022,169,117 MY,1,49422,50022,314,293
Sprite,Foreground,Centre,"sb\dot.png",0,0 C,0,49422,,255,255,255 F,1,49422,50022,1,0 S,1,49422,50022,1,0.2 MX,1,49422,50022,169,177 MY,1,49422,50022,314,278
Sprite,Foreground,Centre,"sb\dot.png",0,0 C,0,49422,,255,255,255 F,1,49422,50022,1,0 S,1,49422,50022,1,0.2 MX,1,49422,50022,169,142 MY,1,49422,50022,314,256
Sprite,Foreground,Centre,"sb\dot.png",0,0 C,0,49422,,255,255,255 F,1,49422,50022,1,0 S,1,49422,50022,1,0.2 MX,1,49422,50022,169,150 MY,1,49422,50022,314,356
Sprite,Foreground,Centre,"sb\dot.png",0,0 C,0,49422,,255,255,255 F,1,49422,50022,1,0 S,1,49422,50022,1,0.2 MX,1,49422,50022,169,152 MY,1,49422,50022,314,279
Sprite,Foreground,Centre,"sb\dot.png",0,0 C,0,49422,,255,255,255 F,1,49422,50022,1,0 S,1,49422,50022,1,0.2 MX,1,49422,50022,169,213 MY,1,49422,50022,314,301
Sprite,Foreground,Centre,"sb\dot.png",0,0 C,0,49750,,255,255,255 F,1,49750,50350,1,0 S,1,49750,50350,1,0.2 MX,1,49750,50350,120,105 MY,1,49750,50350,408,409
Sprite,Foreground,Centre,"sb\dot.png",0,0 C,0,49750,,255,255,255 F,1,49750,50350,1,0 S,1,49750,50350,1,0.2 MX,1,49750,50350,120,129 MY,1,49750,50350,408,467
Sprite,Foreground,Centre,"sb\dot.png",0,0 C,0,49750,,255,255,255 F,1,49750,50350,1,0 S,1,49750,50350,1,0.2 MX,1,49750,50350,120,72 MY,1,49750,50350,408,394
Sprite,Foreground,Centre,"sb\dot.png",0,0 C,0,49750,,255,255,255 F,1,49750,50350,1,0 S,1,49750,50350,1,0.2 MX,1,49750,50350,120,93 MY,1,49750,50350,408,439
Sprite,Foreground,Centre,"sb\dot.png",0,0 C,0,49750,,255,255,255 F,1,49750,50350,1,0 S,1,49750,50350,1,0.2 MX,1,49750,50350,120,168 MY,1,49750,50350,408,420
Sprite,Foreground,Centre,"sb\dot.png",0,0 C,0,49750,,255,255,255 F,1,49750,50350,1,0 S,1,49750,50350,1,0.2 MX,1,49750,50350,120,137 MY,1,49750,50350,408,448
Sprite,Foreground,Centre,"sb\dot.png",0,0 C,0,49750,,255,255,255 F,1,49750,50350,1,0 S,1,49750,50350,1,0.2 MX,1,49750,50350,120,69 MY,1,49750,50350,408,363
Sprite,Foreground,Centre,"sb\dot.png",0,0 C,0,49750,,255,255,255 F,1,49750,50350,1,0 S,1,49750,50350,1,0.2 MX,1,49750,50350,120,89 MY,1,49750,50350,408,353
Sprite,Foreground,Centre,"sb\dot.png",0,0 C,0,49750,,255,255,255 F,1,49750,50350,1,0 S,1,49750,50350,1,0.2 MX,1,49750,50350,120,178 MY,1,49750,50350,408,393
Sprite,Foreground,Centre,"sb\dot.png",0,0 C,0,49750,,255,255,255 F,1,49750,50350,1,0 S,1,49750,50350,1,0.2 MX,1,49750,50350,120,155 MY,1,49750,50350,408,464
Sprite,Foreground,Centre,"sb\dot.png",0,0 C,0,49750,,255,255,255 F,1,49750,50350,1,0 S,1,49750,50350,1,0.2 MX,1,49750,50350,120,159 MY,1,49750,50350,408,425
Sprite,Foreground,Centre,"sb\dot.png",0,0 C,0,49750,,255,255,255 F,1,49750,50350,1,0 S,1,49750,50350,1,0.2 MX,1,49750,50350,120,175 MY,1,49750,50350,408,459
Sprite,Foreground,Centre,"sb\dot.png",0,0 C,0,49750,,255,255,255 F,1,49750,50350,1,0 S,1,49750,50350,1,0.2 MX,1,49750,50350,120,82 MY,1,49750,50350,408,362
Sprite,Foreground,Centre,"sb\dot.png",0,0 C,0,49750,,255,255,255 F,1,49750,50350,1,0 S,1,49750,50350,1,0.2 MX,1,49750,50350,120,95 MY,1,49750,50350,408,406
Sprite,Foreground,Centre,"sb\dot.png",0,0 C,0,49750,,255,255,255 F,1,49750,50350,1,0 S,1,49750,50350,1,0.2 MX,1,49750,50350,120,71 MY,1,49750,50350,408,366
Sprite,Foreground,Centre,"sb\dot.png",0,0 C,0,49750,,255,255,255 F,1,49750,50350,1,0 S,1,49750,50350,1,0.2 MX,1,49750,50350,120,99 MY,1,49750,50350,408,402
Sprite,Foreground,Centre,"sb\dot.png",0,0 C,0,49750,,255,255,255 F,1,49750,50350,1,0 S,1,49750,50350,1,0.2 MX,1,49750,50350,120,84 MY,1,49750,50350,408,389
Sprite,Foreground,Centre,"sb\dot.png",0,0 C,0,49750,,255,255,255 F,1,49750,50350,1,0 S,1,49750,50350,1,0.2 MX,1,49750,50350,120,176 MY,1,49750,50350,408,384
Sprite,Foreground,Centre,"sb\dot.png",0,0 C,0,49750,,255,255,255 F,1,49750,50350,1,0 S,1,49750,50350,1,0.2 MX,1,49750,50350,120,168 MY,1,49750,50350,408,370
Sprite,Foreground,Centre,"sb\dot.png",0,0 C,0,49750,,255,255,255 F,1,49750,50350,1,0 S,1,49750,50350,1,0.2 MX,1,49750,50350,120,112 MY,1,49750,50350,408,447
Sprite,Foreground,Centre,"sb\dot.png",0,0 C,0,49750,,255,255,255 F,1,49750,50350,1,0 S,1,49750,50350,1,0.2 MX,1,49750,50350,120,131 MY,1,49750,50350,408,366
Sprite,Foreground,Centre,"sb\dot.png",0,0 C,0,49750,,255,255,255 F,1,49750,50350,1,0 S,1,49750,50350,1,0.2 MX,1,49750,50350,120,81 MY,1,49750,50350,408,403
Sprite,Foreground,Centre,"sb\dot.png",0,0 C,0,49750,,255,255,255 F,1,49750,50350,1,0 S,1,49750,50350,1,0.2 MX,1,49750,50350,120,141 MY,1,49750,50350,408,435
Sprite,Foreground,Centre,"sb\dot.png",0,0 C,0,49750,,255,255,255 F,1,49750,50350,1,0 S,1,49750,50350,1,0.2 MX,1,49750,50350,120,75 MY,1,49750,50350,408,365
Sprite,Foreground,Centre,"sb\dot.png",0,0 C,0,49750,,255,255,255 F,1,49750,50350,1,0 S,1,49750,50350,1,0.2 MX,1,49750,50350,120,152 MY,1,49750,50350,408,383
Sprite,Foreground,Centre,"sb\dot.png",0,0 C,0,49750,,255,255,255 F,1,49750,50350,1,0 S,1,49750,50350,1,0.2 MX,1,49750,50350,120,163 MY,1,49750,50350,408,465
Sprite,Foreground,Centre,"sb\dot.png",0,0 C,0,49750,,255,255,255 F,1,49750,50350,1,0 S,1,49750,50350,1,0.2 MX,1,49750,50350,120,109 MY,1,49750,50350,408,455
Sprite,Foreground,Centre,"sb\dot.png",0,0 C,0,49750,,255,255,255 F,1,49750,50350,1,0 S,1,49750,50350,1,0.2 MX,1,49750,50350,120,127 MY,1,49750,50350,408,435
Sprite,Foreground,Centre,"sb\dot.png",0,0 C,0,49750,,255,255,255 F,1,49750,50350,1,0 S,1,49750,50350,1,0.2 MX,1,49750,50350,120,125 MY,1,49750,50350,408,426
Sprite,Foreground,Centre,"sb\dot.png",0,0 C,0,49750,,255,255,255 F,1,49750,50350,1,0 S,1,49750,50350,1,0.2 MX,1,49750,50350,120,157 MY,1,49750,50350,408,466
Sprite,Foreground,Centre,"sb\dot.png",0,0 C,0,49914,,255,255,255 F,1,49914,50514,1,0 S,1,49914,50514,1,0.2 MX,1,49914,50514,220,170 MY,1,49914,50514,438,472
Sprite,Foreground,Centre,"sb\dot.png",0,0 C,0,49914,,255,255,255 F,1,49914,50514,1,0 S,1,49914,50514,1,0.2 MX,1,49914,50514,220,240 MY,1,49914,50514,438,467
Sprite,Foreground,Centre,"sb\dot.png",0,0 C,0,49914,,255,255,255 F,1,49914,50514,1,0 S,1,49914,50514,1,0.2 MX,1,49914,50514,220,192 MY,1,49914,50514,438,401
Sprite,Foreground,Centre,"sb\dot.png",0,0 C,0,49914,,255,255,255 F,1,49914,50514,1,0 S,1,49914,50514,1,0.2 MX,1,49914,50514,220,236 MY,1,49914,50514,438,466
Sprite,Foreground,Centre,"sb\dot.png",0,0 C,0,49914,,255,255,255 F,1,49914,50514,1,0 S,1,49914,50514,1,0.2 MX,1,49914,50514,220,179 MY,1,49914,50514,438,490
Sprite,Foreground,Centre,"sb\dot.png",0,0 C,0,49914,,255,255,255 F,1,49914,50514,1,0 S,1,49914,50514,1,0.2 MX,1,49914,50514,220,177 MY,1,49914,50514,438,474
Sprite,Foreground,Centre,"sb\dot.png",0,0 C,0,49914,,255,255,255 F,1,49914,50514,1,0 S,1,49914,50514,1,0.2 MX,1,49914,50514,220,272 MY,1,49914,50514,438,494
Sprite,Foreground,Centre,"sb\dot.png",0,0 C,0,49914,,255,255,255 F,1,49914,50514,1,0 S,1,49914,50514,1,0.2 MX,1,49914,50514,220,205 MY,1,49914,50514,438,459
Sprite,Foreground,Centre,"sb\dot.png",0,0 C,0,49914,,255,255,255 F,1,49914,50514,1,0 S,1,49914,50514,1,0.2 MX,1,49914,50514,220,215 MY,1,49914,50514,438,437
Sprite,Foreground,Centre,"sb\dot.png",0,0 C,0,49914,,255,255,255 F,1,49914,50514,1,0 S,1,49914,50514,1,0.2 MX,1,49914,50514,220,189 MY,1,49914,50514,438,432
Sprite,Foreground,Centre,"sb\dot.png",0,0 C,0,49914,,255,255,255 F,1,49914,50514,1,0 S,1,49914,50514,1,0.2 MX,1,49914,50514,220,279 MY,1,49914,50514,438,396
Sprite,Foreground,Centre,"sb\dot.png",0,0 C,0,49914,,255,255,255 F,1,49914,50514,1,0 S,1,49914,50514,1,0.2 MX,1,49914,50514,220,245 MY,1,49914,50514,438,473
Sprite,Foreground,Centre,"sb\dot.png",0,0 C,0,49914,,255,255,255 F,1,49914,50514,1,0 S,1,49914,50514,1,0.2 MX,1,49914,50514,220,194 MY,1,49914,50514,438,419
Sprite,Foreground,Centre,"sb\dot.png",0,0 C,0,49914,,255,255,255 F,1,49914,50514,1,0 S,1,49914,50514,1,0.2 MX,1,49914,50514,220,164 MY,1,49914,50514,438,415
Sprite,Foreground,Centre,"sb\dot.png",0,0 C,0,49914,,255,255,255 F,1,49914,50514,1,0 S,1,49914,50514,1,0.2 MX,1,49914,50514,220,253 MY,1,49914,50514,438,406
Sprite,Foreground,Centre,"sb\dot.png",0,0 C,0,49914,,255,255,255 F,1,49914,50514,1,0 S,1,49914,50514,1,0.2 MX,1,49914,50514,220,251 MY,1,49914,50514,438,408
Sprite,Foreground,Centre,"sb\dot.png",0,0 C,0,49914,,255,255,255 F,1,49914,50514,1,0 S,1,49914,50514,1,0.2 MX,1,49914,50514,220,204 MY,1,49914,50514,438,432
Sprite,Foreground,Centre,"sb\dot.png",0,0 C,0,49914,,255,255,255 F,1,49914,50514,1,0 S,1,49914,50514,1,0.2 MX,1,49914,50514,220,248 MY,1,49914,50514,438,474
Sprite,Foreground,Centre,"sb\dot.png",0,0 C,0,49914,,255,255,255 F,1,49914,50514,1,0 S,1,49914,50514,1,0.2 MX,1,49914,50514,220,218 MY,1,49914,50514,438,430
Sprite,Foreground,Centre,"sb\dot.png",0,0 C,0,49914,,255,255,255 F,1,49914,50514,1,0 S,1,49914,50514,1,0.2 MX,1,49914,50514,220,183 MY,1,49914,50514,438,436
Sprite,Foreground,Centre,"sb\dot.png",0,0 C,0,49914,,255,255,255 F,1,49914,50514,1,0 S,1,49914,50514,1,0.2 MX,1,49914,50514,220,171 MY,1,49914,50514,438,424
Sprite,Foreground,Centre,"sb\dot.png",0,0 C,0,49914,,255,255,255 F,1,49914,50514,1,0 S,1,49914,50514,1,0.2 MX,1,49914,50514,220,278 MY,1,49914,50514,438,478
Sprite,Foreground,Centre,"sb\dot.png",0,0 C,0,49914,,255,255,255 F,1,49914,50514,1,0 S,1,49914,50514,1,0.2 MX,1,49914,50514,220,177 MY,1,49914,50514,438,385
Sprite,Foreground,Centre,"sb\dot.png",0,0 C,0,49914,,255,255,255 F,1,49914,50514,1,0 S,1,49914,50514,1,0.2 MX,1,49914,50514,220,165 MY,1,49914,50514,438,431
Sprite,Foreground,Centre,"sb\dot.png",0,0 C,0,49914,,255,255,255 F,1,49914,50514,1,0 S,1,49914,50514,1,0.2 MX,1,49914,50514,220,222 MY,1,49914,50514,438,484
Sprite,Foreground,Centre,"sb\dot.png",0,0 C,0,49914,,255,255,255 F,1,49914,50514,1,0 S,1,49914,50514,1,0.2 MX,1,49914,50514,220,192 MY,1,49914,50514,438,383
Sprite,Foreground,Centre,"sb\dot.png",0,0 C,0,49914,,255,255,255 F,1,49914,50514,1,0 S,1,49914,50514,1,0.2 MX,1,49914,50514,220,208 MY,1,49914,50514,438,420
Sprite,Foreground,Centre,"sb\dot.png",0,0 C,0,49914,,255,255,255 F,1,49914,50514,1,0 S,1,49914,50514,1,0.2 MX,1,49914,50514,220,279 MY,1,49914,50514,438,490
Sprite,Foreground,Centre,"sb\dot.png",0,0 C,0,49914,,255,255,255 F,1,49914,50514,1,0 S,1,49914,50514,1,0.2 MX,1,49914,50514,220,169 MY,1,49914,50514,438,482
Sprite,Foreground,Centre,"sb\dot.png",0,0 C,0,49914,,255,255,255 F,1,49914,50514,1,0 S,1,49914,50514,1,0.2 MX,1,49914,50514,220,214 MY,1,49914,50514,438,489
Sprite,Foreground,Centre,"sb\dot.png",0,0 C,0,50242,,255,255,255 F,1,50242,50842,1,0 S,1,50242,50842,1,0.2 MX,1,50242,50842,369,328 MY,1,50242,50842,413,392
Sprite,Foreground,Centre,"sb\dot.png",0,0 C,0,50242,,255,255,255 F,1,50242,50842,1,0 S,1,50242,50842,1,0.2 MX,1,50242,50842,369,423 MY,1,50242,50842,413,463
Sprite,Foreground,Centre,"sb\dot.png",0,0 C,0,50242,,255,255,255 F,1,50242,50842,1,0 S,1,50242,50842,1,0.2 MX,1,50242,50842,369,329 MY,1,50242,50842,413,460
Sprite,Foreground,Centre,"sb\dot.png",0,0 C,0,50242,,255,255,255 F,1,50242,50842,1,0 S,1,50242,50842,1,0.2 MX,1,50242,50842,369,360 MY,1,50242,50842,413,410
Sprite,Foreground,Centre,"sb\dot.png",0,0 C,0,50242,,255,255,255 F,1,50242,50842,1,0 S,1,50242,50842,1,0.2 MX,1,50242,50842,369,336 MY,1,50242,50842,413,421
Sprite,Foreground,Centre,"sb\dot.png",0,0 C,0,50242,,255,255,255 F,1,50242,50842,1,0 S,1,50242,50842,1,0.2 MX,1,50242,50842,369,332 MY,1,50242,50842,413,356
Sprite,Foreground,Centre,"sb\dot.png",0,0 C,0,50242,,255,255,255 F,1,50242,50842,1,0 S,1,50242,50842,1,0.2 MX,1,50242,50842,369,345 MY,1,50242,50842,413,444
Sprite,Foreground,Centre,"sb\dot.png",0,0 C,0,50242,,255,255,255 F,1,50242,50842,1,0 S,1,50242,50842,1,0.2 MX,1,50242,50842,369,352 MY,1,50242,50842,413,425
Sprite,Foreground,Centre,"sb\dot.png",0,0 C,0,50242,,255,255,255 F,1,50242,50842,1,0 S,1,50242,50842,1,0.2 MX,1,50242,50842,369,329 MY,1,50242,50842,413,457
Sprite,Foreground,Centre,"sb\dot.png",0,0 C,0,50242,,255,255,255 F,1,50242,50842,1,0 S,1,50242,50842,1,0.2 MX,1,50242,50842,369,386 MY,1,50242,50842,413,380
Sprite,Foreground,Centre,"sb\dot.png",0,0 C,0,50242,,255,255,255 F,1,50242,50842,1,0 S,1,50242,50842,1,0.2 MX,1,50242,50842,369,345 MY,1,50242,50842,413,423
Sprite,Foreground,Centre,"sb\dot.png",0,0 C,0,50242,,255,255,255 F,1,50242,50842,1,0 S,1,50242,50842,1,0.2 MX,1,50242,50842,369,403 MY,1,50242,50842,413,460
Sprite,Foreground,Centre,"sb\dot.png",0,0 C,0,50242,,255,255,255 F,1,50242,50842,1,0 S,1,50242,50842,1,0.2 MX,1,50242,50842,369,425 MY,1,50242,50842,413,438
Sprite,Foreground,Centre,"sb\dot.png",0,0 C,0,50242,,255,255,255 F,1,50242,50842,1,0 S,1,50242,50842,1,0.2 MX,1,50242,50842,369,410 MY,1,50242,50842,413,354
Sprite,Foreground,Centre,"sb\dot.png",0,0 C,0,50242,,255,255,255 F,1,50242,50842,1,0 S,1,50242,50842,1,0.2 MX,1,50242,50842,369,364 MY,1,50242,50842,413,449
Sprite,Foreground,Centre,"sb\dot.png",0,0 C,0,50242,,255,255,255 F,1,50242,50842,1,0 S,1,50242,50842,1,0.2 MX,1,50242,50842,369,396 MY,1,50242,50842,413,426
Sprite,Foreground,Centre,"sb\dot.png",0,0 C,0,50242,,255,255,255 F,1,50242,50842,1,0 S,1,50242,50842,1,0.2 MX,1,50242,50842,369,426 MY,1,50242,50842,413,385
Sprite,Foreground,Centre,"sb\dot.png",0,0 C,0,50242,,255,255,255 F,1,50242,50842,1,0 S,1,50242,50842,1,0.2 MX,1,50242,50842,369,347 MY,1,50242,50842,413,444
Sprite,Foreground,Centre,"sb\dot.png",0,0 C,0,50242,,255,255,255 F,1,50242,50842,1,0 S,1,50242,50842,1,0.2 MX,1,50242,50842,369,361 MY,1,50242,50842,413,361
Sprite,Foreground,Centre,"sb\dot.png",0,0 C,0,50242,,255,255,255 F,1,50242,50842,1,0 S,1,50242,50842,1,0.2 MX,1,50242,50842,369,388 MY,1,50242,50842,413,383
Sprite,Foreground,Centre,"sb\dot.png",0,0 C,0,50242,,255,255,255 F,1,50242,50842,1,0 S,1,50242,50842,1,0.2 MX,1,50242,50842,369,384 MY,1,50242,50842,413,420
Sprite,Foreground,Centre,"sb\dot.png",0,0 C,0,50242,,255,255,255 F,1,50242,50842,1,0 S,1,50242,50842,1,0.2 MX,1,50242,50842,369,335 MY,1,50242,50842,413,466
Sprite,Foreground,Centre,"sb\dot.png",0,0 C,0,50242,,255,255,255 F,1,50242,50842,1,0 S,1,50242,50842,1,0.2 MX,1,50242,50842,369,391 MY,1,50242,50842,413,381
Sprite,Foreground,Centre,"sb\dot.png",0,0 C,0,50242,,255,255,255 F,1,50242,50842,1,0 S,1,50242,50842,1,0.2 MX,1,50242,50842,369,397 MY,1,50242,50842,413,429
Sprite,Foreground,Centre,"sb\dot.png",0,0 C,0,50242,,255,255,255 F,1,50242,50842,1,0 S,1,50242,50842,1,0.2 MX,1,50242,50842,369,428 MY,1,50242,50842,413,400
Sprite,Foreground,Centre,"sb\dot.png",0,0 C,0,50242,,255,255,255 F,1,50242,50842,1,0 S,1,50242,50842,1,0.2 MX,1,50242,50842,369,401 MY,1,50242,50842,413,377
Sprite,Foreground,Centre,"sb\dot.png",0,0 C,0,50242,,255,255,255 F,1,50242,50842,1,0 S,1,50242,50842,1,0.2 MX,1,50242,50842,369,335 MY,1,50242,50842,413,380
Sprite,Foreground,Centre,"sb\dot.png",0,0 C,0,50242,,255,255,255 F,1,50242,50842,1,0 S,1,50242,50842,1,0.2 MX,1,50242,50842,369,383 MY,1,50242,50842,413,421
Sprite,Foreground,Centre,"sb\dot.png",0,0 C,0,50242,,255,255,255 F,1,50242,50842,1,0 S,1,50242,50842,1,0.2 MX,1,50242,50842,369,373 MY,1,50242,50842,413,360
Sprite,Foreground,Centre,"sb\dot.png",0,0 C,0,50242,,255,255,255 F,1,50242,50842,1,0 S,1,50242,50842,1,0.2 MX,1,50242,50842,369,422 MY,1,50242,50842,413,408
Sprite,Foreground,Centre,"sb\dot.png",0,0 C,0,50569,,255,255,255 F,1,50569,51169,1,0 S,1,50569,51169,1,0.2 MX,1,50569,51169,404,349 MY,1,50569,51169,257,246
Sprite,Foreground,Centre,"sb\dot.png",0,0 C,0,50569,,255,255,255 F,1,50569,51169,1,0 S,1,50569,51169,1,0.2 MX,1,50569,51169,404,346 MY,1,50569,51169,257,248
Sprite,Foreground,Centre,"sb\dot.png",0,0 C,0,50569,,255,255,255 F,1,50569,51169,1,0 S,1,50569,51169,1,0.2 MX,1,50569,51169,404,444 MY,1,50569,51169,257,266
Sprite,Foreground,Centre,"sb\dot.png",0,0 C,0,50569,,255,255,255 F,1,50569,51169,1,0 S,1,50569,51169,1,0.2 MX,1,50569,51169,404,350 MY,1,50569,51169,257,201
Sprite,Foreground,Centre,"sb\dot.png",0,0 C,0,50569,,255,255,255 F,1,50569,51169,1,0 S,1,50569,51169,1,0.2 MX,1,50569,51169,404,396 MY,1,50569,51169,257,268
Sprite,Foreground,Centre,"sb\dot.png",0,0 C,0,50569,,255,255,255 F,1,50569,51169,1,0 S,1,50569,51169,1,0.2 MX,1,50569,51169,404,363 MY,1,50569,51169,257,209
Sprite,Foreground,Centre,"sb\dot.png",0,0 C,0,50569,,255,255,255 F,1,50569,51169,1,0 S,1,50569,51169,1,0.2 MX,1,50569,51169,404,369 MY,1,50569,51169,257,244
Sprite,Foreground,Centre,"sb\dot.png",0,0 C,0,50569,,255,255,255 F,1,50569,51169,1,0 S,1,50569,51169,1,0.2 MX,1,50569,51169,404,415 MY,1,50569,51169,257,285
Sprite,Foreground,Centre,"sb\dot.png",0,0 C,0,50569,,255,255,255 F,1,50569,51169,1,0 S,1,50569,51169,1,0.2 MX,1,50569,51169,404,388 MY,1,50569,51169,257,297
Sprite,Foreground,Centre,"sb\dot.png",0,0 C,0,50569,,255,255,255 F,1,50569,51169,1,0 S,1,50569,51169,1,0.2 MX,1,50569,51169,404,368 MY,1,50569,51169,257,285
Sprite,Foreground,Centre,"sb\dot.png",0,0 C,0,50569,,255,255,255 F,1,50569,51169,1,0 S,1,50569,51169,1,0.2 MX,1,50569,51169,404,461 MY,1,50569,51169,257,222
Sprite,Foreground,Centre,"sb\dot.png",0,0 C,0,50569,,255,255,255 F,1,50569,51169,1,0 S,1,50569,51169,1,0.2 MX,1,50569,51169,404,346 MY,1,50569,51169,257,204
Sprite,Foreground,Centre,"sb\dot.png",0,0 C,0,50569,,255,255,255 F,1,50569,51169,1,0 S,1,50569,51169,1,0.2 MX,1,50569,51169,404,347 MY,1,50569,51169,257,260
Sprite,Foreground,Centre,"sb\dot.png",0,0 C,0,50569,,255,255,255 F,1,50569,51169,1,0 S,1,50569,51169,1,0.2 MX,1,50569,51169,404,391 MY,1,50569,51169,257,287
Sprite,Foreground,Centre,"sb\dot.png",0,0 C,0,50569,,255,255,255 F,1,50569,51169,1,0 S,1,50569,51169,1,0.2 MX,1,50569,51169,404,421 MY,1,50569,51169,257,287
Sprite,Foreground,Centre,"sb\dot.png",0,0 C,0,50569,,255,255,255 F,1,50569,51169,1,0 S,1,50569,51169,1,0.2 MX,1,50569,51169,404,371 MY,1,50569,51169,257,241
Sprite,Foreground,Centre,"sb\dot.png",0,0 C,0,50569,,255,255,255 F,1,50569,51169,1,0 S,1,50569,51169,1,0.2 MX,1,50569,51169,404,358 MY,1,50569,51169,257,221
Sprite,Foreground,Centre,"sb\dot.png",0,0 C,0,50569,,255,255,255 F,1,50569,51169,1,0 S,1,50569,51169,1,0.2 MX,1,50569,51169,404,368 MY,1,50569,51169,257,222
Sprite,Foreground,Centre,"sb\dot.png",0,0 C,0,50569,,255,255,255 F,1,50569,51169,1,0 S,1,50569,51169,1,0.2 MX,1,50569,51169,404,409 MY,1,50569,51169,257,292
Sprite,Foreground,Centre,"sb\dot.png",0,0 C,0,50569,,255,255,255 F,1,50569,51169,1,0 S,1,50569,51169,1,0.2 MX,1,50569,51169,404,356 MY,1,50569,51169,257,209
Sprite,Foreground,Centre,"sb\dot.png",0,0 C,0,50569,,255,255,255 F,1,50569,51169,1,0 S,1,50569,51169,1,0.2 MX,1,50569,51169,404,366 MY,1,50569,51169,257,280
Sprite,Foreground,Centre,"sb\dot.png",0,0 C,0,50569,,255,255,255 F,1,50569,51169,1,0 S,1,50569,51169,1,0.2 MX,1,50569,51169,404,367 MY,1,50569,51169,257,244
Sprite,Foreground,Centre,"sb\dot.png",0,0 C,0,50569,,255,255,255 F,1,50569,51169,1,0 S,1,50569,51169,1,0.2 MX,1,50569,51169,404,371 MY,1,50569,51169,257,277
Sprite,Foreground,Centre,"sb\dot.png",0,0 C,0,50569,,255,255,255 F,1,50569,51169,1,0 S,1,50569,51169,1,0.2 MX,1,50569,51169,404,462 MY,1,50569,51169,257,295
Sprite,Foreground,Centre,"sb\dot.png",0,0 C,0,50569,,255,255,255 F,1,50569,51169,1,0 S,1,50569,51169,1,0.2 MX,1,50569,51169,404,419 MY,1,50569,51169,257,303
Sprite,Foreground,Centre,"sb\dot.png",0,0 C,0,50569,,255,255,255 F,1,50569,51169,1,0 S,1,50569,51169,1,0.2 MX,1,50569,51169,404,367 MY,1,50569,51169,257,280
Sprite,Foreground,Centre,"sb\dot.png",0,0 C,0,50569,,255,255,255 F,1,50569,51169,1,0 S,1,50569,51169,1,0.2 MX,1,50569,51169,404,446 MY,1,50569,51169,257,222
Sprite,Foreground,Centre,"sb\dot.png",0,0 C,0,50569,,255,255,255 F,1,50569,51169,1,0 S,1,50569,51169,1,0.2 MX,1,50569,51169,404,401 MY,1,50569,51169,257,297
Sprite,Foreground,Centre,"sb\dot.png",0,0 C,0,50569,,255,255,255 F,1,50569,51169,1,0 S,1,50569,51169,1,0.2 MX,1,50569,51169,404,391 MY,1,50569,51169,257,311
Sprite,Foreground,Centre,"sb\dot.png",0,0 C,0,50569,,255,255,255 F,1,50569,51169,1,0 S,1,50569,51169,1,0.2 MX,1,50569,51169,404,391 MY,1,50569,51169,257,234
Sprite,Foreground,Centre,"sb\dot.png",0,0 C,0,50734,,255,255,255 F,1,50734,51334,1,0 S,1,50734,51334,1,0.2 MX,1,50734,51334,480,442 MY,1,50734,51334,184,159
Sprite,Foreground,Centre,"sb\dot.png",0,0 C,0,50734,,255,255,255 F,1,50734,51334,1,0 S,1,50734,51334,1,0.2 MX,1,50734,51334,480,467 MY,1,50734,51334,184,206
Sprite,Foreground,Centre,"sb\dot.png",0,0 C,0,50734,,255,255,255 F,1,50734,51334,1,0 S,1,50734,51334,1,0.2 MX,1,50734,51334,480,464 MY,1,50734,51334,184,219
Sprite,Foreground,Centre,"sb\dot.png",0,0 C,0,50734,,255,255,255 F,1,50734,51334,1,0 S,1,50734,51334,1,0.2 MX,1,50734,51334,480,537 MY,1,50734,51334,184,124
Sprite,Foreground,Centre,"sb\dot.png",0,0 C,0,50734,,255,255,255 F,1,50734,51334,1,0 S,1,50734,51334,1,0.2 MX,1,50734,51334,480,443 MY,1,50734,51334,184,170
Sprite,Foreground,Centre,"sb\dot.png",0,0 C,0,50734,,255,255,255 F,1,50734,51334,1,0 S,1,50734,51334,1,0.2 MX,1,50734,51334,480,442 MY,1,50734,51334,184,193
Sprite,Foreground,Centre,"sb\dot.png",0,0 C,0,50734,,255,255,255 F,1,50734,51334,1,0 S,1,50734,51334,1,0.2 MX,1,50734,51334,480,507 MY,1,50734,51334,184,136
Sprite,Foreground,Centre,"sb\dot.png",0,0 C,0,50734,,255,255,255 F,1,50734,51334,1,0 S,1,50734,51334,1,0.2 MX,1,50734,51334,480,485 MY,1,50734,51334,184,157
Sprite,Foreground,Centre,"sb\dot.png",0,0 C,0,50734,,255,255,255 F,1,50734,51334,1,0 S,1,50734,51334,1,0.2 MX,1,50734,51334,480,422 MY,1,50734,51334,184,199
Sprite,Foreground,Centre,"sb\dot.png",0,0 C,0,50734,,255,255,255 F,1,50734,51334,1,0 S,1,50734,51334,1,0.2 MX,1,50734,51334,480,520 MY,1,50734,51334,184,167
Sprite,Foreground,Centre,"sb\dot.png",0,0 C,0,50734,,255,255,255 F,1,50734,51334,1,0 S,1,50734,51334,1,0.2 MX,1,50734,51334,480,484 MY,1,50734,51334,184,192
Sprite,Foreground,Centre,"sb\dot.png",0,0 C,0,50734,,255,255,255 F,1,50734,51334,1,0 S,1,50734,51334,1,0.2 MX,1,50734,51334,480,434 MY,1,50734,51334,184,214
Sprite,Foreground,Centre,"sb\dot.png",0,0 C,0,50734,,255,255,255 F,1,50734,51334,1,0 S,1,50734,51334,1,0.2 MX,1,50734,51334,480,486 MY,1,50734,51334,184,187
Sprite,Foreground,Centre,"sb\dot.png",0,0 C,0,50734,,255,255,255 F,1,50734,51334,1,0 S,1,50734,51334,1,0.2 MX,1,50734,51334,480,482 MY,1,50734,51334,184,232
Sprite,Foreground,Centre,"sb\dot.png",0,0 C,0,50734,,255,255,255 F,1,50734,51334,1,0 S,1,50734,51334,1,0.2 MX,1,50734,51334,480,506 MY,1,50734,51334,184,168
Sprite,Foreground,Centre,"sb\dot.png",0,0 C,0,50734,,255,255,255 F,1,50734,51334,1,0 S,1,50734,51334,1,0.2 MX,1,50734,51334,480,518 MY,1,50734,51334,184,194
Sprite,Foreground,Centre,"sb\dot.png",0,0 C,0,50734,,255,255,255 F,1,50734,51334,1,0 S,1,50734,51334,1,0.2 MX,1,50734,51334,480,467 MY,1,50734,51334,184,219
Sprite,Foreground,Centre,"sb\dot.png",0,0 C,0,50734,,255,255,255 F,1,50734,51334,1,0 S,1,50734,51334,1,0.2 MX,1,50734,51334,480,530 MY,1,50734,51334,184,230
Sprite,Foreground,Centre,"sb\dot.png",0,0 C,0,50734,,255,255,255 F,1,50734,51334,1,0 S,1,50734,51334,1,0.2 MX,1,50734,51334,480,456 MY,1,50734,51334,184
Sprite,Foreground,Centre,"sb\dot.png",0,0 C,0,50734,,255,255,255 F,1,50734,51334,1,0 S,1,50734,51334,1,0.2 MX,1,50734,51334,480,423 MY,1,50734,51334,184,176
Sprite,Foreground,Centre,"sb\dot.png",0,0 C,0,50734,,255,255,255 F,1,50734,51334,1,0 S,1,50734,51334,1,0.2 MX,1,50734,51334,480,502 MY,1,50734,51334,184,241
Sprite,Foreground,Centre,"sb\dot.png",0,0 C,0,50734,,255,255,255 F,1,50734,51334,1,0 S,1,50734,51334,1,0.2 MX,1,50734,51334,480,495 MY,1,50734,51334,184,153
Sprite,Foreground,Centre,"sb\dot.png",0,0 C,0,50734,,255,255,255 F,1,50734,51334,1,0 S,1,50734,51334,1,0.2 MX,1,50734,51334,480,504 MY,1,50734,51334,184,198
Sprite,Foreground,Centre,"sb\dot.png",0,0 C,0,50734,,255,255,255 F,1,50734,51334,1,0 S,1,50734,51334,1,0.2 MX,1,50734,51334,480,535 MY,1,50734,51334,184,214
Sprite,Foreground,Centre,"sb\dot.png",0,0 C,0,50734,,255,255,255 F,1,50734,51334,1,0 S,1,50734,51334,1,0.2 MX,1,50734,51334,480,500 MY,1,50734,51334,184,148
Sprite,Foreground,Centre,"sb\dot.png",0,0 C,0,50734,,255,255,255 F,1,50734,51334,1,0 S,1,50734,51334,1,0.2 MX,1,50734,51334,480,517 MY,1,50734,51334,184,215
Sprite,Foreground,Centre,"sb\dot.png",0,0 C,0,50734,,255,255,255 F,1,50734,51334,1,0 S,1,50734,51334,1,0.2 MX,1,50734,51334,480,433 MY,1,50734,51334,184,127
Sprite,Foreground,Centre,"sb\dot.png",0,0 C,0,50734,,255,255,255 F,1,50734,51334,1,0 S,1,50734,51334,1,0.2 MX,1,50734,51334,480,512 MY,1,50734,51334,184,198
Sprite,Foreground,Centre,"sb\dot.png",0,0 C,0,50734,,255,255,255 F,1,50734,51334,1,0 S,1,50734,51334,1,0.2 MX,1,50734,51334,480,440 MY,1,50734,51334,184,201
Sprite,Foreground,Centre,"sb\dot.png",0,0 C,0,50734,,255,255,255 F,1,50734,51334,1,0 S,1,50734,51334,1,0.2 MX,1,50734,51334,480,435 MY,1,50734,51334,184,224
Sprite,Foreground,Centre,"sb\dot.png",0,0 C,0,51061,,255,255,255 F,1,51061,51661,1,0 S,1,51061,51661,1,0.2 MX,1,51061,51661,431,403 MY,1,51061,51661,90,39
Sprite,Foreground,Centre,"sb\dot.png",0,0 C,0,51061,,255,255,255 F,1,51061,51661,1,0 S,1,51061,51661,1,0.2 MX,1,51061,51661,431,405 MY,1,51061,51661,90,129
Sprite,Foreground,Centre,"sb\dot.png",0,0 C,0,51061,,255,255,255 F,1,51061,51661,1,0 S,1,51061,51661,1,0.2 MX,1,51061,51661,431,438 MY,1,51061,51661,90,101
Sprite,Foreground,Centre,"sb\dot.png",0,0 C,0,51061,,255,255,255 F,1,51061,51661,1,0 S,1,51061,51661,1,0.2 MX,1,51061,51661,431,392 MY,1,51061,51661,90,142
Sprite,Foreground,Centre,"sb\dot.png",0,0 C,0,51061,,255,255,255 F,1,51061,51661,1,0 S,1,51061,51661,1,0.2 MX,1,51061,51661,431,392 MY,1,51061,51661,90,108
Sprite,Foreground,Centre,"sb\dot.png",0,0 C,0,51061,,255,255,255 F,1,51061,51661,1,0 S,1,51061,51661,1,0.2 MX,1,51061,51661,431,487 MY,1,51061,51661,90,91
Sprite,Foreground,Centre,"sb\dot.png",0,0 C,0,51061,,255,255,255 F,1,51061,51661,1,0 S,1,51061,51661,1,0.2 MX,1,51061,51661,431,443 MY,1,51061,51661,90,78
Sprite,Foreground,Centre,"sb\dot.png",0,0 C,0,51061,,255,255,255 F,1,51061,51661,1,0 S,1,51061,51661,1,0.2 MX,1,51061,51661,431,451 MY,1,51061,51661,90,96
Sprite,Foreground,Centre,"sb\dot.png",0,0 C,0,51061,,255,255,255 F,1,51061,51661,1,0 S,1,51061,51661,1,0.2 MX,1,51061,51661,431,484 MY,1,51061,51661,90,135
Sprite,Foreground,Centre,"sb\dot.png",0,0 C,0,51061,,255,255,255 F,1,51061,51661,1,0 S,1,51061,51661,1,0.2 MX,1,51061,51661,431,376 MY,1,51061,51661,90,142
Sprite,Foreground,Centre,"sb\dot.png",0,0 C,0,51061,,255,255,255 F,1,51061,51661,1,0 S,1,51061,51661,1,0.2 MX,1,51061,51661,431,439 MY,1,51061,51661,90,122
Sprite,Foreground,Centre,"sb\dot.png",0,0 C,0,51061,,255,255,255 F,1,51061,51661,1,0 S,1,51061,51661,1,0.2 MX,1,51061,51661,431,399 MY,1,51061,51661,90,92
Sprite,Foreground,Centre,"sb\dot.png",0,0 C,0,51061,,255,255,255 F,1,51061,51661,1,0 S,1,51061,51661,1,0.2 MX,1,51061,51661,431,437 MY,1,51061,51661,90,36
Sprite,Foreground,Centre,"sb\dot.png",0,0 C,0,51061,,255,255,255 F,1,51061,51661,1,0 S,1,51061,51661,1,0.2 MX,1,51061,51661,431,427 MY,1,51061,51661,90,74
Sprite,Foreground,Centre,"sb\dot.png",0,0 C,0,51061,,255,255,255 F,1,51061,51661,1,0 S,1,51061,51661,1,0.2 MX,1,51061,51661,431,373 MY,1,51061,51661,90,65
Sprite,Foreground,Centre,"sb\dot.png",0,0 C,0,51061,,255,255,255 F,1,51061,51661,1,0 S,1,51061,51661,1,0.2 MX,1,51061,51661,431,456 MY,1,51061,51661,90,108
Sprite,Foreground,Centre,"sb\dot.png",0,0 C,0,51061,,255,255,255 F,1,51061,51661,1,0 S,1,51061,51661,1,0.2 MX,1,51061,51661,431,416 MY,1,51061,51661,90,52
Sprite,Foreground,Centre,"sb\dot.png",0,0 C,0,51061,,255,255,255 F,1,51061,51661,1,0 S,1,51061,51661,1,0.2 MX,1,51061,51661,431,390 MY,1,51061,51661,90,103
Sprite,Foreground,Centre,"sb\dot.png",0,0 C,0,51061,,255,255,255 F,1,51061,51661,1,0 S,1,51061,51661,1,0.2 MX,1,51061,51661,431,454 MY,1,51061,51661,90,125
Sprite,Foreground,Centre,"sb\dot.png",0,0 C,0,51061,,255,255,255 F,1,51061,51661,1,0 S,1,51061,51661,1,0.2 MX,1,51061,51661,431,452 MY,1,51061,51661,90,42
Sprite,Foreground,Centre,"sb\dot.png",0,0 C,0,51061,,255,255,255 F,1,51061,51661,1,0 S,1,51061,51661,1,0.2 MX,1,51061,51661,431,423 MY,1,51061,51661,90,33
Sprite,Foreground,Centre,"sb\dot.png",0,0 C,0,51061,,255,255,255 F,1,51061,51661,1,0 S,1,51061,51661,1,0.2 MX,1,51061,51661,431,439 MY,1,51061,51661,90,31
Sprite,Foreground,Centre,"sb\dot.png",0,0 C,0,51061,,255,255,255 F,1,51061,51661,1,0 S,1,51061,51661,1,0.2 MX,1,51061,51661,431,398 MY,1,51061,51661,90,66
Sprite,Foreground,Centre,"sb\dot.png",0,0 C,0,51061,,255,255,255 F,1,51061,51661,1,0 S,1,51061,51661,1,0.2 MX,1,51061,51661,431,390 MY,1,51061,51661,90,115
Sprite,Foreground,Centre,"sb\dot.png",0,0 C,0,51061,,255,255,255 F,1,51061,51661,1,0 S,1,51061,51661,1,0.2 MX,1,51061,51661,431,413 MY,1,51061,51661,90,56
Sprite,Foreground,Centre,"sb\dot.png",0,0 C,0,51061,,255,255,255 F,1,51061,51661,1,0 S,1,51061,51661,1,0.2 MX,1,51061,51661,431,452 MY,1,51061,51661,90,65
Sprite,Foreground,Centre,"sb\dot.png",0,0 C,0,51061,,255,255,255 F,1,51061,51661,1,0 S,1,51061,51661,1,0.2 MX,1,51061,51661,431,442 MY,1,51061,51661,90,52
Sprite,Foreground,Centre,"sb\dot.png",0,0 C,0,51061,,255,255,255 F,1,51061,51661,1,0 S,1,51061,51661,1,0.2 MX,1,51061,51661,431,402 MY,1,51061,51661,90
Sprite,Foreground,Centre,"sb\dot.png",0,0 C,0,51061,,255,255,255 F,1,51061,51661,1,0 S,1,51061,51661,1,0.2 MX,1,51061,51661,431,471 MY,1,51061,51661,90,121
Sprite,Foreground,Centre,"sb\dot.png",0,0 C,0,51061,,255,255,255 F,1,51061,51661,1,0 S,1,51061,51661,1,0.2 MX,1,51061,51661,431,404 MY,1,51061,51661,90
Sprite,Foreground,Centre,"sb\dot.png",0,0 C,0,51226,,255,255,255 F,1,51226,51826,1,0 S,1,51226,51826,1,0.2 MX,1,51226,51826,330,284 MY,1,51226,51826,121,158
Sprite,Foreground,Centre,"sb\dot.png",0,0 C,0,51226,,255,255,255 F,1,51226,51826,1,0 S,1,51226,51826,1,0.2 MX,1,51226,51826,330,379 MY,1,51226,51826,121,167
Sprite,Foreground,Centre,"sb\dot.png",0,0 C,0,51226,,255,255,255 F,1,51226,51826,1,0 S,1,51226,51826,1,0.2 MX,1,51226,51826,330,383 MY,1,51226,51826,121,99
Sprite,Foreground,Centre,"sb\dot.png",0,0 C,0,51226,,255,255,255 F,1,51226,51826,1,0 S,1,51226,51826,1,0.2 MX,1,51226,51826,330,286 MY,1,51226,51826,121,110
Sprite,Foreground,Centre,"sb\dot.png",0,0 C,0,51226,,255,255,255 F,1,51226,51826,1,0 S,1,51226,51826,1,0.2 MX,1,51226,51826,330,298 MY,1,51226,51826,121,68
Sprite,Foreground,Centre,"sb\dot.png",0,0 C,0,51226,,255,255,255 F,1,51226,51826,1,0 S,1,51226,51826,1,0.2 MX,1,51226,51826,330,372 MY,1,51226,51826,121,78
Sprite,Foreground,Centre,"sb\dot.png",0,0 C,0,51226,,255,255,255 F,1,51226,51826,1,0 S,1,51226,51826,1,0.2 MX,1,51226,51826,330,294 MY,1,51226,51826,121,174
Sprite,Foreground,Centre,"sb\dot.png",0,0 C,0,51226,,255,255,255 F,1,51226,51826,1,0 S,1,51226,51826,1,0.2 MX,1,51226,51826,330 MY,1,51226,51826,121,126
Sprite,Foreground,Centre,"sb\dot.png",0,0 C,0,51226,,255,255,255 F,1,51226,51826,1,0 S,1,51226,51826,1,0.2 MX,1,51226,51826,330,293 MY,1,51226,51826,121,88
Sprite,Foreground,Centre,"sb\dot.png",0,0 C,0,51226,,255,255,255 F,1,51226,51826,1,0 S,1,51226,51826,1,0.2 MX,1,51226,51826,330,304 MY,1,51226,51826,121,91
Sprite,Foreground,Centre,"sb\dot.png",0,0 C,0,51226,,255,255,255 F,1,51226,51826,1,0 S,1,51226,51826,1,0.2 MX,1,51226,51826,330,377 MY,1,51226,51826,121,152
Sprite,Foreground,Centre,"sb\dot.png",0,0 C,0,51226,,255,255,255 F,1,51226,51826,1,0 S,1,51226,51826,1,0.2 MX,1,51226,51826,330,271 MY,1,51226,51826,121,157
Sprite,Foreground,Centre,"sb\dot.png",0,0 C,0,51226,,255,255,255 F,1,51226,51826,1,0 S,1,51226,51826,1,0.2 MX,1,51226,51826,330,344 MY,1,51226,51826,121,111
Sprite,Foreground,Centre,"sb\dot.png",0,0 C,0,51226,,255,255,255 F,1,51226,51826,1,0 S,1,51226,51826,1,0.2 MX,1,51226,51826,330,276 MY,1,51226,51826,121,83
Sprite,Foreground,Centre,"sb\dot.png",0,0 C,0,51226,,255,255,255 F,1,51226,51826,1,0 S,1,51226,51826,1,0.2 MX,1,51226,51826,330,381 MY,1,51226,51826,121,140
Sprite,Foreground,Centre,"sb\dot.png",0,0 C,0,51226,,255,255,255 F,1,51226,51826,1,0 S,1,51226,51826,1,0.2 MX,1,51226,51826,330,363 MY,1,51226,51826,121,173
Sprite,Foreground,Centre,"sb\dot.png",0,0 C,0,51226,,255,255,255 F,1,51226,51826,1,0 S,1,51226,51826,1,0.2 MX,1,51226,51826,330,332 MY,1,51226,51826,121,81
Sprite,Foreground,Centre,"sb\dot.png",0,0 C,0,51226,,255,255,255 F,1,51226,51826,1,0 S,1,51226,51826,1,0.2 MX,1,51226,51826,330,388 MY,1,51226,51826,121,135
Sprite,Foreground,Centre,"sb\dot.png",0,0 C,0,51226,,255,255,255 F,1,51226,51826,1,0 S,1,51226,51826,1,0.2 MX,1,51226,51826,330,283 MY,1,51226,51826,121,143
Sprite,Foreground,Centre,"sb\dot.png",0,0 C,0,51226,,255,255,255 F,1,51226,51826,1,0 S,1,51226,51826,1,0.2 MX,1,51226,51826,330,278 MY,1,51226,51826,121,170
Sprite,Foreground,Centre,"sb\dot.png",0,0 C,0,51226,,255,255,255 F,1,51226,51826,1,0 S,1,51226,51826,1,0.2 MX,1,51226,51826,330,289 MY,1,51226,51826,121,151
Sprite,Foreground,Centre,"sb\dot.png",0,0 C,0,51226,,255,255,255 F,1,51226,51826,1,0 S,1,51226,51826,1,0.2 MX,1,51226,51826,330,327 MY,1,51226,51826,121,96
Sprite,Foreground,Centre,"sb\dot.png",0,0 C,0,51226,,255,255,255 F,1,51226,51826,1,0 S,1,51226,51826,1,0.2 MX,1,51226,51826,330,313 MY,1,51226,51826,121,124
Sprite,Foreground,Centre,"sb\dot.png",0,0 C,0,51226,,255,255,255 F,1,51226,51826,1,0 S,1,51226,51826,1,0.2 MX,1,51226,51826,330,280 MY,1,51226,51826,121,139
Sprite,Foreground,Centre,"sb\dot.png",0,0 C,0,51226,,255,255,255 F,1,51226,51826,1,0 S,1,51226,51826,1,0.2 MX,1,51226,51826,330,352 MY,1,51226,51826,121,147
Sprite,Foreground,Centre,"sb\dot.png",0,0 C,0,51226,,255,255,255 F,1,51226,51826,1,0 S,1,51226,51826,1,0.2 MX,1,51226,51826,330,306 MY,1,51226,51826,121,134
Sprite,Foreground,Centre,"sb\dot.png",0,0 C,0,51226,,255,255,255 F,1,51226,51826,1,0 S,1,51226,51826,1,0.2 MX,1,51226,51826,330,327 MY,1,51226,51826,121,63
Sprite,Foreground,Centre,"sb\dot.png",0,0 C,0,51226,,255,255,255 F,1,51226,51826,1,0 S,1,51226,51826,1,0.2 MX,1,51226,51826,330,343 MY,1,51226,51826,121,104
Sprite,Foreground,Centre,"sb\dot.png",0,0 C,0,51226,,255,255,255 F,1,51226,51826,1,0 S,1,51226,51826,1,0.2 MX,1,51226,51826,330,365 MY,1,51226,51826,121,74
Sprite,Foreground,Centre,"sb\dot.png",0,0 C,0,51226,,255,255,255 F,1,51226,51826,1,0 S,1,51226,51826,1,0.2 MX,1,51226,51826,330,301 MY,1,51226,51826,121,123
Sprite,Foreground,Centre,"sb\dot.png",0,0 C,0,51472,,255,255,255 F,1,51472,52072,1,0 S,1,51472,52072,1,0.2 MX,1,51472,52072,256,227 MY,1,51472,52072,95,148
Sprite,Foreground,Centre,"sb\dot.png",0,0 C,0,51472,,255,255,255 F,1,51472,52072,1,0 S,1,51472,52072,1,0.2 MX,1,51472,52072,256,254 MY,1,51472,52072,95,104
Sprite,Foreground,Centre,"sb\dot.png",0,0 C,0,51472,,255,255,255 F,1,51472,52072,1,0 S,1,51472,52072,1,0.2 MX,1,51472,52072,256,230 MY,1,51472,52072,95,145
Sprite,Foreground,Centre,"sb\dot.png",0,0 C,0,51472,,255,255,255 F,1,51472,52072,1,0 S,1,51472,52072,1,0.2 MX,1,51472,52072,256,271 MY,1,51472,52072,95,38
Sprite,Foreground,Centre,"sb\dot.png",0,0 C,0,51472,,255,255,255 F,1,51472,52072,1,0 S,1,51472,52072,1,0.2 MX,1,51472,52072,256,311 MY,1,51472,52072,95,140
Sprite,Foreground,Centre,"sb\dot.png",0,0 C,0,51472,,255,255,255 F,1,51472,52072,1,0 S,1,51472,52072,1,0.2 MX,1,51472,52072,256,248 MY,1,51472,52072,95,96
Sprite,Foreground,Centre,"sb\dot.png",0,0 C,0,51472,,255,255,255 F,1,51472,52072,1,0 S,1,51472,52072,1,0.2 MX,1,51472,52072,256,215 MY,1,51472,52072,95,80
Sprite,Foreground,Centre,"sb\dot.png",0,0 C,0,51472,,255,255,255 F,1,51472,52072,1,0 S,1,51472,52072,1,0.2 MX,1,51472,52072,256,206 MY,1,51472,52072,95,52
Sprite,Foreground,Centre,"sb\dot.png",0,0 C,0,51472,,255,255,255 F,1,51472,52072,1,0 S,1,51472,52072,1,0.2 MX,1,51472,52072,256,230 MY,1,51472,52072,95,121
Sprite,Foreground,Centre,"sb\dot.png",0,0 C,0,51472,,255,255,255 F,1,51472,52072,1,0 S,1,51472,52072,1,0.2 MX,1,51472,52072,256,248 MY,1,51472,52072,95,45
Sprite,Foreground,Centre,"sb\dot.png",0,0 C,0,51472,,255,255,255 F,1,51472,52072,1,0 S,1,51472,52072,1,0.2 MX,1,51472,52072,256,235 MY,1,51472,52072,95,83
Sprite,Foreground,Centre,"sb\dot.png",0,0 C,0,51472,,255,255,255 F,1,51472,52072,1,0 S,1,51472,52072,1,0.2 MX,1,51472,52072,256,255 MY,1,51472,52072,95,59
Sprite,Foreground,Centre,"sb\dot.png",0,0 C,0,51472,,255,255,255 F,1,51472,52072,1,0 S,1,51472,52072,1,0.2 MX,1,51472,52072,256,238 MY,1,51472,52072,95,55
Sprite,Foreground,Centre,"sb\dot.png",0,0 C,0,51472,,255,255,255 F,1,51472,52072,1,0 S,1,51472,52072,1,0.2 MX,1,51472,52072,256,250 MY,1,51472,52072,95,94
Sprite,Foreground,Centre,"sb\dot.png",0,0 C,0,51472,,255,255,255 F,1,51472,52072,1,0 S,1,51472,52072,1,0.2 MX,1,51472,52072,256,263 MY,1,51472,52072,95,109
Sprite,Foreground,Centre,"sb\dot.png",0,0 C,0,51472,,255,255,255 F,1,51472,52072,1,0 S,1,51472,52072,1,0.2 MX,1,51472,52072,256,295 MY,1,51472,52072,95,154
Sprite,Foreground,Centre,"sb\dot.png",0,0 C,0,51472,,255,255,255 F,1,51472,52072,1,0 S,1,51472,52072,1,0.2 MX,1,51472,52072,256,246 MY,1,51472,52072,95,100
Sprite,Foreground,Centre,"sb\dot.png",0,0 C,0,51472,,255,255,255 F,1,51472,52072,1,0 S,1,51472,52072,1,0.2 MX,1,51472,52072,256,274 MY,1,51472,52072,95,60
Sprite,Foreground,Centre,"sb\dot.png",0,0 C,0,51472,,255,255,255 F,1,51472,52072,1,0 S,1,51472,52072,1,0.2 MX,1,51472,52072,256,227 MY,1,51472,52072,95,142
Sprite,Foreground,Centre,"sb\dot.png",0,0 C,0,51472,,255,255,255 F,1,51472,52072,1,0 S,1,51472,52072,1,0.2 MX,1,51472,52072,256,196 MY,1,51472,52072,95,87
Sprite,Foreground,Centre,"sb\dot.png",0,0 C,0,51472,,255,255,255 F,1,51472,52072,1,0 S,1,51472,52072,1,0.2 MX,1,51472,52072,256,304 MY,1,51472,52072,95,42
Sprite,Foreground,Centre,"sb\dot.png",0,0 C,0,51472,,255,255,255 F,1,51472,52072,1,0 S,1,51472,52072,1,0.2 MX,1,51472,52072,256,279 MY,1,51472,52072,95,131
Sprite,Foreground,Centre,"sb\dot.png",0,0 C,0,51472,,255,255,255 F,1,51472,52072,1,0 S,1,51472,52072,1,0.2 MX,1,51472,52072,256,230 MY,1,51472,52072,95,130
Sprite,Foreground,Centre,"sb\dot.png",0,0 C,0,51472,,255,255,255 F,1,51472,52072,1,0 S,1,51472,52072,1,0.2 MX,1,51472,52072,256,249 MY,1,51472,52072,95,47
Sprite,Foreground,Centre,"sb\dot.png",0,0 C,0,51472,,255,255,255 F,1,51472,52072,1,0 S,1,51472,52072,1,0.2 MX,1,51472,52072,256,308 MY,1,51472,52072,95,90
Sprite,Foreground,Centre,"sb\dot.png",0,0 C,0,51472,,255,255,255 F,1,51472,52072,1,0 S,1,51472,52072,1,0.2 MX,1,51472,52072,256,205 MY,1,51472,52072,95,44
Sprite,Foreground,Centre,"sb\dot.png",0,0 C,0,51472,,255,255,255 F,1,51472,52072,1,0 S,1,51472,52072,1,0.2 MX,1,51472,52072,256,276 MY,1,51472,52072,95,56
Sprite,Foreground,Centre,"sb\dot.png",0,0 C,0,51472,,255,255,255 F,1,51472,52072,1,0 S,1,51472,52072,1,0.2 MX,1,51472,52072,256,218 MY,1,51472,52072,95,138
Sprite,Foreground,Centre,"sb\dot.png",0,0 C,0,51472,,255,255,255 F,1,51472,52072,1,0 S,1,51472,52072,1,0.2 MX,1,51472,52072,256,250 MY,1,51472,52072,95,68
Sprite,Foreground,Centre,"sb\dot.png",0,0 C,0,51472,,255,255,255 F,1,51472,52072,1,0 S,1,51472,52072,1,0.2 MX,1,51472,52072,256,222 MY,1,51472,52072,95,49
Sprite,Foreground,Centre,"sb\dot.png",0,0 C,0,51554,,255,255,255 F,1,51554,52154,1,0 S,1,51554,52154,1,0.2 MX,1,51554,52154,240,235 MY,1,51554,52154,100,56
Sprite,Foreground,Centre,"sb\dot.png",0,0 C,0,51554,,255,255,255 F,1,51554,52154,1,0 S,1,51554,52154,1,0.2 MX,1,51554,52154,240,235 MY,1,51554,52154,100,80
Sprite,Foreground,Centre,"sb\dot.png",0,0 C,0,51554,,255,255,255 F,1,51554,52154,1,0 S,1,51554,52154,1,0.2 MX,1,51554,52154,240,186 MY,1,51554,52154,100,92
Sprite,Foreground,Centre,"sb\dot.png",0,0 C,0,51554,,255,255,255 F,1,51554,52154,1,0 S,1,51554,52154,1,0.2 MX,1,51554,52154,240,191 MY,1,51554,52154,100,113
Sprite,Foreground,Centre,"sb\dot.png",0,0 C,0,51554,,255,255,255 F,1,51554,52154,1,0 S,1,51554,52154,1,0.2 MX,1,51554,52154,240,266 MY,1,51554,52154,100,144
Sprite,Foreground,Centre,"sb\dot.png",0,0 C,0,51554,,255,255,255 F,1,51554,52154,1,0 S,1,51554,52154,1,0.2 MX,1,51554,52154,240,285 MY,1,51554,52154,100,86
Sprite,Foreground,Centre,"sb\dot.png",0,0 C,0,51554,,255,255,255 F,1,51554,52154,1,0 S,1,51554,52154,1,0.2 MX,1,51554,52154,240,265 MY,1,51554,52154,100,40
Sprite,Foreground,Centre,"sb\dot.png",0,0 C,0,51554,,255,255,255 F,1,51554,52154,1,0 S,1,51554,52154,1,0.2 MX,1,51554,52154,240,202 MY,1,51554,52154,100,72
Sprite,Foreground,Centre,"sb\dot.png",0,0 C,0,51554,,255,255,255 F,1,51554,52154,1,0 S,1,51554,52154,1,0.2 MX,1,51554,52154,240,264 MY,1,51554,52154,100,122
Sprite,Foreground,Centre,"sb\dot.png",0,0 C,0,51554,,255,255,255 F,1,51554,52154,1,0 S,1,51554,52154,1,0.2 MX,1,51554,52154,240,289 MY,1,51554,52154,100,107
Sprite,Foreground,Centre,"sb\dot.png",0,0 C,0,51554,,255,255,255 F,1,51554,52154,1,0 S,1,51554,52154,1,0.2 MX,1,51554,52154,240,266 MY,1,51554,52154,100,82
Sprite,Foreground,Centre,"sb\dot.png",0,0 C,0,51554,,255,255,255 F,1,51554,52154,1,0 S,1,51554,52154,1,0.2 MX,1,51554,52154,240,246 MY,1,51554,52154,100,51
Sprite,Foreground,Centre,"sb\dot.png",0,0 C,0,51554,,255,255,255 F,1,51554,52154,1,0 S,1,51554,52154,1,0.2 MX,1,51554,52154,240,245 MY,1,51554,52154,100,129
Sprite,Foreground,Centre,"sb\dot.png",0,0 C,0,51554,,255,255,255 F,1,51554,52154,1,0 S,1,51554,52154,1,0.2 MX,1,51554,52154,240,219 MY,1,51554,52154,100,68
Sprite,Foreground,Centre,"sb\dot.png",0,0 C,0,51554,,255,255,255 F,1,51554,52154,1,0 S,1,51554,52154,1,0.2 MX,1,51554,52154,240,223 MY,1,51554,52154,100,135
Sprite,Foreground,Centre,"sb\dot.png",0,0 C,0,51554,,255,255,255 F,1,51554,52154,1,0 S,1,51554,52154,1,0.2 MX,1,51554,52154,240,271 MY,1,51554,52154,100,158
Sprite,Foreground,Centre,"sb\dot.png",0,0 C,0,51554,,255,255,255 F,1,51554,52154,1,0 S,1,51554,52154,1,0.2 MX,1,51554,52154,240,261 MY,1,51554,52154,100,146
Sprite,Foreground,Centre,"sb\dot.png",0,0 C,0,51554,,255,255,255 F,1,51554,52154,1,0 S,1,51554,52154,1,0.2 MX,1,51554,52154,240,296 MY,1,51554,52154,100,131
Sprite,Foreground,Centre,"sb\dot.png",0,0 C,0,51554,,255,255,255 F,1,51554,52154,1,0 S,1,51554,52154,1,0.2 MX,1,51554,52154,240,251 MY,1,51554,52154,100,83
Sprite,Foreground,Centre,"sb\dot.png",0,0 C,0,51554,,255,255,255 F,1,51554,52154,1,0 S,1,51554,52154,1,0.2 MX,1,51554,52154,240,270 MY,1,51554,52154,100,142
Sprite,Foreground,Centre,"sb\dot.png",0,0 C,0,51554,,255,255,255 F,1,51554,52154,1,0 S,1,51554,52154,1,0.2 MX,1,51554,52154,240,263 MY,1,51554,52154,100,140
Sprite,Foreground,Centre,"sb\dot.png",0,0 C,0,51554,,255,255,255 F,1,51554,52154,1,0 S,1,51554,52154,1,0.2 MX,1,51554,52154,240,225 MY,1,51554,52154,100,47
Sprite,Foreground,Centre,"sb\dot.png",0,0 C,0,51554,,255,255,255 F,1,51554,52154,1,0 S,1,51554,52154,1,0.2 MX,1,51554,52154,240,249 MY,1,51554,52154,100,122
Sprite,Foreground,Centre,"sb\dot.png",0,0 C,0,51554,,255,255,255 F,1,51554,52154,1,0 S,1,51554,52154,1,0.2 MX,1,51554,52154,240,223 MY,1,51554,52154,100,120
Sprite,Foreground,Centre,"sb\dot.png",0,0 C,0,51554,,255,255,255 F,1,51554,52154,1,0 S,1,51554,52154,1,0.2 MX,1,51554,52154,240,298 MY,1,51554,52154,100,150
Sprite,Foreground,Centre,"sb\dot.png",0,0 C,0,51554,,255,255,255 F,1,51554,52154,1,0 S,1,51554,52154,1,0.2 MX,1,51554,52154,240,198 MY,1,51554,52154,100,131
Sprite,Foreground,Centre,"sb\dot.png",0,0 C,0,51554,,255,255,255 F,1,51554,52154,1,0 S,1,51554,52154,1,0.2 MX,1,51554,52154,240,223 MY,1,51554,52154,100,118
Sprite,Foreground,Centre,"sb\dot.png",0,0 C,0,51554,,255,255,255 F,1,51554,52154,1,0 S,1,51554,52154,1,0.2 MX,1,51554,52154,240,227 MY,1,51554,52154,100,53
Sprite,Foreground,Centre,"sb\dot.png",0,0 C,0,51554,,255,255,255 F,1,51554,52154,1,0 S,1,51554,52154,1,0.2 MX,1,51554,52154,240,249 MY,1,51554,52154,100,83
Sprite,Foreground,Centre,"sb\dot.png",0,0 C,0,51554,,255,255,255 F,1,51554,52154,1,0 S,1,51554,52154,1,0.2 MX,1,51554,52154,240,274 MY,1,51554,52154,100,76
Sprite,Foreground,Centre,"sb\dot.png",0,0 C,0,51881,,255,255,255 F,1,51881,52481,1,0 S,1,51881,52481,1,0.2 MX,1,51881,52481,168,121 MY,1,51881,52481,200,242
Sprite,Foreground,Centre,"sb\dot.png",0,0 C,0,51881,,255,255,255 F,1,51881,52481,1,0 S,1,51881,52481,1,0.2 MX,1,51881,52481,168,138 MY,1,51881,52481,200,251
Sprite,Foreground,Centre,"sb\dot.png",0,0 C,0,51881,,255,255,255 F,1,51881,52481,1,0 S,1,51881,52481,1,0.2 MX,1,51881,52481,168,121 MY,1,51881,52481,200,247
Sprite,Foreground,Centre,"sb\dot.png",0,0 C,0,51881,,255,255,255 F,1,51881,52481,1,0 S,1,51881,52481,1,0.2 MX,1,51881,52481,168,193 MY,1,51881,52481,200,238
Sprite,Foreground,Centre,"sb\dot.png",0,0 C,0,51881,,255,255,255 F,1,51881,52481,1,0 S,1,51881,52481,1,0.2 MX,1,51881,52481,168,111 MY,1,51881,52481,200,191
Sprite,Foreground,Centre,"sb\dot.png",0,0 C,0,51881,,255,255,255 F,1,51881,52481,1,0 S,1,51881,52481,1,0.2 MX,1,51881,52481,168,188 MY,1,51881,52481,200,180
Sprite,Foreground,Centre,"sb\dot.png",0,0 C,0,51881,,255,255,255 F,1,51881,52481,1,0 S,1,51881,52481,1,0.2 MX,1,51881,52481,168,220 MY,1,51881,52481,200,147
Sprite,Foreground,Centre,"sb\dot.png",0,0 C,0,51881,,255,255,255 F,1,51881,52481,1,0 S,1,51881,52481,1,0.2 MX,1,51881,52481,168,212 MY,1,51881,52481,200,245
Sprite,Foreground,Centre,"sb\dot.png",0,0 C,0,51881,,255,255,255 F,1,51881,52481,1,0 S,1,51881,52481,1,0.2 MX,1,51881,52481,168,225 MY,1,51881,52481,200,199
Sprite,Foreground,Centre,"sb\dot.png",0,0 C,0,51881,,255,255,255 F,1,51881,52481,1,0 S,1,51881,52481,1,0.2 MX,1,51881,52481,168,170 MY,1,51881,52481,200,243
Sprite,Foreground,Centre,"sb\dot.png",0,0 C,0,51881,,255,255,255 F,1,51881,52481,1,0 S,1,51881,52481,1,0.2 MX,1,51881,52481,168,154 MY,1,51881,52481,200,218
Sprite,Foreground,Centre,"sb\dot.png",0,0 C,0,51881,,255,255,255 F,1,51881,52481,1,0 S,1,51881,52481,1,0.2 MX,1,51881,52481,168,138 MY,1,51881,52481,200,192
Sprite,Foreground,Centre,"sb\dot.png",0,0 C,0,51881,,255,255,255 F,1,51881,52481,1,0 S,1,51881,52481,1,0.2 MX,1,51881,52481,168,184 MY,1,51881,52481,200,140
Sprite,Foreground,Centre,"sb\dot.png",0,0 C,0,51881,,255,255,255 F,1,51881,52481,1,0 S,1,51881,52481,1,0.2 MX,1,51881,52481,168,182 MY,1,51881,52481,200,142
Sprite,Foreground,Centre,"sb\dot.png",0,0 C,0,51881,,255,255,255 F,1,51881,52481,1,0 S,1,51881,52481,1,0.2 MX,1,51881,52481,168,166 MY,1,51881,52481,200,243
Sprite,Foreground,Centre,"sb\dot.png",0,0 C,0,51881,,255,255,255 F,1,51881,52481,1,0 S,1,51881,52481,1,0.2 MX,1,51881,52481,168,130 MY,1,51881,52481,200,167
Sprite,Foreground,Centre,"sb\dot.png",0,0 C,0,51881,,255,255,255 F,1,51881,52481,1,0 S,1,51881,52481,1,0.2 MX,1,51881,52481,168,176 MY,1,51881,52481,200,194
Sprite,Foreground,Centre,"sb\dot.png",0,0 C,0,51881,,255,255,255 F,1,51881,52481,1,0 S,1,51881,52481,1,0.2 MX,1,51881,52481,168,196 MY,1,51881,52481,200,240
Sprite,Foreground,Centre,"sb\dot.png",0,0 C,0,51881,,255,255,255 F,1,51881,52481,1,0 S,1,51881,52481,1,0.2 MX,1,51881,52481,168,178 MY,1,51881,52481,200,193
Sprite,Foreground,Centre,"sb\dot.png",0,0 C,0,51881,,255,255,255 F,1,51881,52481,1,0 S,1,51881,52481,1,0.2 MX,1,51881,52481,168,221 MY,1,51881,52481,200,222
Sprite,Foreground,Centre,"sb\dot.png",0,0 C,0,51881,,255,255,255 F,1,51881,52481,1,0 S,1,51881,52481,1,0.2 MX,1,51881,52481,168,225 MY,1,51881,52481,200,204
Sprite,Foreground,Centre,"sb\dot.png",0,0 C,0,51881,,255,255,255 F,1,51881,52481,1,0 S,1,51881,52481,1,0.2 MX,1,51881,52481,168,184 MY,1,51881,52481,200,207
Sprite,Foreground,Centre,"sb\dot.png",0,0 C,0,51881,,255,255,255 F,1,51881,52481,1,0 S,1,51881,52481,1,0.2 MX,1,51881,52481,168,137 MY,1,51881,52481,200,237
Sprite,Foreground,Centre,"sb\dot.png",0,0 C,0,51881,,255,255,255 F,1,51881,52481,1,0 S,1,51881,52481,1,0.2 MX,1,51881,52481,168,206 MY,1,51881,52481,200,176
Sprite,Foreground,Centre,"sb\dot.png",0,0 C,0,51881,,255,255,255 F,1,51881,52481,1,0 S,1,51881,52481,1,0.2 MX,1,51881,52481,168,202 MY,1,51881,52481,200,202
Sprite,Foreground,Centre,"sb\dot.png",0,0 C,0,51881,,255,255,255 F,1,51881,52481,1,0 S,1,51881,52481,1,0.2 MX,1,51881,52481,168,123 MY,1,51881,52481,200,149
Sprite,Foreground,Centre,"sb\dot.png",0,0 C,0,51881,,255,255,255 F,1,51881,52481,1,0 S,1,51881,52481,1,0.2 MX,1,51881,52481,168,209 MY,1,51881,52481,200,251
Sprite,Foreground,Centre,"sb\dot.png",0,0 C,0,51881,,255,255,255 F,1,51881,52481,1,0 S,1,51881,52481,1,0.2 MX,1,51881,52481,168,218 MY,1,51881,52481,200,194
Sprite,Foreground,Centre,"sb\dot.png",0,0 C,0,51881,,255,255,255 F,1,51881,52481,1,0 S,1,51881,52481,1,0.2 MX,1,51881,52481,168,180 MY,1,51881,52481,200,237
Sprite,Foreground,Centre,"sb\dot.png",0,0 C,0,51881,,255,255,255 F,1,51881,52481,1,0 S,1,51881,52481,1,0.2 MX,1,51881,52481,168,143 MY,1,51881,52481,200,152
Sprite,Foreground,Centre,"sb\dot.png",0,0 C,0,52045,,255,255,255 F,1,52045,52645,1,0 S,1,52045,52645,1,0.2 MX,1,52045,52645,188,161 MY,1,52045,52645,304,326
Sprite,Foreground,Centre,"sb\dot.png",0,0 C,0,52045,,255,255,255 F,1,52045,52645,1,0 S,1,52045,52645,1,0.2 MX,1,52045,52645,188,167 MY,1,52045,52645,304,264
Sprite,Foreground,Centre,"sb\dot.png",0,0 C,0,52045,,255,255,255 F,1,52045,52645,1,0 S,1,52045,52645,1,0.2 MX,1,52045,52645,188,156 MY,1,52045,52645,304,297
Sprite,Foreground,Centre,"sb\dot.png",0,0 C,0,52045,,255,255,255 F,1,52045,52645,1,0 S,1,52045,52645,1,0.2 MX,1,52045,52645,188,220 MY,1,52045,52645,304,302
Sprite,Foreground,Centre,"sb\dot.png",0,0 C,0,52045,,255,255,255 F,1,52045,52645,1,0 S,1,52045,52645,1,0.2 MX,1,52045,52645,188,166 MY,1,52045,52645,304,247
Sprite,Foreground,Centre,"sb\dot.png",0,0 C,0,52045,,255,255,255 F,1,52045,52645,1,0 S,1,52045,52645,1,0.2 MX,1,52045,52645,188,163 MY,1,52045,52645,304,307
Sprite,Foreground,Centre,"sb\dot.png",0,0 C,0,52045,,255,255,255 F,1,52045,52645,1,0 S,1,52045,52645,1,0.2 MX,1,52045,52645,188,193 MY,1,52045,52645,304,343
Sprite,Foreground,Centre,"sb\dot.png",0,0 C,0,52045,,255,255,255 F,1,52045,52645,1,0 S,1,52045,52645,1,0.2 MX,1,52045,52645,188,233 MY,1,52045,52645,304,345
Sprite,Foreground,Centre,"sb\dot.png",0,0 C,0,52045,,255,255,255 F,1,52045,52645,1,0 S,1,52045,52645,1,0.2 MX,1,52045,52645,188,129 MY,1,52045,52645,304,326
Sprite,Foreground,Centre,"sb\dot.png",0,0 C,0,52045,,255,255,255 F,1,52045,52645,1,0 S,1,52045,52645,1,0.2 MX,1,52045,52645,188,151 MY,1,52045,52645,304,342
Sprite,Foreground,Centre,"sb\dot.png",0,0 C,0,52045,,255,255,255 F,1,52045,52645,1,0 S,1,52045,52645,1,0.2 MX,1,52045,52645,188,149 MY,1,52045,52645,304,282
Sprite,Foreground,Centre,"sb\dot.png",0,0 C,0,52045,,255,255,255 F,1,52045,52645,1,0 S,1,52045,52645,1,0.2 MX,1,52045,52645,188,155 MY,1,52045,52645,304,360
Sprite,Foreground,Centre,"sb\dot.png",0,0 C,0,52045,,255,255,255 F,1,52045,52645,1,0 S,1,52045,52645,1,0.2 MX,1,52045,52645,188,215 MY,1,52045,52645,304,256
Sprite,Foreground,Centre,"sb\dot.png",0,0 C,0,52045,,255,255,255 F,1,52045,52645,1,0 S,1,52045,52645,1,0.2 MX,1,52045,52645,188,173 MY,1,52045,52645,304,321
Sprite,Foreground,Centre,"sb\dot.png",0,0 C,0,52045,,255,255,255 F,1,52045,52645,1,0 S,1,52045,52645,1,0.2 MX,1,52045,52645,188,191 MY,1,52045,52645,304,278
Sprite,Foreground,Centre,"sb\dot.png",0,0 C,0,52045,,255,255,255 F,1,52045,52645,1,0 S,1,52045,52645,1,0.2 MX,1,52045,52645,188,156 MY,1,52045,52645,304,336
Sprite,Foreground,Centre,"sb\dot.png",0,0 C,0,52045,,255,255,255 F,1,52045,52645,1,0 S,1,52045,52645,1,0.2 MX,1,52045,52645,188,146 MY,1,52045,52645,304,345
Sprite,Foreground,Centre,"sb\dot.png",0,0 C,0,52045,,255,255,255 F,1,52045,52645,1,0 S,1,52045,52645,1,0.2 MX,1,52045,52645,188,177 MY,1,52045,52645,304,278
Sprite,Foreground,Centre,"sb\dot.png",0,0 C,0,52045,,255,255,255 F,1,52045,52645,1,0 S,1,52045,52645,1,0.2 MX,1,52045,52645,188,152 MY,1,52045,52645,304,300
Sprite,Foreground,Centre,"sb\dot.png",0,0 C,0,52045,,255,255,255 F,1,52045,52645,1,0 S,1,52045,52645,1,0.2 MX,1,52045,52645,188,166 MY,1,52045,52645,304,339
Sprite,Foreground,Centre,"sb\dot.png",0,0 C,0,52045,,255,255,255 F,1,52045,52645,1,0 S,1,52045,52645,1,0.2 MX,1,52045,52645,188,133 MY,1,52045,52645,304,284
Sprite,Foreground,Centre,"sb\dot.png",0,0 C,0,52045,,255,255,255 F,1,52045,52645,1,0 S,1,52045,52645,1,0.2 MX,1,52045,52645,188,245 MY,1,52045,52645,304,335
Sprite,Foreground,Centre,"sb\dot.png",0,0 C,0,52045,,255,255,255 F,1,52045,52645,1,0 S,1,52045,52645,1,0.2 MX,1,52045,52645,188,154 MY,1,52045,52645,304,316
Sprite,Foreground,Centre,"sb\dot.png",0,0 C,0,52045,,255,255,255 F,1,52045,52645,1,0 S,1,52045,52645,1,0.2 MX,1,52045,52645,188,191 MY,1,52045,52645,304,246
Sprite,Foreground,Centre,"sb\dot.png",0,0 C,0,52045,,255,255,255 F,1,52045,52645,1,0 S,1,52045,52645,1,0.2 MX,1,52045,52645,188,133 MY,1,52045,52645,304,252
Sprite,Foreground,Centre,"sb\dot.png",0,0 C,0,52045,,255,255,255 F,1,52045,52645,1,0 S,1,52045,52645,1,0.2 MX,1,52045,52645,188,180 MY,1,52045,52645,304,353
Sprite,Foreground,Centre,"sb\dot.png",0,0 C,0,52045,,255,255,255 F,1,52045,52645,1,0 S,1,52045,52645,1,0.2 MX,1,52045,52645,188,202 MY,1,52045,52645,304,300
Sprite,Foreground,Centre,"sb\dot.png",0,0 C,0,52045,,255,255,255 F,1,52045,52645,1,0 S,1,52045,52645,1,0.2 MX,1,52045,52645,188,238 MY,1,52045,52645,304,359
Sprite,Foreground,Centre,"sb\dot.png",0,0 C,0,52045,,255,255,255 F,1,52045,52645,1,0 S,1,52045,52645,1,0.2 MX,1,52045,52645,188,183 MY,1,52045,52645,304,287
Sprite,Foreground,Centre,"sb\dot.png",0,0 C,0,52045,,255,255,255 F,1,52045,52645,1,0 S,1,52045,52645,1,0.2 MX,1,52045,52645,188,180 MY,1,52045,52645,304,260
Sprite,Foreground,Centre,"sb\dot.png",0,0 C,0,52209,,255,255,255 F,1,52209,52809,1,0 S,1,52209,52809,1,0.2 MX,1,52209,52809,85,33 MY,1,52209,52809,327,281
Sprite,Foreground,Centre,"sb\dot.png",0,0 C,0,52209,,255,255,255 F,1,52209,52809,1,0 S,1,52209,52809,1,0.2 MX,1,52209,52809,85,139 MY,1,52209,52809,327,271
Sprite,Foreground,Centre,"sb\dot.png",0,0 C,0,52209,,255,255,255 F,1,52209,52809,1,0 S,1,52209,52809,1,0.2 MX,1,52209,52809,85,119 MY,1,52209,52809,327,329
Sprite,Foreground,Centre,"sb\dot.png",0,0 C,0,52209,,255,255,255 F,1,52209,52809,1,0 S,1,52209,52809,1,0.2 MX,1,52209,52809,85,70 MY,1,52209,52809,327,351
Sprite,Foreground,Centre,"sb\dot.png",0,0 C,0,52209,,255,255,255 F,1,52209,52809,1,0 S,1,52209,52809,1,0.2 MX,1,52209,52809,85,75 MY,1,52209,52809,327,338
Sprite,Foreground,Centre,"sb\dot.png",0,0 C,0,52209,,255,255,255 F,1,52209,52809,1,0 S,1,52209,52809,1,0.2 MX,1,52209,52809,85,101 MY,1,52209,52809,327,332
Sprite,Foreground,Centre,"sb\dot.png",0,0 C,0,52209,,255,255,255 F,1,52209,52809,1,0 S,1,52209,52809,1,0.2 MX,1,52209,52809,85,69 MY,1,52209,52809,327,314
Sprite,Foreground,Centre,"sb\dot.png",0,0 C,0,52209,,255,255,255 F,1,52209,52809,1,0 S,1,52209,52809,1,0.2 MX,1,52209,52809,85,117 MY,1,52209,52809,327,368
Sprite,Foreground,Centre,"sb\dot.png",0,0 C,0,52209,,255,255,255 F,1,52209,52809,1,0 S,1,52209,52809,1,0.2 MX,1,52209,52809,85,65 MY,1,52209,52809,327,323
Sprite,Foreground,Centre,"sb\dot.png",0,0 C,0,52209,,255,255,255 F,1,52209,52809,1,0 S,1,52209,52809,1,0.2 MX,1,52209,52809,85,115 MY,1,52209,52809,327,282
Sprite,Foreground,Centre,"sb\dot.png",0,0 C,0,52209,,255,255,255 F,1,52209,52809,1,0 S,1,52209,52809,1,0.2 MX,1,52209,52809,85,93 MY,1,52209,52809,327,310
Sprite,Foreground,Centre,"sb\dot.png",0,0 C,0,52209,,255,255,255 F,1,52209,52809,1,0 S,1,52209,52809,1,0.2 MX,1,52209,52809,85,96 MY,1,52209,52809,327,322
Sprite,Foreground,Centre,"sb\dot.png",0,0 C,0,52209,,255,255,255 F,1,52209,52809,1,0 S,1,52209,52809,1,0.2 MX,1,52209,52809,85,126 MY,1,52209,52809,327,305
Sprite,Foreground,Centre,"sb\dot.png",0,0 C,0,52209,,255,255,255 F,1,52209,52809,1,0 S,1,52209,52809,1,0.2 MX,1,52209,52809,85,43 MY,1,52209,52809,327,348
Sprite,Foreground,Centre,"sb\dot.png",0,0 C,0,52209,,255,255,255 F,1,52209,52809,1,0 S,1,52209,52809,1,0.2 MX,1,52209,52809,85,135 MY,1,52209,52809,327,321
Sprite,Foreground,Centre,"sb\dot.png",0,0 C,0,52209,,255,255,255 F,1,52209,52809,1,0 S,1,52209,52809,1,0.2 MX,1,52209,52809,85,124 MY,1,52209,52809,327,368
Sprite,Foreground,Centre,"sb\dot.png",0,0 C,0,52209,,255,255,255 F,1,52209,52809,1,0 S,1,52209,52809,1,0.2 MX,1,52209,52809,85,28 MY,1,52209,52809,327,289
Sprite,Foreground,Centre,"sb\dot.png",0,0 C,0,52209,,255,255,255 F,1,52209,52809,1,0 S,1,52209,52809,1,0.2 MX,1,52209,52809,85,112 MY,1,52209,52809,327,378
Sprite,Foreground,Centre,"sb\dot.png",0,0 C,0,52209,,255,255,255 F,1,52209,52809,1,0 S,1,52209,52809,1,0.2 MX,1,52209,52809,85,70 MY,1,52209,52809,327,380
Sprite,Foreground,Centre,"sb\dot.png",0,0 C,0,52209,,255,255,255 F,1,52209,52809,1,0 S,1,52209,52809,1,0.2 MX,1,52209,52809,85,141 MY,1,52209,52809,327,350
Sprite,Foreground,Centre,"sb\dot.png",0,0 C,0,52209,,255,255,255 F,1,52209,52809,1,0 S,1,52209,52809,1,0.2 MX,1,52209,52809,85,51 MY,1,52209,52809,327,366
Sprite,Foreground,Centre,"sb\dot.png",0,0 C,0,52209,,255,255,255 F,1,52209,52809,1,0 S,1,52209,52809,1,0.2 MX,1,52209,52809,85,96 MY,1,52209,52809,327,321
Sprite,Foreground,Centre,"sb\dot.png",0,0 C,0,52209,,255,255,255 F,1,52209,52809,1,0 S,1,52209,52809,1,0.2 MX,1,52209,52809,85,77 MY,1,52209,52809,327,374
Sprite,Foreground,Centre,"sb\dot.png",0,0 C,0,52209,,255,255,255 F,1,52209,52809,1,0 S,1,52209,52809,1,0.2 MX,1,52209,52809,85,90 MY,1,52209,52809,327,293
Sprite,Foreground,Centre,"sb\dot.png",0,0 C,0,52209,,255,255,255 F,1,52209,52809,1,0 S,1,52209,52809,1,0.2 MX,1,52209,52809,85,109 MY,1,52209,52809,327,276
Sprite,Foreground,Centre,"sb\dot.png",0,0 C,0,52209,,255,255,255 F,1,52209,52809,1,0 S,1,52209,52809,1,0.2 MX,1,52209,52809,85,99 MY,1,52209,52809,327,386
Sprite,Foreground,Centre,"sb\dot.png",0,0 C,0,52209,,255,255,255 F,1,52209,52809,1,0 S,1,52209,52809,1,0.2 MX,1,52209,52809,85,98 MY,1,52209,52809,327,304
Sprite,Foreground,Centre,"sb\dot.png",0,0 C,0,52209,,255,255,255 F,1,52209,52809,1,0 S,1,52209,52809,1,0.2 MX,1,52209,52809,85,92 MY,1,52209,52809,327,352
Sprite,Foreground,Centre,"sb\dot.png",0,0 C,0,52209,,255,255,255 F,1,52209,52809,1,0 S,1,52209,52809,1,0.2 MX,1,52209,52809,85,88 MY,1,52209,52809,327,326
Sprite,Foreground,Centre,"sb\dot.png",0,0 C,0,52209,,255,255,255 F,1,52209,52809,1,0 S,1,52209,52809,1,0.2 MX,1,52209,52809,85,47 MY,1,52209,52809,327,322
Sprite,Foreground,Centre,"sb\dot.png",0,0 C,0,52373,,255,255,255 F,1,52373,52973,1,0 S,1,52373,52973,1,0.2 MX,1,52373,52973,65,49 MY,1,52373,52973,223,246
Sprite,Foreground,Centre,"sb\dot.png",0,0 C,0,52373,,255,255,255 F,1,52373,52973,1,0 S,1,52373,52973,1,0.2 MX,1,52373,52973,65,99 MY,1,52373,52973,223,279
Sprite,Foreground,Centre,"sb\dot.png",0,0 C,0,52373,,255,255,255 F,1,52373,52973,1,0 S,1,52373,52973,1,0.2 MX,1,52373,52973,65,96 MY,1,52373,52973,223,257
Sprite,Foreground,Centre,"sb\dot.png",0,0 C,0,52373,,255,255,255 F,1,52373,52973,1,0 S,1,52373,52973,1,0.2 MX,1,52373,52973,65,66 MY,1,52373,52973,223,184
Sprite,Foreground,Centre,"sb\dot.png",0,0 C,0,52373,,255,255,255 F,1,52373,52973,1,0 S,1,52373,52973,1,0.2 MX,1,52373,52973,65,84 MY,1,52373,52973,223,264
Sprite,Foreground,Centre,"sb\dot.png",0,0 C,0,52373,,255,255,255 F,1,52373,52973,1,0 S,1,52373,52973,1,0.2 MX,1,52373,52973,65,60 MY,1,52373,52973,223,210
Sprite,Foreground,Centre,"sb\dot.png",0,0 C,0,52373,,255,255,255 F,1,52373,52973,1,0 S,1,52373,52973,1,0.2 MX,1,52373,52973,65,64 MY,1,52373,52973,223,169
Sprite,Foreground,Centre,"sb\dot.png",0,0 C,0,52373,,255,255,255 F,1,52373,52973,1,0 S,1,52373,52973,1,0.2 MX,1,52373,52973,65,113 MY,1,52373,52973,223,252
Sprite,Foreground,Centre,"sb\dot.png",0,0 C,0,52373,,255,255,255 F,1,52373,52973,1,0 S,1,52373,52973,1,0.2 MX,1,52373,52973,65,96 MY,1,52373,52973,223,179
Sprite,Foreground,Centre,"sb\dot.png",0,0 C,0,52373,,255,255,255 F,1,52373,52973,1,0 S,1,52373,52973,1,0.2 MX,1,52373,52973,65,7 MY,1,52373,52973,223,277
Sprite,Foreground,Centre,"sb\dot.png",0,0 C,0,52373,,255,255,255 F,1,52373,52973,1,0 S,1,52373,52973,1,0.2 MX,1,52373,52973,65,98 MY,1,52373,52973,223,274
Sprite,Foreground,Centre,"sb\dot.png",0,0 C,0,52373,,255,255,255 F,1,52373,52973,1,0 S,1,52373,52973,1,0.2 MX,1,52373,52973,65,122 MY,1,52373,52973,223,264
Sprite,Foreground,Centre,"sb\dot.png",0,0 C,0,52373,,255,255,255 F,1,52373,52973,1,0 S,1,52373,52973,1,0.2 MX,1,52373,52973,65,104 MY,1,52373,52973,223,263
Sprite,Foreground,Centre,"sb\dot.png",0,0 C,0,52373,,255,255,255 F,1,52373,52973,1,0 S,1,52373,52973,1,0.2 MX,1,52373,52973,65,33 MY,1,52373,52973,223,249
Sprite,Foreground,Centre,"sb\dot.png",0,0 C,0,52373,,255,255,255 F,1,52373,52973,1,0 S,1,52373,52973,1,0.2 MX,1,52373,52973,65,79 MY,1,52373,52973,223,165
Sprite,Foreground,Centre,"sb\dot.png",0,0 C,0,52373,,255,255,255 F,1,52373,52973,1,0 S,1,52373,52973,1,0.2 MX,1,52373,52973,65,52 MY,1,52373,52973,223,269
Sprite,Foreground,Centre,"sb\dot.png",0,0 C,0,52373,,255,255,255 F,1,52373,52973,1,0 S,1,52373,52973,1,0.2 MX,1,52373,52973,65,95 MY,1,52373,52973,223
Sprite,Foreground,Centre,"sb\dot.png",0,0 C,0,52373,,255,255,255 F,1,52373,52973,1,0 S,1,52373,52973,1,0.2 MX,1,52373,52973,65,44 MY,1,52373,52973,223,225
Sprite,Foreground,Centre,"sb\dot.png",0,0 C,0,52373,,255,255,255 F,1,52373,52973,1,0 S,1,52373,52973,1,0.2 MX,1,52373,52973,65,10 MY,1,52373,52973,223,238
Sprite,Foreground,Centre,"sb\dot.png",0,0 C,0,52373,,255,255,255 F,1,52373,52973,1,0 S,1,52373,52973,1,0.2 MX,1,52373,52973,65,87 MY,1,52373,52973,223,240
Sprite,Foreground,Centre,"sb\dot.png",0,0 C,0,52373,,255,255,255 F,1,52373,52973,1,0 S,1,52373,52973,1,0.2 MX,1,52373,52973,65,50 MY,1,52373,52973,223,206
Sprite,Foreground,Centre,"sb\dot.png",0,0 C,0,52373,,255,255,255 F,1,52373,52973,1,0 S,1,52373,52973,1,0.2 MX,1,52373,52973,65,72 MY,1,52373,52973,223,265
Sprite,Foreground,Centre,"sb\dot.png",0,0 C,0,52373,,255,255,255 F,1,52373,52973,1,0 S,1,52373,52973,1,0.2 MX,1,52373,52973,65,78 MY,1,52373,52973,223,189
Sprite,Foreground,Centre,"sb\dot.png",0,0 C,0,52373,,255,255,255 F,1,52373,52973,1,0 S,1,52373,52973,1,0.2 MX,1,52373,52973,65,64 MY,1,52373,52973,223,230
Sprite,Foreground,Centre,"sb\dot.png",0,0 C,0,52373,,255,255,255 F,1,52373,52973,1,0 S,1,52373,52973,1,0.2 MX,1,52373,52973,65,53 MY,1,52373,52973,223,261
Sprite,Foreground,Centre,"sb\dot.png",0,0 C,0,52373,,255,255,255 F,1,52373,52973,1,0 S,1,52373,52973,1,0.2 MX,1,52373,52973,65,118 MY,1,52373,52973,223,209
Sprite,Foreground,Centre,"sb\dot.png",0,0 C,0,52373,,255,255,255 F,1,52373,52973,1,0 S,1,52373,52973,1,0.2 MX,1,52373,52973,65,61 MY,1,52373,52973,223,190
Sprite,Foreground,Centre,"sb\dot.png",0,0 C,0,52373,,255,255,255 F,1,52373,52973,1,0 S,1,52373,52973,1,0.2 MX,1,52373,52973,65,87 MY,1,52373,52973,223,215
Sprite,Foreground,Centre,"sb\dot.png",0,0 C,0,52373,,255,255,255 F,1,52373,52973,1,0 S,1,52373,52973,1,0.2 MX,1,52373,52973,65,91 MY,1,52373,52973,223,276
Sprite,Foreground,Centre,"sb\dot.png",0,0 C,0,52373,,255,255,255 F,1,52373,52973,1,0 S,1,52373,52973,1,0.2 MX,1,52373,52973,65,21 MY,1,52373,52973,223,274
Sprite,Foreground,Centre,"sb\DiffByAJT.png",320,240 M,0,43357,,320,240 F,0,43357,43685,0,1 S,0,43357,44914,0.7498183 F,0,43685,44914,1 F,0,44914,44996,1,0 S,0,44914,44996,0.7498183,1.186182
//Storyboard Layer 4 (Overlay)
//Storyboard Sound Samples

[TimingPoints]
1390,327.868852459016,4,2,1,50,1,0
11553,-100,4,2,1,50,0,0
22209,-100,4,2,1,50,0,0
32209,-100,4,2,1,50,0,0
32455,-100,4,2,1,5,0,0
32537,-100,4,2,1,50,0,0
32865,-90.9090909090909,4,2,1,60,0,1
43357,-100,4,2,1,60,0,0
53274,-100,4,2,1,5,0,0
53356,-100,4,2,1,60,0,0
53602,-100,4,2,1,5,0,0
53684,-100,4,2,1,50,0,0
74422,-100,4,2,1,5,0,0
74504,-100,4,2,1,50,0,0
74832,-90.9090909090909,4,2,1,60,0,1
85160,-100,4,2,1,50,0,0
85324,-100,4,2,1,50,0,0

[Colours]
Combo1 : 124,202,231
Combo2 : 218,103,106
Combo3 : 51,174,221
Combo4 : 225,221,40

[HitObjects]
496,32,1390,6,0,P|464:63|450:130,1,105,6|0,0:3|0:0,0:0:0:0:
376,196,1799,1,0,0:0:0:0:
378,213,1881,2,0,L|388:266,2,35,0|0|2,0:0|0:0|0:0,0:0:0:0:
299,123,2209,2,0,L|222:113,1,70,0|2,0:0|0:0,0:0:0:0:
157,36,2537,1,0,0:0:0:0:
157,36,2701,1,2,0:3:0:0:
67,165,2947,6,0,P|57:206|39:235,1,70
66,277,3193,2,0,L|112:273,2,35,0|0|2,0:0|0:0|0:0,0:0:0:0:
132,358,3521,2,0,L|209:368,1,70,0|2,0:0|0:0,0:0:0:0:
274,290,3849,1,0,0:0:0:0:
368,335,4013,1,2,0:3:0:0:
439,195,4258,6,0,P|429:151|409:116,1,70
388,84,4504,2,0,P|367:78|349:79,1,35
301,84,4668,2,0,L|291:7,2,70,2|0|2,0:0|0:0|0:0,0:0:0:0:
226,158,5160,1,0,0:0:0:0:
276,250,5324,1,2,0:3:0:0:
276,250,5980,2,0,B|219:220|196:290|127:257,1,140,2|2,0:0|0:0,0:0:0:0:
114,55,6635,6,0,P|79:31|17:29,2,105,4|2|0,1:0|0:0|0:0,0:0:0:0:
215,18,7291,1,2,0:0:0:0:
215,18,7454,1,0,0:0:0:0:
284,104,7619,1,2,0:0:0:0:
284,104,7783,1,0,3:0:0:0:
213,181,7947,6,0,P|248:205|310:207,2,105,2|0|0,0:0|0:0|0:0,0:0:0:0:
112,199,8603,1,2,0:0:0:0:
112,199,8766,1,0,0:0:0:0:
96,306,8931,1,2,0:0:0:0:
96,306,9095,1,0,3:0:0:0:
183,363,9258,5,2,0:0:0:0:
316,279,9504,1,0,0:0:0:0:
455,203,9750,1,0,0:0:0:0:
455,203,9914,2,0,L|445:126,1,70,2|2,0:0|0:0,0:0:0:0:
403,36,10242,2,0,B|353:22|332:63|278:46,1,105,2|0,0:0|0:0,0:0:0:0:
255,22,10570,5,2,0:0:0:0:
141,198,10898,1,2,0:0:0:0:
292,343,11226,1,2,0:0:0:0:
384,291,11389,1,0,3:0:0:0:
400,286,11470,1,0,3:0:0:0:
417,282,11553,1,4,2:0:0:0:
336,86,11881,6,0,B|291:60|291:60|234:71,1,105,0|0,1:0|0:0,0:0:0:0:
221,120,12209,2,0,P|221:158|210:193,1,70,8|0,0:0|0:0,0:0:0:0:
116,229,12537,1,0,1:0:0:0:
116,229,12700,1,0,0:0:0:0:
69,323,12865,2,0,P|94:346|130:355,1,70,8|2,0:0|0:0,0:0:0:0:
230,329,13193,1,0,1:0:0:0:
389,355,13439,1,0,0:0:0:0:
405,358,13521,2,0,P|433:336|443:299,1,70,8|2,0:0|0:0,0:0:0:0:
451,198,13849,6,0,P|431:165|379:160,1,70,0|0,1:0|0:0,0:0:0:0:
385,159,14094,1,0,0:0:0:0:
368,165,14176,1,8,0:0:0:0:
243,324,14504,2,0,P|195:329|137:314,1,105,0|0,1:0|0:0,0:0:0:0:
91,294,14832,2,0,P|77:264|75:215,1,70,8|0,0:0|0:0,0:0:0:0:
162,168,15160,5,0,1:0:0:0:
162,168,15324,1,0,0:0:0:0:
123,75,15488,1,8,0:0:0:0:
123,75,15652,1,0,0:0:0:0:
203,7,15816,1,0,1:0:0:0:
331,98,16062,1,0,0:0:0:0:
347,93,16143,1,8,0:0:0:0:
217,258,16471,2,0,P|174:266|129:291,1,70,0|0,1:0|0:0,0:0:0:0:
134,283,16717,1,0,0:0:0:0:
119,291,16798,1,8,0:0:0:0:
33,98,17127,6,0,B|78:72|78:72|129:83,1,105,0|0,1:0|0:0,0:0:0:0:
176,108,17455,2,0,P|201:81|209:35,1,70,8|0,0:0|0:0,0:0:0:0:
303,98,17783,2,0,P|276:128|271:164,1,70,0|0,1:0|0:0,0:0:0:0:
277,172,18029,1,0,0:0:0:0:
282,188,18111,2,0,P|279:224|274:258,1,70,8|2,0:0|0:0,0:0:0:0:
214,344,18439,1,0,1:0:0:0:
74,270,18685,1,0,0:0:0:0:
58,273,18767,2,0,P|37:250|39:199,1,70,8|0,0:0|0:0,0:0:0:0:
75,116,19094,6,0,P|105:89|141:84,1,70,0|0,1:0|0:0,0:0:0:0:
149,90,19340,1,0,0:0:0:0:
165,95,19422,2,0,P|201:103|235:87,1,70,8|2,0:0|0:0,0:0:0:0:
322,37,19750,2,0,P|364:5|416:35,1,105,0|0,1:0|0:0,0:0:0:0:
438,66,20078,2,0,P|452:96|438:139,1,70,8|0,0:0|0:0,0:0:0:0:
446,236,20406,2,0,P|416:263|380:268,1,70,0|0,1:0|0:0,0:0:0:0:
372,262,20652,1,0,0:0:0:0:
356,257,20734,2,0,P|320:249|286:265,1,70,8|2,0:0|0:0,0:0:0:0:
248,358,21062,1,0,1:0:0:0:
74,241,21389,6,0,B|55:193|86:168|53:99,2,140,8|2|8,0:0|0:0|0:0,0:0:0:0:
179,245,22209,2,0,B|198:197|167:172|200:103,1,140,2|2,0:0|0:0,0:0:0:0:
400,32,23193,2,0,P|441:43|473:68,1,70,2|8,0:0|0:0,0:0:0:0:
476,149,23521,2,0,P|468:183|461:295,2,140,2|2|2,0:0|0:0|0:0,0:0:0:0:
254,309,24668,2,0,P|213:320|181:345,1,70,8|0,0:0|0:0,0:0:0:0:
101,315,24996,5,2,0:0:0:0:
101,315,25160,1,0,0:0:0:0:
61,238,25324,1,8,0:0:0:0:
61,238,25488,1,0,0:0:0:0:
84,153,25652,1,2,0:0:0:0:
84,153,25816,1,0,0:0:0:0:
147,87,25980,1,8,0:0:0:0:
147,87,26144,1,0,0:0:0:0:
111,3,26308,5,2,0:0:0:0:
201,11,26471,2,0,L|350:32,1,140,0|2,0:0|0:0,0:0:0:0:
413,84,26963,2,0,L|392:233,1,140,2|8,0:0|0:0,0:0:0:0:
332,291,27455,5,2,0:0:0:0:
104,29,28275,1,0,0:0:0:0:
48,100,28439,2,0,P|64:133|63:169,1,70,2|8,0:0|0:0,0:0:0:0:
114,242,28767,2,0,B|156:206|194:255|250:206,2,140,2|2|2,0:0|0:0|0:0,0:0:0:0:
369,338,29914,2,0,P|397:354|445:354,1,70,8|0,0:0|0:0,0:0:0:0:
425,255,30242,5,2,0:0:0:0:
425,255,30406,1,0,0:0:0:0:
465,178,30570,1,8,0:0:0:0:
465,178,30734,1,0,0:0:0:0:
442,93,30898,1,2,0:0:0:0:
442,93,31062,1,0,0:0:0:0:
379,27,31226,1,8,0:0:0:0:
379,27,31390,1,0,0:0:0:0:
280,73,31553,6,0,B|250:96|250:96|241:61,1,70,2|0,0:0|0:0,0:0:0:0:
75,281,32209,5,2,0:0:0:0:
75,281,32536,1,2,0:0:0:0:
257,364,32865,6,0,P|314:359|383:376,1,115.50000352478,4|0,1:0|0:0,0:0:0:0:
418,354,33193,2,0,L|468:363,2,38.5000011749268,8|0|0,0:0|0:0|0:0,0:0:0:0:
394,240,33521,2,0,L|382:151,1,77.0000023498536,0|0,1:0|0:0,0:0:0:0:
341,135,33767,1,0,0:0:0:0:
341,135,33849,2,0,L|329:46,1,77.0000023498536,8|2,0:0|0:0,0:0:0:0:
219,28,34176,6,0,P|162:23|93:40,1,115.50000352478,0|0,1:0|0:0,0:0:0:0:
58,18,34504,2,0,L|8:27,2,38.5000011749268,8|0|0,0:0|0:0|0:0,0:0:0:0:
47,133,34832,2,0,L|59:222,1,77.0000023498536,0|0,1:0|0:0,0:0:0:0:
100,238,35078,1,0,0:0:0:0:
100,238,35160,1,8,0:0:0:0:
68,348,35323,1,2,0:0:0:0:
184,369,35488,6,0,P|242:378|295:360,2,115.50000352478,0|0|0,1:0|0:0|0:0,0:0:0:0:
244,269,36144,2,0,B|278:249|278:249|316:255,1,77.0000023498536,0|0,1:0|0:0,0:0:0:0:
226,180,36471,2,0,B|260:160|260:160|298:166,1,77.0000023498536,8|2,0:0|0:0,0:0:0:0:
411,187,36799,2,0,B|438:150|391:121|437:63,1,115.50000352478,0|0,1:0|0:0,0:0:0:0:
451,61,37127,1,8,0:0:0:0:
507,285,37455,2,0,P|485:320|493:365,1,77.0000023498536,0|0,1:0|0:0,0:0:0:0:
436,378,37701,1,0,0:0:0:0:
436,378,37783,1,8,0:0:0:0:
221,290,38111,6,0,P|164:285|95:302,1,115.50000352478,0|0,1:0|0:0,0:0:0:0:
76,346,38439,2,0,L|26:355,2,38.5000011749268,8|0|0,0:0|0:0|0:0,0:0:0:0:
20,243,38767,1,0,1:0:0:0:
89,153,38930,1,0,0:0:0:0:
89,153,39013,1,0,0:0:0:0:
89,153,39095,2,0,L|101:64,1,77.0000023498536,8|2,0:0|0:0,0:0:0:0:
204,28,39422,6,0,P|261:23|330:40,1,115.50000352478,0|0,1:0|0:0,0:0:0:0:
373,17,39750,2,0,L|423:26,2,38.5000011749268,8|0|0,0:0|0:0|0:0,0:0:0:0:
375,133,40078,2,0,L|363:222,1,77.0000023498536,0|0,1:0|0:0,0:0:0:0:
417,244,40324,1,0,0:0:0:0:
417,244,40406,1,8,0:0:0:0:
443,355,40569,1,2,0:0:0:0:
328,369,40734,6,0,P|270:378|217:360,2,115.50000352478,0|0|0,1:0|0:0|0:0,0:0:0:0:
268,269,41390,2,0,B|234:249|234:249|196:255,1,77.0000023498536,0|0,1:0|0:0,0:0:0:0:
102,322,41717,1,8,0:0:0:0:
19,241,41880,1,2,0:0:0:0:
114,174,42045,2,0,B|87:137|134:108|88:50,1,115.50000352478,0|0,1:0|0:0,0:0:0:0:
41,44,42373,1,8,0:0:0:0:
264,102,42701,6,0,P|299:80|344:88,1,77.0000023498536,2|0,0:0|0:0,0:0:0:0:
357,31,42947,1,0,0:0:0:0:
357,31,43029,1,8,0:0:0:0:
497,186,43357,6,0,P|488:237|471:293,1,105,4|0,1:0|0:0,0:0:0:0:
483,341,43685,2,0,P|461:373|427:383,1,70,8|0,0:0|0:0,0:0:0:0:
348,319,44012,1,0,1:0:0:0:
246,347,44176,2,0,P|240:367|238:393,2,35,0|0|8,0:0|0:0|0:0,0:0:0:0:
146,311,44504,1,0,0:0:0:0:
140,206,44668,6,0,P|181:181|241:181,1,105,0|0,1:0|0:0,0:0:0:0:
288,190,44996,2,0,P|317:171|329:139,1,70,8|0,0:0|0:0,0:0:0:0:
374,44,45323,1,0,1:0:0:0:
469,88,45488,2,0,P|485:83|503:80,2,35,0|0|8,0:0|0:0|0:0,0:0:0:0:
436,188,45815,1,0,0:0:0:0:
401,287,45980,2,0,P|371:314|335:319,1,70,0|0,1:0|0:0,0:0:0:0:
327,313,46226,1,0,0:0:0:0:
311,308,46308,2,0,P|275:300|241:316,1,70,8|0,0:0|0:0,0:0:0:0:
146,346,46635,5,0,1:0:0:0:
42,366,46799,1,0,0:0:0:0:
19,263,46963,1,8,0:0:0:0:
123,243,47127,1,0,0:0:0:0:
204,176,47291,2,0,P|238:179|275:197,1,70,0|2,1:0|0:0,0:0:0:0:
296,217,47537,1,0,0:0:0:0:
318,244,47619,2,0,P|352:241|389:223,1,70,8|2,0:0|0:0,0:0:0:0:
459,151,47947,1,0,1:0:0:0:
410,57,48111,2,0,P|379:46|339:43,1,70,2|8,0:0|0:0,0:0:0:0:
247,90,48439,1,2,0:0:0:0:
153,138,48603,6,0,P|144:87|127:31,1,105,0|0,1:0|0:0,0:0:0:0:
77,23,48931,2,0,P|45:45|35:79,1,70,8|0,0:0|0:0,0:0:0:0:
38,178,49258,1,0,1:0:0:0:
105,258,49422,2,0,P|125:252|151:250,2,35,0|0|8,0:0|0:0|0:0,0:0:0:0:
56,352,49750,1,2,0:0:0:0:
156,382,49914,6,0,P|197:357|257:357,1,105,0|0,1:0|0:0,0:0:0:0:
305,357,50242,2,0,P|334:338|346:306,1,70,8|0,0:0|0:0,0:0:0:0:
340,201,50569,1,0,1:0:0:0:
416,128,50734,2,0,P|432:123|450:120,2,35,0|0|8,0:0|0:0|0:0,0:0:0:0:
367,34,51061,1,2,0:0:0:0:
266,65,51226,2,0,P|236:38|200:33,1,70,0|0,1:0|0:0,0:0:0:0:
192,39,51472,1,0,0:0:0:0:
176,44,51554,2,0,P|140:52|106:36,1,70,8|0,0:0|0:0,0:0:0:0:
104,144,51881,5,0,1:0:0:0:
124,248,52045,1,0,0:0:0:0:
21,271,52209,1,8,0:0:0:0:
1,167,52373,1,0,0:0:0:0:
1,167,52537,1,2,0:0:0:0:
220,343,53193,1,0,1:0:0:0:
95,282,53520,1,0,1:0:0:0:
183,91,53848,6,0,P|224:56|244:94,1,105,0|0,1:0|0:0,0:0:0:0:
276,130,54176,2,0,P|314:130|349:141,1,70,8|0,0:0|0:0,0:0:0:0:
396,229,54504,1,0,1:0:0:0:
396,229,54667,1,0,0:0:0:0:
360,328,54832,2,0,P|325:327|291:336,1,70,8|2,0:0|0:0,0:0:0:0:
231,249,55160,1,0,1:0:0:0:
107,347,55406,1,0,0:0:0:0:
91,350,55488,2,0,P|63:328|53:291,1,70,8|0,0:0|0:0,0:0:0:0:
41,191,55816,6,0,P|61:158|113:153,1,70,0|0,1:0|0:0,0:0:0:0:
107,152,56061,1,0,0:0:0:0:
124,158,56143,1,8,0:0:0:0:
496,384,57455,1,8,0:0:0:0:
433,299,57619,1,0,0:0:0:0:
463,198,57783,1,0,1:0:0:0:
405,51,58029,1,0,0:0:0:0:
389,46,58110,1,8,0:0:0:0:
189,111,58439,2,0,P|146:103|101:78,1,70,0|0,1:0|0:0,0:0:0:0:
106,86,58685,1,0,0:0:0:0:
91,78,58767,1,8,0:0:0:0:
29,279,59094,6,0,B|74:253|74:253|125:264,1,105,0|0,1:0|0:0,0:0:0:0:
148,312,59422,2,0,P|175:337|221:345,1,70,8|0,0:0|0:0,0:0:0:0:
257,330,59668,1,0,0:0:0:0:
257,330,60406,1,0,1:0:0:0:
410,365,60652,1,0,0:0:0:0:
426,368,60734,2,0,P|447:345|445:294,1,70,8|0,0:0|0:0,0:0:0:0:
386,224,61062,5,0,1:0:0:0:
379,119,61226,1,0,0:0:0:0:
363,113,61308,1,0,0:0:0:0:
347,108,61389,2,0,P|311:100|277:116,1,70,8|2,0:0|0:0,0:0:0:0:
199,45,61717,2,0,P|157:13|105:43,1,105,0|0,1:0|0:0,0:0:0:0:
79,72,62045,2,0,P|65:102|79:145,1,70,8|0,0:0|0:0,0:0:0:0:
43,238,62373,1,0,1:0:0:0:
135,287,62536,1,0,0:0:0:0:
150,281,62619,1,0,0:0:0:0:
166,276,62701,2,0,P|202:268|236:284,1,70,8|0,0:0|0:0,0:0:0:0:
276,375,63029,1,0,1:0:0:0:
438,241,63357,6,0,B|457:193|426:168|459:99,2,140,8|2|8,0:0|0:0|0:0,0:0:0:0:
333,245,64176,1,2,0:0:0:0:
256,0,65160,2,0,P|215:11|183:36,1,70,2|8,0:0|0:0,0:0:0:0:
164,113,65488,2,0,P|172:147|75:169,2,140,2|2|2,0:0|0:0|0:0,0:0:0:0:
284,357,66635,2,0,P|325:368|357:393,1,70,8|0,0:0|0:0,0:0:0:0:
429,339,66963,5,2,0:0:0:0:
429,339,67127,1,0,0:0:0:0:
379,269,67291,1,8,0:0:0:0:
379,269,67455,1,0,0:0:0:0:
436,199,67619,1,2,0:0:0:0:
436,199,67783,1,0,0:0:0:0:
371,142,67947,1,8,0:0:0:0:
371,142,68111,1,0,0:0:0:0:
422,66,68275,5,2,0:0:0:0:
342,23,68439,2,0,L|193:44,1,140,0|2,0:0|0:0,0:0:0:0:
235,128,68930,2,0,L|86:149,1,140,2|8,0:0|0:0,0:0:0:0:
16,101,69422,5,2,0:0:0:0:
418,313,70242,1,0,0:0:0:0:
468,237,70406,2,0,P|484:204|483:168,1,70,2|8,0:0|0:0,0:0:0:0:
435,93,70734,2,0,B|393:57|355:106|299:57,2,140,2|2|2,0:0|0:0|0:0,0:0:0:0:
368,357,71881,2,0,P|340:373|292:373,1,70,8|0,0:0|0:0,0:0:0:0:
215,348,72209,5,2,0:0:0:0:
128,375,72373,1,0,0:0:0:0:
99,288,72537,1,8,0:0:0:0:
186,261,72701,1,0,0:0:0:0:
158,174,72865,5,2,0:0:0:0:
158,174,73029,1,0,0:0:0:0:
71,201,73193,1,8,0:0:0:0:
71,201,73357,1,0,0:0:0:0:
0,112,73521,6,0,B|14:33,1,70,2|2,0:0|0:0,0:0:0:0:
283,6,74176,5,2,0:0:0:0:
283,6,74503,1,2,0:0:0:0:
487,115,74832,6,0,P|492:172|475:241,1,115.50000352478,4|0,1:0|0:0,0:0:0:0:
453,280,75160,2,0,L|462:330,2,38.5000011749268,8|0|0,0:0|0:0|0:0,0:0:0:0:
341,248,75488,1,0,1:0:0:0:
240,294,75651,1,0,0:0:0:0:
240,294,75734,1,0,0:0:0:0:
240,294,75816,2,0,L|228:383,1,77.0000023498536,8|2,0:0|0:0,0:0:0:0:
114,378,76143,6,0,P|119:321|102:252,1,115.50000352478,0|0,1:0|0:0,0:0:0:0:
52,243,76471,2,0,L|2:252,2,38.5000011749268,8|0|0,0:0|0:0|0:0,0:0:0:0:
117,146,76799,2,0,L|129:57,1,77.0000023498536,0|0,1:0|0:0,0:0:0:0:
170,41,77045,1,0,0:0:0:0:
170,41,77127,1,8,0:0:0:0:
264,105,77290,1,2,0:0:0:0:
354,31,77455,6,0,P|412:22|465:40,2,115.50000352478,0|0|0,1:0|0:0|0:0,0:0:0:0:
363,146,78111,2,0,B|397:166|397:166|435:160,1,77.0000023498536,0|0,1:0|0:0,0:0:0:0:
345,235,78439,2,0,B|379:255|379:255|417:249,1,77.0000023498536,8|2,0:0|0:0,0:0:0:0:
346,342,78766,2,0,B|309:369|280:322|222:368,1,115.50000352478,0|0,1:0|0:0,0:0:0:0:
220,382,79094,1,8,0:0:0:0:
50,225,79422,2,0,P|72:190|64:145,1,77.0000023498536,0|0,1:0|0:0,0:0:0:0:
121,132,79668,1,0,0:0:0:0:
121,132,79750,1,8,0:0:0:0:
291,290,80078,6,0,P|348:285|417:302,1,115.50000352478,0|0,1:0|0:0,0:0:0:0:
433,347,80406,2,0,L|483:356,2,38.5000011749268,8|0|0,0:0|0:0|0:0,0:0:0:0:
491,246,80734,1,0,1:0:0:0:
430,161,80897,1,0,0:0:0:0:
430,161,80980,1,0,0:0:0:0:
430,161,81062,2,0,L|418:72,1,77.0000023498536,8|2,0:0|0:0,0:0:0:0:
317,30,81389,6,0,P|260:25|191:42,1,115.50000352478,0|0,1:0|0:0,0:0:0:0:
146,21,81717,2,0,L|96:30,2,38.5000011749268,8|0|0,0:0|0:0|0:0,0:0:0:0:
137,133,82045,1,0,1:0:0:0:
55,212,82208,1,0,0:0:0:0:
55,212,82291,1,0,0:0:0:0:
55,212,82373,1,8,0:0:0:0:
70,325,82536,1,2,0:0:0:0:
178,367,82701,6,0,P|236:376|289:358,2,115.50000352478,0|0|0,1:0|0:0|0:0,0:0:0:0:
164,255,83357,1,0,1:0:0:0:
164,255,83521,1,0,0:0:0:0:
263,195,83685,1,8,0:0:0:0:
345,275,83849,1,2,0:0:0:0:
437,204,84012,2,0,B|464:167|417:138|463:80,1,115.50000352478,2|0,0:3|0:0,0:0:0:0:
475,38,84340,1,8,0:0:0:0:
253,105,84668,6,0,P|218:83|173:91,1,77.0000023498536,2|0,0:0|0:0,0:0:0:0:
160,34,84914,1,0,0:0:0:0:
160,34,84996,1,12,0:0:0:0:
69,87,85160,6,0,B|50:134|80:159|48:227,2,140,2|0|0,0:0|0:0|0:0,0:0:0:0:
240,25,86144,2,0,P|281:36|313:61,1,70,2|8,0:0|0:0,0:0:0:0:
338,135,86472,2,0,P|330:169|323:281,1,140,2|2,0:0|0:0,0:0:0:0:
385,339,86963,1,8,0:0:0:0:
461,289,87127,2,0,P|469:255|476:143,1,140,2|0,0:0|0:0,0:0:0:0:
429,71,87619,2,0,P|409:44|394:70,1,70,8|0,0:0|0:0,0:0:0:0:
281,45,87947,5,2,0:0:0:0:
281,45,88111,1,0,0:0:0:0:
223,116,88275,1,8,0:0:0:0:
223,116,88439,1,0,0:0:0:0:
153,57,88603,1,2,0:0:0:0:
61,58,88767,1,0,0:0:0:0:
19,139,88931,1,8,0:0:0:0:
55,222,89095,1,0,0:0:0:0:
0,336,89259,5,4,0:0:0:0:
256,192,89422,12,0,90570,0:0:0:0:
