osu file format v14

[General]
AudioFilename: audio.mp3
AudioLeadIn: 0
PreviewTime: 27291
Countdown: 0
SampleSet: Soft
StackLeniency: 0.5
Mode: 0
LetterboxInBreaks: 0
EpilepsyWarning: 1
WidescreenStoryboard: 1

[Editor]
Bookmarks: 36062
DistanceSpacing: 1
BeatDivisor: 2
GridSize: 16
TimelineZoom: 3.899997

[Metadata]
Title:Acapulco (Sped Up Ver.)
TitleUnicode:Acapulco (Sped Up Ver.)
Artist:Jason Derulo
ArtistUnicode:Jason Derulo
Creator:AJT
Version:Easy
Source:
Tags:english dance electronic nightcore beach pop apo11o apollo mrowswares hhjkl wetdog123 ziin tachibana_ euryalle sheesh
BeatmapID:3473537
BeatmapSetID:1699922

[Difficulty]
HPDrainRate:2
CircleSize:2.5
OverallDifficulty:2
ApproachRate:4
SliderMultiplier:1
SliderTickRate:1

[Events]
//Background and Video events
0,0,"bg.jpg",0,0
//Break Periods
2,22408,26135
2,64376,68103
//Storyboard Layer 0 (Background)
//Storyboard Layer 1 (Fail)
//Storyboard Layer 2 (Pass)
//Storyboard Layer 3 (Foreground)
Sprite,Foreground,Centre,"sb\dot.png",0,0 C,0,43357,,255,255,255 F,1,43357,43957,1,0 S,1,43357,43957,1,0.2 MX,1,43357,43957,112,139 MY,1,43357,43957,158,196
Sprite,Foreground,Centre,"sb\dot.png",0,0 C,0,43357,,255,255,255 F,1,43357,43957,1,0 S,1,43357,43957,1,0.2 MX,1,43357,43957,112,144 MY,1,43357,43957,158,164
Sprite,Foreground,Centre,"sb\dot.png",0,0 C,0,43357,,255,255,255 F,1,43357,43957,1,0 S,1,43357,43957,1,0.2 MX,1,43357,43957,112,76 MY,1,43357,43957,158,165
Sprite,Foreground,Centre,"sb\dot.png",0,0 C,0,43357,,255,255,255 F,1,43357,43957,1,0 S,1,43357,43957,1,0.2 MX,1,43357,43957,112,160 MY,1,43357,43957,158,151
Sprite,Foreground,Centre,"sb\dot.png",0,0 C,0,43357,,255,255,255 F,1,43357,43957,1,0 S,1,43357,43957,1,0.2 MX,1,43357,43957,112,169 MY,1,43357,43957,158,130
Sprite,Foreground,Centre,"sb\dot.png",0,0 C,0,43357,,255,255,255 F,1,43357,43957,1,0 S,1,43357,43957,1,0.2 MX,1,43357,43957,112,87 MY,1,43357,43957,158,154
Sprite,Foreground,Centre,"sb\dot.png",0,0 C,0,43357,,255,255,255 F,1,43357,43957,1,0 S,1,43357,43957,1,0.2 MX,1,43357,43957,112,127 MY,1,43357,43957,158,154
Sprite,Foreground,Centre,"sb\dot.png",0,0 C,0,43357,,255,255,255 F,1,43357,43957,1,0 S,1,43357,43957,1,0.2 MX,1,43357,43957,112,169 MY,1,43357,43957,158,101
Sprite,Foreground,Centre,"sb\dot.png",0,0 C,0,43357,,255,255,255 F,1,43357,43957,1,0 S,1,43357,43957,1,0.2 MX,1,43357,43957,112,155 MY,1,43357,43957,158,217
Sprite,Foreground,Centre,"sb\dot.png",0,0 C,0,43357,,255,255,255 F,1,43357,43957,1,0 S,1,43357,43957,1,0.2 MX,1,43357,43957,112,133 MY,1,43357,43957,158,135
Sprite,Foreground,Centre,"sb\dot.png",0,0 C,0,43357,,255,255,255 F,1,43357,43957,1,0 S,1,43357,43957,1,0.2 MX,1,43357,43957,112,150 MY,1,43357,43957,158,199
Sprite,Foreground,Centre,"sb\dot.png",0,0 C,0,43357,,255,255,255 F,1,43357,43957,1,0 S,1,43357,43957,1,0.2 MX,1,43357,43957,112,171 MY,1,43357,43957,158,101
Sprite,Foreground,Centre,"sb\dot.png",0,0 C,0,43357,,255,255,255 F,1,43357,43957,1,0 S,1,43357,43957,1,0.2 MX,1,43357,43957,112,135 MY,1,43357,43957,158,161
Sprite,Foreground,Centre,"sb\dot.png",0,0 C,0,43357,,255,255,255 F,1,43357,43957,1,0 S,1,43357,43957,1,0.2 MX,1,43357,43957,112,164 MY,1,43357,43957,158,180
Sprite,Foreground,Centre,"sb\dot.png",0,0 C,0,43357,,255,255,255 F,1,43357,43957,1,0 S,1,43357,43957,1,0.2 MX,1,43357,43957,112,117 MY,1,43357,43957,158,107
Sprite,Foreground,Centre,"sb\dot.png",0,0 C,0,43357,,255,255,255 F,1,43357,43957,1,0 S,1,43357,43957,1,0.2 MX,1,43357,43957,112,74 MY,1,43357,43957,158,152
Sprite,Foreground,Centre,"sb\dot.png",0,0 C,0,43357,,255,255,255 F,1,43357,43957,1,0 S,1,43357,43957,1,0.2 MX,1,43357,43957,112,87 MY,1,43357,43957,158,216
Sprite,Foreground,Centre,"sb\dot.png",0,0 C,0,43357,,255,255,255 F,1,43357,43957,1,0 S,1,43357,43957,1,0.2 MX,1,43357,43957,112,129 MY,1,43357,43957,158,189
Sprite,Foreground,Centre,"sb\dot.png",0,0 C,0,43357,,255,255,255 F,1,43357,43957,1,0 S,1,43357,43957,1,0.2 MX,1,43357,43957,112,55 MY,1,43357,43957,158,143
Sprite,Foreground,Centre,"sb\dot.png",0,0 C,0,43357,,255,255,255 F,1,43357,43957,1,0 S,1,43357,43957,1,0.2 MX,1,43357,43957,112,93 MY,1,43357,43957,158,212
Sprite,Foreground,Centre,"sb\dot.png",0,0 C,0,43357,,255,255,255 F,1,43357,43957,1,0 S,1,43357,43957,1,0.2 MX,1,43357,43957,112 MY,1,43357,43957,158,183
Sprite,Foreground,Centre,"sb\dot.png",0,0 C,0,43357,,255,255,255 F,1,43357,43957,1,0 S,1,43357,43957,1,0.2 MX,1,43357,43957,112,66 MY,1,43357,43957,158,130
Sprite,Foreground,Centre,"sb\dot.png",0,0 C,0,43357,,255,255,255 F,1,43357,43957,1,0 S,1,43357,43957,1,0.2 MX,1,43357,43957,112,160 MY,1,43357,43957,158,193
Sprite,Foreground,Centre,"sb\dot.png",0,0 C,0,43357,,255,255,255 F,1,43357,43957,1,0 S,1,43357,43957,1,0.2 MX,1,43357,43957,112,92 MY,1,43357,43957,158,152
Sprite,Foreground,Centre,"sb\dot.png",0,0 C,0,43357,,255,255,255 F,1,43357,43957,1,0 S,1,43357,43957,1,0.2 MX,1,43357,43957,112,69 MY,1,43357,43957,158,124
Sprite,Foreground,Centre,"sb\dot.png",0,0 C,0,43357,,255,255,255 F,1,43357,43957,1,0 S,1,43357,43957,1,0.2 MX,1,43357,43957,112,101 MY,1,43357,43957,158,184
Sprite,Foreground,Centre,"sb\dot.png",0,0 C,0,43357,,255,255,255 F,1,43357,43957,1,0 S,1,43357,43957,1,0.2 MX,1,43357,43957,112,126 MY,1,43357,43957,158,156
Sprite,Foreground,Centre,"sb\dot.png",0,0 C,0,43357,,255,255,255 F,1,43357,43957,1,0 S,1,43357,43957,1,0.2 MX,1,43357,43957,112,75 MY,1,43357,43957,158,203
Sprite,Foreground,Centre,"sb\dot.png",0,0 C,0,43357,,255,255,255 F,1,43357,43957,1,0 S,1,43357,43957,1,0.2 MX,1,43357,43957,112,151 MY,1,43357,43957,158,186
Sprite,Foreground,Centre,"sb\dot.png",0,0 C,0,43357,,255,255,255 F,1,43357,43957,1,0 S,1,43357,43957,1,0.2 MX,1,43357,43957,112,154 MY,1,43357,43957,158,179
Sprite,Foreground,Centre,"sb\dot.png",0,0 C,0,44012,,255,255,255 F,1,44012,44612,1,0 S,1,44012,44612,1,0.2 MX,1,44012,44612,304,318 MY,1,44012,44612,123,89
Sprite,Foreground,Centre,"sb\dot.png",0,0 C,0,44012,,255,255,255 F,1,44012,44612,1,0 S,1,44012,44612,1,0.2 MX,1,44012,44612,304,351 MY,1,44012,44612,123,170
Sprite,Foreground,Centre,"sb\dot.png",0,0 C,0,44012,,255,255,255 F,1,44012,44612,1,0 S,1,44012,44612,1,0.2 MX,1,44012,44612,304,254 MY,1,44012,44612,123,163
Sprite,Foreground,Centre,"sb\dot.png",0,0 C,0,44012,,255,255,255 F,1,44012,44612,1,0 S,1,44012,44612,1,0.2 MX,1,44012,44612,304,264 MY,1,44012,44612,123,140
Sprite,Foreground,Centre,"sb\dot.png",0,0 C,0,44012,,255,255,255 F,1,44012,44612,1,0 S,1,44012,44612,1,0.2 MX,1,44012,44612,304,343 MY,1,44012,44612,123,89
Sprite,Foreground,Centre,"sb\dot.png",0,0 C,0,44012,,255,255,255 F,1,44012,44612,1,0 S,1,44012,44612,1,0.2 MX,1,44012,44612,304,363 MY,1,44012,44612,123,120
Sprite,Foreground,Centre,"sb\dot.png",0,0 C,0,44012,,255,255,255 F,1,44012,44612,1,0 S,1,44012,44612,1,0.2 MX,1,44012,44612,304,322 MY,1,44012,44612,123,149
Sprite,Foreground,Centre,"sb\dot.png",0,0 C,0,44012,,255,255,255 F,1,44012,44612,1,0 S,1,44012,44612,1,0.2 MX,1,44012,44612,304,341 MY,1,44012,44612,123,75
Sprite,Foreground,Centre,"sb\dot.png",0,0 C,0,44012,,255,255,255 F,1,44012,44612,1,0 S,1,44012,44612,1,0.2 MX,1,44012,44612,304,331 MY,1,44012,44612,123,149
Sprite,Foreground,Centre,"sb\dot.png",0,0 C,0,44012,,255,255,255 F,1,44012,44612,1,0 S,1,44012,44612,1,0.2 MX,1,44012,44612,304,259 MY,1,44012,44612,123,171
Sprite,Foreground,Centre,"sb\dot.png",0,0 C,0,44012,,255,255,255 F,1,44012,44612,1,0 S,1,44012,44612,1,0.2 MX,1,44012,44612,304,266 MY,1,44012,44612,123,120
Sprite,Foreground,Centre,"sb\dot.png",0,0 C,0,44012,,255,255,255 F,1,44012,44612,1,0 S,1,44012,44612,1,0.2 MX,1,44012,44612,304,308 MY,1,44012,44612,123,102
Sprite,Foreground,Centre,"sb\dot.png",0,0 C,0,44012,,255,255,255 F,1,44012,44612,1,0 S,1,44012,44612,1,0.2 MX,1,44012,44612,304,324 MY,1,44012,44612,123,119
Sprite,Foreground,Centre,"sb\dot.png",0,0 C,0,44012,,255,255,255 F,1,44012,44612,1,0 S,1,44012,44612,1,0.2 MX,1,44012,44612,304,344 MY,1,44012,44612,123,160
Sprite,Foreground,Centre,"sb\dot.png",0,0 C,0,44012,,255,255,255 F,1,44012,44612,1,0 S,1,44012,44612,1,0.2 MX,1,44012,44612,304,339 MY,1,44012,44612,123,154
Sprite,Foreground,Centre,"sb\dot.png",0,0 C,0,44012,,255,255,255 F,1,44012,44612,1,0 S,1,44012,44612,1,0.2 MX,1,44012,44612,304,356 MY,1,44012,44612,123,98
Sprite,Foreground,Centre,"sb\dot.png",0,0 C,0,44012,,255,255,255 F,1,44012,44612,1,0 S,1,44012,44612,1,0.2 MX,1,44012,44612,304,306 MY,1,44012,44612,123,142
Sprite,Foreground,Centre,"sb\dot.png",0,0 C,0,44012,,255,255,255 F,1,44012,44612,1,0 S,1,44012,44612,1,0.2 MX,1,44012,44612,304,283 MY,1,44012,44612,123,97
Sprite,Foreground,Centre,"sb\dot.png",0,0 C,0,44012,,255,255,255 F,1,44012,44612,1,0 S,1,44012,44612,1,0.2 MX,1,44012,44612,304,342 MY,1,44012,44612,123,89
Sprite,Foreground,Centre,"sb\dot.png",0,0 C,0,44012,,255,255,255 F,1,44012,44612,1,0 S,1,44012,44612,1,0.2 MX,1,44012,44612,304,266 MY,1,44012,44612,123,71
Sprite,Foreground,Centre,"sb\dot.png",0,0 C,0,44012,,255,255,255 F,1,44012,44612,1,0 S,1,44012,44612,1,0.2 MX,1,44012,44612,304,318 MY,1,44012,44612,123,146
Sprite,Foreground,Centre,"sb\dot.png",0,0 C,0,44012,,255,255,255 F,1,44012,44612,1,0 S,1,44012,44612,1,0.2 MX,1,44012,44612,304,319 MY,1,44012,44612,123,174
Sprite,Foreground,Centre,"sb\dot.png",0,0 C,0,44012,,255,255,255 F,1,44012,44612,1,0 S,1,44012,44612,1,0.2 MX,1,44012,44612,304,270 MY,1,44012,44612,123,174
Sprite,Foreground,Centre,"sb\dot.png",0,0 C,0,44012,,255,255,255 F,1,44012,44612,1,0 S,1,44012,44612,1,0.2 MX,1,44012,44612,304,251 MY,1,44012,44612,123,171
Sprite,Foreground,Centre,"sb\dot.png",0,0 C,0,44012,,255,255,255 F,1,44012,44612,1,0 S,1,44012,44612,1,0.2 MX,1,44012,44612,304,325 MY,1,44012,44612,123,74
Sprite,Foreground,Centre,"sb\dot.png",0,0 C,0,44012,,255,255,255 F,1,44012,44612,1,0 S,1,44012,44612,1,0.2 MX,1,44012,44612,304,261 MY,1,44012,44612,123,75
Sprite,Foreground,Centre,"sb\dot.png",0,0 C,0,44012,,255,255,255 F,1,44012,44612,1,0 S,1,44012,44612,1,0.2 MX,1,44012,44612,304,317 MY,1,44012,44612,123,177
Sprite,Foreground,Centre,"sb\dot.png",0,0 C,0,44012,,255,255,255 F,1,44012,44612,1,0 S,1,44012,44612,1,0.2 MX,1,44012,44612,304,302 MY,1,44012,44612,123,80
Sprite,Foreground,Centre,"sb\dot.png",0,0 C,0,44012,,255,255,255 F,1,44012,44612,1,0 S,1,44012,44612,1,0.2 MX,1,44012,44612,304,325 MY,1,44012,44612,123,131
Sprite,Foreground,Centre,"sb\dot.png",0,0 C,0,44012,,255,255,255 F,1,44012,44612,1,0 S,1,44012,44612,1,0.2 MX,1,44012,44612,304,271 MY,1,44012,44612,123,137
Sprite,Foreground,Centre,"sb\dot.png",0,0 C,0,44668,,255,255,255 F,1,44668,45268,1,0 S,1,44668,45268,1,0.2 MX,1,44668,45268,372,312 MY,1,44668,45268,196,179
Sprite,Foreground,Centre,"sb\dot.png",0,0 C,0,44668,,255,255,255 F,1,44668,45268,1,0 S,1,44668,45268,1,0.2 MX,1,44668,45268,372,414 MY,1,44668,45268,196,143
Sprite,Foreground,Centre,"sb\dot.png",0,0 C,0,44668,,255,255,255 F,1,44668,45268,1,0 S,1,44668,45268,1,0.2 MX,1,44668,45268,372,345 MY,1,44668,45268,196,220
Sprite,Foreground,Centre,"sb\dot.png",0,0 C,0,44668,,255,255,255 F,1,44668,45268,1,0 S,1,44668,45268,1,0.2 MX,1,44668,45268,372,427 MY,1,44668,45268,196,254
Sprite,Foreground,Centre,"sb\dot.png",0,0 C,0,44668,,255,255,255 F,1,44668,45268,1,0 S,1,44668,45268,1,0.2 MX,1,44668,45268,372,358 MY,1,44668,45268,196,198
Sprite,Foreground,Centre,"sb\dot.png",0,0 C,0,44668,,255,255,255 F,1,44668,45268,1,0 S,1,44668,45268,1,0.2 MX,1,44668,45268,372,345 MY,1,44668,45268,196
Sprite,Foreground,Centre,"sb\dot.png",0,0 C,0,44668,,255,255,255 F,1,44668,45268,1,0 S,1,44668,45268,1,0.2 MX,1,44668,45268,372,375 MY,1,44668,45268,196,142
Sprite,Foreground,Centre,"sb\dot.png",0,0 C,0,44668,,255,255,255 F,1,44668,45268,1,0 S,1,44668,45268,1,0.2 MX,1,44668,45268,372,345 MY,1,44668,45268,196,195
Sprite,Foreground,Centre,"sb\dot.png",0,0 C,0,44668,,255,255,255 F,1,44668,45268,1,0 S,1,44668,45268,1,0.2 MX,1,44668,45268,372,413 MY,1,44668,45268,196,209
Sprite,Foreground,Centre,"sb\dot.png",0,0 C,0,44668,,255,255,255 F,1,44668,45268,1,0 S,1,44668,45268,1,0.2 MX,1,44668,45268,372,324 MY,1,44668,45268,196,225
Sprite,Foreground,Centre,"sb\dot.png",0,0 C,0,44668,,255,255,255 F,1,44668,45268,1,0 S,1,44668,45268,1,0.2 MX,1,44668,45268,372,360 MY,1,44668,45268,196,248
Sprite,Foreground,Centre,"sb\dot.png",0,0 C,0,44668,,255,255,255 F,1,44668,45268,1,0 S,1,44668,45268,1,0.2 MX,1,44668,45268,372,327 MY,1,44668,45268,196,219
Sprite,Foreground,Centre,"sb\dot.png",0,0 C,0,44668,,255,255,255 F,1,44668,45268,1,0 S,1,44668,45268,1,0.2 MX,1,44668,45268,372,385 MY,1,44668,45268,196,235
Sprite,Foreground,Centre,"sb\dot.png",0,0 C,0,44668,,255,255,255 F,1,44668,45268,1,0 S,1,44668,45268,1,0.2 MX,1,44668,45268,372,394 MY,1,44668,45268,196,204
Sprite,Foreground,Centre,"sb\dot.png",0,0 C,0,44668,,255,255,255 F,1,44668,45268,1,0 S,1,44668,45268,1,0.2 MX,1,44668,45268,372,332 MY,1,44668,45268,196,158
Sprite,Foreground,Centre,"sb\dot.png",0,0 C,0,44668,,255,255,255 F,1,44668,45268,1,0 S,1,44668,45268,1,0.2 MX,1,44668,45268,372,385 MY,1,44668,45268,196,166
Sprite,Foreground,Centre,"sb\dot.png",0,0 C,0,44668,,255,255,255 F,1,44668,45268,1,0 S,1,44668,45268,1,0.2 MX,1,44668,45268,372,431 MY,1,44668,45268,196,204
Sprite,Foreground,Centre,"sb\dot.png",0,0 C,0,44668,,255,255,255 F,1,44668,45268,1,0 S,1,44668,45268,1,0.2 MX,1,44668,45268,372,319 MY,1,44668,45268,196,167
Sprite,Foreground,Centre,"sb\dot.png",0,0 C,0,44668,,255,255,255 F,1,44668,45268,1,0 S,1,44668,45268,1,0.2 MX,1,44668,45268,372,413 MY,1,44668,45268,196,204
Sprite,Foreground,Centre,"sb\dot.png",0,0 C,0,44668,,255,255,255 F,1,44668,45268,1,0 S,1,44668,45268,1,0.2 MX,1,44668,45268,372,389 MY,1,44668,45268,196,197
Sprite,Foreground,Centre,"sb\dot.png",0,0 C,0,44668,,255,255,255 F,1,44668,45268,1,0 S,1,44668,45268,1,0.2 MX,1,44668,45268,372,428 MY,1,44668,45268,196,145
Sprite,Foreground,Centre,"sb\dot.png",0,0 C,0,44668,,255,255,255 F,1,44668,45268,1,0 S,1,44668,45268,1,0.2 MX,1,44668,45268,372,373 MY,1,44668,45268,196,154
Sprite,Foreground,Centre,"sb\dot.png",0,0 C,0,44668,,255,255,255 F,1,44668,45268,1,0 S,1,44668,45268,1,0.2 MX,1,44668,45268,372,409 MY,1,44668,45268,196,213
Sprite,Foreground,Centre,"sb\dot.png",0,0 C,0,44668,,255,255,255 F,1,44668,45268,1,0 S,1,44668,45268,1,0.2 MX,1,44668,45268,372,381 MY,1,44668,45268,196,202
Sprite,Foreground,Centre,"sb\dot.png",0,0 C,0,44668,,255,255,255 F,1,44668,45268,1,0 S,1,44668,45268,1,0.2 MX,1,44668,45268,372,392 MY,1,44668,45268,196,255
Sprite,Foreground,Centre,"sb\dot.png",0,0 C,0,44668,,255,255,255 F,1,44668,45268,1,0 S,1,44668,45268,1,0.2 MX,1,44668,45268,372,348 MY,1,44668,45268,196,143
Sprite,Foreground,Centre,"sb\dot.png",0,0 C,0,44668,,255,255,255 F,1,44668,45268,1,0 S,1,44668,45268,1,0.2 MX,1,44668,45268,372,367 MY,1,44668,45268,196,193
Sprite,Foreground,Centre,"sb\dot.png",0,0 C,0,44668,,255,255,255 F,1,44668,45268,1,0 S,1,44668,45268,1,0.2 MX,1,44668,45268,372,337 MY,1,44668,45268,196,144
Sprite,Foreground,Centre,"sb\dot.png",0,0 C,0,44668,,255,255,255 F,1,44668,45268,1,0 S,1,44668,45268,1,0.2 MX,1,44668,45268,372,339 MY,1,44668,45268,196,154
Sprite,Foreground,Centre,"sb\dot.png",0,0 C,0,44668,,255,255,255 F,1,44668,45268,1,0 S,1,44668,45268,1,0.2 MX,1,44668,45268,372,365 MY,1,44668,45268,196,190
Sprite,Foreground,Centre,"sb\dot.png",0,0 C,0,44995,,255,255,255 F,1,44995,45595,1,0 S,1,44995,45595,1,0.2 MX,1,44995,45595,366,308 MY,1,44995,45595,295,281
Sprite,Foreground,Centre,"sb\dot.png",0,0 C,0,44995,,255,255,255 F,1,44995,45595,1,0 S,1,44995,45595,1,0.2 MX,1,44995,45595,366,403 MY,1,44995,45595,295,259
Sprite,Foreground,Centre,"sb\dot.png",0,0 C,0,44995,,255,255,255 F,1,44995,45595,1,0 S,1,44995,45595,1,0.2 MX,1,44995,45595,366,415 MY,1,44995,45595,295,238
Sprite,Foreground,Centre,"sb\dot.png",0,0 C,0,44995,,255,255,255 F,1,44995,45595,1,0 S,1,44995,45595,1,0.2 MX,1,44995,45595,366,367 MY,1,44995,45595,295,350
Sprite,Foreground,Centre,"sb\dot.png",0,0 C,0,44995,,255,255,255 F,1,44995,45595,1,0 S,1,44995,45595,1,0.2 MX,1,44995,45595,366,425 MY,1,44995,45595,295,237
Sprite,Foreground,Centre,"sb\dot.png",0,0 C,0,44995,,255,255,255 F,1,44995,45595,1,0 S,1,44995,45595,1,0.2 MX,1,44995,45595,366,384 MY,1,44995,45595,295,268
Sprite,Foreground,Centre,"sb\dot.png",0,0 C,0,44995,,255,255,255 F,1,44995,45595,1,0 S,1,44995,45595,1,0.2 MX,1,44995,45595,366,422 MY,1,44995,45595,295,305
Sprite,Foreground,Centre,"sb\dot.png",0,0 C,0,44995,,255,255,255 F,1,44995,45595,1,0 S,1,44995,45595,1,0.2 MX,1,44995,45595,366,398 MY,1,44995,45595,295,273
Sprite,Foreground,Centre,"sb\dot.png",0,0 C,0,44995,,255,255,255 F,1,44995,45595,1,0 S,1,44995,45595,1,0.2 MX,1,44995,45595,366,356 MY,1,44995,45595,295,351
Sprite,Foreground,Centre,"sb\dot.png",0,0 C,0,44995,,255,255,255 F,1,44995,45595,1,0 S,1,44995,45595,1,0.2 MX,1,44995,45595,366,412 MY,1,44995,45595,295,351
Sprite,Foreground,Centre,"sb\dot.png",0,0 C,0,44995,,255,255,255 F,1,44995,45595,1,0 S,1,44995,45595,1,0.2 MX,1,44995,45595,366,336 MY,1,44995,45595,295,250
Sprite,Foreground,Centre,"sb\dot.png",0,0 C,0,44995,,255,255,255 F,1,44995,45595,1,0 S,1,44995,45595,1,0.2 MX,1,44995,45595,366,413 MY,1,44995,45595,295,256
Sprite,Foreground,Centre,"sb\dot.png",0,0 C,0,44995,,255,255,255 F,1,44995,45595,1,0 S,1,44995,45595,1,0.2 MX,1,44995,45595,366,411 MY,1,44995,45595,295,300
Sprite,Foreground,Centre,"sb\dot.png",0,0 C,0,44995,,255,255,255 F,1,44995,45595,1,0 S,1,44995,45595,1,0.2 MX,1,44995,45595,366,400 MY,1,44995,45595,295,296
Sprite,Foreground,Centre,"sb\dot.png",0,0 C,0,44995,,255,255,255 F,1,44995,45595,1,0 S,1,44995,45595,1,0.2 MX,1,44995,45595,366,348 MY,1,44995,45595,295,354
Sprite,Foreground,Centre,"sb\dot.png",0,0 C,0,44995,,255,255,255 F,1,44995,45595,1,0 S,1,44995,45595,1,0.2 MX,1,44995,45595,366,310 MY,1,44995,45595,295,318
Sprite,Foreground,Centre,"sb\dot.png",0,0 C,0,44995,,255,255,255 F,1,44995,45595,1,0 S,1,44995,45595,1,0.2 MX,1,44995,45595,366,320 MY,1,44995,45595,295,258
Sprite,Foreground,Centre,"sb\dot.png",0,0 C,0,44995,,255,255,255 F,1,44995,45595,1,0 S,1,44995,45595,1,0.2 MX,1,44995,45595,366,365 MY,1,44995,45595,295,304
Sprite,Foreground,Centre,"sb\dot.png",0,0 C,0,44995,,255,255,255 F,1,44995,45595,1,0 S,1,44995,45595,1,0.2 MX,1,44995,45595,366,337 MY,1,44995,45595,295,272
Sprite,Foreground,Centre,"sb\dot.png",0,0 C,0,44995,,255,255,255 F,1,44995,45595,1,0 S,1,44995,45595,1,0.2 MX,1,44995,45595,366,335 MY,1,44995,45595,295,329
Sprite,Foreground,Centre,"sb\dot.png",0,0 C,0,44995,,255,255,255 F,1,44995,45595,1,0 S,1,44995,45595,1,0.2 MX,1,44995,45595,366,321 MY,1,44995,45595,295,308
Sprite,Foreground,Centre,"sb\dot.png",0,0 C,0,44995,,255,255,255 F,1,44995,45595,1,0 S,1,44995,45595,1,0.2 MX,1,44995,45595,366,373 MY,1,44995,45595,295,313
Sprite,Foreground,Centre,"sb\dot.png",0,0 C,0,44995,,255,255,255 F,1,44995,45595,1,0 S,1,44995,45595,1,0.2 MX,1,44995,45595,366,346 MY,1,44995,45595,295,237
Sprite,Foreground,Centre,"sb\dot.png",0,0 C,0,44995,,255,255,255 F,1,44995,45595,1,0 S,1,44995,45595,1,0.2 MX,1,44995,45595,366,317 MY,1,44995,45595,295,340
Sprite,Foreground,Centre,"sb\dot.png",0,0 C,0,44995,,255,255,255 F,1,44995,45595,1,0 S,1,44995,45595,1,0.2 MX,1,44995,45595,366,391 MY,1,44995,45595,295,342
Sprite,Foreground,Centre,"sb\dot.png",0,0 C,0,44995,,255,255,255 F,1,44995,45595,1,0 S,1,44995,45595,1,0.2 MX,1,44995,45595,366,384 MY,1,44995,45595,295,265
Sprite,Foreground,Centre,"sb\dot.png",0,0 C,0,44995,,255,255,255 F,1,44995,45595,1,0 S,1,44995,45595,1,0.2 MX,1,44995,45595,366,337 MY,1,44995,45595,295,291
Sprite,Foreground,Centre,"sb\dot.png",0,0 C,0,44995,,255,255,255 F,1,44995,45595,1,0 S,1,44995,45595,1,0.2 MX,1,44995,45595,366,329 MY,1,44995,45595,295,341
Sprite,Foreground,Centre,"sb\dot.png",0,0 C,0,44995,,255,255,255 F,1,44995,45595,1,0 S,1,44995,45595,1,0.2 MX,1,44995,45595,366,364 MY,1,44995,45595,295,311
Sprite,Foreground,Centre,"sb\dot.png",0,0 C,0,44995,,255,255,255 F,1,44995,45595,1,0 S,1,44995,45595,1,0.2 MX,1,44995,45595,366,344 MY,1,44995,45595,295,279
Sprite,Foreground,Centre,"sb\dot.png",0,0 C,0,45323,,255,255,255 F,1,45323,45923,1,0 S,1,45323,45923,1,0.2 MX,1,45323,45923,296,265 MY,1,45323,45923,366,425
Sprite,Foreground,Centre,"sb\dot.png",0,0 C,0,45323,,255,255,255 F,1,45323,45923,1,0 S,1,45323,45923,1,0.2 MX,1,45323,45923,296,309 MY,1,45323,45923,366,306
Sprite,Foreground,Centre,"sb\dot.png",0,0 C,0,45323,,255,255,255 F,1,45323,45923,1,0 S,1,45323,45923,1,0.2 MX,1,45323,45923,296,354 MY,1,45323,45923,366,421
Sprite,Foreground,Centre,"sb\dot.png",0,0 C,0,45323,,255,255,255 F,1,45323,45923,1,0 S,1,45323,45923,1,0.2 MX,1,45323,45923,296,254 MY,1,45323,45923,366,398
Sprite,Foreground,Centre,"sb\dot.png",0,0 C,0,45323,,255,255,255 F,1,45323,45923,1,0 S,1,45323,45923,1,0.2 MX,1,45323,45923,296,246 MY,1,45323,45923,366,328
Sprite,Foreground,Centre,"sb\dot.png",0,0 C,0,45323,,255,255,255 F,1,45323,45923,1,0 S,1,45323,45923,1,0.2 MX,1,45323,45923,296,243 MY,1,45323,45923,366,319
Sprite,Foreground,Centre,"sb\dot.png",0,0 C,0,45323,,255,255,255 F,1,45323,45923,1,0 S,1,45323,45923,1,0.2 MX,1,45323,45923,296,323 MY,1,45323,45923,366,318
Sprite,Foreground,Centre,"sb\dot.png",0,0 C,0,45323,,255,255,255 F,1,45323,45923,1,0 S,1,45323,45923,1,0.2 MX,1,45323,45923,296,336 MY,1,45323,45923,366,383
Sprite,Foreground,Centre,"sb\dot.png",0,0 C,0,45323,,255,255,255 F,1,45323,45923,1,0 S,1,45323,45923,1,0.2 MX,1,45323,45923,296,304 MY,1,45323,45923,366,334
Sprite,Foreground,Centre,"sb\dot.png",0,0 C,0,45323,,255,255,255 F,1,45323,45923,1,0 S,1,45323,45923,1,0.2 MX,1,45323,45923,296,336 MY,1,45323,45923,366,409
Sprite,Foreground,Centre,"sb\dot.png",0,0 C,0,45323,,255,255,255 F,1,45323,45923,1,0 S,1,45323,45923,1,0.2 MX,1,45323,45923,296,289 MY,1,45323,45923,366,414
Sprite,Foreground,Centre,"sb\dot.png",0,0 C,0,45323,,255,255,255 F,1,45323,45923,1,0 S,1,45323,45923,1,0.2 MX,1,45323,45923,296,332 MY,1,45323,45923,366,361
Sprite,Foreground,Centre,"sb\dot.png",0,0 C,0,45323,,255,255,255 F,1,45323,45923,1,0 S,1,45323,45923,1,0.2 MX,1,45323,45923,296,276 MY,1,45323,45923,366,399
Sprite,Foreground,Centre,"sb\dot.png",0,0 C,0,45323,,255,255,255 F,1,45323,45923,1,0 S,1,45323,45923,1,0.2 MX,1,45323,45923,296,287 MY,1,45323,45923,366,383
Sprite,Foreground,Centre,"sb\dot.png",0,0 C,0,45323,,255,255,255 F,1,45323,45923,1,0 S,1,45323,45923,1,0.2 MX,1,45323,45923,296,355 MY,1,45323,45923,366,379
Sprite,Foreground,Centre,"sb\dot.png",0,0 C,0,45323,,255,255,255 F,1,45323,45923,1,0 S,1,45323,45923,1,0.2 MX,1,45323,45923,296,246 MY,1,45323,45923,366,380
Sprite,Foreground,Centre,"sb\dot.png",0,0 C,0,45323,,255,255,255 F,1,45323,45923,1,0 S,1,45323,45923,1,0.2 MX,1,45323,45923,296,354 MY,1,45323,45923,366,410
Sprite,Foreground,Centre,"sb\dot.png",0,0 C,0,45323,,255,255,255 F,1,45323,45923,1,0 S,1,45323,45923,1,0.2 MX,1,45323,45923,296,300 MY,1,45323,45923,366,322
Sprite,Foreground,Centre,"sb\dot.png",0,0 C,0,45323,,255,255,255 F,1,45323,45923,1,0 S,1,45323,45923,1,0.2 MX,1,45323,45923,296,236 MY,1,45323,45923,366,372
Sprite,Foreground,Centre,"sb\dot.png",0,0 C,0,45323,,255,255,255 F,1,45323,45923,1,0 S,1,45323,45923,1,0.2 MX,1,45323,45923,296,316 MY,1,45323,45923,366,351
Sprite,Foreground,Centre,"sb\dot.png",0,0 C,0,45323,,255,255,255 F,1,45323,45923,1,0 S,1,45323,45923,1,0.2 MX,1,45323,45923,296,339 MY,1,45323,45923,366,345
Sprite,Foreground,Centre,"sb\dot.png",0,0 C,0,45323,,255,255,255 F,1,45323,45923,1,0 S,1,45323,45923,1,0.2 MX,1,45323,45923,296,330 MY,1,45323,45923,366,368
Sprite,Foreground,Centre,"sb\dot.png",0,0 C,0,45323,,255,255,255 F,1,45323,45923,1,0 S,1,45323,45923,1,0.2 MX,1,45323,45923,296,335 MY,1,45323,45923,366,370
Sprite,Foreground,Centre,"sb\dot.png",0,0 C,0,45323,,255,255,255 F,1,45323,45923,1,0 S,1,45323,45923,1,0.2 MX,1,45323,45923,296,298 MY,1,45323,45923,366,325
Sprite,Foreground,Centre,"sb\dot.png",0,0 C,0,45323,,255,255,255 F,1,45323,45923,1,0 S,1,45323,45923,1,0.2 MX,1,45323,45923,296,312 MY,1,45323,45923,366,372
Sprite,Foreground,Centre,"sb\dot.png",0,0 C,0,45323,,255,255,255 F,1,45323,45923,1,0 S,1,45323,45923,1,0.2 MX,1,45323,45923,296,273 MY,1,45323,45923,366,335
Sprite,Foreground,Centre,"sb\dot.png",0,0 C,0,45323,,255,255,255 F,1,45323,45923,1,0 S,1,45323,45923,1,0.2 MX,1,45323,45923,296,332 MY,1,45323,45923,366,361
Sprite,Foreground,Centre,"sb\dot.png",0,0 C,0,45323,,255,255,255 F,1,45323,45923,1,0 S,1,45323,45923,1,0.2 MX,1,45323,45923,296,346 MY,1,45323,45923,366,346
Sprite,Foreground,Centre,"sb\dot.png",0,0 C,0,45323,,255,255,255 F,1,45323,45923,1,0 S,1,45323,45923,1,0.2 MX,1,45323,45923,296,259 MY,1,45323,45923,366,324
Sprite,Foreground,Centre,"sb\dot.png",0,0 C,0,45323,,255,255,255 F,1,45323,45923,1,0 S,1,45323,45923,1,0.2 MX,1,45323,45923,296,315 MY,1,45323,45923,366,330
Sprite,Foreground,Centre,"sb\dot.png",0,0 C,0,45980,,255,255,255 F,1,45980,46580,1,0 S,1,45980,46580,1,0.2 MX,1,45980,46580,385,389 MY,1,45980,46580,412,413
Sprite,Foreground,Centre,"sb\dot.png",0,0 C,0,45980,,255,255,255 F,1,45980,46580,1,0 S,1,45980,46580,1,0.2 MX,1,45980,46580,385,417 MY,1,45980,46580,412,409
Sprite,Foreground,Centre,"sb\dot.png",0,0 C,0,45980,,255,255,255 F,1,45980,46580,1,0 S,1,45980,46580,1,0.2 MX,1,45980,46580,385,337 MY,1,45980,46580,412,404
Sprite,Foreground,Centre,"sb\dot.png",0,0 C,0,45980,,255,255,255 F,1,45980,46580,1,0 S,1,45980,46580,1,0.2 MX,1,45980,46580,385,339 MY,1,45980,46580,412,455
Sprite,Foreground,Centre,"sb\dot.png",0,0 C,0,45980,,255,255,255 F,1,45980,46580,1,0 S,1,45980,46580,1,0.2 MX,1,45980,46580,385,392 MY,1,45980,46580,412,436
Sprite,Foreground,Centre,"sb\dot.png",0,0 C,0,45980,,255,255,255 F,1,45980,46580,1,0 S,1,45980,46580,1,0.2 MX,1,45980,46580,385,401 MY,1,45980,46580,412,353
Sprite,Foreground,Centre,"sb\dot.png",0,0 C,0,45980,,255,255,255 F,1,45980,46580,1,0 S,1,45980,46580,1,0.2 MX,1,45980,46580,385,393 MY,1,45980,46580,412,406
Sprite,Foreground,Centre,"sb\dot.png",0,0 C,0,45980,,255,255,255 F,1,45980,46580,1,0 S,1,45980,46580,1,0.2 MX,1,45980,46580,385,444 MY,1,45980,46580,412,366
Sprite,Foreground,Centre,"sb\dot.png",0,0 C,0,45980,,255,255,255 F,1,45980,46580,1,0 S,1,45980,46580,1,0.2 MX,1,45980,46580,385,339 MY,1,45980,46580,412,385
Sprite,Foreground,Centre,"sb\dot.png",0,0 C,0,45980,,255,255,255 F,1,45980,46580,1,0 S,1,45980,46580,1,0.2 MX,1,45980,46580,385,400 MY,1,45980,46580,412,447
Sprite,Foreground,Centre,"sb\dot.png",0,0 C,0,45980,,255,255,255 F,1,45980,46580,1,0 S,1,45980,46580,1,0.2 MX,1,45980,46580,385,355 MY,1,45980,46580,412,383
Sprite,Foreground,Centre,"sb\dot.png",0,0 C,0,45980,,255,255,255 F,1,45980,46580,1,0 S,1,45980,46580,1,0.2 MX,1,45980,46580,385,326 MY,1,45980,46580,412,405
Sprite,Foreground,Centre,"sb\dot.png",0,0 C,0,45980,,255,255,255 F,1,45980,46580,1,0 S,1,45980,46580,1,0.2 MX,1,45980,46580,385,360 MY,1,45980,46580,412,452
Sprite,Foreground,Centre,"sb\dot.png",0,0 C,0,45980,,255,255,255 F,1,45980,46580,1,0 S,1,45980,46580,1,0.2 MX,1,45980,46580,385,423 MY,1,45980,46580,412,415
Sprite,Foreground,Centre,"sb\dot.png",0,0 C,0,45980,,255,255,255 F,1,45980,46580,1,0 S,1,45980,46580,1,0.2 MX,1,45980,46580,385,439 MY,1,45980,46580,412,376
Sprite,Foreground,Centre,"sb\dot.png",0,0 C,0,45980,,255,255,255 F,1,45980,46580,1,0 S,1,45980,46580,1,0.2 MX,1,45980,46580,385,438 MY,1,45980,46580,412,454
Sprite,Foreground,Centre,"sb\dot.png",0,0 C,0,45980,,255,255,255 F,1,45980,46580,1,0 S,1,45980,46580,1,0.2 MX,1,45980,46580,385,432 MY,1,45980,46580,412,408
Sprite,Foreground,Centre,"sb\dot.png",0,0 C,0,45980,,255,255,255 F,1,45980,46580,1,0 S,1,45980,46580,1,0.2 MX,1,45980,46580,385,426 MY,1,45980,46580,412,394
Sprite,Foreground,Centre,"sb\dot.png",0,0 C,0,45980,,255,255,255 F,1,45980,46580,1,0 S,1,45980,46580,1,0.2 MX,1,45980,46580,385,391 MY,1,45980,46580,412,388
Sprite,Foreground,Centre,"sb\dot.png",0,0 C,0,45980,,255,255,255 F,1,45980,46580,1,0 S,1,45980,46580,1,0.2 MX,1,45980,46580,385,375 MY,1,45980,46580,412,398
Sprite,Foreground,Centre,"sb\dot.png",0,0 C,0,45980,,255,255,255 F,1,45980,46580,1,0 S,1,45980,46580,1,0.2 MX,1,45980,46580,385,375 MY,1,45980,46580,412,431
Sprite,Foreground,Centre,"sb\dot.png",0,0 C,0,45980,,255,255,255 F,1,45980,46580,1,0 S,1,45980,46580,1,0.2 MX,1,45980,46580,385,397 MY,1,45980,46580,412,463
Sprite,Foreground,Centre,"sb\dot.png",0,0 C,0,45980,,255,255,255 F,1,45980,46580,1,0 S,1,45980,46580,1,0.2 MX,1,45980,46580,385,434 MY,1,45980,46580,412,387
Sprite,Foreground,Centre,"sb\dot.png",0,0 C,0,45980,,255,255,255 F,1,45980,46580,1,0 S,1,45980,46580,1,0.2 MX,1,45980,46580,385,406 MY,1,45980,46580,412,393
Sprite,Foreground,Centre,"sb\dot.png",0,0 C,0,45980,,255,255,255 F,1,45980,46580,1,0 S,1,45980,46580,1,0.2 MX,1,45980,46580,385,381 MY,1,45980,46580,412,447
Sprite,Foreground,Centre,"sb\dot.png",0,0 C,0,45980,,255,255,255 F,1,45980,46580,1,0 S,1,45980,46580,1,0.2 MX,1,45980,46580,385,351 MY,1,45980,46580,412,461
Sprite,Foreground,Centre,"sb\dot.png",0,0 C,0,45980,,255,255,255 F,1,45980,46580,1,0 S,1,45980,46580,1,0.2 MX,1,45980,46580,385,387 MY,1,45980,46580,412,455
Sprite,Foreground,Centre,"sb\dot.png",0,0 C,0,45980,,255,255,255 F,1,45980,46580,1,0 S,1,45980,46580,1,0.2 MX,1,45980,46580,385,438 MY,1,45980,46580,412,384
Sprite,Foreground,Centre,"sb\dot.png",0,0 C,0,45980,,255,255,255 F,1,45980,46580,1,0 S,1,45980,46580,1,0.2 MX,1,45980,46580,385,384 MY,1,45980,46580,412,391
Sprite,Foreground,Centre,"sb\dot.png",0,0 C,0,45980,,255,255,255 F,1,45980,46580,1,0 S,1,45980,46580,1,0.2 MX,1,45980,46580,385,347 MY,1,45980,46580,412,383
Sprite,Foreground,Centre,"sb\dot.png",0,0 C,0,46635,,255,255,255 F,1,46635,47235,1,0 S,1,46635,47235,1,0.2 MX,1,46635,47235,542,555 MY,1,46635,47235,353,363
Sprite,Foreground,Centre,"sb\dot.png",0,0 C,0,46635,,255,255,255 F,1,46635,47235,1,0 S,1,46635,47235,1,0.2 MX,1,46635,47235,542,590 MY,1,46635,47235,353,336
Sprite,Foreground,Centre,"sb\dot.png",0,0 C,0,46635,,255,255,255 F,1,46635,47235,1,0 S,1,46635,47235,1,0.2 MX,1,46635,47235,542,572 MY,1,46635,47235,353,387
Sprite,Foreground,Centre,"sb\dot.png",0,0 C,0,46635,,255,255,255 F,1,46635,47235,1,0 S,1,46635,47235,1,0.2 MX,1,46635,47235,542,496 MY,1,46635,47235,353,305
Sprite,Foreground,Centre,"sb\dot.png",0,0 C,0,46635,,255,255,255 F,1,46635,47235,1,0 S,1,46635,47235,1,0.2 MX,1,46635,47235,542,555 MY,1,46635,47235,353,369
Sprite,Foreground,Centre,"sb\dot.png",0,0 C,0,46635,,255,255,255 F,1,46635,47235,1,0 S,1,46635,47235,1,0.2 MX,1,46635,47235,542,550 MY,1,46635,47235,353,390
Sprite,Foreground,Centre,"sb\dot.png",0,0 C,0,46635,,255,255,255 F,1,46635,47235,1,0 S,1,46635,47235,1,0.2 MX,1,46635,47235,542,585 MY,1,46635,47235,353,321
Sprite,Foreground,Centre,"sb\dot.png",0,0 C,0,46635,,255,255,255 F,1,46635,47235,1,0 S,1,46635,47235,1,0.2 MX,1,46635,47235,542,527 MY,1,46635,47235,353,364
Sprite,Foreground,Centre,"sb\dot.png",0,0 C,0,46635,,255,255,255 F,1,46635,47235,1,0 S,1,46635,47235,1,0.2 MX,1,46635,47235,542,561 MY,1,46635,47235,353,302
Sprite,Foreground,Centre,"sb\dot.png",0,0 C,0,46635,,255,255,255 F,1,46635,47235,1,0 S,1,46635,47235,1,0.2 MX,1,46635,47235,542,545 MY,1,46635,47235,353,412
Sprite,Foreground,Centre,"sb\dot.png",0,0 C,0,46635,,255,255,255 F,1,46635,47235,1,0 S,1,46635,47235,1,0.2 MX,1,46635,47235,542,501 MY,1,46635,47235,353,350
Sprite,Foreground,Centre,"sb\dot.png",0,0 C,0,46635,,255,255,255 F,1,46635,47235,1,0 S,1,46635,47235,1,0.2 MX,1,46635,47235,542,489 MY,1,46635,47235,353,311
Sprite,Foreground,Centre,"sb\dot.png",0,0 C,0,46635,,255,255,255 F,1,46635,47235,1,0 S,1,46635,47235,1,0.2 MX,1,46635,47235,542,600 MY,1,46635,47235,353,297
Sprite,Foreground,Centre,"sb\dot.png",0,0 C,0,46635,,255,255,255 F,1,46635,47235,1,0 S,1,46635,47235,1,0.2 MX,1,46635,47235,542,521 MY,1,46635,47235,353,297
Sprite,Foreground,Centre,"sb\dot.png",0,0 C,0,46635,,255,255,255 F,1,46635,47235,1,0 S,1,46635,47235,1,0.2 MX,1,46635,47235,542,544 MY,1,46635,47235,353,361
Sprite,Foreground,Centre,"sb\dot.png",0,0 C,0,46635,,255,255,255 F,1,46635,47235,1,0 S,1,46635,47235,1,0.2 MX,1,46635,47235,542,585 MY,1,46635,47235,353,319
Sprite,Foreground,Centre,"sb\dot.png",0,0 C,0,46635,,255,255,255 F,1,46635,47235,1,0 S,1,46635,47235,1,0.2 MX,1,46635,47235,542,495 MY,1,46635,47235,353,311
Sprite,Foreground,Centre,"sb\dot.png",0,0 C,0,46635,,255,255,255 F,1,46635,47235,1,0 S,1,46635,47235,1,0.2 MX,1,46635,47235,542,575 MY,1,46635,47235,353,392
Sprite,Foreground,Centre,"sb\dot.png",0,0 C,0,46635,,255,255,255 F,1,46635,47235,1,0 S,1,46635,47235,1,0.2 MX,1,46635,47235,542,572 MY,1,46635,47235,353,321
Sprite,Foreground,Centre,"sb\dot.png",0,0 C,0,46635,,255,255,255 F,1,46635,47235,1,0 S,1,46635,47235,1,0.2 MX,1,46635,47235,542,503 MY,1,46635,47235,353,307
Sprite,Foreground,Centre,"sb\dot.png",0,0 C,0,46635,,255,255,255 F,1,46635,47235,1,0 S,1,46635,47235,1,0.2 MX,1,46635,47235,542,503 MY,1,46635,47235,353,362
Sprite,Foreground,Centre,"sb\dot.png",0,0 C,0,46635,,255,255,255 F,1,46635,47235,1,0 S,1,46635,47235,1,0.2 MX,1,46635,47235,542,569 MY,1,46635,47235,353,392
Sprite,Foreground,Centre,"sb\dot.png",0,0 C,0,46635,,255,255,255 F,1,46635,47235,1,0 S,1,46635,47235,1,0.2 MX,1,46635,47235,542,509 MY,1,46635,47235,353,341
Sprite,Foreground,Centre,"sb\dot.png",0,0 C,0,46635,,255,255,255 F,1,46635,47235,1,0 S,1,46635,47235,1,0.2 MX,1,46635,47235,542,487 MY,1,46635,47235,353,326
Sprite,Foreground,Centre,"sb\dot.png",0,0 C,0,46635,,255,255,255 F,1,46635,47235,1,0 S,1,46635,47235,1,0.2 MX,1,46635,47235,542,540 MY,1,46635,47235,353,335
Sprite,Foreground,Centre,"sb\dot.png",0,0 C,0,46635,,255,255,255 F,1,46635,47235,1,0 S,1,46635,47235,1,0.2 MX,1,46635,47235,542,554 MY,1,46635,47235,353,342
Sprite,Foreground,Centre,"sb\dot.png",0,0 C,0,46635,,255,255,255 F,1,46635,47235,1,0 S,1,46635,47235,1,0.2 MX,1,46635,47235,542,577 MY,1,46635,47235,353,316
Sprite,Foreground,Centre,"sb\dot.png",0,0 C,0,46635,,255,255,255 F,1,46635,47235,1,0 S,1,46635,47235,1,0.2 MX,1,46635,47235,542,494 MY,1,46635,47235,353,309
Sprite,Foreground,Centre,"sb\dot.png",0,0 C,0,46635,,255,255,255 F,1,46635,47235,1,0 S,1,46635,47235,1,0.2 MX,1,46635,47235,542,545 MY,1,46635,47235,353,383
Sprite,Foreground,Centre,"sb\dot.png",0,0 C,0,46635,,255,255,255 F,1,46635,47235,1,0 S,1,46635,47235,1,0.2 MX,1,46635,47235,542,526 MY,1,46635,47235,353,379
Sprite,Foreground,Centre,"sb\dot.png",0,0 C,0,46963,,255,255,255 F,1,46963,47563,1,0 S,1,46963,47563,1,0.2 MX,1,46963,47563,569,563 MY,1,46963,47563,256,206
Sprite,Foreground,Centre,"sb\dot.png",0,0 C,0,46963,,255,255,255 F,1,46963,47563,1,0 S,1,46963,47563,1,0.2 MX,1,46963,47563,569,579 MY,1,46963,47563,256,200
Sprite,Foreground,Centre,"sb\dot.png",0,0 C,0,46963,,255,255,255 F,1,46963,47563,1,0 S,1,46963,47563,1,0.2 MX,1,46963,47563,569,602 MY,1,46963,47563,256,237
Sprite,Foreground,Centre,"sb\dot.png",0,0 C,0,46963,,255,255,255 F,1,46963,47563,1,0 S,1,46963,47563,1,0.2 MX,1,46963,47563,569,592 MY,1,46963,47563,256,280
Sprite,Foreground,Centre,"sb\dot.png",0,0 C,0,46963,,255,255,255 F,1,46963,47563,1,0 S,1,46963,47563,1,0.2 MX,1,46963,47563,569,564 MY,1,46963,47563,256,261
Sprite,Foreground,Centre,"sb\dot.png",0,0 C,0,46963,,255,255,255 F,1,46963,47563,1,0 S,1,46963,47563,1,0.2 MX,1,46963,47563,569,609 MY,1,46963,47563,256,246
Sprite,Foreground,Centre,"sb\dot.png",0,0 C,0,46963,,255,255,255 F,1,46963,47563,1,0 S,1,46963,47563,1,0.2 MX,1,46963,47563,569,617 MY,1,46963,47563,256,245
Sprite,Foreground,Centre,"sb\dot.png",0,0 C,0,46963,,255,255,255 F,1,46963,47563,1,0 S,1,46963,47563,1,0.2 MX,1,46963,47563,569,606 MY,1,46963,47563,256,265
Sprite,Foreground,Centre,"sb\dot.png",0,0 C,0,46963,,255,255,255 F,1,46963,47563,1,0 S,1,46963,47563,1,0.2 MX,1,46963,47563,569,599 MY,1,46963,47563,256,224
Sprite,Foreground,Centre,"sb\dot.png",0,0 C,0,46963,,255,255,255 F,1,46963,47563,1,0 S,1,46963,47563,1,0.2 MX,1,46963,47563,569,619 MY,1,46963,47563,256,266
Sprite,Foreground,Centre,"sb\dot.png",0,0 C,0,46963,,255,255,255 F,1,46963,47563,1,0 S,1,46963,47563,1,0.2 MX,1,46963,47563,569,628 MY,1,46963,47563,256,202
Sprite,Foreground,Centre,"sb\dot.png",0,0 C,0,46963,,255,255,255 F,1,46963,47563,1,0 S,1,46963,47563,1,0.2 MX,1,46963,47563,569,574 MY,1,46963,47563,256,215
Sprite,Foreground,Centre,"sb\dot.png",0,0 C,0,46963,,255,255,255 F,1,46963,47563,1,0 S,1,46963,47563,1,0.2 MX,1,46963,47563,569,624 MY,1,46963,47563,256,249
Sprite,Foreground,Centre,"sb\dot.png",0,0 C,0,46963,,255,255,255 F,1,46963,47563,1,0 S,1,46963,47563,1,0.2 MX,1,46963,47563,569,560 MY,1,46963,47563,256,306
Sprite,Foreground,Centre,"sb\dot.png",0,0 C,0,46963,,255,255,255 F,1,46963,47563,1,0 S,1,46963,47563,1,0.2 MX,1,46963,47563,569,515 MY,1,46963,47563,256,272
Sprite,Foreground,Centre,"sb\dot.png",0,0 C,0,46963,,255,255,255 F,1,46963,47563,1,0 S,1,46963,47563,1,0.2 MX,1,46963,47563,569,545 MY,1,46963,47563,256,315
Sprite,Foreground,Centre,"sb\dot.png",0,0 C,0,46963,,255,255,255 F,1,46963,47563,1,0 S,1,46963,47563,1,0.2 MX,1,46963,47563,569,612 MY,1,46963,47563,256,250
Sprite,Foreground,Centre,"sb\dot.png",0,0 C,0,46963,,255,255,255 F,1,46963,47563,1,0 S,1,46963,47563,1,0.2 MX,1,46963,47563,569,589 MY,1,46963,47563,256,207
Sprite,Foreground,Centre,"sb\dot.png",0,0 C,0,46963,,255,255,255 F,1,46963,47563,1,0 S,1,46963,47563,1,0.2 MX,1,46963,47563,569,628 MY,1,46963,47563,256,278
Sprite,Foreground,Centre,"sb\dot.png",0,0 C,0,46963,,255,255,255 F,1,46963,47563,1,0 S,1,46963,47563,1,0.2 MX,1,46963,47563,569,515 MY,1,46963,47563,256,301
Sprite,Foreground,Centre,"sb\dot.png",0,0 C,0,46963,,255,255,255 F,1,46963,47563,1,0 S,1,46963,47563,1,0.2 MX,1,46963,47563,569,593 MY,1,46963,47563,256,236
Sprite,Foreground,Centre,"sb\dot.png",0,0 C,0,46963,,255,255,255 F,1,46963,47563,1,0 S,1,46963,47563,1,0.2 MX,1,46963,47563,569,606 MY,1,46963,47563,256,308
Sprite,Foreground,Centre,"sb\dot.png",0,0 C,0,46963,,255,255,255 F,1,46963,47563,1,0 S,1,46963,47563,1,0.2 MX,1,46963,47563,569,571 MY,1,46963,47563,256,218
Sprite,Foreground,Centre,"sb\dot.png",0,0 C,0,46963,,255,255,255 F,1,46963,47563,1,0 S,1,46963,47563,1,0.2 MX,1,46963,47563,569,570 MY,1,46963,47563,256,242
Sprite,Foreground,Centre,"sb\dot.png",0,0 C,0,46963,,255,255,255 F,1,46963,47563,1,0 S,1,46963,47563,1,0.2 MX,1,46963,47563,569,554 MY,1,46963,47563,256,258
Sprite,Foreground,Centre,"sb\dot.png",0,0 C,0,46963,,255,255,255 F,1,46963,47563,1,0 S,1,46963,47563,1,0.2 MX,1,46963,47563,569,555 MY,1,46963,47563,256,230
Sprite,Foreground,Centre,"sb\dot.png",0,0 C,0,46963,,255,255,255 F,1,46963,47563,1,0 S,1,46963,47563,1,0.2 MX,1,46963,47563,569,608 MY,1,46963,47563,256,290
Sprite,Foreground,Centre,"sb\dot.png",0,0 C,0,46963,,255,255,255 F,1,46963,47563,1,0 S,1,46963,47563,1,0.2 MX,1,46963,47563,569,596 MY,1,46963,47563,256,244
Sprite,Foreground,Centre,"sb\dot.png",0,0 C,0,46963,,255,255,255 F,1,46963,47563,1,0 S,1,46963,47563,1,0.2 MX,1,46963,47563,569,573 MY,1,46963,47563,256,246
Sprite,Foreground,Centre,"sb\dot.png",0,0 C,0,46963,,255,255,255 F,1,46963,47563,1,0 S,1,46963,47563,1,0.2 MX,1,46963,47563,569,517 MY,1,46963,47563,256,236
Sprite,Foreground,Centre,"sb\dot.png",0,0 C,0,47291,,255,255,255 F,1,47291,47891,1,0 S,1,47291,47891,1,0.2 MX,1,47291,47891,541,590 MY,1,47291,47891,159,192
Sprite,Foreground,Centre,"sb\dot.png",0,0 C,0,47291,,255,255,255 F,1,47291,47891,1,0 S,1,47291,47891,1,0.2 MX,1,47291,47891,541,559 MY,1,47291,47891,159,197
Sprite,Foreground,Centre,"sb\dot.png",0,0 C,0,47291,,255,255,255 F,1,47291,47891,1,0 S,1,47291,47891,1,0.2 MX,1,47291,47891,541,509 MY,1,47291,47891,159,199
Sprite,Foreground,Centre,"sb\dot.png",0,0 C,0,47291,,255,255,255 F,1,47291,47891,1,0 S,1,47291,47891,1,0.2 MX,1,47291,47891,541,547 MY,1,47291,47891,159,153
Sprite,Foreground,Centre,"sb\dot.png",0,0 C,0,47291,,255,255,255 F,1,47291,47891,1,0 S,1,47291,47891,1,0.2 MX,1,47291,47891,541,570 MY,1,47291,47891,159,185
Sprite,Foreground,Centre,"sb\dot.png",0,0 C,0,47291,,255,255,255 F,1,47291,47891,1,0 S,1,47291,47891,1,0.2 MX,1,47291,47891,541,551 MY,1,47291,47891,159,106
Sprite,Foreground,Centre,"sb\dot.png",0,0 C,0,47291,,255,255,255 F,1,47291,47891,1,0 S,1,47291,47891,1,0.2 MX,1,47291,47891,541,502 MY,1,47291,47891,159,103
Sprite,Foreground,Centre,"sb\dot.png",0,0 C,0,47291,,255,255,255 F,1,47291,47891,1,0 S,1,47291,47891,1,0.2 MX,1,47291,47891,541,587 MY,1,47291,47891,159,177
Sprite,Foreground,Centre,"sb\dot.png",0,0 C,0,47291,,255,255,255 F,1,47291,47891,1,0 S,1,47291,47891,1,0.2 MX,1,47291,47891,541,509 MY,1,47291,47891,159,172
Sprite,Foreground,Centre,"sb\dot.png",0,0 C,0,47291,,255,255,255 F,1,47291,47891,1,0 S,1,47291,47891,1,0.2 MX,1,47291,47891,541,557 MY,1,47291,47891,159,192
Sprite,Foreground,Centre,"sb\dot.png",0,0 C,0,47291,,255,255,255 F,1,47291,47891,1,0 S,1,47291,47891,1,0.2 MX,1,47291,47891,541,592 MY,1,47291,47891,159,104
Sprite,Foreground,Centre,"sb\dot.png",0,0 C,0,47291,,255,255,255 F,1,47291,47891,1,0 S,1,47291,47891,1,0.2 MX,1,47291,47891,541,546 MY,1,47291,47891,159,163
Sprite,Foreground,Centre,"sb\dot.png",0,0 C,0,47291,,255,255,255 F,1,47291,47891,1,0 S,1,47291,47891,1,0.2 MX,1,47291,47891,541,511 MY,1,47291,47891,159,101
Sprite,Foreground,Centre,"sb\dot.png",0,0 C,0,47291,,255,255,255 F,1,47291,47891,1,0 S,1,47291,47891,1,0.2 MX,1,47291,47891,541,501 MY,1,47291,47891,159,107
Sprite,Foreground,Centre,"sb\dot.png",0,0 C,0,47291,,255,255,255 F,1,47291,47891,1,0 S,1,47291,47891,1,0.2 MX,1,47291,47891,541,568 MY,1,47291,47891,159,130
Sprite,Foreground,Centre,"sb\dot.png",0,0 C,0,47291,,255,255,255 F,1,47291,47891,1,0 S,1,47291,47891,1,0.2 MX,1,47291,47891,541,548 MY,1,47291,47891,159,167
Sprite,Foreground,Centre,"sb\dot.png",0,0 C,0,47291,,255,255,255 F,1,47291,47891,1,0 S,1,47291,47891,1,0.2 MX,1,47291,47891,541,554 MY,1,47291,47891,159,185
Sprite,Foreground,Centre,"sb\dot.png",0,0 C,0,47291,,255,255,255 F,1,47291,47891,1,0 S,1,47291,47891,1,0.2 MX,1,47291,47891,541,596 MY,1,47291,47891,159,209
Sprite,Foreground,Centre,"sb\dot.png",0,0 C,0,47291,,255,255,255 F,1,47291,47891,1,0 S,1,47291,47891,1,0.2 MX,1,47291,47891,541,563 MY,1,47291,47891,159,218
Sprite,Foreground,Centre,"sb\dot.png",0,0 C,0,47291,,255,255,255 F,1,47291,47891,1,0 S,1,47291,47891,1,0.2 MX,1,47291,47891,541,565 MY,1,47291,47891,159,180
Sprite,Foreground,Centre,"sb\dot.png",0,0 C,0,47291,,255,255,255 F,1,47291,47891,1,0 S,1,47291,47891,1,0.2 MX,1,47291,47891,541,556 MY,1,47291,47891,159,106
Sprite,Foreground,Centre,"sb\dot.png",0,0 C,0,47291,,255,255,255 F,1,47291,47891,1,0 S,1,47291,47891,1,0.2 MX,1,47291,47891,541,558 MY,1,47291,47891,159,177
Sprite,Foreground,Centre,"sb\dot.png",0,0 C,0,47291,,255,255,255 F,1,47291,47891,1,0 S,1,47291,47891,1,0.2 MX,1,47291,47891,541,592 MY,1,47291,47891,159,137
Sprite,Foreground,Centre,"sb\dot.png",0,0 C,0,47291,,255,255,255 F,1,47291,47891,1,0 S,1,47291,47891,1,0.2 MX,1,47291,47891,541,493 MY,1,47291,47891,159,193
Sprite,Foreground,Centre,"sb\dot.png",0,0 C,0,47291,,255,255,255 F,1,47291,47891,1,0 S,1,47291,47891,1,0.2 MX,1,47291,47891,541,589 MY,1,47291,47891,159,107
Sprite,Foreground,Centre,"sb\dot.png",0,0 C,0,47291,,255,255,255 F,1,47291,47891,1,0 S,1,47291,47891,1,0.2 MX,1,47291,47891,541,501 MY,1,47291,47891,159,210
Sprite,Foreground,Centre,"sb\dot.png",0,0 C,0,47291,,255,255,255 F,1,47291,47891,1,0 S,1,47291,47891,1,0.2 MX,1,47291,47891,541,575 MY,1,47291,47891,159,134
Sprite,Foreground,Centre,"sb\dot.png",0,0 C,0,47291,,255,255,255 F,1,47291,47891,1,0 S,1,47291,47891,1,0.2 MX,1,47291,47891,541,529 MY,1,47291,47891,159,203
Sprite,Foreground,Centre,"sb\dot.png",0,0 C,0,47291,,255,255,255 F,1,47291,47891,1,0 S,1,47291,47891,1,0.2 MX,1,47291,47891,541,508 MY,1,47291,47891,159,113
Sprite,Foreground,Centre,"sb\dot.png",0,0 C,0,47291,,255,255,255 F,1,47291,47891,1,0 S,1,47291,47891,1,0.2 MX,1,47291,47891,541,548 MY,1,47291,47891,159,125
Sprite,Foreground,Centre,"sb\dot.png",0,0 C,0,47619,,255,255,255 F,1,47619,48219,1,0 S,1,47619,48219,1,0.2 MX,1,47619,48219,467,487 MY,1,47619,48219,90,87
Sprite,Foreground,Centre,"sb\dot.png",0,0 C,0,47619,,255,255,255 F,1,47619,48219,1,0 S,1,47619,48219,1,0.2 MX,1,47619,48219,467,494 MY,1,47619,48219,90,87
Sprite,Foreground,Centre,"sb\dot.png",0,0 C,0,47619,,255,255,255 F,1,47619,48219,1,0 S,1,47619,48219,1,0.2 MX,1,47619,48219,467,426 MY,1,47619,48219,90,32
Sprite,Foreground,Centre,"sb\dot.png",0,0 C,0,47619,,255,255,255 F,1,47619,48219,1,0 S,1,47619,48219,1,0.2 MX,1,47619,48219,467,460 MY,1,47619,48219,90,85
Sprite,Foreground,Centre,"sb\dot.png",0,0 C,0,47619,,255,255,255 F,1,47619,48219,1,0 S,1,47619,48219,1,0.2 MX,1,47619,48219,467,415 MY,1,47619,48219,90,145
Sprite,Foreground,Centre,"sb\dot.png",0,0 C,0,47619,,255,255,255 F,1,47619,48219,1,0 S,1,47619,48219,1,0.2 MX,1,47619,48219,467,523 MY,1,47619,48219,90,59
Sprite,Foreground,Centre,"sb\dot.png",0,0 C,0,47619,,255,255,255 F,1,47619,48219,1,0 S,1,47619,48219,1,0.2 MX,1,47619,48219,467,515 MY,1,47619,48219,90,145
Sprite,Foreground,Centre,"sb\dot.png",0,0 C,0,47619,,255,255,255 F,1,47619,48219,1,0 S,1,47619,48219,1,0.2 MX,1,47619,48219,467,425 MY,1,47619,48219,90,134
Sprite,Foreground,Centre,"sb\dot.png",0,0 C,0,47619,,255,255,255 F,1,47619,48219,1,0 S,1,47619,48219,1,0.2 MX,1,47619,48219,467,455 MY,1,47619,48219,90,136
Sprite,Foreground,Centre,"sb\dot.png",0,0 C,0,47619,,255,255,255 F,1,47619,48219,1,0 S,1,47619,48219,1,0.2 MX,1,47619,48219,467,479 MY,1,47619,48219,90,142
Sprite,Foreground,Centre,"sb\dot.png",0,0 C,0,47619,,255,255,255 F,1,47619,48219,1,0 S,1,47619,48219,1,0.2 MX,1,47619,48219,467,516 MY,1,47619,48219,90,75
Sprite,Foreground,Centre,"sb\dot.png",0,0 C,0,47619,,255,255,255 F,1,47619,48219,1,0 S,1,47619,48219,1,0.2 MX,1,47619,48219,467,427 MY,1,47619,48219,90,108
Sprite,Foreground,Centre,"sb\dot.png",0,0 C,0,47619,,255,255,255 F,1,47619,48219,1,0 S,1,47619,48219,1,0.2 MX,1,47619,48219,467,418 MY,1,47619,48219,90,105
Sprite,Foreground,Centre,"sb\dot.png",0,0 C,0,47619,,255,255,255 F,1,47619,48219,1,0 S,1,47619,48219,1,0.2 MX,1,47619,48219,467,501 MY,1,47619,48219,90,68
Sprite,Foreground,Centre,"sb\dot.png",0,0 C,0,47619,,255,255,255 F,1,47619,48219,1,0 S,1,47619,48219,1,0.2 MX,1,47619,48219,467,444 MY,1,47619,48219,90,41
Sprite,Foreground,Centre,"sb\dot.png",0,0 C,0,47619,,255,255,255 F,1,47619,48219,1,0 S,1,47619,48219,1,0.2 MX,1,47619,48219,467,490 MY,1,47619,48219,90,98
Sprite,Foreground,Centre,"sb\dot.png",0,0 C,0,47619,,255,255,255 F,1,47619,48219,1,0 S,1,47619,48219,1,0.2 MX,1,47619,48219,467,458 MY,1,47619,48219,90,88
Sprite,Foreground,Centre,"sb\dot.png",0,0 C,0,47619,,255,255,255 F,1,47619,48219,1,0 S,1,47619,48219,1,0.2 MX,1,47619,48219,467,407 MY,1,47619,48219,90,47
Sprite,Foreground,Centre,"sb\dot.png",0,0 C,0,47619,,255,255,255 F,1,47619,48219,1,0 S,1,47619,48219,1,0.2 MX,1,47619,48219,467,447 MY,1,47619,48219,90,49
Sprite,Foreground,Centre,"sb\dot.png",0,0 C,0,47619,,255,255,255 F,1,47619,48219,1,0 S,1,47619,48219,1,0.2 MX,1,47619,48219,467,466 MY,1,47619,48219,90,139
Sprite,Foreground,Centre,"sb\dot.png",0,0 C,0,47619,,255,255,255 F,1,47619,48219,1,0 S,1,47619,48219,1,0.2 MX,1,47619,48219,467,511 MY,1,47619,48219,90,107
Sprite,Foreground,Centre,"sb\dot.png",0,0 C,0,47619,,255,255,255 F,1,47619,48219,1,0 S,1,47619,48219,1,0.2 MX,1,47619,48219,467,492 MY,1,47619,48219,90,143
Sprite,Foreground,Centre,"sb\dot.png",0,0 C,0,47619,,255,255,255 F,1,47619,48219,1,0 S,1,47619,48219,1,0.2 MX,1,47619,48219,467,419 MY,1,47619,48219,90,140
Sprite,Foreground,Centre,"sb\dot.png",0,0 C,0,47619,,255,255,255 F,1,47619,48219,1,0 S,1,47619,48219,1,0.2 MX,1,47619,48219,467,409 MY,1,47619,48219,90,128
Sprite,Foreground,Centre,"sb\dot.png",0,0 C,0,47619,,255,255,255 F,1,47619,48219,1,0 S,1,47619,48219,1,0.2 MX,1,47619,48219,467,423 MY,1,47619,48219,90,93
Sprite,Foreground,Centre,"sb\dot.png",0,0 C,0,47619,,255,255,255 F,1,47619,48219,1,0 S,1,47619,48219,1,0.2 MX,1,47619,48219,467,463 MY,1,47619,48219,90,70
Sprite,Foreground,Centre,"sb\dot.png",0,0 C,0,47619,,255,255,255 F,1,47619,48219,1,0 S,1,47619,48219,1,0.2 MX,1,47619,48219,467,468 MY,1,47619,48219,90,105
Sprite,Foreground,Centre,"sb\dot.png",0,0 C,0,47619,,255,255,255 F,1,47619,48219,1,0 S,1,47619,48219,1,0.2 MX,1,47619,48219,467,444 MY,1,47619,48219,90,65
Sprite,Foreground,Centre,"sb\dot.png",0,0 C,0,47619,,255,255,255 F,1,47619,48219,1,0 S,1,47619,48219,1,0.2 MX,1,47619,48219,467,444 MY,1,47619,48219,90,38
Sprite,Foreground,Centre,"sb\dot.png",0,0 C,0,47619,,255,255,255 F,1,47619,48219,1,0 S,1,47619,48219,1,0.2 MX,1,47619,48219,467,453 MY,1,47619,48219,90,93
Sprite,Foreground,Centre,"sb\dot.png",0,0 C,0,47947,,255,255,255 F,1,47947,48547,1,0 S,1,47947,48547,1,0.2 MX,1,47947,48547,365,333 MY,1,47947,48547,99,54
Sprite,Foreground,Centre,"sb\dot.png",0,0 C,0,47947,,255,255,255 F,1,47947,48547,1,0 S,1,47947,48547,1,0.2 MX,1,47947,48547,365,323 MY,1,47947,48547,99,156
Sprite,Foreground,Centre,"sb\dot.png",0,0 C,0,47947,,255,255,255 F,1,47947,48547,1,0 S,1,47947,48547,1,0.2 MX,1,47947,48547,365,336 MY,1,47947,48547,99,87
Sprite,Foreground,Centre,"sb\dot.png",0,0 C,0,47947,,255,255,255 F,1,47947,48547,1,0 S,1,47947,48547,1,0.2 MX,1,47947,48547,365,403 MY,1,47947,48547,99,89
Sprite,Foreground,Centre,"sb\dot.png",0,0 C,0,47947,,255,255,255 F,1,47947,48547,1,0 S,1,47947,48547,1,0.2 MX,1,47947,48547,365,419 MY,1,47947,48547,99,40
Sprite,Foreground,Centre,"sb\dot.png",0,0 C,0,47947,,255,255,255 F,1,47947,48547,1,0 S,1,47947,48547,1,0.2 MX,1,47947,48547,365,369 MY,1,47947,48547,99,68
Sprite,Foreground,Centre,"sb\dot.png",0,0 C,0,47947,,255,255,255 F,1,47947,48547,1,0 S,1,47947,48547,1,0.2 MX,1,47947,48547,365,352 MY,1,47947,48547,99,121
Sprite,Foreground,Centre,"sb\dot.png",0,0 C,0,47947,,255,255,255 F,1,47947,48547,1,0 S,1,47947,48547,1,0.2 MX,1,47947,48547,365,312 MY,1,47947,48547,99,71
Sprite,Foreground,Centre,"sb\dot.png",0,0 C,0,47947,,255,255,255 F,1,47947,48547,1,0 S,1,47947,48547,1,0.2 MX,1,47947,48547,365,384 MY,1,47947,48547,99,65
Sprite,Foreground,Centre,"sb\dot.png",0,0 C,0,47947,,255,255,255 F,1,47947,48547,1,0 S,1,47947,48547,1,0.2 MX,1,47947,48547,365,370 MY,1,47947,48547,99,59
Sprite,Foreground,Centre,"sb\dot.png",0,0 C,0,47947,,255,255,255 F,1,47947,48547,1,0 S,1,47947,48547,1,0.2 MX,1,47947,48547,365,378 MY,1,47947,48547,99,154
Sprite,Foreground,Centre,"sb\dot.png",0,0 C,0,47947,,255,255,255 F,1,47947,48547,1,0 S,1,47947,48547,1,0.2 MX,1,47947,48547,365,327 MY,1,47947,48547,99,133
Sprite,Foreground,Centre,"sb\dot.png",0,0 C,0,47947,,255,255,255 F,1,47947,48547,1,0 S,1,47947,48547,1,0.2 MX,1,47947,48547,365,380 MY,1,47947,48547,99,81
Sprite,Foreground,Centre,"sb\dot.png",0,0 C,0,47947,,255,255,255 F,1,47947,48547,1,0 S,1,47947,48547,1,0.2 MX,1,47947,48547,365,311 MY,1,47947,48547,99,134
Sprite,Foreground,Centre,"sb\dot.png",0,0 C,0,47947,,255,255,255 F,1,47947,48547,1,0 S,1,47947,48547,1,0.2 MX,1,47947,48547,365,325 MY,1,47947,48547,99,124
Sprite,Foreground,Centre,"sb\dot.png",0,0 C,0,47947,,255,255,255 F,1,47947,48547,1,0 S,1,47947,48547,1,0.2 MX,1,47947,48547,365,404 MY,1,47947,48547,99,70
Sprite,Foreground,Centre,"sb\dot.png",0,0 C,0,47947,,255,255,255 F,1,47947,48547,1,0 S,1,47947,48547,1,0.2 MX,1,47947,48547,365,397 MY,1,47947,48547,99,154
Sprite,Foreground,Centre,"sb\dot.png",0,0 C,0,47947,,255,255,255 F,1,47947,48547,1,0 S,1,47947,48547,1,0.2 MX,1,47947,48547,365,385 MY,1,47947,48547,99,128
Sprite,Foreground,Centre,"sb\dot.png",0,0 C,0,47947,,255,255,255 F,1,47947,48547,1,0 S,1,47947,48547,1,0.2 MX,1,47947,48547,365,363 MY,1,47947,48547,99,127
Sprite,Foreground,Centre,"sb\dot.png",0,0 C,0,47947,,255,255,255 F,1,47947,48547,1,0 S,1,47947,48547,1,0.2 MX,1,47947,48547,365,386 MY,1,47947,48547,99,123
Sprite,Foreground,Centre,"sb\dot.png",0,0 C,0,47947,,255,255,255 F,1,47947,48547,1,0 S,1,47947,48547,1,0.2 MX,1,47947,48547,365,317 MY,1,47947,48547,99,110
Sprite,Foreground,Centre,"sb\dot.png",0,0 C,0,47947,,255,255,255 F,1,47947,48547,1,0 S,1,47947,48547,1,0.2 MX,1,47947,48547,365,409 MY,1,47947,48547,99,54
Sprite,Foreground,Centre,"sb\dot.png",0,0 C,0,47947,,255,255,255 F,1,47947,48547,1,0 S,1,47947,48547,1,0.2 MX,1,47947,48547,365,423 MY,1,47947,48547,99,65
Sprite,Foreground,Centre,"sb\dot.png",0,0 C,0,47947,,255,255,255 F,1,47947,48547,1,0 S,1,47947,48547,1,0.2 MX,1,47947,48547,365,418 MY,1,47947,48547,99,138
Sprite,Foreground,Centre,"sb\dot.png",0,0 C,0,47947,,255,255,255 F,1,47947,48547,1,0 S,1,47947,48547,1,0.2 MX,1,47947,48547,365,372 MY,1,47947,48547,99,44
Sprite,Foreground,Centre,"sb\dot.png",0,0 C,0,47947,,255,255,255 F,1,47947,48547,1,0 S,1,47947,48547,1,0.2 MX,1,47947,48547,365,381 MY,1,47947,48547,99,50
Sprite,Foreground,Centre,"sb\dot.png",0,0 C,0,47947,,255,255,255 F,1,47947,48547,1,0 S,1,47947,48547,1,0.2 MX,1,47947,48547,365,368 MY,1,47947,48547,99,65
Sprite,Foreground,Centre,"sb\dot.png",0,0 C,0,47947,,255,255,255 F,1,47947,48547,1,0 S,1,47947,48547,1,0.2 MX,1,47947,48547,365,415 MY,1,47947,48547,99,72
Sprite,Foreground,Centre,"sb\dot.png",0,0 C,0,47947,,255,255,255 F,1,47947,48547,1,0 S,1,47947,48547,1,0.2 MX,1,47947,48547,365,417 MY,1,47947,48547,99,82
Sprite,Foreground,Centre,"sb\dot.png",0,0 C,0,47947,,255,255,255 F,1,47947,48547,1,0 S,1,47947,48547,1,0.2 MX,1,47947,48547,365,347 MY,1,47947,48547,99,148
Sprite,Foreground,Centre,"sb\dot.png",0,0 C,0,48603,,255,255,255 F,1,48603,49203,1,0 S,1,48603,49203,1,0.2 MX,1,48603,49203,264,246 MY,1,48603,49203,99,41
Sprite,Foreground,Centre,"sb\dot.png",0,0 C,0,48603,,255,255,255 F,1,48603,49203,1,0 S,1,48603,49203,1,0.2 MX,1,48603,49203,264,234 MY,1,48603,49203,99,67
Sprite,Foreground,Centre,"sb\dot.png",0,0 C,0,48603,,255,255,255 F,1,48603,49203,1,0 S,1,48603,49203,1,0.2 MX,1,48603,49203,264,225 MY,1,48603,49203,99,72
Sprite,Foreground,Centre,"sb\dot.png",0,0 C,0,48603,,255,255,255 F,1,48603,49203,1,0 S,1,48603,49203,1,0.2 MX,1,48603,49203,264,260 MY,1,48603,49203,99,90
Sprite,Foreground,Centre,"sb\dot.png",0,0 C,0,48603,,255,255,255 F,1,48603,49203,1,0 S,1,48603,49203,1,0.2 MX,1,48603,49203,264,205 MY,1,48603,49203,99,76
Sprite,Foreground,Centre,"sb\dot.png",0,0 C,0,48603,,255,255,255 F,1,48603,49203,1,0 S,1,48603,49203,1,0.2 MX,1,48603,49203,264,297 MY,1,48603,49203,99,149
Sprite,Foreground,Centre,"sb\dot.png",0,0 C,0,48603,,255,255,255 F,1,48603,49203,1,0 S,1,48603,49203,1,0.2 MX,1,48603,49203,264,268 MY,1,48603,49203,99,140
Sprite,Foreground,Centre,"sb\dot.png",0,0 C,0,48603,,255,255,255 F,1,48603,49203,1,0 S,1,48603,49203,1,0.2 MX,1,48603,49203,264,211 MY,1,48603,49203,99,40
Sprite,Foreground,Centre,"sb\dot.png",0,0 C,0,48603,,255,255,255 F,1,48603,49203,1,0 S,1,48603,49203,1,0.2 MX,1,48603,49203,264,215 MY,1,48603,49203,99,46
Sprite,Foreground,Centre,"sb\dot.png",0,0 C,0,48603,,255,255,255 F,1,48603,49203,1,0 S,1,48603,49203,1,0.2 MX,1,48603,49203,264,299 MY,1,48603,49203,99,87
Sprite,Foreground,Centre,"sb\dot.png",0,0 C,0,48603,,255,255,255 F,1,48603,49203,1,0 S,1,48603,49203,1,0.2 MX,1,48603,49203,264,253 MY,1,48603,49203,99,66
Sprite,Foreground,Centre,"sb\dot.png",0,0 C,0,48603,,255,255,255 F,1,48603,49203,1,0 S,1,48603,49203,1,0.2 MX,1,48603,49203,264,231 MY,1,48603,49203,99,54
Sprite,Foreground,Centre,"sb\dot.png",0,0 C,0,48603,,255,255,255 F,1,48603,49203,1,0 S,1,48603,49203,1,0.2 MX,1,48603,49203,264,213 MY,1,48603,49203,99,127
Sprite,Foreground,Centre,"sb\dot.png",0,0 C,0,48603,,255,255,255 F,1,48603,49203,1,0 S,1,48603,49203,1,0.2 MX,1,48603,49203,264,292 MY,1,48603,49203,99,105
Sprite,Foreground,Centre,"sb\dot.png",0,0 C,0,48603,,255,255,255 F,1,48603,49203,1,0 S,1,48603,49203,1,0.2 MX,1,48603,49203,264,209 MY,1,48603,49203,99,86
Sprite,Foreground,Centre,"sb\dot.png",0,0 C,0,48603,,255,255,255 F,1,48603,49203,1,0 S,1,48603,49203,1,0.2 MX,1,48603,49203,264,300 MY,1,48603,49203,99,54
Sprite,Foreground,Centre,"sb\dot.png",0,0 C,0,48603,,255,255,255 F,1,48603,49203,1,0 S,1,48603,49203,1,0.2 MX,1,48603,49203,264,250 MY,1,48603,49203,99,131
Sprite,Foreground,Centre,"sb\dot.png",0,0 C,0,48603,,255,255,255 F,1,48603,49203,1,0 S,1,48603,49203,1,0.2 MX,1,48603,49203,264,246 MY,1,48603,49203,99,49
Sprite,Foreground,Centre,"sb\dot.png",0,0 C,0,48603,,255,255,255 F,1,48603,49203,1,0 S,1,48603,49203,1,0.2 MX,1,48603,49203,264,245 MY,1,48603,49203,99,114
Sprite,Foreground,Centre,"sb\dot.png",0,0 C,0,48603,,255,255,255 F,1,48603,49203,1,0 S,1,48603,49203,1,0.2 MX,1,48603,49203,264,317 MY,1,48603,49203,99,124
Sprite,Foreground,Centre,"sb\dot.png",0,0 C,0,48603,,255,255,255 F,1,48603,49203,1,0 S,1,48603,49203,1,0.2 MX,1,48603,49203,264,294 MY,1,48603,49203,99,100
Sprite,Foreground,Centre,"sb\dot.png",0,0 C,0,48603,,255,255,255 F,1,48603,49203,1,0 S,1,48603,49203,1,0.2 MX,1,48603,49203,264,301 MY,1,48603,49203,99,68
Sprite,Foreground,Centre,"sb\dot.png",0,0 C,0,48603,,255,255,255 F,1,48603,49203,1,0 S,1,48603,49203,1,0.2 MX,1,48603,49203,264,236 MY,1,48603,49203,99,124
Sprite,Foreground,Centre,"sb\dot.png",0,0 C,0,48603,,255,255,255 F,1,48603,49203,1,0 S,1,48603,49203,1,0.2 MX,1,48603,49203,264,270 MY,1,48603,49203,99,121
Sprite,Foreground,Centre,"sb\dot.png",0,0 C,0,48603,,255,255,255 F,1,48603,49203,1,0 S,1,48603,49203,1,0.2 MX,1,48603,49203,264,222 MY,1,48603,49203,99,147
Sprite,Foreground,Centre,"sb\dot.png",0,0 C,0,48603,,255,255,255 F,1,48603,49203,1,0 S,1,48603,49203,1,0.2 MX,1,48603,49203,264,225 MY,1,48603,49203,99,144
Sprite,Foreground,Centre,"sb\dot.png",0,0 C,0,48603,,255,255,255 F,1,48603,49203,1,0 S,1,48603,49203,1,0.2 MX,1,48603,49203,264,271 MY,1,48603,49203,99,152
Sprite,Foreground,Centre,"sb\dot.png",0,0 C,0,48603,,255,255,255 F,1,48603,49203,1,0 S,1,48603,49203,1,0.2 MX,1,48603,49203,264 MY,1,48603,49203,99,53
Sprite,Foreground,Centre,"sb\dot.png",0,0 C,0,48603,,255,255,255 F,1,48603,49203,1,0 S,1,48603,49203,1,0.2 MX,1,48603,49203,264,299 MY,1,48603,49203,99,53
Sprite,Foreground,Centre,"sb\dot.png",0,0 C,0,48603,,255,255,255 F,1,48603,49203,1,0 S,1,48603,49203,1,0.2 MX,1,48603,49203,264,223 MY,1,48603,49203,99,92
Sprite,Foreground,Centre,"sb\dot.png",0,0 C,0,49258,,255,255,255 F,1,49258,49858,1,0 S,1,49258,49858,1,0.2 MX,1,49258,49858,112,117 MY,1,49258,49858,162,211
Sprite,Foreground,Centre,"sb\dot.png",0,0 C,0,49258,,255,255,255 F,1,49258,49858,1,0 S,1,49258,49858,1,0.2 MX,1,49258,49858,112,98 MY,1,49258,49858,162,176
Sprite,Foreground,Centre,"sb\dot.png",0,0 C,0,49258,,255,255,255 F,1,49258,49858,1,0 S,1,49258,49858,1,0.2 MX,1,49258,49858,112,113 MY,1,49258,49858,162,179
Sprite,Foreground,Centre,"sb\dot.png",0,0 C,0,49258,,255,255,255 F,1,49258,49858,1,0 S,1,49258,49858,1,0.2 MX,1,49258,49858,112,116 MY,1,49258,49858,162,194
Sprite,Foreground,Centre,"sb\dot.png",0,0 C,0,49258,,255,255,255 F,1,49258,49858,1,0 S,1,49258,49858,1,0.2 MX,1,49258,49858,112,110 MY,1,49258,49858,162,219
Sprite,Foreground,Centre,"sb\dot.png",0,0 C,0,49258,,255,255,255 F,1,49258,49858,1,0 S,1,49258,49858,1,0.2 MX,1,49258,49858,112,132 MY,1,49258,49858,162,157
Sprite,Foreground,Centre,"sb\dot.png",0,0 C,0,49258,,255,255,255 F,1,49258,49858,1,0 S,1,49258,49858,1,0.2 MX,1,49258,49858,112,65 MY,1,49258,49858,162,112
Sprite,Foreground,Centre,"sb\dot.png",0,0 C,0,49258,,255,255,255 F,1,49258,49858,1,0 S,1,49258,49858,1,0.2 MX,1,49258,49858,112,129 MY,1,49258,49858,162,209
Sprite,Foreground,Centre,"sb\dot.png",0,0 C,0,49258,,255,255,255 F,1,49258,49858,1,0 S,1,49258,49858,1,0.2 MX,1,49258,49858,112,101 MY,1,49258,49858,162,219
Sprite,Foreground,Centre,"sb\dot.png",0,0 C,0,49258,,255,255,255 F,1,49258,49858,1,0 S,1,49258,49858,1,0.2 MX,1,49258,49858,112,155 MY,1,49258,49858,162,145
Sprite,Foreground,Centre,"sb\dot.png",0,0 C,0,49258,,255,255,255 F,1,49258,49858,1,0 S,1,49258,49858,1,0.2 MX,1,49258,49858,112,73 MY,1,49258,49858,162,107
Sprite,Foreground,Centre,"sb\dot.png",0,0 C,0,49258,,255,255,255 F,1,49258,49858,1,0 S,1,49258,49858,1,0.2 MX,1,49258,49858,112,99 MY,1,49258,49858,162,119
Sprite,Foreground,Centre,"sb\dot.png",0,0 C,0,49258,,255,255,255 F,1,49258,49858,1,0 S,1,49258,49858,1,0.2 MX,1,49258,49858,112,77 MY,1,49258,49858,162,212
Sprite,Foreground,Centre,"sb\dot.png",0,0 C,0,49258,,255,255,255 F,1,49258,49858,1,0 S,1,49258,49858,1,0.2 MX,1,49258,49858,112,119 MY,1,49258,49858,162,154
Sprite,Foreground,Centre,"sb\dot.png",0,0 C,0,49258,,255,255,255 F,1,49258,49858,1,0 S,1,49258,49858,1,0.2 MX,1,49258,49858,112,84 MY,1,49258,49858,162,129
Sprite,Foreground,Centre,"sb\dot.png",0,0 C,0,49258,,255,255,255 F,1,49258,49858,1,0 S,1,49258,49858,1,0.2 MX,1,49258,49858,112,87 MY,1,49258,49858,162,129
Sprite,Foreground,Centre,"sb\dot.png",0,0 C,0,49258,,255,255,255 F,1,49258,49858,1,0 S,1,49258,49858,1,0.2 MX,1,49258,49858,112,107 MY,1,49258,49858,162,161
Sprite,Foreground,Centre,"sb\dot.png",0,0 C,0,49258,,255,255,255 F,1,49258,49858,1,0 S,1,49258,49858,1,0.2 MX,1,49258,49858,112,71 MY,1,49258,49858,162,202
Sprite,Foreground,Centre,"sb\dot.png",0,0 C,0,49258,,255,255,255 F,1,49258,49858,1,0 S,1,49258,49858,1,0.2 MX,1,49258,49858,112,66 MY,1,49258,49858,162,125
Sprite,Foreground,Centre,"sb\dot.png",0,0 C,0,49258,,255,255,255 F,1,49258,49858,1,0 S,1,49258,49858,1,0.2 MX,1,49258,49858,112,140 MY,1,49258,49858,162,176
Sprite,Foreground,Centre,"sb\dot.png",0,0 C,0,49258,,255,255,255 F,1,49258,49858,1,0 S,1,49258,49858,1,0.2 MX,1,49258,49858,112,72 MY,1,49258,49858,162,196
Sprite,Foreground,Centre,"sb\dot.png",0,0 C,0,49258,,255,255,255 F,1,49258,49858,1,0 S,1,49258,49858,1,0.2 MX,1,49258,49858,112,75 MY,1,49258,49858,162,123
Sprite,Foreground,Centre,"sb\dot.png",0,0 C,0,49258,,255,255,255 F,1,49258,49858,1,0 S,1,49258,49858,1,0.2 MX,1,49258,49858,112,80 MY,1,49258,49858,162,188
Sprite,Foreground,Centre,"sb\dot.png",0,0 C,0,49258,,255,255,255 F,1,49258,49858,1,0 S,1,49258,49858,1,0.2 MX,1,49258,49858,112,143 MY,1,49258,49858,162,158
Sprite,Foreground,Centre,"sb\dot.png",0,0 C,0,49258,,255,255,255 F,1,49258,49858,1,0 S,1,49258,49858,1,0.2 MX,1,49258,49858,112,88 MY,1,49258,49858,162,174
Sprite,Foreground,Centre,"sb\dot.png",0,0 C,0,49258,,255,255,255 F,1,49258,49858,1,0 S,1,49258,49858,1,0.2 MX,1,49258,49858,112,136 MY,1,49258,49858,162,199
Sprite,Foreground,Centre,"sb\dot.png",0,0 C,0,49258,,255,255,255 F,1,49258,49858,1,0 S,1,49258,49858,1,0.2 MX,1,49258,49858,112,83 MY,1,49258,49858,162,198
Sprite,Foreground,Centre,"sb\dot.png",0,0 C,0,49258,,255,255,255 F,1,49258,49858,1,0 S,1,49258,49858,1,0.2 MX,1,49258,49858,112,83 MY,1,49258,49858,162,161
Sprite,Foreground,Centre,"sb\dot.png",0,0 C,0,49258,,255,255,255 F,1,49258,49858,1,0 S,1,49258,49858,1,0.2 MX,1,49258,49858,112,114 MY,1,49258,49858,162,131
Sprite,Foreground,Centre,"sb\dot.png",0,0 C,0,49258,,255,255,255 F,1,49258,49858,1,0 S,1,49258,49858,1,0.2 MX,1,49258,49858,112,100 MY,1,49258,49858,162,172
Sprite,Foreground,Centre,"sb\dot.png",0,0 C,0,49914,,255,255,255 F,1,49914,50514,1,0 S,1,49914,50514,1,0.2 MX,1,49914,50514,130,80 MY,1,49914,50514,260,212
Sprite,Foreground,Centre,"sb\dot.png",0,0 C,0,49914,,255,255,255 F,1,49914,50514,1,0 S,1,49914,50514,1,0.2 MX,1,49914,50514,130 MY,1,49914,50514,260,231
Sprite,Foreground,Centre,"sb\dot.png",0,0 C,0,49914,,255,255,255 F,1,49914,50514,1,0 S,1,49914,50514,1,0.2 MX,1,49914,50514,130,151 MY,1,49914,50514,260,253
Sprite,Foreground,Centre,"sb\dot.png",0,0 C,0,49914,,255,255,255 F,1,49914,50514,1,0 S,1,49914,50514,1,0.2 MX,1,49914,50514,130,70 MY,1,49914,50514,260,274
Sprite,Foreground,Centre,"sb\dot.png",0,0 C,0,49914,,255,255,255 F,1,49914,50514,1,0 S,1,49914,50514,1,0.2 MX,1,49914,50514,130,181 MY,1,49914,50514,260,296
Sprite,Foreground,Centre,"sb\dot.png",0,0 C,0,49914,,255,255,255 F,1,49914,50514,1,0 S,1,49914,50514,1,0.2 MX,1,49914,50514,130,163 MY,1,49914,50514,260,226
Sprite,Foreground,Centre,"sb\dot.png",0,0 C,0,49914,,255,255,255 F,1,49914,50514,1,0 S,1,49914,50514,1,0.2 MX,1,49914,50514,130,98 MY,1,49914,50514,260,229
Sprite,Foreground,Centre,"sb\dot.png",0,0 C,0,49914,,255,255,255 F,1,49914,50514,1,0 S,1,49914,50514,1,0.2 MX,1,49914,50514,130,92 MY,1,49914,50514,260,247
Sprite,Foreground,Centre,"sb\dot.png",0,0 C,0,49914,,255,255,255 F,1,49914,50514,1,0 S,1,49914,50514,1,0.2 MX,1,49914,50514,130,172 MY,1,49914,50514,260,225
Sprite,Foreground,Centre,"sb\dot.png",0,0 C,0,49914,,255,255,255 F,1,49914,50514,1,0 S,1,49914,50514,1,0.2 MX,1,49914,50514,130,178 MY,1,49914,50514,260,259
Sprite,Foreground,Centre,"sb\dot.png",0,0 C,0,49914,,255,255,255 F,1,49914,50514,1,0 S,1,49914,50514,1,0.2 MX,1,49914,50514,130,89 MY,1,49914,50514,260,210
Sprite,Foreground,Centre,"sb\dot.png",0,0 C,0,49914,,255,255,255 F,1,49914,50514,1,0 S,1,49914,50514,1,0.2 MX,1,49914,50514,130,86 MY,1,49914,50514,260,279
Sprite,Foreground,Centre,"sb\dot.png",0,0 C,0,49914,,255,255,255 F,1,49914,50514,1,0 S,1,49914,50514,1,0.2 MX,1,49914,50514,130,132 MY,1,49914,50514,260,257
Sprite,Foreground,Centre,"sb\dot.png",0,0 C,0,49914,,255,255,255 F,1,49914,50514,1,0 S,1,49914,50514,1,0.2 MX,1,49914,50514,130,185 MY,1,49914,50514,260,279
Sprite,Foreground,Centre,"sb\dot.png",0,0 C,0,49914,,255,255,255 F,1,49914,50514,1,0 S,1,49914,50514,1,0.2 MX,1,49914,50514,130,97 MY,1,49914,50514,260,280
Sprite,Foreground,Centre,"sb\dot.png",0,0 C,0,49914,,255,255,255 F,1,49914,50514,1,0 S,1,49914,50514,1,0.2 MX,1,49914,50514,130,108 MY,1,49914,50514,260,305
Sprite,Foreground,Centre,"sb\dot.png",0,0 C,0,49914,,255,255,255 F,1,49914,50514,1,0 S,1,49914,50514,1,0.2 MX,1,49914,50514,130,165 MY,1,49914,50514,260,218
Sprite,Foreground,Centre,"sb\dot.png",0,0 C,0,49914,,255,255,255 F,1,49914,50514,1,0 S,1,49914,50514,1,0.2 MX,1,49914,50514,130,133 MY,1,49914,50514,260,208
Sprite,Foreground,Centre,"sb\dot.png",0,0 C,0,49914,,255,255,255 F,1,49914,50514,1,0 S,1,49914,50514,1,0.2 MX,1,49914,50514,130,103 MY,1,49914,50514,260,312
Sprite,Foreground,Centre,"sb\dot.png",0,0 C,0,49914,,255,255,255 F,1,49914,50514,1,0 S,1,49914,50514,1,0.2 MX,1,49914,50514,130 MY,1,49914,50514,260,295
Sprite,Foreground,Centre,"sb\dot.png",0,0 C,0,49914,,255,255,255 F,1,49914,50514,1,0 S,1,49914,50514,1,0.2 MX,1,49914,50514,130,156 MY,1,49914,50514,260,217
Sprite,Foreground,Centre,"sb\dot.png",0,0 C,0,49914,,255,255,255 F,1,49914,50514,1,0 S,1,49914,50514,1,0.2 MX,1,49914,50514,130,135 MY,1,49914,50514,260,259
Sprite,Foreground,Centre,"sb\dot.png",0,0 C,0,49914,,255,255,255 F,1,49914,50514,1,0 S,1,49914,50514,1,0.2 MX,1,49914,50514,130,169 MY,1,49914,50514,260,258
Sprite,Foreground,Centre,"sb\dot.png",0,0 C,0,49914,,255,255,255 F,1,49914,50514,1,0 S,1,49914,50514,1,0.2 MX,1,49914,50514,130,138 MY,1,49914,50514,260,201
Sprite,Foreground,Centre,"sb\dot.png",0,0 C,0,49914,,255,255,255 F,1,49914,50514,1,0 S,1,49914,50514,1,0.2 MX,1,49914,50514,130,143 MY,1,49914,50514,260,304
Sprite,Foreground,Centre,"sb\dot.png",0,0 C,0,49914,,255,255,255 F,1,49914,50514,1,0 S,1,49914,50514,1,0.2 MX,1,49914,50514,130,147 MY,1,49914,50514,260,236
Sprite,Foreground,Centre,"sb\dot.png",0,0 C,0,49914,,255,255,255 F,1,49914,50514,1,0 S,1,49914,50514,1,0.2 MX,1,49914,50514,130,110 MY,1,49914,50514,260,308
Sprite,Foreground,Centre,"sb\dot.png",0,0 C,0,49914,,255,255,255 F,1,49914,50514,1,0 S,1,49914,50514,1,0.2 MX,1,49914,50514,130,121 MY,1,49914,50514,260,200
Sprite,Foreground,Centre,"sb\dot.png",0,0 C,0,49914,,255,255,255 F,1,49914,50514,1,0 S,1,49914,50514,1,0.2 MX,1,49914,50514,130,186 MY,1,49914,50514,260,300
Sprite,Foreground,Centre,"sb\dot.png",0,0 C,0,49914,,255,255,255 F,1,49914,50514,1,0 S,1,49914,50514,1,0.2 MX,1,49914,50514,130,158 MY,1,49914,50514,260,223
Sprite,Foreground,Centre,"sb\dot.png",0,0 C,0,50241,,255,255,255 F,1,50241,50841,1,0 S,1,50241,50841,1,0.2 MX,1,50241,50841,228,225 MY,1,50241,50841,274,254
Sprite,Foreground,Centre,"sb\dot.png",0,0 C,0,50241,,255,255,255 F,1,50241,50841,1,0 S,1,50241,50841,1,0.2 MX,1,50241,50841,228,215 MY,1,50241,50841,274,245
Sprite,Foreground,Centre,"sb\dot.png",0,0 C,0,50241,,255,255,255 F,1,50241,50841,1,0 S,1,50241,50841,1,0.2 MX,1,50241,50841,228,225 MY,1,50241,50841,274,321
Sprite,Foreground,Centre,"sb\dot.png",0,0 C,0,50241,,255,255,255 F,1,50241,50841,1,0 S,1,50241,50841,1,0.2 MX,1,50241,50841,228,219 MY,1,50241,50841,274,224
Sprite,Foreground,Centre,"sb\dot.png",0,0 C,0,50241,,255,255,255 F,1,50241,50841,1,0 S,1,50241,50841,1,0.2 MX,1,50241,50841,228,253 MY,1,50241,50841,274,228
Sprite,Foreground,Centre,"sb\dot.png",0,0 C,0,50241,,255,255,255 F,1,50241,50841,1,0 S,1,50241,50841,1,0.2 MX,1,50241,50841,228,181 MY,1,50241,50841,274,323
Sprite,Foreground,Centre,"sb\dot.png",0,0 C,0,50241,,255,255,255 F,1,50241,50841,1,0 S,1,50241,50841,1,0.2 MX,1,50241,50841,228,253 MY,1,50241,50841,274,227
Sprite,Foreground,Centre,"sb\dot.png",0,0 C,0,50241,,255,255,255 F,1,50241,50841,1,0 S,1,50241,50841,1,0.2 MX,1,50241,50841,228,261 MY,1,50241,50841,274,215
Sprite,Foreground,Centre,"sb\dot.png",0,0 C,0,50241,,255,255,255 F,1,50241,50841,1,0 S,1,50241,50841,1,0.2 MX,1,50241,50841,228,232 MY,1,50241,50841,274,290
Sprite,Foreground,Centre,"sb\dot.png",0,0 C,0,50241,,255,255,255 F,1,50241,50841,1,0 S,1,50241,50841,1,0.2 MX,1,50241,50841,228,268 MY,1,50241,50841,274,218
Sprite,Foreground,Centre,"sb\dot.png",0,0 C,0,50241,,255,255,255 F,1,50241,50841,1,0 S,1,50241,50841,1,0.2 MX,1,50241,50841,228,277 MY,1,50241,50841,274,327
Sprite,Foreground,Centre,"sb\dot.png",0,0 C,0,50241,,255,255,255 F,1,50241,50841,1,0 S,1,50241,50841,1,0.2 MX,1,50241,50841,228,173 MY,1,50241,50841,274,257
Sprite,Foreground,Centre,"sb\dot.png",0,0 C,0,50241,,255,255,255 F,1,50241,50841,1,0 S,1,50241,50841,1,0.2 MX,1,50241,50841,228,170 MY,1,50241,50841,274,216
Sprite,Foreground,Centre,"sb\dot.png",0,0 C,0,50241,,255,255,255 F,1,50241,50841,1,0 S,1,50241,50841,1,0.2 MX,1,50241,50841,228,232 MY,1,50241,50841,274,320
Sprite,Foreground,Centre,"sb\dot.png",0,0 C,0,50241,,255,255,255 F,1,50241,50841,1,0 S,1,50241,50841,1,0.2 MX,1,50241,50841,228,255 MY,1,50241,50841,274,277
Sprite,Foreground,Centre,"sb\dot.png",0,0 C,0,50241,,255,255,255 F,1,50241,50841,1,0 S,1,50241,50841,1,0.2 MX,1,50241,50841,228,180 MY,1,50241,50841,274,267
Sprite,Foreground,Centre,"sb\dot.png",0,0 C,0,50241,,255,255,255 F,1,50241,50841,1,0 S,1,50241,50841,1,0.2 MX,1,50241,50841,228,191 MY,1,50241,50841,274,250
Sprite,Foreground,Centre,"sb\dot.png",0,0 C,0,50241,,255,255,255 F,1,50241,50841,1,0 S,1,50241,50841,1,0.2 MX,1,50241,50841,228,205 MY,1,50241,50841,274,259
Sprite,Foreground,Centre,"sb\dot.png",0,0 C,0,50241,,255,255,255 F,1,50241,50841,1,0 S,1,50241,50841,1,0.2 MX,1,50241,50841,228,258 MY,1,50241,50841,274,248
Sprite,Foreground,Centre,"sb\dot.png",0,0 C,0,50241,,255,255,255 F,1,50241,50841,1,0 S,1,50241,50841,1,0.2 MX,1,50241,50841,228,169 MY,1,50241,50841,274,325
Sprite,Foreground,Centre,"sb\dot.png",0,0 C,0,50241,,255,255,255 F,1,50241,50841,1,0 S,1,50241,50841,1,0.2 MX,1,50241,50841,228,174 MY,1,50241,50841,274,272
Sprite,Foreground,Centre,"sb\dot.png",0,0 C,0,50241,,255,255,255 F,1,50241,50841,1,0 S,1,50241,50841,1,0.2 MX,1,50241,50841,228,204 MY,1,50241,50841,274,273
Sprite,Foreground,Centre,"sb\dot.png",0,0 C,0,50241,,255,255,255 F,1,50241,50841,1,0 S,1,50241,50841,1,0.2 MX,1,50241,50841,228,258 MY,1,50241,50841,274,301
Sprite,Foreground,Centre,"sb\dot.png",0,0 C,0,50241,,255,255,255 F,1,50241,50841,1,0 S,1,50241,50841,1,0.2 MX,1,50241,50841,228,238 MY,1,50241,50841,274,240
Sprite,Foreground,Centre,"sb\dot.png",0,0 C,0,50241,,255,255,255 F,1,50241,50841,1,0 S,1,50241,50841,1,0.2 MX,1,50241,50841,228,182 MY,1,50241,50841,274,263
Sprite,Foreground,Centre,"sb\dot.png",0,0 C,0,50241,,255,255,255 F,1,50241,50841,1,0 S,1,50241,50841,1,0.2 MX,1,50241,50841,228,223 MY,1,50241,50841,274,253
Sprite,Foreground,Centre,"sb\dot.png",0,0 C,0,50241,,255,255,255 F,1,50241,50841,1,0 S,1,50241,50841,1,0.2 MX,1,50241,50841,228,168 MY,1,50241,50841,274,298
Sprite,Foreground,Centre,"sb\dot.png",0,0 C,0,50241,,255,255,255 F,1,50241,50841,1,0 S,1,50241,50841,1,0.2 MX,1,50241,50841,228,202 MY,1,50241,50841,274,277
Sprite,Foreground,Centre,"sb\dot.png",0,0 C,0,50241,,255,255,255 F,1,50241,50841,1,0 S,1,50241,50841,1,0.2 MX,1,50241,50841,228,203 MY,1,50241,50841,274,217
Sprite,Foreground,Centre,"sb\dot.png",0,0 C,0,50241,,255,255,255 F,1,50241,50841,1,0 S,1,50241,50841,1,0.2 MX,1,50241,50841,228,196 MY,1,50241,50841,274,269
Sprite,Foreground,Centre,"sb\dot.png",0,0 C,0,50569,,255,255,255 F,1,50569,51169,1,0 S,1,50569,51169,1,0.2 MX,1,50569,51169,242,225 MY,1,50569,51169,373,378
Sprite,Foreground,Centre,"sb\dot.png",0,0 C,0,50569,,255,255,255 F,1,50569,51169,1,0 S,1,50569,51169,1,0.2 MX,1,50569,51169,242,225 MY,1,50569,51169,373,334
Sprite,Foreground,Centre,"sb\dot.png",0,0 C,0,50569,,255,255,255 F,1,50569,51169,1,0 S,1,50569,51169,1,0.2 MX,1,50569,51169,242,184 MY,1,50569,51169,373,393
Sprite,Foreground,Centre,"sb\dot.png",0,0 C,0,50569,,255,255,255 F,1,50569,51169,1,0 S,1,50569,51169,1,0.2 MX,1,50569,51169,242,267 MY,1,50569,51169,373,362
Sprite,Foreground,Centre,"sb\dot.png",0,0 C,0,50569,,255,255,255 F,1,50569,51169,1,0 S,1,50569,51169,1,0.2 MX,1,50569,51169,242,277 MY,1,50569,51169,373,361
Sprite,Foreground,Centre,"sb\dot.png",0,0 C,0,50569,,255,255,255 F,1,50569,51169,1,0 S,1,50569,51169,1,0.2 MX,1,50569,51169,242,213 MY,1,50569,51169,373,342
Sprite,Foreground,Centre,"sb\dot.png",0,0 C,0,50569,,255,255,255 F,1,50569,51169,1,0 S,1,50569,51169,1,0.2 MX,1,50569,51169,242,256 MY,1,50569,51169,373,422
Sprite,Foreground,Centre,"sb\dot.png",0,0 C,0,50569,,255,255,255 F,1,50569,51169,1,0 S,1,50569,51169,1,0.2 MX,1,50569,51169,242,300 MY,1,50569,51169,373,364
Sprite,Foreground,Centre,"sb\dot.png",0,0 C,0,50569,,255,255,255 F,1,50569,51169,1,0 S,1,50569,51169,1,0.2 MX,1,50569,51169,242,259 MY,1,50569,51169,373,379
Sprite,Foreground,Centre,"sb\dot.png",0,0 C,0,50569,,255,255,255 F,1,50569,51169,1,0 S,1,50569,51169,1,0.2 MX,1,50569,51169,242,254 MY,1,50569,51169,373,348
Sprite,Foreground,Centre,"sb\dot.png",0,0 C,0,50569,,255,255,255 F,1,50569,51169,1,0 S,1,50569,51169,1,0.2 MX,1,50569,51169,242,233 MY,1,50569,51169,373,350
Sprite,Foreground,Centre,"sb\dot.png",0,0 C,0,50569,,255,255,255 F,1,50569,51169,1,0 S,1,50569,51169,1,0.2 MX,1,50569,51169,242,273 MY,1,50569,51169,373,350
Sprite,Foreground,Centre,"sb\dot.png",0,0 C,0,50569,,255,255,255 F,1,50569,51169,1,0 S,1,50569,51169,1,0.2 MX,1,50569,51169,242,190 MY,1,50569,51169,373,405
Sprite,Foreground,Centre,"sb\dot.png",0,0 C,0,50569,,255,255,255 F,1,50569,51169,1,0 S,1,50569,51169,1,0.2 MX,1,50569,51169,242,235 MY,1,50569,51169,373,372
Sprite,Foreground,Centre,"sb\dot.png",0,0 C,0,50569,,255,255,255 F,1,50569,51169,1,0 S,1,50569,51169,1,0.2 MX,1,50569,51169,242,183 MY,1,50569,51169,373,407
Sprite,Foreground,Centre,"sb\dot.png",0,0 C,0,50569,,255,255,255 F,1,50569,51169,1,0 S,1,50569,51169,1,0.2 MX,1,50569,51169,242,192 MY,1,50569,51169,373,399
Sprite,Foreground,Centre,"sb\dot.png",0,0 C,0,50569,,255,255,255 F,1,50569,51169,1,0 S,1,50569,51169,1,0.2 MX,1,50569,51169,242,188 MY,1,50569,51169,373,379
Sprite,Foreground,Centre,"sb\dot.png",0,0 C,0,50569,,255,255,255 F,1,50569,51169,1,0 S,1,50569,51169,1,0.2 MX,1,50569,51169,242,250 MY,1,50569,51169,373,374
Sprite,Foreground,Centre,"sb\dot.png",0,0 C,0,50569,,255,255,255 F,1,50569,51169,1,0 S,1,50569,51169,1,0.2 MX,1,50569,51169,242,196 MY,1,50569,51169,373,327
Sprite,Foreground,Centre,"sb\dot.png",0,0 C,0,50569,,255,255,255 F,1,50569,51169,1,0 S,1,50569,51169,1,0.2 MX,1,50569,51169,242,238 MY,1,50569,51169,373,322
Sprite,Foreground,Centre,"sb\dot.png",0,0 C,0,50569,,255,255,255 F,1,50569,51169,1,0 S,1,50569,51169,1,0.2 MX,1,50569,51169,242,183 MY,1,50569,51169,373,334
Sprite,Foreground,Centre,"sb\dot.png",0,0 C,0,50569,,255,255,255 F,1,50569,51169,1,0 S,1,50569,51169,1,0.2 MX,1,50569,51169,242,233 MY,1,50569,51169,373,399
Sprite,Foreground,Centre,"sb\dot.png",0,0 C,0,50569,,255,255,255 F,1,50569,51169,1,0 S,1,50569,51169,1,0.2 MX,1,50569,51169,242,199 MY,1,50569,51169,373,338
Sprite,Foreground,Centre,"sb\dot.png",0,0 C,0,50569,,255,255,255 F,1,50569,51169,1,0 S,1,50569,51169,1,0.2 MX,1,50569,51169,242,266 MY,1,50569,51169,373,323
Sprite,Foreground,Centre,"sb\dot.png",0,0 C,0,50569,,255,255,255 F,1,50569,51169,1,0 S,1,50569,51169,1,0.2 MX,1,50569,51169,242,267 MY,1,50569,51169,373,416
Sprite,Foreground,Centre,"sb\dot.png",0,0 C,0,50569,,255,255,255 F,1,50569,51169,1,0 S,1,50569,51169,1,0.2 MX,1,50569,51169,242,287 MY,1,50569,51169,373,401
Sprite,Foreground,Centre,"sb\dot.png",0,0 C,0,50569,,255,255,255 F,1,50569,51169,1,0 S,1,50569,51169,1,0.2 MX,1,50569,51169,242,232 MY,1,50569,51169,373,426
Sprite,Foreground,Centre,"sb\dot.png",0,0 C,0,50569,,255,255,255 F,1,50569,51169,1,0 S,1,50569,51169,1,0.2 MX,1,50569,51169,242,186 MY,1,50569,51169,373,318
Sprite,Foreground,Centre,"sb\dot.png",0,0 C,0,50569,,255,255,255 F,1,50569,51169,1,0 S,1,50569,51169,1,0.2 MX,1,50569,51169,242,275 MY,1,50569,51169,373,318
Sprite,Foreground,Centre,"sb\dot.png",0,0 C,0,50569,,255,255,255 F,1,50569,51169,1,0 S,1,50569,51169,1,0.2 MX,1,50569,51169,242,195 MY,1,50569,51169,373,343
Sprite,Foreground,Centre,"sb\dot.png",0,0 C,0,51226,,255,255,255 F,1,51226,51826,1,0 S,1,51226,51826,1,0.2 MX,1,51226,51826,325,292 MY,1,51226,51826,429,394
Sprite,Foreground,Centre,"sb\dot.png",0,0 C,0,51226,,255,255,255 F,1,51226,51826,1,0 S,1,51226,51826,1,0.2 MX,1,51226,51826,325,313 MY,1,51226,51826,429,369
Sprite,Foreground,Centre,"sb\dot.png",0,0 C,0,51226,,255,255,255 F,1,51226,51826,1,0 S,1,51226,51826,1,0.2 MX,1,51226,51826,325,303 MY,1,51226,51826,429,434
Sprite,Foreground,Centre,"sb\dot.png",0,0 C,0,51226,,255,255,255 F,1,51226,51826,1,0 S,1,51226,51826,1,0.2 MX,1,51226,51826,325,288 MY,1,51226,51826,429,377
Sprite,Foreground,Centre,"sb\dot.png",0,0 C,0,51226,,255,255,255 F,1,51226,51826,1,0 S,1,51226,51826,1,0.2 MX,1,51226,51826,325,305 MY,1,51226,51826,429,425
Sprite,Foreground,Centre,"sb\dot.png",0,0 C,0,51226,,255,255,255 F,1,51226,51826,1,0 S,1,51226,51826,1,0.2 MX,1,51226,51826,325,301 MY,1,51226,51826,429,431
Sprite,Foreground,Centre,"sb\dot.png",0,0 C,0,51226,,255,255,255 F,1,51226,51826,1,0 S,1,51226,51826,1,0.2 MX,1,51226,51826,325,275 MY,1,51226,51826,429,432
Sprite,Foreground,Centre,"sb\dot.png",0,0 C,0,51226,,255,255,255 F,1,51226,51826,1,0 S,1,51226,51826,1,0.2 MX,1,51226,51826,325,298 MY,1,51226,51826,429,398
Sprite,Foreground,Centre,"sb\dot.png",0,0 C,0,51226,,255,255,255 F,1,51226,51826,1,0 S,1,51226,51826,1,0.2 MX,1,51226,51826,325,371 MY,1,51226,51826,429,374
Sprite,Foreground,Centre,"sb\dot.png",0,0 C,0,51226,,255,255,255 F,1,51226,51826,1,0 S,1,51226,51826,1,0.2 MX,1,51226,51826,325,284 MY,1,51226,51826,429,471
Sprite,Foreground,Centre,"sb\dot.png",0,0 C,0,51226,,255,255,255 F,1,51226,51826,1,0 S,1,51226,51826,1,0.2 MX,1,51226,51826,325,272 MY,1,51226,51826,429,411
Sprite,Foreground,Centre,"sb\dot.png",0,0 C,0,51226,,255,255,255 F,1,51226,51826,1,0 S,1,51226,51826,1,0.2 MX,1,51226,51826,325,359 MY,1,51226,51826,429,386
Sprite,Foreground,Centre,"sb\dot.png",0,0 C,0,51226,,255,255,255 F,1,51226,51826,1,0 S,1,51226,51826,1,0.2 MX,1,51226,51826,325,374 MY,1,51226,51826,429,410
Sprite,Foreground,Centre,"sb\dot.png",0,0 C,0,51226,,255,255,255 F,1,51226,51826,1,0 S,1,51226,51826,1,0.2 MX,1,51226,51826,325,300 MY,1,51226,51826,429,382
Sprite,Foreground,Centre,"sb\dot.png",0,0 C,0,51226,,255,255,255 F,1,51226,51826,1,0 S,1,51226,51826,1,0.2 MX,1,51226,51826,325,326 MY,1,51226,51826,429,431
Sprite,Foreground,Centre,"sb\dot.png",0,0 C,0,51226,,255,255,255 F,1,51226,51826,1,0 S,1,51226,51826,1,0.2 MX,1,51226,51826,325,352 MY,1,51226,51826,429,377
Sprite,Foreground,Centre,"sb\dot.png",0,0 C,0,51226,,255,255,255 F,1,51226,51826,1,0 S,1,51226,51826,1,0.2 MX,1,51226,51826,325,265 MY,1,51226,51826,429,395
Sprite,Foreground,Centre,"sb\dot.png",0,0 C,0,51226,,255,255,255 F,1,51226,51826,1,0 S,1,51226,51826,1,0.2 MX,1,51226,51826,325,367 MY,1,51226,51826,429,464
Sprite,Foreground,Centre,"sb\dot.png",0,0 C,0,51226,,255,255,255 F,1,51226,51826,1,0 S,1,51226,51826,1,0.2 MX,1,51226,51826,325,358 MY,1,51226,51826,429,419
Sprite,Foreground,Centre,"sb\dot.png",0,0 C,0,51226,,255,255,255 F,1,51226,51826,1,0 S,1,51226,51826,1,0.2 MX,1,51226,51826,325,312 MY,1,51226,51826,429,441
Sprite,Foreground,Centre,"sb\dot.png",0,0 C,0,51226,,255,255,255 F,1,51226,51826,1,0 S,1,51226,51826,1,0.2 MX,1,51226,51826,325,267 MY,1,51226,51826,429,445
Sprite,Foreground,Centre,"sb\dot.png",0,0 C,0,51226,,255,255,255 F,1,51226,51826,1,0 S,1,51226,51826,1,0.2 MX,1,51226,51826,325,354 MY,1,51226,51826,429,397
Sprite,Foreground,Centre,"sb\dot.png",0,0 C,0,51226,,255,255,255 F,1,51226,51826,1,0 S,1,51226,51826,1,0.2 MX,1,51226,51826,325,332 MY,1,51226,51826,429,411
Sprite,Foreground,Centre,"sb\dot.png",0,0 C,0,51226,,255,255,255 F,1,51226,51826,1,0 S,1,51226,51826,1,0.2 MX,1,51226,51826,325,343 MY,1,51226,51826,429,476
Sprite,Foreground,Centre,"sb\dot.png",0,0 C,0,51226,,255,255,255 F,1,51226,51826,1,0 S,1,51226,51826,1,0.2 MX,1,51226,51826,325,344 MY,1,51226,51826,429,463
Sprite,Foreground,Centre,"sb\dot.png",0,0 C,0,51226,,255,255,255 F,1,51226,51826,1,0 S,1,51226,51826,1,0.2 MX,1,51226,51826,325,283 MY,1,51226,51826,429,456
Sprite,Foreground,Centre,"sb\dot.png",0,0 C,0,51226,,255,255,255 F,1,51226,51826,1,0 S,1,51226,51826,1,0.2 MX,1,51226,51826,325,371 MY,1,51226,51826,429,400
Sprite,Foreground,Centre,"sb\dot.png",0,0 C,0,51226,,255,255,255 F,1,51226,51826,1,0 S,1,51226,51826,1,0.2 MX,1,51226,51826,325,287 MY,1,51226,51826,429,474
Sprite,Foreground,Centre,"sb\dot.png",0,0 C,0,51226,,255,255,255 F,1,51226,51826,1,0 S,1,51226,51826,1,0.2 MX,1,51226,51826,325,316 MY,1,51226,51826,429,399
Sprite,Foreground,Centre,"sb\dot.png",0,0 C,0,51226,,255,255,255 F,1,51226,51826,1,0 S,1,51226,51826,1,0.2 MX,1,51226,51826,325,276 MY,1,51226,51826,429,485
Sprite,Foreground,Centre,"sb\dot.png",0,0 C,0,51881,,255,255,255 F,1,51881,52481,1,0 S,1,51881,52481,1,0.2 MX,1,51881,52481,510,480 MY,1,51881,52481,372,322
Sprite,Foreground,Centre,"sb\dot.png",0,0 C,0,51881,,255,255,255 F,1,51881,52481,1,0 S,1,51881,52481,1,0.2 MX,1,51881,52481,510,516 MY,1,51881,52481,372,410
Sprite,Foreground,Centre,"sb\dot.png",0,0 C,0,51881,,255,255,255 F,1,51881,52481,1,0 S,1,51881,52481,1,0.2 MX,1,51881,52481,510,539 MY,1,51881,52481,372,339
Sprite,Foreground,Centre,"sb\dot.png",0,0 C,0,51881,,255,255,255 F,1,51881,52481,1,0 S,1,51881,52481,1,0.2 MX,1,51881,52481,510,512 MY,1,51881,52481,372,415
Sprite,Foreground,Centre,"sb\dot.png",0,0 C,0,51881,,255,255,255 F,1,51881,52481,1,0 S,1,51881,52481,1,0.2 MX,1,51881,52481,510,531 MY,1,51881,52481,372,369
Sprite,Foreground,Centre,"sb\dot.png",0,0 C,0,51881,,255,255,255 F,1,51881,52481,1,0 S,1,51881,52481,1,0.2 MX,1,51881,52481,510,506 MY,1,51881,52481,372,368
Sprite,Foreground,Centre,"sb\dot.png",0,0 C,0,51881,,255,255,255 F,1,51881,52481,1,0 S,1,51881,52481,1,0.2 MX,1,51881,52481,510,527 MY,1,51881,52481,372,379
Sprite,Foreground,Centre,"sb\dot.png",0,0 C,0,51881,,255,255,255 F,1,51881,52481,1,0 S,1,51881,52481,1,0.2 MX,1,51881,52481,510,550 MY,1,51881,52481,372,363
Sprite,Foreground,Centre,"sb\dot.png",0,0 C,0,51881,,255,255,255 F,1,51881,52481,1,0 S,1,51881,52481,1,0.2 MX,1,51881,52481,510,522 MY,1,51881,52481,372,377
Sprite,Foreground,Centre,"sb\dot.png",0,0 C,0,51881,,255,255,255 F,1,51881,52481,1,0 S,1,51881,52481,1,0.2 MX,1,51881,52481,510,520 MY,1,51881,52481,372,378
Sprite,Foreground,Centre,"sb\dot.png",0,0 C,0,51881,,255,255,255 F,1,51881,52481,1,0 S,1,51881,52481,1,0.2 MX,1,51881,52481,510,533 MY,1,51881,52481,372,359
Sprite,Foreground,Centre,"sb\dot.png",0,0 C,0,51881,,255,255,255 F,1,51881,52481,1,0 S,1,51881,52481,1,0.2 MX,1,51881,52481,510,503 MY,1,51881,52481,372,399
Sprite,Foreground,Centre,"sb\dot.png",0,0 C,0,51881,,255,255,255 F,1,51881,52481,1,0 S,1,51881,52481,1,0.2 MX,1,51881,52481,510,493 MY,1,51881,52481,372,312
Sprite,Foreground,Centre,"sb\dot.png",0,0 C,0,51881,,255,255,255 F,1,51881,52481,1,0 S,1,51881,52481,1,0.2 MX,1,51881,52481,510,472 MY,1,51881,52481,372,401
Sprite,Foreground,Centre,"sb\dot.png",0,0 C,0,51881,,255,255,255 F,1,51881,52481,1,0 S,1,51881,52481,1,0.2 MX,1,51881,52481,510,453 MY,1,51881,52481,372,429
Sprite,Foreground,Centre,"sb\dot.png",0,0 C,0,51881,,255,255,255 F,1,51881,52481,1,0 S,1,51881,52481,1,0.2 MX,1,51881,52481,510,494 MY,1,51881,52481,372,374
Sprite,Foreground,Centre,"sb\dot.png",0,0 C,0,51881,,255,255,255 F,1,51881,52481,1,0 S,1,51881,52481,1,0.2 MX,1,51881,52481,510,488 MY,1,51881,52481,372,363
Sprite,Foreground,Centre,"sb\dot.png",0,0 C,0,51881,,255,255,255 F,1,51881,52481,1,0 S,1,51881,52481,1,0.2 MX,1,51881,52481,510,492 MY,1,51881,52481,372,424
Sprite,Foreground,Centre,"sb\dot.png",0,0 C,0,51881,,255,255,255 F,1,51881,52481,1,0 S,1,51881,52481,1,0.2 MX,1,51881,52481,510,459 MY,1,51881,52481,372,423
Sprite,Foreground,Centre,"sb\dot.png",0,0 C,0,51881,,255,255,255 F,1,51881,52481,1,0 S,1,51881,52481,1,0.2 MX,1,51881,52481,510,509 MY,1,51881,52481,372,351
Sprite,Foreground,Centre,"sb\dot.png",0,0 C,0,51881,,255,255,255 F,1,51881,52481,1,0 S,1,51881,52481,1,0.2 MX,1,51881,52481,510,550 MY,1,51881,52481,372,406
Sprite,Foreground,Centre,"sb\dot.png",0,0 C,0,51881,,255,255,255 F,1,51881,52481,1,0 S,1,51881,52481,1,0.2 MX,1,51881,52481,510,476 MY,1,51881,52481,372,333
Sprite,Foreground,Centre,"sb\dot.png",0,0 C,0,51881,,255,255,255 F,1,51881,52481,1,0 S,1,51881,52481,1,0.2 MX,1,51881,52481,510,487 MY,1,51881,52481,372,394
Sprite,Foreground,Centre,"sb\dot.png",0,0 C,0,51881,,255,255,255 F,1,51881,52481,1,0 S,1,51881,52481,1,0.2 MX,1,51881,52481,510,459 MY,1,51881,52481,372,351
Sprite,Foreground,Centre,"sb\dot.png",0,0 C,0,51881,,255,255,255 F,1,51881,52481,1,0 S,1,51881,52481,1,0.2 MX,1,51881,52481,510,500 MY,1,51881,52481,372,403
Sprite,Foreground,Centre,"sb\dot.png",0,0 C,0,51881,,255,255,255 F,1,51881,52481,1,0 S,1,51881,52481,1,0.2 MX,1,51881,52481,510,482 MY,1,51881,52481,372,418
Sprite,Foreground,Centre,"sb\dot.png",0,0 C,0,51881,,255,255,255 F,1,51881,52481,1,0 S,1,51881,52481,1,0.2 MX,1,51881,52481,510,530 MY,1,51881,52481,372,376
Sprite,Foreground,Centre,"sb\dot.png",0,0 C,0,51881,,255,255,255 F,1,51881,52481,1,0 S,1,51881,52481,1,0.2 MX,1,51881,52481,510,483 MY,1,51881,52481,372,414
Sprite,Foreground,Centre,"sb\dot.png",0,0 C,0,51881,,255,255,255 F,1,51881,52481,1,0 S,1,51881,52481,1,0.2 MX,1,51881,52481,510,526 MY,1,51881,52481,372,411
Sprite,Foreground,Centre,"sb\dot.png",0,0 C,0,51881,,255,255,255 F,1,51881,52481,1,0 S,1,51881,52481,1,0.2 MX,1,51881,52481,510,504 MY,1,51881,52481,372,400
Sprite,Foreground,Centre,"sb\dot.png",0,0 C,0,52209,,255,255,255 F,1,52209,52809,1,0 S,1,52209,52809,1,0.2 MX,1,52209,52809,531,475 MY,1,52209,52809,274,306
Sprite,Foreground,Centre,"sb\dot.png",0,0 C,0,52209,,255,255,255 F,1,52209,52809,1,0 S,1,52209,52809,1,0.2 MX,1,52209,52809,531,570 MY,1,52209,52809,274,297
Sprite,Foreground,Centre,"sb\dot.png",0,0 C,0,52209,,255,255,255 F,1,52209,52809,1,0 S,1,52209,52809,1,0.2 MX,1,52209,52809,531,484 MY,1,52209,52809,274,327
Sprite,Foreground,Centre,"sb\dot.png",0,0 C,0,52209,,255,255,255 F,1,52209,52809,1,0 S,1,52209,52809,1,0.2 MX,1,52209,52809,531,488 MY,1,52209,52809,274,240
Sprite,Foreground,Centre,"sb\dot.png",0,0 C,0,52209,,255,255,255 F,1,52209,52809,1,0 S,1,52209,52809,1,0.2 MX,1,52209,52809,531,495 MY,1,52209,52809,274,322
Sprite,Foreground,Centre,"sb\dot.png",0,0 C,0,52209,,255,255,255 F,1,52209,52809,1,0 S,1,52209,52809,1,0.2 MX,1,52209,52809,531,512 MY,1,52209,52809,274,294
Sprite,Foreground,Centre,"sb\dot.png",0,0 C,0,52209,,255,255,255 F,1,52209,52809,1,0 S,1,52209,52809,1,0.2 MX,1,52209,52809,531,476 MY,1,52209,52809,274,244
Sprite,Foreground,Centre,"sb\dot.png",0,0 C,0,52209,,255,255,255 F,1,52209,52809,1,0 S,1,52209,52809,1,0.2 MX,1,52209,52809,531,557 MY,1,52209,52809,274,322
Sprite,Foreground,Centre,"sb\dot.png",0,0 C,0,52209,,255,255,255 F,1,52209,52809,1,0 S,1,52209,52809,1,0.2 MX,1,52209,52809,531,492 MY,1,52209,52809,274,246
Sprite,Foreground,Centre,"sb\dot.png",0,0 C,0,52209,,255,255,255 F,1,52209,52809,1,0 S,1,52209,52809,1,0.2 MX,1,52209,52809,531,521 MY,1,52209,52809,274,295
Sprite,Foreground,Centre,"sb\dot.png",0,0 C,0,52209,,255,255,255 F,1,52209,52809,1,0 S,1,52209,52809,1,0.2 MX,1,52209,52809,531,581 MY,1,52209,52809,274,317
Sprite,Foreground,Centre,"sb\dot.png",0,0 C,0,52209,,255,255,255 F,1,52209,52809,1,0 S,1,52209,52809,1,0.2 MX,1,52209,52809,531,510 MY,1,52209,52809,274,246
Sprite,Foreground,Centre,"sb\dot.png",0,0 C,0,52209,,255,255,255 F,1,52209,52809,1,0 S,1,52209,52809,1,0.2 MX,1,52209,52809,531,555 MY,1,52209,52809,274,271
Sprite,Foreground,Centre,"sb\dot.png",0,0 C,0,52209,,255,255,255 F,1,52209,52809,1,0 S,1,52209,52809,1,0.2 MX,1,52209,52809,531,573 MY,1,52209,52809,274,307
Sprite,Foreground,Centre,"sb\dot.png",0,0 C,0,52209,,255,255,255 F,1,52209,52809,1,0 S,1,52209,52809,1,0.2 MX,1,52209,52809,531,489 MY,1,52209,52809,274
Sprite,Foreground,Centre,"sb\dot.png",0,0 C,0,52209,,255,255,255 F,1,52209,52809,1,0 S,1,52209,52809,1,0.2 MX,1,52209,52809,531,507 MY,1,52209,52809,274,244
Sprite,Foreground,Centre,"sb\dot.png",0,0 C,0,52209,,255,255,255 F,1,52209,52809,1,0 S,1,52209,52809,1,0.2 MX,1,52209,52809,531,527 MY,1,52209,52809,274,304
Sprite,Foreground,Centre,"sb\dot.png",0,0 C,0,52209,,255,255,255 F,1,52209,52809,1,0 S,1,52209,52809,1,0.2 MX,1,52209,52809,531,506 MY,1,52209,52809,274,222
Sprite,Foreground,Centre,"sb\dot.png",0,0 C,0,52209,,255,255,255 F,1,52209,52809,1,0 S,1,52209,52809,1,0.2 MX,1,52209,52809,531,586 MY,1,52209,52809,274,276
Sprite,Foreground,Centre,"sb\dot.png",0,0 C,0,52209,,255,255,255 F,1,52209,52809,1,0 S,1,52209,52809,1,0.2 MX,1,52209,52809,531,478 MY,1,52209,52809,274,257
Sprite,Foreground,Centre,"sb\dot.png",0,0 C,0,52209,,255,255,255 F,1,52209,52809,1,0 S,1,52209,52809,1,0.2 MX,1,52209,52809,531,535 MY,1,52209,52809,274,317
Sprite,Foreground,Centre,"sb\dot.png",0,0 C,0,52209,,255,255,255 F,1,52209,52809,1,0 S,1,52209,52809,1,0.2 MX,1,52209,52809,531,485 MY,1,52209,52809,274,276
Sprite,Foreground,Centre,"sb\dot.png",0,0 C,0,52209,,255,255,255 F,1,52209,52809,1,0 S,1,52209,52809,1,0.2 MX,1,52209,52809,531,520 MY,1,52209,52809,274,286
Sprite,Foreground,Centre,"sb\dot.png",0,0 C,0,52209,,255,255,255 F,1,52209,52809,1,0 S,1,52209,52809,1,0.2 MX,1,52209,52809,531,572 MY,1,52209,52809,274,264
Sprite,Foreground,Centre,"sb\dot.png",0,0 C,0,52209,,255,255,255 F,1,52209,52809,1,0 S,1,52209,52809,1,0.2 MX,1,52209,52809,531,569 MY,1,52209,52809,274,258
Sprite,Foreground,Centre,"sb\dot.png",0,0 C,0,52209,,255,255,255 F,1,52209,52809,1,0 S,1,52209,52809,1,0.2 MX,1,52209,52809,531,552 MY,1,52209,52809,274,257
Sprite,Foreground,Centre,"sb\dot.png",0,0 C,0,52209,,255,255,255 F,1,52209,52809,1,0 S,1,52209,52809,1,0.2 MX,1,52209,52809,531,519 MY,1,52209,52809,274,307
Sprite,Foreground,Centre,"sb\dot.png",0,0 C,0,52209,,255,255,255 F,1,52209,52809,1,0 S,1,52209,52809,1,0.2 MX,1,52209,52809,531,569 MY,1,52209,52809,274,235
Sprite,Foreground,Centre,"sb\dot.png",0,0 C,0,52209,,255,255,255 F,1,52209,52809,1,0 S,1,52209,52809,1,0.2 MX,1,52209,52809,531,523 MY,1,52209,52809,274,281
Sprite,Foreground,Centre,"sb\dot.png",0,0 C,0,52209,,255,255,255 F,1,52209,52809,1,0 S,1,52209,52809,1,0.2 MX,1,52209,52809,531,590 MY,1,52209,52809,274,290
Sprite,Foreground,Centre,"sb\DiffByAJT.png",320,240 M,0,43357,,320,240 F,0,43357,43685,0,1 S,0,43357,44914,0.7498183 F,0,43685,44914,1 F,0,44914,44996,1,0 S,0,44914,44996,0.7498183,1.186182
//Storyboard Layer 4 (Overlay)
//Storyboard Sound Samples

[TimingPoints]
1390,327.868852459016,4,2,1,50,1,0
11553,-100,4,2,1,50,0,0
22209,-100,4,2,1,50,0,0
32209,-100,4,2,1,50,0,0
32455,-100,4,2,1,5,0,0
32537,-100,4,2,1,50,0,0
32865,-90.9090909090909,4,2,1,60,0,1
43357,-100,4,2,1,60,0,0
53274,-100,4,2,1,5,0,0
53356,-100,4,2,1,60,0,0
53602,-100,4,2,1,5,0,0
53684,-100,4,2,1,50,0,0
74422,-100,4,2,1,5,0,0
74504,-100,4,2,1,50,0,0
74832,-90.9090909090909,4,2,1,60,0,1
85160,-100,4,2,1,50,0,0
85324,-100,4,2,1,50,0,0

[Colours]
Combo1 : 124,202,231
Combo2 : 218,103,106
Combo3 : 51,174,221
Combo4 : 225,221,40

[HitObjects]
256,192,9258,12,2,10570,0:0:0:0:
134,44,11881,6,0,P|82:42|38:67,2,100,0|8|0,1:0|0:0|1:0,0:0:0:0:
202,117,12865,1,8,0:0:0:0:
287,65,13193,2,0,P|339:63|383:88,1,100,0|8,1:0|0:0,0:0:0:0:
437,167,13849,1,0,1:0:0:0:
369,240,14176,1,8,0:0:0:0:
404,333,14504,2,0,B|308:374|308:374|234:307,1,200,0|0,1:0|1:0,0:0:0:0:
138,292,15488,1,8,0:0:0:0:
60,355,15816,1,0,1:0:0:0:
13,160,16471,6,0,P|11:108|36:64,1,100,0|8,1:0|0:0,0:0:0:0:
128,35,17127,2,0,P|180:33|224:58,1,100,0|8,1:0|0:0,0:0:0:0:
183,148,17783,1,0,1:0:0:0:
145,240,18111,1,8,0:0:0:0:
212,314,18439,2,0,P|264:316|308:291,1,100,0|8,1:0|0:0,0:0:0:0:
402,318,19094,2,0,P|438:355|487:368,2,100,0|8|0,1:0|0:0|1:0,0:0:0:0:
372,221,20078,1,8,0:0:0:0:
443,150,20406,6,0,P|441:98|397:67,1,100,0|8,1:0|0:0,0:0:0:0:
318,19,21062,1,0,1:0:0:0:
240,81,21389,1,8,0:0:0:0:
142,57,21717,2,0,P|68:42|47:134,1,150,2|2,0:0|0:0,0:0:0:0:
256,192,27455,5,2,0:0:0:0:
256,192,27619,12,2,31553,0:0:0:0:
30,263,32865,6,0,P|79:237|131:242,1,110.000003356934,4|8,1:0|0:0,0:0:0:0:
237,210,33521,1,0,1:0:0:0:
184,113,33849,1,8,0:0:0:0:
257,31,34176,2,0,P|306:5|358:10,1,110.000003356934,0|8,1:0|0:0,0:0:0:0:
435,89,34832,2,0,P|468:90|502:78,2,55.0000016784668,0|0|8,1:0|0:0|0:0,0:0:0:0:
360,170,35488,1,0,1:0:0:0:
293,257,35816,1,8,0:0:0:0:
335,358,36144,2,0,P|368:359|402:347,2,55.0000016784668,0|0|8,1:0|0:0|0:0,0:0:0:0:
225,371,36799,2,0,B|189:338|151:375|117:352,1,110.000003356934,0|8,1:0|0:0,0:0:0:0:
36,291,37455,1,0,1:0:0:0:
80,190,37783,1,8,0:0:0:0:
34,89,38111,6,0,P|83:63|135:68,1,110.000003356934,0|8,1:0|0:0,0:0:0:0:
245,55,38767,2,0,P|246:22|234:-12,2,55.0000016784668,0|0|8,1:0|0:0|0:0,0:0:0:0:
224,163,39422,2,0,P|198:212|203:264,1,110.000003356934,0|8,1:0|0:0,0:0:0:0:
273,349,40078,1,0,1:0:0:0:
383,347,40406,1,8,0:0:0:0:
454,262,40734,2,0,P|466:207|448:159,2,110.000003356934,0|8|0,1:0|0:0|1:0,0:0:0:0:
383,347,41717,1,8,0:0:0:0:
273,349,42045,1,0,1:0:0:0:
104,207,42701,2,0,P|51:216|-4:188,1,110.000003356934,2|8,0:0|0:0,0:0:0:0:
48,102,43357,6,0,P|92:80|141:84,1,100,4|8,1:0|0:0,0:0:0:0:
240,67,44012,2,0,P|246:45|241:2,2,50,0|0|8,1:0|0:0|0:0,0:0:0:0:
308,140,44668,1,0,1:0:0:0:
302,239,44995,1,8,0:0:0:0:
232,310,45323,2,0,P|210:304|167:309,2,50,0|0|8,1:0|0:0|0:0,0:0:0:0:
321,356,45980,6,0,P|365:378|414:374,1,100,0|8,1:0|0:0,0:0:0:0:
478,297,46635,1,0,1:0:0:0:
505,200,46963,1,8,0:0:0:0:
477,103,47291,1,0,1:0:0:0:
403,34,47619,1,8,0:0:0:0:
301,43,47947,2,0,P|291:75|293:103,2,50,0|2|8,1:0|0:0|0:0,0:0:0:0:
200,43,48603,6,0,P|156:21|107:25,1,100,0|8,1:0|0:0,0:0:0:0:
48,106,49258,2,0,P|26:100|-17:105,2,50,0|0|8,1:0|0:0|0:0,0:0:0:0:
66,204,49914,1,0,1:0:0:0:
164,218,50241,1,8,0:0:0:0:
178,317,50569,2,0,P|158:329|116:336,2,50,0|0|8,1:0|0:0|0:0,0:0:0:0:
261,373,51226,6,0,P|305:351|354:355,1,100,0|8,1:0|0:0,0:0:0:0:
446,316,51881,1,0,1:0:0:0:
467,218,52209,1,8,0:0:0:0:
374,179,52537,1,2,0:0:0:0:
220,50,53193,2,0,P|175:33|143:68,1,100,0|0,1:0|1:0,0:0:0:0:
123,165,53849,6,0,P|71:163|27:188,2,100,0|8|0,1:0|0:0|1:0,0:0:0:0:
183,245,54833,1,8,0:0:0:0:
281,229,55161,2,0,P|333:227|377:252,1,100,0|8,1:0|0:0,0:0:0:0:
429,332,55817,1,0,1:0:0:0:
338,373,56144,1,8,0:0:0:0:
24,123,57456,1,8,0:0:0:0:
90,48,57784,1,0,1:0:0:0:
288,28,58439,6,0,B|337:15|337:15|384:51,1,100,0|8,1:0|0:0,0:0:0:0:
457,100,59095,2,0,P|459:152|434:196,1,100,0|8,1:0|0:0,0:0:0:0:
183,354,60407,2,0,P|131:356|87:331,1,100,0|8,1:0|0:0,0:0:0:0:
82,233,61062,2,0,P|45:197|32:148,2,100,0|8|0,1:0|0:0|1:0,0:0:0:0:
181,246,62046,1,8,0:0:0:0:
254,177,62374,6,0,P|306:179|337:223,1,100,0|8,1:0|0:0,0:0:0:0:
336,314,63030,1,0,1:0:0:0:
427,353,63357,1,8,0:0:0:0:
478,267,63685,2,0,P|493:193|501:90,1,150,2|2,0:0|0:0,0:0:0:0:
256,192,69423,5,2,0:0:0:0:
256,192,69587,12,2,73521,0:0:0:0:
512,360,74833,6,0,L|499:243,1,110.000003356934,4|8,1:0|0:0,0:0:0:0:
392,275,75489,1,0,1:0:0:0:
384,165,75817,1,8,0:0:0:0:
343,63,76144,2,0,P|294:37|242:42,1,110.000003356934,0|8,1:0|0:0,0:0:0:0:
135,74,76800,2,0,P|102:75|68:63,2,55.0000016784668,0|0|8,1:0|0:0|0:0,0:0:0:0:
211,153,77456,1,0,1:0:0:0:
238,259,77784,1,8,0:0:0:0:
315,336,78112,2,0,P|348:335|382:347,2,55.0000016784668,0|0|8,1:0|0:0|0:0,0:0:0:0:
214,380,78767,2,0,B|178:347|140:384|106:361,1,110.000003356934,0|8,1:0|0:0,0:0:0:0:
36,279,79423,1,0,1:0:0:0:
91,183,79751,1,8,0:0:0:0:
48,81,80079,6,0,P|97:55|149:60,1,110.000003356934,0|8,1:0|0:0,0:0:0:0:
256,32,80735,2,0,P|289:31|323:43,2,55.0000016784668,0|0|8,1:0|0:0|0:0,0:0:0:0:
276,140,81390,2,0,P|302:189|297:241,1,110.000003356934,0|8,1:0|0:0,0:0:0:0:
274,349,82046,1,0,1:0:0:0:
164,361,82374,1,8,0:0:0:0:
84,284,82702,2,0,P|72:229|90:181,2,110.000003356934,0|8|0,1:0|0:0|1:0,0:0:0:0:
164,361,83685,1,8,0:0:0:0:
274,349,84013,1,2,0:3:0:0:
341,139,84669,6,0,P|394:130|427:207,1,110.000003356934,2|0,0:0|0:0,0:0:0:0:
418,216,85160,1,2,0:0:0:0:
0,48,86635,1,2,0:0:0:0:
512,336,87947,1,2,0:0:0:0:
411,338,88275,1,8,0:0:0:0:
351,257,88603,1,2,0:0:0:0:
386,163,88930,1,8,0:0:0:0:
481,131,89258,1,4,0:0:0:0:
256,192,89422,12,0,90898,0:0:0:0:
