osu file format v14

[General]
AudioFilename: audio.mp3
AudioLeadIn: 0
PreviewTime: 27291
Countdown: 0
SampleSet: Soft
StackLeniency: 0.5
Mode: 0
LetterboxInBreaks: 0
EpilepsyWarning: 1
WidescreenStoryboard: 1

[Editor]
DistanceSpacing: 1.5
BeatDivisor: 4
GridSize: 16
TimelineZoom: 3.899997

[Metadata]
Title:Acapulco (Sped Up Ver.)
TitleUnicode:Acapulco (Sped Up Ver.)
Artist:Jason Derulo
ArtistUnicode:Jason Derulo
Creator:AJT
Version:Apollo's Insane
Source:
Tags:english dance electronic nightcore beach pop apo11o apollo mrowswares hhjkl wetdog123 ziin tachibana_ euryalle sheesh
BeatmapID:3474599
BeatmapSetID:1699922

[Difficulty]
HPDrainRate:5
CircleSize:3.4
OverallDifficulty:8.1
ApproachRate:8.6
SliderMultiplier:1.4
SliderTickRate:1

[Events]
//Background and Video events
0,0,"bg.jpg",0,0
//Break Periods
//Storyboard Layer 0 (Background)
//Storyboard Layer 1 (Fail)
//Storyboard Layer 2 (Pass)
//Storyboard Layer 3 (Foreground)
Sprite,Foreground,Centre,"sb\dot.png",0,0 C,0,43357,,255,255,255 F,1,43357,43957,1,0 S,1,43357,43957,1,0.2 MX,1,43357,43957,411,438 MY,1,43357,43957,102,140
Sprite,Foreground,Centre,"sb\dot.png",0,0 C,0,43357,,255,255,255 F,1,43357,43957,1,0 S,1,43357,43957,1,0.2 MX,1,43357,43957,411,443 MY,1,43357,43957,102,108
Sprite,Foreground,Centre,"sb\dot.png",0,0 C,0,43357,,255,255,255 F,1,43357,43957,1,0 S,1,43357,43957,1,0.2 MX,1,43357,43957,411,375 MY,1,43357,43957,102,109
Sprite,Foreground,Centre,"sb\dot.png",0,0 C,0,43357,,255,255,255 F,1,43357,43957,1,0 S,1,43357,43957,1,0.2 MX,1,43357,43957,411,459 MY,1,43357,43957,102,95
Sprite,Foreground,Centre,"sb\dot.png",0,0 C,0,43357,,255,255,255 F,1,43357,43957,1,0 S,1,43357,43957,1,0.2 MX,1,43357,43957,411,468 MY,1,43357,43957,102,74
Sprite,Foreground,Centre,"sb\dot.png",0,0 C,0,43357,,255,255,255 F,1,43357,43957,1,0 S,1,43357,43957,1,0.2 MX,1,43357,43957,411,386 MY,1,43357,43957,102,98
Sprite,Foreground,Centre,"sb\dot.png",0,0 C,0,43357,,255,255,255 F,1,43357,43957,1,0 S,1,43357,43957,1,0.2 MX,1,43357,43957,411,426 MY,1,43357,43957,102,98
Sprite,Foreground,Centre,"sb\dot.png",0,0 C,0,43357,,255,255,255 F,1,43357,43957,1,0 S,1,43357,43957,1,0.2 MX,1,43357,43957,411,468 MY,1,43357,43957,102,45
Sprite,Foreground,Centre,"sb\dot.png",0,0 C,0,43357,,255,255,255 F,1,43357,43957,1,0 S,1,43357,43957,1,0.2 MX,1,43357,43957,411,454 MY,1,43357,43957,102,161
Sprite,Foreground,Centre,"sb\dot.png",0,0 C,0,43357,,255,255,255 F,1,43357,43957,1,0 S,1,43357,43957,1,0.2 MX,1,43357,43957,411,432 MY,1,43357,43957,102,79
Sprite,Foreground,Centre,"sb\dot.png",0,0 C,0,43357,,255,255,255 F,1,43357,43957,1,0 S,1,43357,43957,1,0.2 MX,1,43357,43957,411,449 MY,1,43357,43957,102,143
Sprite,Foreground,Centre,"sb\dot.png",0,0 C,0,43357,,255,255,255 F,1,43357,43957,1,0 S,1,43357,43957,1,0.2 MX,1,43357,43957,411,470 MY,1,43357,43957,102,45
Sprite,Foreground,Centre,"sb\dot.png",0,0 C,0,43357,,255,255,255 F,1,43357,43957,1,0 S,1,43357,43957,1,0.2 MX,1,43357,43957,411,434 MY,1,43357,43957,102,105
Sprite,Foreground,Centre,"sb\dot.png",0,0 C,0,43357,,255,255,255 F,1,43357,43957,1,0 S,1,43357,43957,1,0.2 MX,1,43357,43957,411,463 MY,1,43357,43957,102,124
Sprite,Foreground,Centre,"sb\dot.png",0,0 C,0,43357,,255,255,255 F,1,43357,43957,1,0 S,1,43357,43957,1,0.2 MX,1,43357,43957,411,416 MY,1,43357,43957,102,51
Sprite,Foreground,Centre,"sb\dot.png",0,0 C,0,43357,,255,255,255 F,1,43357,43957,1,0 S,1,43357,43957,1,0.2 MX,1,43357,43957,411,373 MY,1,43357,43957,102,96
Sprite,Foreground,Centre,"sb\dot.png",0,0 C,0,43357,,255,255,255 F,1,43357,43957,1,0 S,1,43357,43957,1,0.2 MX,1,43357,43957,411,386 MY,1,43357,43957,102,160
Sprite,Foreground,Centre,"sb\dot.png",0,0 C,0,43357,,255,255,255 F,1,43357,43957,1,0 S,1,43357,43957,1,0.2 MX,1,43357,43957,411,428 MY,1,43357,43957,102,133
Sprite,Foreground,Centre,"sb\dot.png",0,0 C,0,43357,,255,255,255 F,1,43357,43957,1,0 S,1,43357,43957,1,0.2 MX,1,43357,43957,411,354 MY,1,43357,43957,102,87
Sprite,Foreground,Centre,"sb\dot.png",0,0 C,0,43357,,255,255,255 F,1,43357,43957,1,0 S,1,43357,43957,1,0.2 MX,1,43357,43957,411,392 MY,1,43357,43957,102,156
Sprite,Foreground,Centre,"sb\dot.png",0,0 C,0,43357,,255,255,255 F,1,43357,43957,1,0 S,1,43357,43957,1,0.2 MX,1,43357,43957,411 MY,1,43357,43957,102,127
Sprite,Foreground,Centre,"sb\dot.png",0,0 C,0,43357,,255,255,255 F,1,43357,43957,1,0 S,1,43357,43957,1,0.2 MX,1,43357,43957,411,365 MY,1,43357,43957,102,74
Sprite,Foreground,Centre,"sb\dot.png",0,0 C,0,43357,,255,255,255 F,1,43357,43957,1,0 S,1,43357,43957,1,0.2 MX,1,43357,43957,411,459 MY,1,43357,43957,102,137
Sprite,Foreground,Centre,"sb\dot.png",0,0 C,0,43357,,255,255,255 F,1,43357,43957,1,0 S,1,43357,43957,1,0.2 MX,1,43357,43957,411,391 MY,1,43357,43957,102,96
Sprite,Foreground,Centre,"sb\dot.png",0,0 C,0,43357,,255,255,255 F,1,43357,43957,1,0 S,1,43357,43957,1,0.2 MX,1,43357,43957,411,368 MY,1,43357,43957,102,68
Sprite,Foreground,Centre,"sb\dot.png",0,0 C,0,43357,,255,255,255 F,1,43357,43957,1,0 S,1,43357,43957,1,0.2 MX,1,43357,43957,411,400 MY,1,43357,43957,102,128
Sprite,Foreground,Centre,"sb\dot.png",0,0 C,0,43357,,255,255,255 F,1,43357,43957,1,0 S,1,43357,43957,1,0.2 MX,1,43357,43957,411,425 MY,1,43357,43957,102,100
Sprite,Foreground,Centre,"sb\dot.png",0,0 C,0,43357,,255,255,255 F,1,43357,43957,1,0 S,1,43357,43957,1,0.2 MX,1,43357,43957,411,374 MY,1,43357,43957,102,147
Sprite,Foreground,Centre,"sb\dot.png",0,0 C,0,43357,,255,255,255 F,1,43357,43957,1,0 S,1,43357,43957,1,0.2 MX,1,43357,43957,411,450 MY,1,43357,43957,102,130
Sprite,Foreground,Centre,"sb\dot.png",0,0 C,0,43357,,255,255,255 F,1,43357,43957,1,0 S,1,43357,43957,1,0.2 MX,1,43357,43957,411,453 MY,1,43357,43957,102,123
Sprite,Foreground,Centre,"sb\dot.png",0,0 C,0,43849,,255,255,255 F,1,43849,44449,1,0 S,1,43849,44449,1,0.2 MX,1,43849,44449,89,103 MY,1,43849,44449,144,110
Sprite,Foreground,Centre,"sb\dot.png",0,0 C,0,43849,,255,255,255 F,1,43849,44449,1,0 S,1,43849,44449,1,0.2 MX,1,43849,44449,89,136 MY,1,43849,44449,144,191
Sprite,Foreground,Centre,"sb\dot.png",0,0 C,0,43849,,255,255,255 F,1,43849,44449,1,0 S,1,43849,44449,1,0.2 MX,1,43849,44449,89,39 MY,1,43849,44449,144,184
Sprite,Foreground,Centre,"sb\dot.png",0,0 C,0,43849,,255,255,255 F,1,43849,44449,1,0 S,1,43849,44449,1,0.2 MX,1,43849,44449,89,49 MY,1,43849,44449,144,161
Sprite,Foreground,Centre,"sb\dot.png",0,0 C,0,43849,,255,255,255 F,1,43849,44449,1,0 S,1,43849,44449,1,0.2 MX,1,43849,44449,89,128 MY,1,43849,44449,144,110
Sprite,Foreground,Centre,"sb\dot.png",0,0 C,0,43849,,255,255,255 F,1,43849,44449,1,0 S,1,43849,44449,1,0.2 MX,1,43849,44449,89,148 MY,1,43849,44449,144,141
Sprite,Foreground,Centre,"sb\dot.png",0,0 C,0,43849,,255,255,255 F,1,43849,44449,1,0 S,1,43849,44449,1,0.2 MX,1,43849,44449,89,107 MY,1,43849,44449,144,170
Sprite,Foreground,Centre,"sb\dot.png",0,0 C,0,43849,,255,255,255 F,1,43849,44449,1,0 S,1,43849,44449,1,0.2 MX,1,43849,44449,89,126 MY,1,43849,44449,144,96
Sprite,Foreground,Centre,"sb\dot.png",0,0 C,0,43849,,255,255,255 F,1,43849,44449,1,0 S,1,43849,44449,1,0.2 MX,1,43849,44449,89,116 MY,1,43849,44449,144,170
Sprite,Foreground,Centre,"sb\dot.png",0,0 C,0,43849,,255,255,255 F,1,43849,44449,1,0 S,1,43849,44449,1,0.2 MX,1,43849,44449,89,44 MY,1,43849,44449,144,192
Sprite,Foreground,Centre,"sb\dot.png",0,0 C,0,43849,,255,255,255 F,1,43849,44449,1,0 S,1,43849,44449,1,0.2 MX,1,43849,44449,89,51 MY,1,43849,44449,144,141
Sprite,Foreground,Centre,"sb\dot.png",0,0 C,0,43849,,255,255,255 F,1,43849,44449,1,0 S,1,43849,44449,1,0.2 MX,1,43849,44449,89,93 MY,1,43849,44449,144,123
Sprite,Foreground,Centre,"sb\dot.png",0,0 C,0,43849,,255,255,255 F,1,43849,44449,1,0 S,1,43849,44449,1,0.2 MX,1,43849,44449,89,109 MY,1,43849,44449,144,140
Sprite,Foreground,Centre,"sb\dot.png",0,0 C,0,43849,,255,255,255 F,1,43849,44449,1,0 S,1,43849,44449,1,0.2 MX,1,43849,44449,89,129 MY,1,43849,44449,144,181
Sprite,Foreground,Centre,"sb\dot.png",0,0 C,0,43849,,255,255,255 F,1,43849,44449,1,0 S,1,43849,44449,1,0.2 MX,1,43849,44449,89,124 MY,1,43849,44449,144,175
Sprite,Foreground,Centre,"sb\dot.png",0,0 C,0,43849,,255,255,255 F,1,43849,44449,1,0 S,1,43849,44449,1,0.2 MX,1,43849,44449,89,141 MY,1,43849,44449,144,119
Sprite,Foreground,Centre,"sb\dot.png",0,0 C,0,43849,,255,255,255 F,1,43849,44449,1,0 S,1,43849,44449,1,0.2 MX,1,43849,44449,89,91 MY,1,43849,44449,144,163
Sprite,Foreground,Centre,"sb\dot.png",0,0 C,0,43849,,255,255,255 F,1,43849,44449,1,0 S,1,43849,44449,1,0.2 MX,1,43849,44449,89,68 MY,1,43849,44449,144,118
Sprite,Foreground,Centre,"sb\dot.png",0,0 C,0,43849,,255,255,255 F,1,43849,44449,1,0 S,1,43849,44449,1,0.2 MX,1,43849,44449,89,127 MY,1,43849,44449,144,110
Sprite,Foreground,Centre,"sb\dot.png",0,0 C,0,43849,,255,255,255 F,1,43849,44449,1,0 S,1,43849,44449,1,0.2 MX,1,43849,44449,89,51 MY,1,43849,44449,144,92
Sprite,Foreground,Centre,"sb\dot.png",0,0 C,0,43849,,255,255,255 F,1,43849,44449,1,0 S,1,43849,44449,1,0.2 MX,1,43849,44449,89,103 MY,1,43849,44449,144,167
Sprite,Foreground,Centre,"sb\dot.png",0,0 C,0,43849,,255,255,255 F,1,43849,44449,1,0 S,1,43849,44449,1,0.2 MX,1,43849,44449,89,104 MY,1,43849,44449,144,195
Sprite,Foreground,Centre,"sb\dot.png",0,0 C,0,43849,,255,255,255 F,1,43849,44449,1,0 S,1,43849,44449,1,0.2 MX,1,43849,44449,89,55 MY,1,43849,44449,144,195
Sprite,Foreground,Centre,"sb\dot.png",0,0 C,0,43849,,255,255,255 F,1,43849,44449,1,0 S,1,43849,44449,1,0.2 MX,1,43849,44449,89,36 MY,1,43849,44449,144,192
Sprite,Foreground,Centre,"sb\dot.png",0,0 C,0,43849,,255,255,255 F,1,43849,44449,1,0 S,1,43849,44449,1,0.2 MX,1,43849,44449,89,110 MY,1,43849,44449,144,95
Sprite,Foreground,Centre,"sb\dot.png",0,0 C,0,43849,,255,255,255 F,1,43849,44449,1,0 S,1,43849,44449,1,0.2 MX,1,43849,44449,89,46 MY,1,43849,44449,144,96
Sprite,Foreground,Centre,"sb\dot.png",0,0 C,0,43849,,255,255,255 F,1,43849,44449,1,0 S,1,43849,44449,1,0.2 MX,1,43849,44449,89,102 MY,1,43849,44449,144,198
Sprite,Foreground,Centre,"sb\dot.png",0,0 C,0,43849,,255,255,255 F,1,43849,44449,1,0 S,1,43849,44449,1,0.2 MX,1,43849,44449,89,87 MY,1,43849,44449,144,101
Sprite,Foreground,Centre,"sb\dot.png",0,0 C,0,43849,,255,255,255 F,1,43849,44449,1,0 S,1,43849,44449,1,0.2 MX,1,43849,44449,89,110 MY,1,43849,44449,144,152
Sprite,Foreground,Centre,"sb\dot.png",0,0 C,0,43849,,255,255,255 F,1,43849,44449,1,0 S,1,43849,44449,1,0.2 MX,1,43849,44449,89,56 MY,1,43849,44449,144,158
Sprite,Foreground,Centre,"sb\dot.png",0,0 C,0,44012,,255,255,255 F,1,44012,44612,1,0 S,1,44012,44612,1,0.2 MX,1,44012,44612,201,141 MY,1,44012,44612,200,183
Sprite,Foreground,Centre,"sb\dot.png",0,0 C,0,44012,,255,255,255 F,1,44012,44612,1,0 S,1,44012,44612,1,0.2 MX,1,44012,44612,201,243 MY,1,44012,44612,200,147
Sprite,Foreground,Centre,"sb\dot.png",0,0 C,0,44012,,255,255,255 F,1,44012,44612,1,0 S,1,44012,44612,1,0.2 MX,1,44012,44612,201,174 MY,1,44012,44612,200,224
Sprite,Foreground,Centre,"sb\dot.png",0,0 C,0,44012,,255,255,255 F,1,44012,44612,1,0 S,1,44012,44612,1,0.2 MX,1,44012,44612,201,256 MY,1,44012,44612,200,258
Sprite,Foreground,Centre,"sb\dot.png",0,0 C,0,44012,,255,255,255 F,1,44012,44612,1,0 S,1,44012,44612,1,0.2 MX,1,44012,44612,201,187 MY,1,44012,44612,200,202
Sprite,Foreground,Centre,"sb\dot.png",0,0 C,0,44012,,255,255,255 F,1,44012,44612,1,0 S,1,44012,44612,1,0.2 MX,1,44012,44612,201,174 MY,1,44012,44612,200
Sprite,Foreground,Centre,"sb\dot.png",0,0 C,0,44012,,255,255,255 F,1,44012,44612,1,0 S,1,44012,44612,1,0.2 MX,1,44012,44612,201,204 MY,1,44012,44612,200,146
Sprite,Foreground,Centre,"sb\dot.png",0,0 C,0,44012,,255,255,255 F,1,44012,44612,1,0 S,1,44012,44612,1,0.2 MX,1,44012,44612,201,174 MY,1,44012,44612,200,199
Sprite,Foreground,Centre,"sb\dot.png",0,0 C,0,44012,,255,255,255 F,1,44012,44612,1,0 S,1,44012,44612,1,0.2 MX,1,44012,44612,201,242 MY,1,44012,44612,200,213
Sprite,Foreground,Centre,"sb\dot.png",0,0 C,0,44012,,255,255,255 F,1,44012,44612,1,0 S,1,44012,44612,1,0.2 MX,1,44012,44612,201,153 MY,1,44012,44612,200,229
Sprite,Foreground,Centre,"sb\dot.png",0,0 C,0,44012,,255,255,255 F,1,44012,44612,1,0 S,1,44012,44612,1,0.2 MX,1,44012,44612,201,189 MY,1,44012,44612,200,252
Sprite,Foreground,Centre,"sb\dot.png",0,0 C,0,44012,,255,255,255 F,1,44012,44612,1,0 S,1,44012,44612,1,0.2 MX,1,44012,44612,201,156 MY,1,44012,44612,200,223
Sprite,Foreground,Centre,"sb\dot.png",0,0 C,0,44012,,255,255,255 F,1,44012,44612,1,0 S,1,44012,44612,1,0.2 MX,1,44012,44612,201,214 MY,1,44012,44612,200,239
Sprite,Foreground,Centre,"sb\dot.png",0,0 C,0,44012,,255,255,255 F,1,44012,44612,1,0 S,1,44012,44612,1,0.2 MX,1,44012,44612,201,223 MY,1,44012,44612,200,208
Sprite,Foreground,Centre,"sb\dot.png",0,0 C,0,44012,,255,255,255 F,1,44012,44612,1,0 S,1,44012,44612,1,0.2 MX,1,44012,44612,201,161 MY,1,44012,44612,200,162
Sprite,Foreground,Centre,"sb\dot.png",0,0 C,0,44012,,255,255,255 F,1,44012,44612,1,0 S,1,44012,44612,1,0.2 MX,1,44012,44612,201,214 MY,1,44012,44612,200,170
Sprite,Foreground,Centre,"sb\dot.png",0,0 C,0,44012,,255,255,255 F,1,44012,44612,1,0 S,1,44012,44612,1,0.2 MX,1,44012,44612,201,260 MY,1,44012,44612,200,208
Sprite,Foreground,Centre,"sb\dot.png",0,0 C,0,44012,,255,255,255 F,1,44012,44612,1,0 S,1,44012,44612,1,0.2 MX,1,44012,44612,201,148 MY,1,44012,44612,200,171
Sprite,Foreground,Centre,"sb\dot.png",0,0 C,0,44012,,255,255,255 F,1,44012,44612,1,0 S,1,44012,44612,1,0.2 MX,1,44012,44612,201,242 MY,1,44012,44612,200,208
Sprite,Foreground,Centre,"sb\dot.png",0,0 C,0,44012,,255,255,255 F,1,44012,44612,1,0 S,1,44012,44612,1,0.2 MX,1,44012,44612,201,218 MY,1,44012,44612,200,201
Sprite,Foreground,Centre,"sb\dot.png",0,0 C,0,44012,,255,255,255 F,1,44012,44612,1,0 S,1,44012,44612,1,0.2 MX,1,44012,44612,201,257 MY,1,44012,44612,200,149
Sprite,Foreground,Centre,"sb\dot.png",0,0 C,0,44012,,255,255,255 F,1,44012,44612,1,0 S,1,44012,44612,1,0.2 MX,1,44012,44612,201,202 MY,1,44012,44612,200,158
Sprite,Foreground,Centre,"sb\dot.png",0,0 C,0,44012,,255,255,255 F,1,44012,44612,1,0 S,1,44012,44612,1,0.2 MX,1,44012,44612,201,238 MY,1,44012,44612,200,217
Sprite,Foreground,Centre,"sb\dot.png",0,0 C,0,44012,,255,255,255 F,1,44012,44612,1,0 S,1,44012,44612,1,0.2 MX,1,44012,44612,201,210 MY,1,44012,44612,200,206
Sprite,Foreground,Centre,"sb\dot.png",0,0 C,0,44012,,255,255,255 F,1,44012,44612,1,0 S,1,44012,44612,1,0.2 MX,1,44012,44612,201,221 MY,1,44012,44612,200,259
Sprite,Foreground,Centre,"sb\dot.png",0,0 C,0,44012,,255,255,255 F,1,44012,44612,1,0 S,1,44012,44612,1,0.2 MX,1,44012,44612,201,177 MY,1,44012,44612,200,147
Sprite,Foreground,Centre,"sb\dot.png",0,0 C,0,44012,,255,255,255 F,1,44012,44612,1,0 S,1,44012,44612,1,0.2 MX,1,44012,44612,201,196 MY,1,44012,44612,200,197
Sprite,Foreground,Centre,"sb\dot.png",0,0 C,0,44012,,255,255,255 F,1,44012,44612,1,0 S,1,44012,44612,1,0.2 MX,1,44012,44612,201,166 MY,1,44012,44612,200,148
Sprite,Foreground,Centre,"sb\dot.png",0,0 C,0,44012,,255,255,255 F,1,44012,44612,1,0 S,1,44012,44612,1,0.2 MX,1,44012,44612,201,168 MY,1,44012,44612,200,158
Sprite,Foreground,Centre,"sb\dot.png",0,0 C,0,44012,,255,255,255 F,1,44012,44612,1,0 S,1,44012,44612,1,0.2 MX,1,44012,44612,201,194 MY,1,44012,44612,200,194
Sprite,Foreground,Centre,"sb\dot.png",0,0 C,0,44176,,255,255,255 F,1,44176,44776,1,0 S,1,44176,44776,1,0.2 MX,1,44176,44776,95,37 MY,1,44176,44776,259,245
Sprite,Foreground,Centre,"sb\dot.png",0,0 C,0,44176,,255,255,255 F,1,44176,44776,1,0 S,1,44176,44776,1,0.2 MX,1,44176,44776,95,132 MY,1,44176,44776,259,223
Sprite,Foreground,Centre,"sb\dot.png",0,0 C,0,44176,,255,255,255 F,1,44176,44776,1,0 S,1,44176,44776,1,0.2 MX,1,44176,44776,95,144 MY,1,44176,44776,259,202
Sprite,Foreground,Centre,"sb\dot.png",0,0 C,0,44176,,255,255,255 F,1,44176,44776,1,0 S,1,44176,44776,1,0.2 MX,1,44176,44776,95,96 MY,1,44176,44776,259,314
Sprite,Foreground,Centre,"sb\dot.png",0,0 C,0,44176,,255,255,255 F,1,44176,44776,1,0 S,1,44176,44776,1,0.2 MX,1,44176,44776,95,154 MY,1,44176,44776,259,201
Sprite,Foreground,Centre,"sb\dot.png",0,0 C,0,44176,,255,255,255 F,1,44176,44776,1,0 S,1,44176,44776,1,0.2 MX,1,44176,44776,95,113 MY,1,44176,44776,259,232
Sprite,Foreground,Centre,"sb\dot.png",0,0 C,0,44176,,255,255,255 F,1,44176,44776,1,0 S,1,44176,44776,1,0.2 MX,1,44176,44776,95,151 MY,1,44176,44776,259,269
Sprite,Foreground,Centre,"sb\dot.png",0,0 C,0,44176,,255,255,255 F,1,44176,44776,1,0 S,1,44176,44776,1,0.2 MX,1,44176,44776,95,127 MY,1,44176,44776,259,237
Sprite,Foreground,Centre,"sb\dot.png",0,0 C,0,44176,,255,255,255 F,1,44176,44776,1,0 S,1,44176,44776,1,0.2 MX,1,44176,44776,95,85 MY,1,44176,44776,259,315
Sprite,Foreground,Centre,"sb\dot.png",0,0 C,0,44176,,255,255,255 F,1,44176,44776,1,0 S,1,44176,44776,1,0.2 MX,1,44176,44776,95,141 MY,1,44176,44776,259,315
Sprite,Foreground,Centre,"sb\dot.png",0,0 C,0,44176,,255,255,255 F,1,44176,44776,1,0 S,1,44176,44776,1,0.2 MX,1,44176,44776,95,65 MY,1,44176,44776,259,214
Sprite,Foreground,Centre,"sb\dot.png",0,0 C,0,44176,,255,255,255 F,1,44176,44776,1,0 S,1,44176,44776,1,0.2 MX,1,44176,44776,95,142 MY,1,44176,44776,259,220
Sprite,Foreground,Centre,"sb\dot.png",0,0 C,0,44176,,255,255,255 F,1,44176,44776,1,0 S,1,44176,44776,1,0.2 MX,1,44176,44776,95,140 MY,1,44176,44776,259,264
Sprite,Foreground,Centre,"sb\dot.png",0,0 C,0,44176,,255,255,255 F,1,44176,44776,1,0 S,1,44176,44776,1,0.2 MX,1,44176,44776,95,129 MY,1,44176,44776,259,260
Sprite,Foreground,Centre,"sb\dot.png",0,0 C,0,44176,,255,255,255 F,1,44176,44776,1,0 S,1,44176,44776,1,0.2 MX,1,44176,44776,95,77 MY,1,44176,44776,259,318
Sprite,Foreground,Centre,"sb\dot.png",0,0 C,0,44176,,255,255,255 F,1,44176,44776,1,0 S,1,44176,44776,1,0.2 MX,1,44176,44776,95,39 MY,1,44176,44776,259,282
Sprite,Foreground,Centre,"sb\dot.png",0,0 C,0,44176,,255,255,255 F,1,44176,44776,1,0 S,1,44176,44776,1,0.2 MX,1,44176,44776,95,49 MY,1,44176,44776,259,222
Sprite,Foreground,Centre,"sb\dot.png",0,0 C,0,44176,,255,255,255 F,1,44176,44776,1,0 S,1,44176,44776,1,0.2 MX,1,44176,44776,95,94 MY,1,44176,44776,259,268
Sprite,Foreground,Centre,"sb\dot.png",0,0 C,0,44176,,255,255,255 F,1,44176,44776,1,0 S,1,44176,44776,1,0.2 MX,1,44176,44776,95,66 MY,1,44176,44776,259,236
Sprite,Foreground,Centre,"sb\dot.png",0,0 C,0,44176,,255,255,255 F,1,44176,44776,1,0 S,1,44176,44776,1,0.2 MX,1,44176,44776,95,64 MY,1,44176,44776,259,293
Sprite,Foreground,Centre,"sb\dot.png",0,0 C,0,44176,,255,255,255 F,1,44176,44776,1,0 S,1,44176,44776,1,0.2 MX,1,44176,44776,95,50 MY,1,44176,44776,259,272
Sprite,Foreground,Centre,"sb\dot.png",0,0 C,0,44176,,255,255,255 F,1,44176,44776,1,0 S,1,44176,44776,1,0.2 MX,1,44176,44776,95,102 MY,1,44176,44776,259,277
Sprite,Foreground,Centre,"sb\dot.png",0,0 C,0,44176,,255,255,255 F,1,44176,44776,1,0 S,1,44176,44776,1,0.2 MX,1,44176,44776,95,75 MY,1,44176,44776,259,201
Sprite,Foreground,Centre,"sb\dot.png",0,0 C,0,44176,,255,255,255 F,1,44176,44776,1,0 S,1,44176,44776,1,0.2 MX,1,44176,44776,95,46 MY,1,44176,44776,259,304
Sprite,Foreground,Centre,"sb\dot.png",0,0 C,0,44176,,255,255,255 F,1,44176,44776,1,0 S,1,44176,44776,1,0.2 MX,1,44176,44776,95,120 MY,1,44176,44776,259,306
Sprite,Foreground,Centre,"sb\dot.png",0,0 C,0,44176,,255,255,255 F,1,44176,44776,1,0 S,1,44176,44776,1,0.2 MX,1,44176,44776,95,113 MY,1,44176,44776,259,229
Sprite,Foreground,Centre,"sb\dot.png",0,0 C,0,44176,,255,255,255 F,1,44176,44776,1,0 S,1,44176,44776,1,0.2 MX,1,44176,44776,95,66 MY,1,44176,44776,259,255
Sprite,Foreground,Centre,"sb\dot.png",0,0 C,0,44176,,255,255,255 F,1,44176,44776,1,0 S,1,44176,44776,1,0.2 MX,1,44176,44776,95,58 MY,1,44176,44776,259,305
Sprite,Foreground,Centre,"sb\dot.png",0,0 C,0,44176,,255,255,255 F,1,44176,44776,1,0 S,1,44176,44776,1,0.2 MX,1,44176,44776,95,93 MY,1,44176,44776,259,275
Sprite,Foreground,Centre,"sb\dot.png",0,0 C,0,44176,,255,255,255 F,1,44176,44776,1,0 S,1,44176,44776,1,0.2 MX,1,44176,44776,95,73 MY,1,44176,44776,259,243
Sprite,Foreground,Centre,"sb\dot.png",0,0 C,0,44339,,255,255,255 F,1,44339,44939,1,0 S,1,44339,44939,1,0.2 MX,1,44339,44939,207,176 MY,1,44339,44939,315,374
Sprite,Foreground,Centre,"sb\dot.png",0,0 C,0,44339,,255,255,255 F,1,44339,44939,1,0 S,1,44339,44939,1,0.2 MX,1,44339,44939,207,220 MY,1,44339,44939,315,255
Sprite,Foreground,Centre,"sb\dot.png",0,0 C,0,44339,,255,255,255 F,1,44339,44939,1,0 S,1,44339,44939,1,0.2 MX,1,44339,44939,207,265 MY,1,44339,44939,315,370
Sprite,Foreground,Centre,"sb\dot.png",0,0 C,0,44339,,255,255,255 F,1,44339,44939,1,0 S,1,44339,44939,1,0.2 MX,1,44339,44939,207,165 MY,1,44339,44939,315,347
Sprite,Foreground,Centre,"sb\dot.png",0,0 C,0,44339,,255,255,255 F,1,44339,44939,1,0 S,1,44339,44939,1,0.2 MX,1,44339,44939,207,157 MY,1,44339,44939,315,277
Sprite,Foreground,Centre,"sb\dot.png",0,0 C,0,44339,,255,255,255 F,1,44339,44939,1,0 S,1,44339,44939,1,0.2 MX,1,44339,44939,207,154 MY,1,44339,44939,315,268
Sprite,Foreground,Centre,"sb\dot.png",0,0 C,0,44339,,255,255,255 F,1,44339,44939,1,0 S,1,44339,44939,1,0.2 MX,1,44339,44939,207,234 MY,1,44339,44939,315,267
Sprite,Foreground,Centre,"sb\dot.png",0,0 C,0,44339,,255,255,255 F,1,44339,44939,1,0 S,1,44339,44939,1,0.2 MX,1,44339,44939,207,247 MY,1,44339,44939,315,332
Sprite,Foreground,Centre,"sb\dot.png",0,0 C,0,44339,,255,255,255 F,1,44339,44939,1,0 S,1,44339,44939,1,0.2 MX,1,44339,44939,207,215 MY,1,44339,44939,315,283
Sprite,Foreground,Centre,"sb\dot.png",0,0 C,0,44339,,255,255,255 F,1,44339,44939,1,0 S,1,44339,44939,1,0.2 MX,1,44339,44939,207,247 MY,1,44339,44939,315,358
Sprite,Foreground,Centre,"sb\dot.png",0,0 C,0,44339,,255,255,255 F,1,44339,44939,1,0 S,1,44339,44939,1,0.2 MX,1,44339,44939,207,200 MY,1,44339,44939,315,363
Sprite,Foreground,Centre,"sb\dot.png",0,0 C,0,44339,,255,255,255 F,1,44339,44939,1,0 S,1,44339,44939,1,0.2 MX,1,44339,44939,207,243 MY,1,44339,44939,315,310
Sprite,Foreground,Centre,"sb\dot.png",0,0 C,0,44339,,255,255,255 F,1,44339,44939,1,0 S,1,44339,44939,1,0.2 MX,1,44339,44939,207,187 MY,1,44339,44939,315,348
Sprite,Foreground,Centre,"sb\dot.png",0,0 C,0,44339,,255,255,255 F,1,44339,44939,1,0 S,1,44339,44939,1,0.2 MX,1,44339,44939,207,198 MY,1,44339,44939,315,332
Sprite,Foreground,Centre,"sb\dot.png",0,0 C,0,44339,,255,255,255 F,1,44339,44939,1,0 S,1,44339,44939,1,0.2 MX,1,44339,44939,207,266 MY,1,44339,44939,315,328
Sprite,Foreground,Centre,"sb\dot.png",0,0 C,0,44339,,255,255,255 F,1,44339,44939,1,0 S,1,44339,44939,1,0.2 MX,1,44339,44939,207,157 MY,1,44339,44939,315,329
Sprite,Foreground,Centre,"sb\dot.png",0,0 C,0,44339,,255,255,255 F,1,44339,44939,1,0 S,1,44339,44939,1,0.2 MX,1,44339,44939,207,265 MY,1,44339,44939,315,359
Sprite,Foreground,Centre,"sb\dot.png",0,0 C,0,44339,,255,255,255 F,1,44339,44939,1,0 S,1,44339,44939,1,0.2 MX,1,44339,44939,207,211 MY,1,44339,44939,315,271
Sprite,Foreground,Centre,"sb\dot.png",0,0 C,0,44339,,255,255,255 F,1,44339,44939,1,0 S,1,44339,44939,1,0.2 MX,1,44339,44939,207,147 MY,1,44339,44939,315,321
Sprite,Foreground,Centre,"sb\dot.png",0,0 C,0,44339,,255,255,255 F,1,44339,44939,1,0 S,1,44339,44939,1,0.2 MX,1,44339,44939,207,227 MY,1,44339,44939,315,300
Sprite,Foreground,Centre,"sb\dot.png",0,0 C,0,44339,,255,255,255 F,1,44339,44939,1,0 S,1,44339,44939,1,0.2 MX,1,44339,44939,207,250 MY,1,44339,44939,315,294
Sprite,Foreground,Centre,"sb\dot.png",0,0 C,0,44339,,255,255,255 F,1,44339,44939,1,0 S,1,44339,44939,1,0.2 MX,1,44339,44939,207,241 MY,1,44339,44939,315,317
Sprite,Foreground,Centre,"sb\dot.png",0,0 C,0,44339,,255,255,255 F,1,44339,44939,1,0 S,1,44339,44939,1,0.2 MX,1,44339,44939,207,246 MY,1,44339,44939,315,319
Sprite,Foreground,Centre,"sb\dot.png",0,0 C,0,44339,,255,255,255 F,1,44339,44939,1,0 S,1,44339,44939,1,0.2 MX,1,44339,44939,207,209 MY,1,44339,44939,315,274
Sprite,Foreground,Centre,"sb\dot.png",0,0 C,0,44339,,255,255,255 F,1,44339,44939,1,0 S,1,44339,44939,1,0.2 MX,1,44339,44939,207,223 MY,1,44339,44939,315,321
Sprite,Foreground,Centre,"sb\dot.png",0,0 C,0,44339,,255,255,255 F,1,44339,44939,1,0 S,1,44339,44939,1,0.2 MX,1,44339,44939,207,184 MY,1,44339,44939,315,284
Sprite,Foreground,Centre,"sb\dot.png",0,0 C,0,44339,,255,255,255 F,1,44339,44939,1,0 S,1,44339,44939,1,0.2 MX,1,44339,44939,207,243 MY,1,44339,44939,315,310
Sprite,Foreground,Centre,"sb\dot.png",0,0 C,0,44339,,255,255,255 F,1,44339,44939,1,0 S,1,44339,44939,1,0.2 MX,1,44339,44939,207,257 MY,1,44339,44939,315,295
Sprite,Foreground,Centre,"sb\dot.png",0,0 C,0,44339,,255,255,255 F,1,44339,44939,1,0 S,1,44339,44939,1,0.2 MX,1,44339,44939,207,170 MY,1,44339,44939,315,273
Sprite,Foreground,Centre,"sb\dot.png",0,0 C,0,44339,,255,255,255 F,1,44339,44939,1,0 S,1,44339,44939,1,0.2 MX,1,44339,44939,207,226 MY,1,44339,44939,315,279
Sprite,Foreground,Centre,"sb\dot.png",0,0 C,0,44504,,255,255,255 F,1,44504,45104,1,0 S,1,44504,45104,1,0.2 MX,1,44504,45104,106,110 MY,1,44504,45104,387,388
Sprite,Foreground,Centre,"sb\dot.png",0,0 C,0,44504,,255,255,255 F,1,44504,45104,1,0 S,1,44504,45104,1,0.2 MX,1,44504,45104,106,138 MY,1,44504,45104,387,384
Sprite,Foreground,Centre,"sb\dot.png",0,0 C,0,44504,,255,255,255 F,1,44504,45104,1,0 S,1,44504,45104,1,0.2 MX,1,44504,45104,106,58 MY,1,44504,45104,387,379
Sprite,Foreground,Centre,"sb\dot.png",0,0 C,0,44504,,255,255,255 F,1,44504,45104,1,0 S,1,44504,45104,1,0.2 MX,1,44504,45104,106,60 MY,1,44504,45104,387,430
Sprite,Foreground,Centre,"sb\dot.png",0,0 C,0,44504,,255,255,255 F,1,44504,45104,1,0 S,1,44504,45104,1,0.2 MX,1,44504,45104,106,113 MY,1,44504,45104,387,411
Sprite,Foreground,Centre,"sb\dot.png",0,0 C,0,44504,,255,255,255 F,1,44504,45104,1,0 S,1,44504,45104,1,0.2 MX,1,44504,45104,106,122 MY,1,44504,45104,387,328
Sprite,Foreground,Centre,"sb\dot.png",0,0 C,0,44504,,255,255,255 F,1,44504,45104,1,0 S,1,44504,45104,1,0.2 MX,1,44504,45104,106,114 MY,1,44504,45104,387,381
Sprite,Foreground,Centre,"sb\dot.png",0,0 C,0,44504,,255,255,255 F,1,44504,45104,1,0 S,1,44504,45104,1,0.2 MX,1,44504,45104,106,165 MY,1,44504,45104,387,341
Sprite,Foreground,Centre,"sb\dot.png",0,0 C,0,44504,,255,255,255 F,1,44504,45104,1,0 S,1,44504,45104,1,0.2 MX,1,44504,45104,106,60 MY,1,44504,45104,387,360
Sprite,Foreground,Centre,"sb\dot.png",0,0 C,0,44504,,255,255,255 F,1,44504,45104,1,0 S,1,44504,45104,1,0.2 MX,1,44504,45104,106,121 MY,1,44504,45104,387,422
Sprite,Foreground,Centre,"sb\dot.png",0,0 C,0,44504,,255,255,255 F,1,44504,45104,1,0 S,1,44504,45104,1,0.2 MX,1,44504,45104,106,76 MY,1,44504,45104,387,358
Sprite,Foreground,Centre,"sb\dot.png",0,0 C,0,44504,,255,255,255 F,1,44504,45104,1,0 S,1,44504,45104,1,0.2 MX,1,44504,45104,106,47 MY,1,44504,45104,387,380
Sprite,Foreground,Centre,"sb\dot.png",0,0 C,0,44504,,255,255,255 F,1,44504,45104,1,0 S,1,44504,45104,1,0.2 MX,1,44504,45104,106,81 MY,1,44504,45104,387,427
Sprite,Foreground,Centre,"sb\dot.png",0,0 C,0,44504,,255,255,255 F,1,44504,45104,1,0 S,1,44504,45104,1,0.2 MX,1,44504,45104,106,144 MY,1,44504,45104,387,390
Sprite,Foreground,Centre,"sb\dot.png",0,0 C,0,44504,,255,255,255 F,1,44504,45104,1,0 S,1,44504,45104,1,0.2 MX,1,44504,45104,106,160 MY,1,44504,45104,387,351
Sprite,Foreground,Centre,"sb\dot.png",0,0 C,0,44504,,255,255,255 F,1,44504,45104,1,0 S,1,44504,45104,1,0.2 MX,1,44504,45104,106,159 MY,1,44504,45104,387,429
Sprite,Foreground,Centre,"sb\dot.png",0,0 C,0,44504,,255,255,255 F,1,44504,45104,1,0 S,1,44504,45104,1,0.2 MX,1,44504,45104,106,153 MY,1,44504,45104,387,383
Sprite,Foreground,Centre,"sb\dot.png",0,0 C,0,44504,,255,255,255 F,1,44504,45104,1,0 S,1,44504,45104,1,0.2 MX,1,44504,45104,106,147 MY,1,44504,45104,387,369
Sprite,Foreground,Centre,"sb\dot.png",0,0 C,0,44504,,255,255,255 F,1,44504,45104,1,0 S,1,44504,45104,1,0.2 MX,1,44504,45104,106,112 MY,1,44504,45104,387,363
Sprite,Foreground,Centre,"sb\dot.png",0,0 C,0,44504,,255,255,255 F,1,44504,45104,1,0 S,1,44504,45104,1,0.2 MX,1,44504,45104,106,96 MY,1,44504,45104,387,373
Sprite,Foreground,Centre,"sb\dot.png",0,0 C,0,44504,,255,255,255 F,1,44504,45104,1,0 S,1,44504,45104,1,0.2 MX,1,44504,45104,106,96 MY,1,44504,45104,387,406
Sprite,Foreground,Centre,"sb\dot.png",0,0 C,0,44504,,255,255,255 F,1,44504,45104,1,0 S,1,44504,45104,1,0.2 MX,1,44504,45104,106,118 MY,1,44504,45104,387,438
Sprite,Foreground,Centre,"sb\dot.png",0,0 C,0,44504,,255,255,255 F,1,44504,45104,1,0 S,1,44504,45104,1,0.2 MX,1,44504,45104,106,155 MY,1,44504,45104,387,362
Sprite,Foreground,Centre,"sb\dot.png",0,0 C,0,44504,,255,255,255 F,1,44504,45104,1,0 S,1,44504,45104,1,0.2 MX,1,44504,45104,106,127 MY,1,44504,45104,387,368
Sprite,Foreground,Centre,"sb\dot.png",0,0 C,0,44504,,255,255,255 F,1,44504,45104,1,0 S,1,44504,45104,1,0.2 MX,1,44504,45104,106,102 MY,1,44504,45104,387,422
Sprite,Foreground,Centre,"sb\dot.png",0,0 C,0,44504,,255,255,255 F,1,44504,45104,1,0 S,1,44504,45104,1,0.2 MX,1,44504,45104,106,72 MY,1,44504,45104,387,436
Sprite,Foreground,Centre,"sb\dot.png",0,0 C,0,44504,,255,255,255 F,1,44504,45104,1,0 S,1,44504,45104,1,0.2 MX,1,44504,45104,106,108 MY,1,44504,45104,387,430
Sprite,Foreground,Centre,"sb\dot.png",0,0 C,0,44504,,255,255,255 F,1,44504,45104,1,0 S,1,44504,45104,1,0.2 MX,1,44504,45104,106,159 MY,1,44504,45104,387,359
Sprite,Foreground,Centre,"sb\dot.png",0,0 C,0,44504,,255,255,255 F,1,44504,45104,1,0 S,1,44504,45104,1,0.2 MX,1,44504,45104,106,105 MY,1,44504,45104,387,366
Sprite,Foreground,Centre,"sb\dot.png",0,0 C,0,44504,,255,255,255 F,1,44504,45104,1,0 S,1,44504,45104,1,0.2 MX,1,44504,45104,106,68 MY,1,44504,45104,387,358
Sprite,Foreground,Centre,"sb\dot.png",0,0 C,0,44668,,255,255,255 F,1,44668,45268,1,0 S,1,44668,45268,1,0.2 MX,1,44668,45268,210,223 MY,1,44668,45268,439,449
Sprite,Foreground,Centre,"sb\dot.png",0,0 C,0,44668,,255,255,255 F,1,44668,45268,1,0 S,1,44668,45268,1,0.2 MX,1,44668,45268,210,258 MY,1,44668,45268,439,422
Sprite,Foreground,Centre,"sb\dot.png",0,0 C,0,44668,,255,255,255 F,1,44668,45268,1,0 S,1,44668,45268,1,0.2 MX,1,44668,45268,210,240 MY,1,44668,45268,439,473
Sprite,Foreground,Centre,"sb\dot.png",0,0 C,0,44668,,255,255,255 F,1,44668,45268,1,0 S,1,44668,45268,1,0.2 MX,1,44668,45268,210,164 MY,1,44668,45268,439,391
Sprite,Foreground,Centre,"sb\dot.png",0,0 C,0,44668,,255,255,255 F,1,44668,45268,1,0 S,1,44668,45268,1,0.2 MX,1,44668,45268,210,223 MY,1,44668,45268,439,455
Sprite,Foreground,Centre,"sb\dot.png",0,0 C,0,44668,,255,255,255 F,1,44668,45268,1,0 S,1,44668,45268,1,0.2 MX,1,44668,45268,210,218 MY,1,44668,45268,439,476
Sprite,Foreground,Centre,"sb\dot.png",0,0 C,0,44668,,255,255,255 F,1,44668,45268,1,0 S,1,44668,45268,1,0.2 MX,1,44668,45268,210,253 MY,1,44668,45268,439,407
Sprite,Foreground,Centre,"sb\dot.png",0,0 C,0,44668,,255,255,255 F,1,44668,45268,1,0 S,1,44668,45268,1,0.2 MX,1,44668,45268,210,195 MY,1,44668,45268,439,450
Sprite,Foreground,Centre,"sb\dot.png",0,0 C,0,44668,,255,255,255 F,1,44668,45268,1,0 S,1,44668,45268,1,0.2 MX,1,44668,45268,210,229 MY,1,44668,45268,439,388
Sprite,Foreground,Centre,"sb\dot.png",0,0 C,0,44668,,255,255,255 F,1,44668,45268,1,0 S,1,44668,45268,1,0.2 MX,1,44668,45268,210,213 MY,1,44668,45268,439,498
Sprite,Foreground,Centre,"sb\dot.png",0,0 C,0,44668,,255,255,255 F,1,44668,45268,1,0 S,1,44668,45268,1,0.2 MX,1,44668,45268,210,169 MY,1,44668,45268,439,436
Sprite,Foreground,Centre,"sb\dot.png",0,0 C,0,44668,,255,255,255 F,1,44668,45268,1,0 S,1,44668,45268,1,0.2 MX,1,44668,45268,210,157 MY,1,44668,45268,439,397
Sprite,Foreground,Centre,"sb\dot.png",0,0 C,0,44668,,255,255,255 F,1,44668,45268,1,0 S,1,44668,45268,1,0.2 MX,1,44668,45268,210,268 MY,1,44668,45268,439,383
Sprite,Foreground,Centre,"sb\dot.png",0,0 C,0,44668,,255,255,255 F,1,44668,45268,1,0 S,1,44668,45268,1,0.2 MX,1,44668,45268,210,189 MY,1,44668,45268,439,383
Sprite,Foreground,Centre,"sb\dot.png",0,0 C,0,44668,,255,255,255 F,1,44668,45268,1,0 S,1,44668,45268,1,0.2 MX,1,44668,45268,210,212 MY,1,44668,45268,439,447
Sprite,Foreground,Centre,"sb\dot.png",0,0 C,0,44668,,255,255,255 F,1,44668,45268,1,0 S,1,44668,45268,1,0.2 MX,1,44668,45268,210,253 MY,1,44668,45268,439,405
Sprite,Foreground,Centre,"sb\dot.png",0,0 C,0,44668,,255,255,255 F,1,44668,45268,1,0 S,1,44668,45268,1,0.2 MX,1,44668,45268,210,163 MY,1,44668,45268,439,397
Sprite,Foreground,Centre,"sb\dot.png",0,0 C,0,44668,,255,255,255 F,1,44668,45268,1,0 S,1,44668,45268,1,0.2 MX,1,44668,45268,210,243 MY,1,44668,45268,439,478
Sprite,Foreground,Centre,"sb\dot.png",0,0 C,0,44668,,255,255,255 F,1,44668,45268,1,0 S,1,44668,45268,1,0.2 MX,1,44668,45268,210,240 MY,1,44668,45268,439,407
Sprite,Foreground,Centre,"sb\dot.png",0,0 C,0,44668,,255,255,255 F,1,44668,45268,1,0 S,1,44668,45268,1,0.2 MX,1,44668,45268,210,171 MY,1,44668,45268,439,393
Sprite,Foreground,Centre,"sb\dot.png",0,0 C,0,44668,,255,255,255 F,1,44668,45268,1,0 S,1,44668,45268,1,0.2 MX,1,44668,45268,210,171 MY,1,44668,45268,439,448
Sprite,Foreground,Centre,"sb\dot.png",0,0 C,0,44668,,255,255,255 F,1,44668,45268,1,0 S,1,44668,45268,1,0.2 MX,1,44668,45268,210,237 MY,1,44668,45268,439,478
Sprite,Foreground,Centre,"sb\dot.png",0,0 C,0,44668,,255,255,255 F,1,44668,45268,1,0 S,1,44668,45268,1,0.2 MX,1,44668,45268,210,177 MY,1,44668,45268,439,427
Sprite,Foreground,Centre,"sb\dot.png",0,0 C,0,44668,,255,255,255 F,1,44668,45268,1,0 S,1,44668,45268,1,0.2 MX,1,44668,45268,210,155 MY,1,44668,45268,439,412
Sprite,Foreground,Centre,"sb\dot.png",0,0 C,0,44668,,255,255,255 F,1,44668,45268,1,0 S,1,44668,45268,1,0.2 MX,1,44668,45268,210,208 MY,1,44668,45268,439,421
Sprite,Foreground,Centre,"sb\dot.png",0,0 C,0,44668,,255,255,255 F,1,44668,45268,1,0 S,1,44668,45268,1,0.2 MX,1,44668,45268,210,222 MY,1,44668,45268,439,428
Sprite,Foreground,Centre,"sb\dot.png",0,0 C,0,44668,,255,255,255 F,1,44668,45268,1,0 S,1,44668,45268,1,0.2 MX,1,44668,45268,210,245 MY,1,44668,45268,439,402
Sprite,Foreground,Centre,"sb\dot.png",0,0 C,0,44668,,255,255,255 F,1,44668,45268,1,0 S,1,44668,45268,1,0.2 MX,1,44668,45268,210,162 MY,1,44668,45268,439,395
Sprite,Foreground,Centre,"sb\dot.png",0,0 C,0,44668,,255,255,255 F,1,44668,45268,1,0 S,1,44668,45268,1,0.2 MX,1,44668,45268,210,213 MY,1,44668,45268,439,469
Sprite,Foreground,Centre,"sb\dot.png",0,0 C,0,44668,,255,255,255 F,1,44668,45268,1,0 S,1,44668,45268,1,0.2 MX,1,44668,45268,210,194 MY,1,44668,45268,439,465
Sprite,Foreground,Centre,"sb\dot.png",0,0 C,0,45160,,255,255,255 F,1,45160,45760,1,0 S,1,45160,45760,1,0.2 MX,1,45160,45760,503,497 MY,1,45160,45760,304,254
Sprite,Foreground,Centre,"sb\dot.png",0,0 C,0,45160,,255,255,255 F,1,45160,45760,1,0 S,1,45160,45760,1,0.2 MX,1,45160,45760,503,513 MY,1,45160,45760,304,248
Sprite,Foreground,Centre,"sb\dot.png",0,0 C,0,45160,,255,255,255 F,1,45160,45760,1,0 S,1,45160,45760,1,0.2 MX,1,45160,45760,503,536 MY,1,45160,45760,304,285
Sprite,Foreground,Centre,"sb\dot.png",0,0 C,0,45160,,255,255,255 F,1,45160,45760,1,0 S,1,45160,45760,1,0.2 MX,1,45160,45760,503,526 MY,1,45160,45760,304,328
Sprite,Foreground,Centre,"sb\dot.png",0,0 C,0,45160,,255,255,255 F,1,45160,45760,1,0 S,1,45160,45760,1,0.2 MX,1,45160,45760,503,498 MY,1,45160,45760,304,309
Sprite,Foreground,Centre,"sb\dot.png",0,0 C,0,45160,,255,255,255 F,1,45160,45760,1,0 S,1,45160,45760,1,0.2 MX,1,45160,45760,503,543 MY,1,45160,45760,304,294
Sprite,Foreground,Centre,"sb\dot.png",0,0 C,0,45160,,255,255,255 F,1,45160,45760,1,0 S,1,45160,45760,1,0.2 MX,1,45160,45760,503,551 MY,1,45160,45760,304,293
Sprite,Foreground,Centre,"sb\dot.png",0,0 C,0,45160,,255,255,255 F,1,45160,45760,1,0 S,1,45160,45760,1,0.2 MX,1,45160,45760,503,540 MY,1,45160,45760,304,313
Sprite,Foreground,Centre,"sb\dot.png",0,0 C,0,45160,,255,255,255 F,1,45160,45760,1,0 S,1,45160,45760,1,0.2 MX,1,45160,45760,503,533 MY,1,45160,45760,304,272
Sprite,Foreground,Centre,"sb\dot.png",0,0 C,0,45160,,255,255,255 F,1,45160,45760,1,0 S,1,45160,45760,1,0.2 MX,1,45160,45760,503,553 MY,1,45160,45760,304,314
Sprite,Foreground,Centre,"sb\dot.png",0,0 C,0,45160,,255,255,255 F,1,45160,45760,1,0 S,1,45160,45760,1,0.2 MX,1,45160,45760,503,562 MY,1,45160,45760,304,250
Sprite,Foreground,Centre,"sb\dot.png",0,0 C,0,45160,,255,255,255 F,1,45160,45760,1,0 S,1,45160,45760,1,0.2 MX,1,45160,45760,503,508 MY,1,45160,45760,304,263
Sprite,Foreground,Centre,"sb\dot.png",0,0 C,0,45160,,255,255,255 F,1,45160,45760,1,0 S,1,45160,45760,1,0.2 MX,1,45160,45760,503,558 MY,1,45160,45760,304,297
Sprite,Foreground,Centre,"sb\dot.png",0,0 C,0,45160,,255,255,255 F,1,45160,45760,1,0 S,1,45160,45760,1,0.2 MX,1,45160,45760,503,494 MY,1,45160,45760,304,354
Sprite,Foreground,Centre,"sb\dot.png",0,0 C,0,45160,,255,255,255 F,1,45160,45760,1,0 S,1,45160,45760,1,0.2 MX,1,45160,45760,503,449 MY,1,45160,45760,304,320
Sprite,Foreground,Centre,"sb\dot.png",0,0 C,0,45160,,255,255,255 F,1,45160,45760,1,0 S,1,45160,45760,1,0.2 MX,1,45160,45760,503,479 MY,1,45160,45760,304,363
Sprite,Foreground,Centre,"sb\dot.png",0,0 C,0,45160,,255,255,255 F,1,45160,45760,1,0 S,1,45160,45760,1,0.2 MX,1,45160,45760,503,546 MY,1,45160,45760,304,298
Sprite,Foreground,Centre,"sb\dot.png",0,0 C,0,45160,,255,255,255 F,1,45160,45760,1,0 S,1,45160,45760,1,0.2 MX,1,45160,45760,503,523 MY,1,45160,45760,304,255
Sprite,Foreground,Centre,"sb\dot.png",0,0 C,0,45160,,255,255,255 F,1,45160,45760,1,0 S,1,45160,45760,1,0.2 MX,1,45160,45760,503,562 MY,1,45160,45760,304,326
Sprite,Foreground,Centre,"sb\dot.png",0,0 C,0,45160,,255,255,255 F,1,45160,45760,1,0 S,1,45160,45760,1,0.2 MX,1,45160,45760,503,449 MY,1,45160,45760,304,349
Sprite,Foreground,Centre,"sb\dot.png",0,0 C,0,45160,,255,255,255 F,1,45160,45760,1,0 S,1,45160,45760,1,0.2 MX,1,45160,45760,503,527 MY,1,45160,45760,304,284
Sprite,Foreground,Centre,"sb\dot.png",0,0 C,0,45160,,255,255,255 F,1,45160,45760,1,0 S,1,45160,45760,1,0.2 MX,1,45160,45760,503,540 MY,1,45160,45760,304,356
Sprite,Foreground,Centre,"sb\dot.png",0,0 C,0,45160,,255,255,255 F,1,45160,45760,1,0 S,1,45160,45760,1,0.2 MX,1,45160,45760,503,505 MY,1,45160,45760,304,266
Sprite,Foreground,Centre,"sb\dot.png",0,0 C,0,45160,,255,255,255 F,1,45160,45760,1,0 S,1,45160,45760,1,0.2 MX,1,45160,45760,503,504 MY,1,45160,45760,304,290
Sprite,Foreground,Centre,"sb\dot.png",0,0 C,0,45160,,255,255,255 F,1,45160,45760,1,0 S,1,45160,45760,1,0.2 MX,1,45160,45760,503,488 MY,1,45160,45760,304,306
Sprite,Foreground,Centre,"sb\dot.png",0,0 C,0,45160,,255,255,255 F,1,45160,45760,1,0 S,1,45160,45760,1,0.2 MX,1,45160,45760,503,489 MY,1,45160,45760,304,278
Sprite,Foreground,Centre,"sb\dot.png",0,0 C,0,45160,,255,255,255 F,1,45160,45760,1,0 S,1,45160,45760,1,0.2 MX,1,45160,45760,503,542 MY,1,45160,45760,304,338
Sprite,Foreground,Centre,"sb\dot.png",0,0 C,0,45160,,255,255,255 F,1,45160,45760,1,0 S,1,45160,45760,1,0.2 MX,1,45160,45760,503,530 MY,1,45160,45760,304,292
Sprite,Foreground,Centre,"sb\dot.png",0,0 C,0,45160,,255,255,255 F,1,45160,45760,1,0 S,1,45160,45760,1,0.2 MX,1,45160,45760,503,507 MY,1,45160,45760,304,294
Sprite,Foreground,Centre,"sb\dot.png",0,0 C,0,45160,,255,255,255 F,1,45160,45760,1,0 S,1,45160,45760,1,0.2 MX,1,45160,45760,503,451 MY,1,45160,45760,304,284
Sprite,Foreground,Centre,"sb\dot.png",0,0 C,0,45324,,255,255,255 F,1,45324,45924,1,0 S,1,45324,45924,1,0.2 MX,1,45324,45924,444,493 MY,1,45324,45924,190,223
Sprite,Foreground,Centre,"sb\dot.png",0,0 C,0,45324,,255,255,255 F,1,45324,45924,1,0 S,1,45324,45924,1,0.2 MX,1,45324,45924,444,462 MY,1,45324,45924,190,228
Sprite,Foreground,Centre,"sb\dot.png",0,0 C,0,45324,,255,255,255 F,1,45324,45924,1,0 S,1,45324,45924,1,0.2 MX,1,45324,45924,444,412 MY,1,45324,45924,190,230
Sprite,Foreground,Centre,"sb\dot.png",0,0 C,0,45324,,255,255,255 F,1,45324,45924,1,0 S,1,45324,45924,1,0.2 MX,1,45324,45924,444,450 MY,1,45324,45924,190,184
Sprite,Foreground,Centre,"sb\dot.png",0,0 C,0,45324,,255,255,255 F,1,45324,45924,1,0 S,1,45324,45924,1,0.2 MX,1,45324,45924,444,473 MY,1,45324,45924,190,216
Sprite,Foreground,Centre,"sb\dot.png",0,0 C,0,45324,,255,255,255 F,1,45324,45924,1,0 S,1,45324,45924,1,0.2 MX,1,45324,45924,444,454 MY,1,45324,45924,190,137
Sprite,Foreground,Centre,"sb\dot.png",0,0 C,0,45324,,255,255,255 F,1,45324,45924,1,0 S,1,45324,45924,1,0.2 MX,1,45324,45924,444,405 MY,1,45324,45924,190,134
Sprite,Foreground,Centre,"sb\dot.png",0,0 C,0,45324,,255,255,255 F,1,45324,45924,1,0 S,1,45324,45924,1,0.2 MX,1,45324,45924,444,490 MY,1,45324,45924,190,208
Sprite,Foreground,Centre,"sb\dot.png",0,0 C,0,45324,,255,255,255 F,1,45324,45924,1,0 S,1,45324,45924,1,0.2 MX,1,45324,45924,444,412 MY,1,45324,45924,190,203
Sprite,Foreground,Centre,"sb\dot.png",0,0 C,0,45324,,255,255,255 F,1,45324,45924,1,0 S,1,45324,45924,1,0.2 MX,1,45324,45924,444,460 MY,1,45324,45924,190,223
Sprite,Foreground,Centre,"sb\dot.png",0,0 C,0,45324,,255,255,255 F,1,45324,45924,1,0 S,1,45324,45924,1,0.2 MX,1,45324,45924,444,495 MY,1,45324,45924,190,135
Sprite,Foreground,Centre,"sb\dot.png",0,0 C,0,45324,,255,255,255 F,1,45324,45924,1,0 S,1,45324,45924,1,0.2 MX,1,45324,45924,444,449 MY,1,45324,45924,190,194
Sprite,Foreground,Centre,"sb\dot.png",0,0 C,0,45324,,255,255,255 F,1,45324,45924,1,0 S,1,45324,45924,1,0.2 MX,1,45324,45924,444,414 MY,1,45324,45924,190,132
Sprite,Foreground,Centre,"sb\dot.png",0,0 C,0,45324,,255,255,255 F,1,45324,45924,1,0 S,1,45324,45924,1,0.2 MX,1,45324,45924,444,404 MY,1,45324,45924,190,138
Sprite,Foreground,Centre,"sb\dot.png",0,0 C,0,45324,,255,255,255 F,1,45324,45924,1,0 S,1,45324,45924,1,0.2 MX,1,45324,45924,444,471 MY,1,45324,45924,190,161
Sprite,Foreground,Centre,"sb\dot.png",0,0 C,0,45324,,255,255,255 F,1,45324,45924,1,0 S,1,45324,45924,1,0.2 MX,1,45324,45924,444,451 MY,1,45324,45924,190,198
Sprite,Foreground,Centre,"sb\dot.png",0,0 C,0,45324,,255,255,255 F,1,45324,45924,1,0 S,1,45324,45924,1,0.2 MX,1,45324,45924,444,457 MY,1,45324,45924,190,216
Sprite,Foreground,Centre,"sb\dot.png",0,0 C,0,45324,,255,255,255 F,1,45324,45924,1,0 S,1,45324,45924,1,0.2 MX,1,45324,45924,444,499 MY,1,45324,45924,190,240
Sprite,Foreground,Centre,"sb\dot.png",0,0 C,0,45324,,255,255,255 F,1,45324,45924,1,0 S,1,45324,45924,1,0.2 MX,1,45324,45924,444,466 MY,1,45324,45924,190,249
Sprite,Foreground,Centre,"sb\dot.png",0,0 C,0,45324,,255,255,255 F,1,45324,45924,1,0 S,1,45324,45924,1,0.2 MX,1,45324,45924,444,468 MY,1,45324,45924,190,211
Sprite,Foreground,Centre,"sb\dot.png",0,0 C,0,45324,,255,255,255 F,1,45324,45924,1,0 S,1,45324,45924,1,0.2 MX,1,45324,45924,444,459 MY,1,45324,45924,190,137
Sprite,Foreground,Centre,"sb\dot.png",0,0 C,0,45324,,255,255,255 F,1,45324,45924,1,0 S,1,45324,45924,1,0.2 MX,1,45324,45924,444,461 MY,1,45324,45924,190,208
Sprite,Foreground,Centre,"sb\dot.png",0,0 C,0,45324,,255,255,255 F,1,45324,45924,1,0 S,1,45324,45924,1,0.2 MX,1,45324,45924,444,495 MY,1,45324,45924,190,168
Sprite,Foreground,Centre,"sb\dot.png",0,0 C,0,45324,,255,255,255 F,1,45324,45924,1,0 S,1,45324,45924,1,0.2 MX,1,45324,45924,444,396 MY,1,45324,45924,190,224
Sprite,Foreground,Centre,"sb\dot.png",0,0 C,0,45324,,255,255,255 F,1,45324,45924,1,0 S,1,45324,45924,1,0.2 MX,1,45324,45924,444,492 MY,1,45324,45924,190,138
Sprite,Foreground,Centre,"sb\dot.png",0,0 C,0,45324,,255,255,255 F,1,45324,45924,1,0 S,1,45324,45924,1,0.2 MX,1,45324,45924,444,404 MY,1,45324,45924,190,241
Sprite,Foreground,Centre,"sb\dot.png",0,0 C,0,45324,,255,255,255 F,1,45324,45924,1,0 S,1,45324,45924,1,0.2 MX,1,45324,45924,444,478 MY,1,45324,45924,190,165
Sprite,Foreground,Centre,"sb\dot.png",0,0 C,0,45324,,255,255,255 F,1,45324,45924,1,0 S,1,45324,45924,1,0.2 MX,1,45324,45924,444,432 MY,1,45324,45924,190,234
Sprite,Foreground,Centre,"sb\dot.png",0,0 C,0,45324,,255,255,255 F,1,45324,45924,1,0 S,1,45324,45924,1,0.2 MX,1,45324,45924,444,411 MY,1,45324,45924,190,144
Sprite,Foreground,Centre,"sb\dot.png",0,0 C,0,45324,,255,255,255 F,1,45324,45924,1,0 S,1,45324,45924,1,0.2 MX,1,45324,45924,444,451 MY,1,45324,45924,190,156
Sprite,Foreground,Centre,"sb\dot.png",0,0 C,0,45488,,255,255,255 F,1,45488,46088,1,0 S,1,45488,46088,1,0.2 MX,1,45488,46088,372,392 MY,1,45488,46088,294,291
Sprite,Foreground,Centre,"sb\dot.png",0,0 C,0,45488,,255,255,255 F,1,45488,46088,1,0 S,1,45488,46088,1,0.2 MX,1,45488,46088,372,399 MY,1,45488,46088,294,291
Sprite,Foreground,Centre,"sb\dot.png",0,0 C,0,45488,,255,255,255 F,1,45488,46088,1,0 S,1,45488,46088,1,0.2 MX,1,45488,46088,372,331 MY,1,45488,46088,294,236
Sprite,Foreground,Centre,"sb\dot.png",0,0 C,0,45488,,255,255,255 F,1,45488,46088,1,0 S,1,45488,46088,1,0.2 MX,1,45488,46088,372,365 MY,1,45488,46088,294,289
Sprite,Foreground,Centre,"sb\dot.png",0,0 C,0,45488,,255,255,255 F,1,45488,46088,1,0 S,1,45488,46088,1,0.2 MX,1,45488,46088,372,320 MY,1,45488,46088,294,349
Sprite,Foreground,Centre,"sb\dot.png",0,0 C,0,45488,,255,255,255 F,1,45488,46088,1,0 S,1,45488,46088,1,0.2 MX,1,45488,46088,372,428 MY,1,45488,46088,294,263
Sprite,Foreground,Centre,"sb\dot.png",0,0 C,0,45488,,255,255,255 F,1,45488,46088,1,0 S,1,45488,46088,1,0.2 MX,1,45488,46088,372,420 MY,1,45488,46088,294,349
Sprite,Foreground,Centre,"sb\dot.png",0,0 C,0,45488,,255,255,255 F,1,45488,46088,1,0 S,1,45488,46088,1,0.2 MX,1,45488,46088,372,330 MY,1,45488,46088,294,338
Sprite,Foreground,Centre,"sb\dot.png",0,0 C,0,45488,,255,255,255 F,1,45488,46088,1,0 S,1,45488,46088,1,0.2 MX,1,45488,46088,372,360 MY,1,45488,46088,294,340
Sprite,Foreground,Centre,"sb\dot.png",0,0 C,0,45488,,255,255,255 F,1,45488,46088,1,0 S,1,45488,46088,1,0.2 MX,1,45488,46088,372,384 MY,1,45488,46088,294,346
Sprite,Foreground,Centre,"sb\dot.png",0,0 C,0,45488,,255,255,255 F,1,45488,46088,1,0 S,1,45488,46088,1,0.2 MX,1,45488,46088,372,421 MY,1,45488,46088,294,279
Sprite,Foreground,Centre,"sb\dot.png",0,0 C,0,45488,,255,255,255 F,1,45488,46088,1,0 S,1,45488,46088,1,0.2 MX,1,45488,46088,372,332 MY,1,45488,46088,294,312
Sprite,Foreground,Centre,"sb\dot.png",0,0 C,0,45488,,255,255,255 F,1,45488,46088,1,0 S,1,45488,46088,1,0.2 MX,1,45488,46088,372,323 MY,1,45488,46088,294,309
Sprite,Foreground,Centre,"sb\dot.png",0,0 C,0,45488,,255,255,255 F,1,45488,46088,1,0 S,1,45488,46088,1,0.2 MX,1,45488,46088,372,406 MY,1,45488,46088,294,272
Sprite,Foreground,Centre,"sb\dot.png",0,0 C,0,45488,,255,255,255 F,1,45488,46088,1,0 S,1,45488,46088,1,0.2 MX,1,45488,46088,372,349 MY,1,45488,46088,294,245
Sprite,Foreground,Centre,"sb\dot.png",0,0 C,0,45488,,255,255,255 F,1,45488,46088,1,0 S,1,45488,46088,1,0.2 MX,1,45488,46088,372,395 MY,1,45488,46088,294,302
Sprite,Foreground,Centre,"sb\dot.png",0,0 C,0,45488,,255,255,255 F,1,45488,46088,1,0 S,1,45488,46088,1,0.2 MX,1,45488,46088,372,363 MY,1,45488,46088,294,292
Sprite,Foreground,Centre,"sb\dot.png",0,0 C,0,45488,,255,255,255 F,1,45488,46088,1,0 S,1,45488,46088,1,0.2 MX,1,45488,46088,372,312 MY,1,45488,46088,294,251
Sprite,Foreground,Centre,"sb\dot.png",0,0 C,0,45488,,255,255,255 F,1,45488,46088,1,0 S,1,45488,46088,1,0.2 MX,1,45488,46088,372,352 MY,1,45488,46088,294,253
Sprite,Foreground,Centre,"sb\dot.png",0,0 C,0,45488,,255,255,255 F,1,45488,46088,1,0 S,1,45488,46088,1,0.2 MX,1,45488,46088,372,371 MY,1,45488,46088,294,343
Sprite,Foreground,Centre,"sb\dot.png",0,0 C,0,45488,,255,255,255 F,1,45488,46088,1,0 S,1,45488,46088,1,0.2 MX,1,45488,46088,372,416 MY,1,45488,46088,294,311
Sprite,Foreground,Centre,"sb\dot.png",0,0 C,0,45488,,255,255,255 F,1,45488,46088,1,0 S,1,45488,46088,1,0.2 MX,1,45488,46088,372,397 MY,1,45488,46088,294,347
Sprite,Foreground,Centre,"sb\dot.png",0,0 C,0,45488,,255,255,255 F,1,45488,46088,1,0 S,1,45488,46088,1,0.2 MX,1,45488,46088,372,324 MY,1,45488,46088,294,344
Sprite,Foreground,Centre,"sb\dot.png",0,0 C,0,45488,,255,255,255 F,1,45488,46088,1,0 S,1,45488,46088,1,0.2 MX,1,45488,46088,372,314 MY,1,45488,46088,294,332
Sprite,Foreground,Centre,"sb\dot.png",0,0 C,0,45488,,255,255,255 F,1,45488,46088,1,0 S,1,45488,46088,1,0.2 MX,1,45488,46088,372,328 MY,1,45488,46088,294,297
Sprite,Foreground,Centre,"sb\dot.png",0,0 C,0,45488,,255,255,255 F,1,45488,46088,1,0 S,1,45488,46088,1,0.2 MX,1,45488,46088,372,368 MY,1,45488,46088,294,274
Sprite,Foreground,Centre,"sb\dot.png",0,0 C,0,45488,,255,255,255 F,1,45488,46088,1,0 S,1,45488,46088,1,0.2 MX,1,45488,46088,372,373 MY,1,45488,46088,294,309
Sprite,Foreground,Centre,"sb\dot.png",0,0 C,0,45488,,255,255,255 F,1,45488,46088,1,0 S,1,45488,46088,1,0.2 MX,1,45488,46088,372,349 MY,1,45488,46088,294,269
Sprite,Foreground,Centre,"sb\dot.png",0,0 C,0,45488,,255,255,255 F,1,45488,46088,1,0 S,1,45488,46088,1,0.2 MX,1,45488,46088,372,349 MY,1,45488,46088,294,242
Sprite,Foreground,Centre,"sb\dot.png",0,0 C,0,45488,,255,255,255 F,1,45488,46088,1,0 S,1,45488,46088,1,0.2 MX,1,45488,46088,372,358 MY,1,45488,46088,294,297
Sprite,Foreground,Centre,"sb\dot.png",0,0 C,0,45652,,255,255,255 F,1,45652,46252,1,0 S,1,45652,46252,1,0.2 MX,1,45652,46252,313,281 MY,1,45652,46252,180,135
Sprite,Foreground,Centre,"sb\dot.png",0,0 C,0,45652,,255,255,255 F,1,45652,46252,1,0 S,1,45652,46252,1,0.2 MX,1,45652,46252,313,271 MY,1,45652,46252,180,237
Sprite,Foreground,Centre,"sb\dot.png",0,0 C,0,45652,,255,255,255 F,1,45652,46252,1,0 S,1,45652,46252,1,0.2 MX,1,45652,46252,313,284 MY,1,45652,46252,180,168
Sprite,Foreground,Centre,"sb\dot.png",0,0 C,0,45652,,255,255,255 F,1,45652,46252,1,0 S,1,45652,46252,1,0.2 MX,1,45652,46252,313,351 MY,1,45652,46252,180,170
Sprite,Foreground,Centre,"sb\dot.png",0,0 C,0,45652,,255,255,255 F,1,45652,46252,1,0 S,1,45652,46252,1,0.2 MX,1,45652,46252,313,367 MY,1,45652,46252,180,121
Sprite,Foreground,Centre,"sb\dot.png",0,0 C,0,45652,,255,255,255 F,1,45652,46252,1,0 S,1,45652,46252,1,0.2 MX,1,45652,46252,313,317 MY,1,45652,46252,180,149
Sprite,Foreground,Centre,"sb\dot.png",0,0 C,0,45652,,255,255,255 F,1,45652,46252,1,0 S,1,45652,46252,1,0.2 MX,1,45652,46252,313,300 MY,1,45652,46252,180,202
Sprite,Foreground,Centre,"sb\dot.png",0,0 C,0,45652,,255,255,255 F,1,45652,46252,1,0 S,1,45652,46252,1,0.2 MX,1,45652,46252,313,260 MY,1,45652,46252,180,152
Sprite,Foreground,Centre,"sb\dot.png",0,0 C,0,45652,,255,255,255 F,1,45652,46252,1,0 S,1,45652,46252,1,0.2 MX,1,45652,46252,313,332 MY,1,45652,46252,180,146
Sprite,Foreground,Centre,"sb\dot.png",0,0 C,0,45652,,255,255,255 F,1,45652,46252,1,0 S,1,45652,46252,1,0.2 MX,1,45652,46252,313,318 MY,1,45652,46252,180,140
Sprite,Foreground,Centre,"sb\dot.png",0,0 C,0,45652,,255,255,255 F,1,45652,46252,1,0 S,1,45652,46252,1,0.2 MX,1,45652,46252,313,326 MY,1,45652,46252,180,235
Sprite,Foreground,Centre,"sb\dot.png",0,0 C,0,45652,,255,255,255 F,1,45652,46252,1,0 S,1,45652,46252,1,0.2 MX,1,45652,46252,313,275 MY,1,45652,46252,180,214
Sprite,Foreground,Centre,"sb\dot.png",0,0 C,0,45652,,255,255,255 F,1,45652,46252,1,0 S,1,45652,46252,1,0.2 MX,1,45652,46252,313,328 MY,1,45652,46252,180,162
Sprite,Foreground,Centre,"sb\dot.png",0,0 C,0,45652,,255,255,255 F,1,45652,46252,1,0 S,1,45652,46252,1,0.2 MX,1,45652,46252,313,259 MY,1,45652,46252,180,215
Sprite,Foreground,Centre,"sb\dot.png",0,0 C,0,45652,,255,255,255 F,1,45652,46252,1,0 S,1,45652,46252,1,0.2 MX,1,45652,46252,313,273 MY,1,45652,46252,180,205
Sprite,Foreground,Centre,"sb\dot.png",0,0 C,0,45652,,255,255,255 F,1,45652,46252,1,0 S,1,45652,46252,1,0.2 MX,1,45652,46252,313,352 MY,1,45652,46252,180,151
Sprite,Foreground,Centre,"sb\dot.png",0,0 C,0,45652,,255,255,255 F,1,45652,46252,1,0 S,1,45652,46252,1,0.2 MX,1,45652,46252,313,345 MY,1,45652,46252,180,235
Sprite,Foreground,Centre,"sb\dot.png",0,0 C,0,45652,,255,255,255 F,1,45652,46252,1,0 S,1,45652,46252,1,0.2 MX,1,45652,46252,313,333 MY,1,45652,46252,180,209
Sprite,Foreground,Centre,"sb\dot.png",0,0 C,0,45652,,255,255,255 F,1,45652,46252,1,0 S,1,45652,46252,1,0.2 MX,1,45652,46252,313,311 MY,1,45652,46252,180,208
Sprite,Foreground,Centre,"sb\dot.png",0,0 C,0,45652,,255,255,255 F,1,45652,46252,1,0 S,1,45652,46252,1,0.2 MX,1,45652,46252,313,334 MY,1,45652,46252,180,204
Sprite,Foreground,Centre,"sb\dot.png",0,0 C,0,45652,,255,255,255 F,1,45652,46252,1,0 S,1,45652,46252,1,0.2 MX,1,45652,46252,313,265 MY,1,45652,46252,180,191
Sprite,Foreground,Centre,"sb\dot.png",0,0 C,0,45652,,255,255,255 F,1,45652,46252,1,0 S,1,45652,46252,1,0.2 MX,1,45652,46252,313,357 MY,1,45652,46252,180,135
Sprite,Foreground,Centre,"sb\dot.png",0,0 C,0,45652,,255,255,255 F,1,45652,46252,1,0 S,1,45652,46252,1,0.2 MX,1,45652,46252,313,371 MY,1,45652,46252,180,146
Sprite,Foreground,Centre,"sb\dot.png",0,0 C,0,45652,,255,255,255 F,1,45652,46252,1,0 S,1,45652,46252,1,0.2 MX,1,45652,46252,313,366 MY,1,45652,46252,180,219
Sprite,Foreground,Centre,"sb\dot.png",0,0 C,0,45652,,255,255,255 F,1,45652,46252,1,0 S,1,45652,46252,1,0.2 MX,1,45652,46252,313,320 MY,1,45652,46252,180,125
Sprite,Foreground,Centre,"sb\dot.png",0,0 C,0,45652,,255,255,255 F,1,45652,46252,1,0 S,1,45652,46252,1,0.2 MX,1,45652,46252,313,329 MY,1,45652,46252,180,131
Sprite,Foreground,Centre,"sb\dot.png",0,0 C,0,45652,,255,255,255 F,1,45652,46252,1,0 S,1,45652,46252,1,0.2 MX,1,45652,46252,313,316 MY,1,45652,46252,180,146
Sprite,Foreground,Centre,"sb\dot.png",0,0 C,0,45652,,255,255,255 F,1,45652,46252,1,0 S,1,45652,46252,1,0.2 MX,1,45652,46252,313,363 MY,1,45652,46252,180,153
Sprite,Foreground,Centre,"sb\dot.png",0,0 C,0,45652,,255,255,255 F,1,45652,46252,1,0 S,1,45652,46252,1,0.2 MX,1,45652,46252,313,365 MY,1,45652,46252,180,163
Sprite,Foreground,Centre,"sb\dot.png",0,0 C,0,45652,,255,255,255 F,1,45652,46252,1,0 S,1,45652,46252,1,0.2 MX,1,45652,46252,313,295 MY,1,45652,46252,180,229
Sprite,Foreground,Centre,"sb\dot.png",0,0 C,0,45816,,255,255,255 F,1,45816,46416,1,0 S,1,45816,46416,1,0.2 MX,1,45816,46416,251,233 MY,1,45816,46416,283,225
Sprite,Foreground,Centre,"sb\dot.png",0,0 C,0,45816,,255,255,255 F,1,45816,46416,1,0 S,1,45816,46416,1,0.2 MX,1,45816,46416,251,221 MY,1,45816,46416,283,251
Sprite,Foreground,Centre,"sb\dot.png",0,0 C,0,45816,,255,255,255 F,1,45816,46416,1,0 S,1,45816,46416,1,0.2 MX,1,45816,46416,251,212 MY,1,45816,46416,283,256
Sprite,Foreground,Centre,"sb\dot.png",0,0 C,0,45816,,255,255,255 F,1,45816,46416,1,0 S,1,45816,46416,1,0.2 MX,1,45816,46416,251,247 MY,1,45816,46416,283,274
Sprite,Foreground,Centre,"sb\dot.png",0,0 C,0,45816,,255,255,255 F,1,45816,46416,1,0 S,1,45816,46416,1,0.2 MX,1,45816,46416,251,192 MY,1,45816,46416,283,260
Sprite,Foreground,Centre,"sb\dot.png",0,0 C,0,45816,,255,255,255 F,1,45816,46416,1,0 S,1,45816,46416,1,0.2 MX,1,45816,46416,251,284 MY,1,45816,46416,283,333
Sprite,Foreground,Centre,"sb\dot.png",0,0 C,0,45816,,255,255,255 F,1,45816,46416,1,0 S,1,45816,46416,1,0.2 MX,1,45816,46416,251,255 MY,1,45816,46416,283,324
Sprite,Foreground,Centre,"sb\dot.png",0,0 C,0,45816,,255,255,255 F,1,45816,46416,1,0 S,1,45816,46416,1,0.2 MX,1,45816,46416,251,198 MY,1,45816,46416,283,224
Sprite,Foreground,Centre,"sb\dot.png",0,0 C,0,45816,,255,255,255 F,1,45816,46416,1,0 S,1,45816,46416,1,0.2 MX,1,45816,46416,251,202 MY,1,45816,46416,283,230
Sprite,Foreground,Centre,"sb\dot.png",0,0 C,0,45816,,255,255,255 F,1,45816,46416,1,0 S,1,45816,46416,1,0.2 MX,1,45816,46416,251,286 MY,1,45816,46416,283,271
Sprite,Foreground,Centre,"sb\dot.png",0,0 C,0,45816,,255,255,255 F,1,45816,46416,1,0 S,1,45816,46416,1,0.2 MX,1,45816,46416,251,240 MY,1,45816,46416,283,250
Sprite,Foreground,Centre,"sb\dot.png",0,0 C,0,45816,,255,255,255 F,1,45816,46416,1,0 S,1,45816,46416,1,0.2 MX,1,45816,46416,251,218 MY,1,45816,46416,283,238
Sprite,Foreground,Centre,"sb\dot.png",0,0 C,0,45816,,255,255,255 F,1,45816,46416,1,0 S,1,45816,46416,1,0.2 MX,1,45816,46416,251,200 MY,1,45816,46416,283,311
Sprite,Foreground,Centre,"sb\dot.png",0,0 C,0,45816,,255,255,255 F,1,45816,46416,1,0 S,1,45816,46416,1,0.2 MX,1,45816,46416,251,279 MY,1,45816,46416,283,289
Sprite,Foreground,Centre,"sb\dot.png",0,0 C,0,45816,,255,255,255 F,1,45816,46416,1,0 S,1,45816,46416,1,0.2 MX,1,45816,46416,251,196 MY,1,45816,46416,283,270
Sprite,Foreground,Centre,"sb\dot.png",0,0 C,0,45816,,255,255,255 F,1,45816,46416,1,0 S,1,45816,46416,1,0.2 MX,1,45816,46416,251,287 MY,1,45816,46416,283,238
Sprite,Foreground,Centre,"sb\dot.png",0,0 C,0,45816,,255,255,255 F,1,45816,46416,1,0 S,1,45816,46416,1,0.2 MX,1,45816,46416,251,237 MY,1,45816,46416,283,315
Sprite,Foreground,Centre,"sb\dot.png",0,0 C,0,45816,,255,255,255 F,1,45816,46416,1,0 S,1,45816,46416,1,0.2 MX,1,45816,46416,251,233 MY,1,45816,46416,283,233
Sprite,Foreground,Centre,"sb\dot.png",0,0 C,0,45816,,255,255,255 F,1,45816,46416,1,0 S,1,45816,46416,1,0.2 MX,1,45816,46416,251,232 MY,1,45816,46416,283,298
Sprite,Foreground,Centre,"sb\dot.png",0,0 C,0,45816,,255,255,255 F,1,45816,46416,1,0 S,1,45816,46416,1,0.2 MX,1,45816,46416,251,304 MY,1,45816,46416,283,308
Sprite,Foreground,Centre,"sb\dot.png",0,0 C,0,45816,,255,255,255 F,1,45816,46416,1,0 S,1,45816,46416,1,0.2 MX,1,45816,46416,251,281 MY,1,45816,46416,283,284
Sprite,Foreground,Centre,"sb\dot.png",0,0 C,0,45816,,255,255,255 F,1,45816,46416,1,0 S,1,45816,46416,1,0.2 MX,1,45816,46416,251,288 MY,1,45816,46416,283,252
Sprite,Foreground,Centre,"sb\dot.png",0,0 C,0,45816,,255,255,255 F,1,45816,46416,1,0 S,1,45816,46416,1,0.2 MX,1,45816,46416,251,223 MY,1,45816,46416,283,308
Sprite,Foreground,Centre,"sb\dot.png",0,0 C,0,45816,,255,255,255 F,1,45816,46416,1,0 S,1,45816,46416,1,0.2 MX,1,45816,46416,251,257 MY,1,45816,46416,283,305
Sprite,Foreground,Centre,"sb\dot.png",0,0 C,0,45816,,255,255,255 F,1,45816,46416,1,0 S,1,45816,46416,1,0.2 MX,1,45816,46416,251,209 MY,1,45816,46416,283,331
Sprite,Foreground,Centre,"sb\dot.png",0,0 C,0,45816,,255,255,255 F,1,45816,46416,1,0 S,1,45816,46416,1,0.2 MX,1,45816,46416,251,212 MY,1,45816,46416,283,328
Sprite,Foreground,Centre,"sb\dot.png",0,0 C,0,45816,,255,255,255 F,1,45816,46416,1,0 S,1,45816,46416,1,0.2 MX,1,45816,46416,251,258 MY,1,45816,46416,283,336
Sprite,Foreground,Centre,"sb\dot.png",0,0 C,0,45816,,255,255,255 F,1,45816,46416,1,0 S,1,45816,46416,1,0.2 MX,1,45816,46416,251 MY,1,45816,46416,283,237
Sprite,Foreground,Centre,"sb\dot.png",0,0 C,0,45816,,255,255,255 F,1,45816,46416,1,0 S,1,45816,46416,1,0.2 MX,1,45816,46416,251,286 MY,1,45816,46416,283,237
Sprite,Foreground,Centre,"sb\dot.png",0,0 C,0,45816,,255,255,255 F,1,45816,46416,1,0 S,1,45816,46416,1,0.2 MX,1,45816,46416,251,210 MY,1,45816,46416,283,276
Sprite,Foreground,Centre,"sb\dot.png",0,0 C,0,45980,,255,255,255 F,1,45980,46580,1,0 S,1,45980,46580,1,0.2 MX,1,45980,46580,210,215 MY,1,45980,46580,165,214
Sprite,Foreground,Centre,"sb\dot.png",0,0 C,0,45980,,255,255,255 F,1,45980,46580,1,0 S,1,45980,46580,1,0.2 MX,1,45980,46580,210,196 MY,1,45980,46580,165,179
Sprite,Foreground,Centre,"sb\dot.png",0,0 C,0,45980,,255,255,255 F,1,45980,46580,1,0 S,1,45980,46580,1,0.2 MX,1,45980,46580,210,211 MY,1,45980,46580,165,182
Sprite,Foreground,Centre,"sb\dot.png",0,0 C,0,45980,,255,255,255 F,1,45980,46580,1,0 S,1,45980,46580,1,0.2 MX,1,45980,46580,210,214 MY,1,45980,46580,165,197
Sprite,Foreground,Centre,"sb\dot.png",0,0 C,0,45980,,255,255,255 F,1,45980,46580,1,0 S,1,45980,46580,1,0.2 MX,1,45980,46580,210,208 MY,1,45980,46580,165,222
Sprite,Foreground,Centre,"sb\dot.png",0,0 C,0,45980,,255,255,255 F,1,45980,46580,1,0 S,1,45980,46580,1,0.2 MX,1,45980,46580,210,230 MY,1,45980,46580,165,160
Sprite,Foreground,Centre,"sb\dot.png",0,0 C,0,45980,,255,255,255 F,1,45980,46580,1,0 S,1,45980,46580,1,0.2 MX,1,45980,46580,210,163 MY,1,45980,46580,165,115
Sprite,Foreground,Centre,"sb\dot.png",0,0 C,0,45980,,255,255,255 F,1,45980,46580,1,0 S,1,45980,46580,1,0.2 MX,1,45980,46580,210,227 MY,1,45980,46580,165,212
Sprite,Foreground,Centre,"sb\dot.png",0,0 C,0,45980,,255,255,255 F,1,45980,46580,1,0 S,1,45980,46580,1,0.2 MX,1,45980,46580,210,199 MY,1,45980,46580,165,222
Sprite,Foreground,Centre,"sb\dot.png",0,0 C,0,45980,,255,255,255 F,1,45980,46580,1,0 S,1,45980,46580,1,0.2 MX,1,45980,46580,210,253 MY,1,45980,46580,165,148
Sprite,Foreground,Centre,"sb\dot.png",0,0 C,0,45980,,255,255,255 F,1,45980,46580,1,0 S,1,45980,46580,1,0.2 MX,1,45980,46580,210,171 MY,1,45980,46580,165,110
Sprite,Foreground,Centre,"sb\dot.png",0,0 C,0,45980,,255,255,255 F,1,45980,46580,1,0 S,1,45980,46580,1,0.2 MX,1,45980,46580,210,197 MY,1,45980,46580,165,122
Sprite,Foreground,Centre,"sb\dot.png",0,0 C,0,45980,,255,255,255 F,1,45980,46580,1,0 S,1,45980,46580,1,0.2 MX,1,45980,46580,210,175 MY,1,45980,46580,165,215
Sprite,Foreground,Centre,"sb\dot.png",0,0 C,0,45980,,255,255,255 F,1,45980,46580,1,0 S,1,45980,46580,1,0.2 MX,1,45980,46580,210,217 MY,1,45980,46580,165,157
Sprite,Foreground,Centre,"sb\dot.png",0,0 C,0,45980,,255,255,255 F,1,45980,46580,1,0 S,1,45980,46580,1,0.2 MX,1,45980,46580,210,182 MY,1,45980,46580,165,132
Sprite,Foreground,Centre,"sb\dot.png",0,0 C,0,45980,,255,255,255 F,1,45980,46580,1,0 S,1,45980,46580,1,0.2 MX,1,45980,46580,210,185 MY,1,45980,46580,165,132
Sprite,Foreground,Centre,"sb\dot.png",0,0 C,0,45980,,255,255,255 F,1,45980,46580,1,0 S,1,45980,46580,1,0.2 MX,1,45980,46580,210,205 MY,1,45980,46580,165,164
Sprite,Foreground,Centre,"sb\dot.png",0,0 C,0,45980,,255,255,255 F,1,45980,46580,1,0 S,1,45980,46580,1,0.2 MX,1,45980,46580,210,169 MY,1,45980,46580,165,205
Sprite,Foreground,Centre,"sb\dot.png",0,0 C,0,45980,,255,255,255 F,1,45980,46580,1,0 S,1,45980,46580,1,0.2 MX,1,45980,46580,210,164 MY,1,45980,46580,165,128
Sprite,Foreground,Centre,"sb\dot.png",0,0 C,0,45980,,255,255,255 F,1,45980,46580,1,0 S,1,45980,46580,1,0.2 MX,1,45980,46580,210,238 MY,1,45980,46580,165,179
Sprite,Foreground,Centre,"sb\dot.png",0,0 C,0,45980,,255,255,255 F,1,45980,46580,1,0 S,1,45980,46580,1,0.2 MX,1,45980,46580,210,170 MY,1,45980,46580,165,199
Sprite,Foreground,Centre,"sb\dot.png",0,0 C,0,45980,,255,255,255 F,1,45980,46580,1,0 S,1,45980,46580,1,0.2 MX,1,45980,46580,210,173 MY,1,45980,46580,165,126
Sprite,Foreground,Centre,"sb\dot.png",0,0 C,0,45980,,255,255,255 F,1,45980,46580,1,0 S,1,45980,46580,1,0.2 MX,1,45980,46580,210,178 MY,1,45980,46580,165,191
Sprite,Foreground,Centre,"sb\dot.png",0,0 C,0,45980,,255,255,255 F,1,45980,46580,1,0 S,1,45980,46580,1,0.2 MX,1,45980,46580,210,241 MY,1,45980,46580,165,161
Sprite,Foreground,Centre,"sb\dot.png",0,0 C,0,45980,,255,255,255 F,1,45980,46580,1,0 S,1,45980,46580,1,0.2 MX,1,45980,46580,210,186 MY,1,45980,46580,165,177
Sprite,Foreground,Centre,"sb\dot.png",0,0 C,0,45980,,255,255,255 F,1,45980,46580,1,0 S,1,45980,46580,1,0.2 MX,1,45980,46580,210,234 MY,1,45980,46580,165,202
Sprite,Foreground,Centre,"sb\dot.png",0,0 C,0,45980,,255,255,255 F,1,45980,46580,1,0 S,1,45980,46580,1,0.2 MX,1,45980,46580,210,181 MY,1,45980,46580,165,201
Sprite,Foreground,Centre,"sb\dot.png",0,0 C,0,45980,,255,255,255 F,1,45980,46580,1,0 S,1,45980,46580,1,0.2 MX,1,45980,46580,210,181 MY,1,45980,46580,165,164
Sprite,Foreground,Centre,"sb\dot.png",0,0 C,0,45980,,255,255,255 F,1,45980,46580,1,0 S,1,45980,46580,1,0.2 MX,1,45980,46580,210,212 MY,1,45980,46580,165,134
Sprite,Foreground,Centre,"sb\dot.png",0,0 C,0,45980,,255,255,255 F,1,45980,46580,1,0 S,1,45980,46580,1,0.2 MX,1,45980,46580,210,198 MY,1,45980,46580,165,175
Sprite,Foreground,Centre,"sb\dot.png",0,0 C,0,46471,,255,255,255 F,1,46471,47071,1,0 S,1,46471,47071,1,0.2 MX,1,46471,47071,444,394 MY,1,46471,47071,190,142
Sprite,Foreground,Centre,"sb\dot.png",0,0 C,0,46471,,255,255,255 F,1,46471,47071,1,0 S,1,46471,47071,1,0.2 MX,1,46471,47071,444 MY,1,46471,47071,190,161
Sprite,Foreground,Centre,"sb\dot.png",0,0 C,0,46471,,255,255,255 F,1,46471,47071,1,0 S,1,46471,47071,1,0.2 MX,1,46471,47071,444,465 MY,1,46471,47071,190,183
Sprite,Foreground,Centre,"sb\dot.png",0,0 C,0,46471,,255,255,255 F,1,46471,47071,1,0 S,1,46471,47071,1,0.2 MX,1,46471,47071,444,384 MY,1,46471,47071,190,204
Sprite,Foreground,Centre,"sb\dot.png",0,0 C,0,46471,,255,255,255 F,1,46471,47071,1,0 S,1,46471,47071,1,0.2 MX,1,46471,47071,444,495 MY,1,46471,47071,190,226
Sprite,Foreground,Centre,"sb\dot.png",0,0 C,0,46471,,255,255,255 F,1,46471,47071,1,0 S,1,46471,47071,1,0.2 MX,1,46471,47071,444,477 MY,1,46471,47071,190,156
Sprite,Foreground,Centre,"sb\dot.png",0,0 C,0,46471,,255,255,255 F,1,46471,47071,1,0 S,1,46471,47071,1,0.2 MX,1,46471,47071,444,412 MY,1,46471,47071,190,159
Sprite,Foreground,Centre,"sb\dot.png",0,0 C,0,46471,,255,255,255 F,1,46471,47071,1,0 S,1,46471,47071,1,0.2 MX,1,46471,47071,444,406 MY,1,46471,47071,190,177
Sprite,Foreground,Centre,"sb\dot.png",0,0 C,0,46471,,255,255,255 F,1,46471,47071,1,0 S,1,46471,47071,1,0.2 MX,1,46471,47071,444,486 MY,1,46471,47071,190,155
Sprite,Foreground,Centre,"sb\dot.png",0,0 C,0,46471,,255,255,255 F,1,46471,47071,1,0 S,1,46471,47071,1,0.2 MX,1,46471,47071,444,492 MY,1,46471,47071,190,189
Sprite,Foreground,Centre,"sb\dot.png",0,0 C,0,46471,,255,255,255 F,1,46471,47071,1,0 S,1,46471,47071,1,0.2 MX,1,46471,47071,444,403 MY,1,46471,47071,190,140
Sprite,Foreground,Centre,"sb\dot.png",0,0 C,0,46471,,255,255,255 F,1,46471,47071,1,0 S,1,46471,47071,1,0.2 MX,1,46471,47071,444,400 MY,1,46471,47071,190,209
Sprite,Foreground,Centre,"sb\dot.png",0,0 C,0,46471,,255,255,255 F,1,46471,47071,1,0 S,1,46471,47071,1,0.2 MX,1,46471,47071,444,446 MY,1,46471,47071,190,187
Sprite,Foreground,Centre,"sb\dot.png",0,0 C,0,46471,,255,255,255 F,1,46471,47071,1,0 S,1,46471,47071,1,0.2 MX,1,46471,47071,444,499 MY,1,46471,47071,190,209
Sprite,Foreground,Centre,"sb\dot.png",0,0 C,0,46471,,255,255,255 F,1,46471,47071,1,0 S,1,46471,47071,1,0.2 MX,1,46471,47071,444,411 MY,1,46471,47071,190,210
Sprite,Foreground,Centre,"sb\dot.png",0,0 C,0,46471,,255,255,255 F,1,46471,47071,1,0 S,1,46471,47071,1,0.2 MX,1,46471,47071,444,422 MY,1,46471,47071,190,235
Sprite,Foreground,Centre,"sb\dot.png",0,0 C,0,46471,,255,255,255 F,1,46471,47071,1,0 S,1,46471,47071,1,0.2 MX,1,46471,47071,444,479 MY,1,46471,47071,190,148
Sprite,Foreground,Centre,"sb\dot.png",0,0 C,0,46471,,255,255,255 F,1,46471,47071,1,0 S,1,46471,47071,1,0.2 MX,1,46471,47071,444,447 MY,1,46471,47071,190,138
Sprite,Foreground,Centre,"sb\dot.png",0,0 C,0,46471,,255,255,255 F,1,46471,47071,1,0 S,1,46471,47071,1,0.2 MX,1,46471,47071,444,417 MY,1,46471,47071,190,242
Sprite,Foreground,Centre,"sb\dot.png",0,0 C,0,46471,,255,255,255 F,1,46471,47071,1,0 S,1,46471,47071,1,0.2 MX,1,46471,47071,444 MY,1,46471,47071,190,225
Sprite,Foreground,Centre,"sb\dot.png",0,0 C,0,46471,,255,255,255 F,1,46471,47071,1,0 S,1,46471,47071,1,0.2 MX,1,46471,47071,444,470 MY,1,46471,47071,190,147
Sprite,Foreground,Centre,"sb\dot.png",0,0 C,0,46471,,255,255,255 F,1,46471,47071,1,0 S,1,46471,47071,1,0.2 MX,1,46471,47071,444,449 MY,1,46471,47071,190,189
Sprite,Foreground,Centre,"sb\dot.png",0,0 C,0,46471,,255,255,255 F,1,46471,47071,1,0 S,1,46471,47071,1,0.2 MX,1,46471,47071,444,483 MY,1,46471,47071,190,188
Sprite,Foreground,Centre,"sb\dot.png",0,0 C,0,46471,,255,255,255 F,1,46471,47071,1,0 S,1,46471,47071,1,0.2 MX,1,46471,47071,444,452 MY,1,46471,47071,190,131
Sprite,Foreground,Centre,"sb\dot.png",0,0 C,0,46471,,255,255,255 F,1,46471,47071,1,0 S,1,46471,47071,1,0.2 MX,1,46471,47071,444,457 MY,1,46471,47071,190,234
Sprite,Foreground,Centre,"sb\dot.png",0,0 C,0,46471,,255,255,255 F,1,46471,47071,1,0 S,1,46471,47071,1,0.2 MX,1,46471,47071,444,461 MY,1,46471,47071,190,166
Sprite,Foreground,Centre,"sb\dot.png",0,0 C,0,46471,,255,255,255 F,1,46471,47071,1,0 S,1,46471,47071,1,0.2 MX,1,46471,47071,444,424 MY,1,46471,47071,190,238
Sprite,Foreground,Centre,"sb\dot.png",0,0 C,0,46471,,255,255,255 F,1,46471,47071,1,0 S,1,46471,47071,1,0.2 MX,1,46471,47071,444,435 MY,1,46471,47071,190,130
Sprite,Foreground,Centre,"sb\dot.png",0,0 C,0,46471,,255,255,255 F,1,46471,47071,1,0 S,1,46471,47071,1,0.2 MX,1,46471,47071,444,500 MY,1,46471,47071,190,230
Sprite,Foreground,Centre,"sb\dot.png",0,0 C,0,46471,,255,255,255 F,1,46471,47071,1,0 S,1,46471,47071,1,0.2 MX,1,46471,47071,444,472 MY,1,46471,47071,190,153
Sprite,Foreground,Centre,"sb\dot.png",0,0 C,0,46635,,255,255,255 F,1,46635,47235,1,0 S,1,46635,47235,1,0.2 MX,1,46635,47235,359,356 MY,1,46635,47235,314,294
Sprite,Foreground,Centre,"sb\dot.png",0,0 C,0,46635,,255,255,255 F,1,46635,47235,1,0 S,1,46635,47235,1,0.2 MX,1,46635,47235,359,346 MY,1,46635,47235,314,285
Sprite,Foreground,Centre,"sb\dot.png",0,0 C,0,46635,,255,255,255 F,1,46635,47235,1,0 S,1,46635,47235,1,0.2 MX,1,46635,47235,359,356 MY,1,46635,47235,314,361
Sprite,Foreground,Centre,"sb\dot.png",0,0 C,0,46635,,255,255,255 F,1,46635,47235,1,0 S,1,46635,47235,1,0.2 MX,1,46635,47235,359,350 MY,1,46635,47235,314,264
Sprite,Foreground,Centre,"sb\dot.png",0,0 C,0,46635,,255,255,255 F,1,46635,47235,1,0 S,1,46635,47235,1,0.2 MX,1,46635,47235,359,384 MY,1,46635,47235,314,268
Sprite,Foreground,Centre,"sb\dot.png",0,0 C,0,46635,,255,255,255 F,1,46635,47235,1,0 S,1,46635,47235,1,0.2 MX,1,46635,47235,359,312 MY,1,46635,47235,314,363
Sprite,Foreground,Centre,"sb\dot.png",0,0 C,0,46635,,255,255,255 F,1,46635,47235,1,0 S,1,46635,47235,1,0.2 MX,1,46635,47235,359,384 MY,1,46635,47235,314,267
Sprite,Foreground,Centre,"sb\dot.png",0,0 C,0,46635,,255,255,255 F,1,46635,47235,1,0 S,1,46635,47235,1,0.2 MX,1,46635,47235,359,392 MY,1,46635,47235,314,255
Sprite,Foreground,Centre,"sb\dot.png",0,0 C,0,46635,,255,255,255 F,1,46635,47235,1,0 S,1,46635,47235,1,0.2 MX,1,46635,47235,359,363 MY,1,46635,47235,314,330
Sprite,Foreground,Centre,"sb\dot.png",0,0 C,0,46635,,255,255,255 F,1,46635,47235,1,0 S,1,46635,47235,1,0.2 MX,1,46635,47235,359,399 MY,1,46635,47235,314,258
Sprite,Foreground,Centre,"sb\dot.png",0,0 C,0,46635,,255,255,255 F,1,46635,47235,1,0 S,1,46635,47235,1,0.2 MX,1,46635,47235,359,408 MY,1,46635,47235,314,367
Sprite,Foreground,Centre,"sb\dot.png",0,0 C,0,46635,,255,255,255 F,1,46635,47235,1,0 S,1,46635,47235,1,0.2 MX,1,46635,47235,359,304 MY,1,46635,47235,314,297
Sprite,Foreground,Centre,"sb\dot.png",0,0 C,0,46635,,255,255,255 F,1,46635,47235,1,0 S,1,46635,47235,1,0.2 MX,1,46635,47235,359,301 MY,1,46635,47235,314,256
Sprite,Foreground,Centre,"sb\dot.png",0,0 C,0,46635,,255,255,255 F,1,46635,47235,1,0 S,1,46635,47235,1,0.2 MX,1,46635,47235,359,363 MY,1,46635,47235,314,360
Sprite,Foreground,Centre,"sb\dot.png",0,0 C,0,46635,,255,255,255 F,1,46635,47235,1,0 S,1,46635,47235,1,0.2 MX,1,46635,47235,359,386 MY,1,46635,47235,314,317
Sprite,Foreground,Centre,"sb\dot.png",0,0 C,0,46635,,255,255,255 F,1,46635,47235,1,0 S,1,46635,47235,1,0.2 MX,1,46635,47235,359,311 MY,1,46635,47235,314,307
Sprite,Foreground,Centre,"sb\dot.png",0,0 C,0,46635,,255,255,255 F,1,46635,47235,1,0 S,1,46635,47235,1,0.2 MX,1,46635,47235,359,322 MY,1,46635,47235,314,290
Sprite,Foreground,Centre,"sb\dot.png",0,0 C,0,46635,,255,255,255 F,1,46635,47235,1,0 S,1,46635,47235,1,0.2 MX,1,46635,47235,359,336 MY,1,46635,47235,314,299
Sprite,Foreground,Centre,"sb\dot.png",0,0 C,0,46635,,255,255,255 F,1,46635,47235,1,0 S,1,46635,47235,1,0.2 MX,1,46635,47235,359,389 MY,1,46635,47235,314,288
Sprite,Foreground,Centre,"sb\dot.png",0,0 C,0,46635,,255,255,255 F,1,46635,47235,1,0 S,1,46635,47235,1,0.2 MX,1,46635,47235,359,300 MY,1,46635,47235,314,365
Sprite,Foreground,Centre,"sb\dot.png",0,0 C,0,46635,,255,255,255 F,1,46635,47235,1,0 S,1,46635,47235,1,0.2 MX,1,46635,47235,359,305 MY,1,46635,47235,314,312
Sprite,Foreground,Centre,"sb\dot.png",0,0 C,0,46635,,255,255,255 F,1,46635,47235,1,0 S,1,46635,47235,1,0.2 MX,1,46635,47235,359,335 MY,1,46635,47235,314,313
Sprite,Foreground,Centre,"sb\dot.png",0,0 C,0,46635,,255,255,255 F,1,46635,47235,1,0 S,1,46635,47235,1,0.2 MX,1,46635,47235,359,389 MY,1,46635,47235,314,341
Sprite,Foreground,Centre,"sb\dot.png",0,0 C,0,46635,,255,255,255 F,1,46635,47235,1,0 S,1,46635,47235,1,0.2 MX,1,46635,47235,359,369 MY,1,46635,47235,314,280
Sprite,Foreground,Centre,"sb\dot.png",0,0 C,0,46635,,255,255,255 F,1,46635,47235,1,0 S,1,46635,47235,1,0.2 MX,1,46635,47235,359,313 MY,1,46635,47235,314,303
Sprite,Foreground,Centre,"sb\dot.png",0,0 C,0,46635,,255,255,255 F,1,46635,47235,1,0 S,1,46635,47235,1,0.2 MX,1,46635,47235,359,354 MY,1,46635,47235,314,293
Sprite,Foreground,Centre,"sb\dot.png",0,0 C,0,46635,,255,255,255 F,1,46635,47235,1,0 S,1,46635,47235,1,0.2 MX,1,46635,47235,359,299 MY,1,46635,47235,314,338
Sprite,Foreground,Centre,"sb\dot.png",0,0 C,0,46635,,255,255,255 F,1,46635,47235,1,0 S,1,46635,47235,1,0.2 MX,1,46635,47235,359,333 MY,1,46635,47235,314,317
Sprite,Foreground,Centre,"sb\dot.png",0,0 C,0,46635,,255,255,255 F,1,46635,47235,1,0 S,1,46635,47235,1,0.2 MX,1,46635,47235,359,334 MY,1,46635,47235,314,257
Sprite,Foreground,Centre,"sb\dot.png",0,0 C,0,46635,,255,255,255 F,1,46635,47235,1,0 S,1,46635,47235,1,0.2 MX,1,46635,47235,359,327 MY,1,46635,47235,314,309
Sprite,Foreground,Centre,"sb\dot.png",0,0 C,0,46799,,255,255,255 F,1,46799,47399,1,0 S,1,46799,47399,1,0.2 MX,1,46799,47399,499,482 MY,1,46799,47399,270,275
Sprite,Foreground,Centre,"sb\dot.png",0,0 C,0,46799,,255,255,255 F,1,46799,47399,1,0 S,1,46799,47399,1,0.2 MX,1,46799,47399,499,482 MY,1,46799,47399,270,231
Sprite,Foreground,Centre,"sb\dot.png",0,0 C,0,46799,,255,255,255 F,1,46799,47399,1,0 S,1,46799,47399,1,0.2 MX,1,46799,47399,499,441 MY,1,46799,47399,270,290
Sprite,Foreground,Centre,"sb\dot.png",0,0 C,0,46799,,255,255,255 F,1,46799,47399,1,0 S,1,46799,47399,1,0.2 MX,1,46799,47399,499,524 MY,1,46799,47399,270,259
Sprite,Foreground,Centre,"sb\dot.png",0,0 C,0,46799,,255,255,255 F,1,46799,47399,1,0 S,1,46799,47399,1,0.2 MX,1,46799,47399,499,534 MY,1,46799,47399,270,258
Sprite,Foreground,Centre,"sb\dot.png",0,0 C,0,46799,,255,255,255 F,1,46799,47399,1,0 S,1,46799,47399,1,0.2 MX,1,46799,47399,499,470 MY,1,46799,47399,270,239
Sprite,Foreground,Centre,"sb\dot.png",0,0 C,0,46799,,255,255,255 F,1,46799,47399,1,0 S,1,46799,47399,1,0.2 MX,1,46799,47399,499,513 MY,1,46799,47399,270,319
Sprite,Foreground,Centre,"sb\dot.png",0,0 C,0,46799,,255,255,255 F,1,46799,47399,1,0 S,1,46799,47399,1,0.2 MX,1,46799,47399,499,557 MY,1,46799,47399,270,261
Sprite,Foreground,Centre,"sb\dot.png",0,0 C,0,46799,,255,255,255 F,1,46799,47399,1,0 S,1,46799,47399,1,0.2 MX,1,46799,47399,499,516 MY,1,46799,47399,270,276
Sprite,Foreground,Centre,"sb\dot.png",0,0 C,0,46799,,255,255,255 F,1,46799,47399,1,0 S,1,46799,47399,1,0.2 MX,1,46799,47399,499,511 MY,1,46799,47399,270,245
Sprite,Foreground,Centre,"sb\dot.png",0,0 C,0,46799,,255,255,255 F,1,46799,47399,1,0 S,1,46799,47399,1,0.2 MX,1,46799,47399,499,490 MY,1,46799,47399,270,247
Sprite,Foreground,Centre,"sb\dot.png",0,0 C,0,46799,,255,255,255 F,1,46799,47399,1,0 S,1,46799,47399,1,0.2 MX,1,46799,47399,499,530 MY,1,46799,47399,270,247
Sprite,Foreground,Centre,"sb\dot.png",0,0 C,0,46799,,255,255,255 F,1,46799,47399,1,0 S,1,46799,47399,1,0.2 MX,1,46799,47399,499,447 MY,1,46799,47399,270,302
Sprite,Foreground,Centre,"sb\dot.png",0,0 C,0,46799,,255,255,255 F,1,46799,47399,1,0 S,1,46799,47399,1,0.2 MX,1,46799,47399,499,492 MY,1,46799,47399,270,269
Sprite,Foreground,Centre,"sb\dot.png",0,0 C,0,46799,,255,255,255 F,1,46799,47399,1,0 S,1,46799,47399,1,0.2 MX,1,46799,47399,499,440 MY,1,46799,47399,270,304
Sprite,Foreground,Centre,"sb\dot.png",0,0 C,0,46799,,255,255,255 F,1,46799,47399,1,0 S,1,46799,47399,1,0.2 MX,1,46799,47399,499,449 MY,1,46799,47399,270,296
Sprite,Foreground,Centre,"sb\dot.png",0,0 C,0,46799,,255,255,255 F,1,46799,47399,1,0 S,1,46799,47399,1,0.2 MX,1,46799,47399,499,445 MY,1,46799,47399,270,276
Sprite,Foreground,Centre,"sb\dot.png",0,0 C,0,46799,,255,255,255 F,1,46799,47399,1,0 S,1,46799,47399,1,0.2 MX,1,46799,47399,499,507 MY,1,46799,47399,270,271
Sprite,Foreground,Centre,"sb\dot.png",0,0 C,0,46799,,255,255,255 F,1,46799,47399,1,0 S,1,46799,47399,1,0.2 MX,1,46799,47399,499,453 MY,1,46799,47399,270,224
Sprite,Foreground,Centre,"sb\dot.png",0,0 C,0,46799,,255,255,255 F,1,46799,47399,1,0 S,1,46799,47399,1,0.2 MX,1,46799,47399,499,495 MY,1,46799,47399,270,219
Sprite,Foreground,Centre,"sb\dot.png",0,0 C,0,46799,,255,255,255 F,1,46799,47399,1,0 S,1,46799,47399,1,0.2 MX,1,46799,47399,499,440 MY,1,46799,47399,270,231
Sprite,Foreground,Centre,"sb\dot.png",0,0 C,0,46799,,255,255,255 F,1,46799,47399,1,0 S,1,46799,47399,1,0.2 MX,1,46799,47399,499,490 MY,1,46799,47399,270,296
Sprite,Foreground,Centre,"sb\dot.png",0,0 C,0,46799,,255,255,255 F,1,46799,47399,1,0 S,1,46799,47399,1,0.2 MX,1,46799,47399,499,456 MY,1,46799,47399,270,235
Sprite,Foreground,Centre,"sb\dot.png",0,0 C,0,46799,,255,255,255 F,1,46799,47399,1,0 S,1,46799,47399,1,0.2 MX,1,46799,47399,499,523 MY,1,46799,47399,270,220
Sprite,Foreground,Centre,"sb\dot.png",0,0 C,0,46799,,255,255,255 F,1,46799,47399,1,0 S,1,46799,47399,1,0.2 MX,1,46799,47399,499,524 MY,1,46799,47399,270,313
Sprite,Foreground,Centre,"sb\dot.png",0,0 C,0,46799,,255,255,255 F,1,46799,47399,1,0 S,1,46799,47399,1,0.2 MX,1,46799,47399,499,544 MY,1,46799,47399,270,298
Sprite,Foreground,Centre,"sb\dot.png",0,0 C,0,46799,,255,255,255 F,1,46799,47399,1,0 S,1,46799,47399,1,0.2 MX,1,46799,47399,499,489 MY,1,46799,47399,270,323
Sprite,Foreground,Centre,"sb\dot.png",0,0 C,0,46799,,255,255,255 F,1,46799,47399,1,0 S,1,46799,47399,1,0.2 MX,1,46799,47399,499,443 MY,1,46799,47399,270,215
Sprite,Foreground,Centre,"sb\dot.png",0,0 C,0,46799,,255,255,255 F,1,46799,47399,1,0 S,1,46799,47399,1,0.2 MX,1,46799,47399,499,532 MY,1,46799,47399,270,215
Sprite,Foreground,Centre,"sb\dot.png",0,0 C,0,46799,,255,255,255 F,1,46799,47399,1,0 S,1,46799,47399,1,0.2 MX,1,46799,47399,499,452 MY,1,46799,47399,270,240
Sprite,Foreground,Centre,"sb\dot.png",0,0 C,0,46963,,255,255,255 F,1,46963,47563,1,0 S,1,46963,47563,1,0.2 MX,1,46963,47563,357,324 MY,1,46963,47563,216,181
Sprite,Foreground,Centre,"sb\dot.png",0,0 C,0,46963,,255,255,255 F,1,46963,47563,1,0 S,1,46963,47563,1,0.2 MX,1,46963,47563,357,345 MY,1,46963,47563,216,156
Sprite,Foreground,Centre,"sb\dot.png",0,0 C,0,46963,,255,255,255 F,1,46963,47563,1,0 S,1,46963,47563,1,0.2 MX,1,46963,47563,357,335 MY,1,46963,47563,216,221
Sprite,Foreground,Centre,"sb\dot.png",0,0 C,0,46963,,255,255,255 F,1,46963,47563,1,0 S,1,46963,47563,1,0.2 MX,1,46963,47563,357,320 MY,1,46963,47563,216,164
Sprite,Foreground,Centre,"sb\dot.png",0,0 C,0,46963,,255,255,255 F,1,46963,47563,1,0 S,1,46963,47563,1,0.2 MX,1,46963,47563,357,337 MY,1,46963,47563,216,212
Sprite,Foreground,Centre,"sb\dot.png",0,0 C,0,46963,,255,255,255 F,1,46963,47563,1,0 S,1,46963,47563,1,0.2 MX,1,46963,47563,357,333 MY,1,46963,47563,216,218
Sprite,Foreground,Centre,"sb\dot.png",0,0 C,0,46963,,255,255,255 F,1,46963,47563,1,0 S,1,46963,47563,1,0.2 MX,1,46963,47563,357,307 MY,1,46963,47563,216,219
Sprite,Foreground,Centre,"sb\dot.png",0,0 C,0,46963,,255,255,255 F,1,46963,47563,1,0 S,1,46963,47563,1,0.2 MX,1,46963,47563,357,330 MY,1,46963,47563,216,185
Sprite,Foreground,Centre,"sb\dot.png",0,0 C,0,46963,,255,255,255 F,1,46963,47563,1,0 S,1,46963,47563,1,0.2 MX,1,46963,47563,357,403 MY,1,46963,47563,216,161
Sprite,Foreground,Centre,"sb\dot.png",0,0 C,0,46963,,255,255,255 F,1,46963,47563,1,0 S,1,46963,47563,1,0.2 MX,1,46963,47563,357,316 MY,1,46963,47563,216,258
Sprite,Foreground,Centre,"sb\dot.png",0,0 C,0,46963,,255,255,255 F,1,46963,47563,1,0 S,1,46963,47563,1,0.2 MX,1,46963,47563,357,304 MY,1,46963,47563,216,198
Sprite,Foreground,Centre,"sb\dot.png",0,0 C,0,46963,,255,255,255 F,1,46963,47563,1,0 S,1,46963,47563,1,0.2 MX,1,46963,47563,357,391 MY,1,46963,47563,216,173
Sprite,Foreground,Centre,"sb\dot.png",0,0 C,0,46963,,255,255,255 F,1,46963,47563,1,0 S,1,46963,47563,1,0.2 MX,1,46963,47563,357,406 MY,1,46963,47563,216,197
Sprite,Foreground,Centre,"sb\dot.png",0,0 C,0,46963,,255,255,255 F,1,46963,47563,1,0 S,1,46963,47563,1,0.2 MX,1,46963,47563,357,332 MY,1,46963,47563,216,169
Sprite,Foreground,Centre,"sb\dot.png",0,0 C,0,46963,,255,255,255 F,1,46963,47563,1,0 S,1,46963,47563,1,0.2 MX,1,46963,47563,357,358 MY,1,46963,47563,216,218
Sprite,Foreground,Centre,"sb\dot.png",0,0 C,0,46963,,255,255,255 F,1,46963,47563,1,0 S,1,46963,47563,1,0.2 MX,1,46963,47563,357,384 MY,1,46963,47563,216,164
Sprite,Foreground,Centre,"sb\dot.png",0,0 C,0,46963,,255,255,255 F,1,46963,47563,1,0 S,1,46963,47563,1,0.2 MX,1,46963,47563,357,297 MY,1,46963,47563,216,182
Sprite,Foreground,Centre,"sb\dot.png",0,0 C,0,46963,,255,255,255 F,1,46963,47563,1,0 S,1,46963,47563,1,0.2 MX,1,46963,47563,357,399 MY,1,46963,47563,216,251
Sprite,Foreground,Centre,"sb\dot.png",0,0 C,0,46963,,255,255,255 F,1,46963,47563,1,0 S,1,46963,47563,1,0.2 MX,1,46963,47563,357,390 MY,1,46963,47563,216,206
Sprite,Foreground,Centre,"sb\dot.png",0,0 C,0,46963,,255,255,255 F,1,46963,47563,1,0 S,1,46963,47563,1,0.2 MX,1,46963,47563,357,344 MY,1,46963,47563,216,228
Sprite,Foreground,Centre,"sb\dot.png",0,0 C,0,46963,,255,255,255 F,1,46963,47563,1,0 S,1,46963,47563,1,0.2 MX,1,46963,47563,357,299 MY,1,46963,47563,216,232
Sprite,Foreground,Centre,"sb\dot.png",0,0 C,0,46963,,255,255,255 F,1,46963,47563,1,0 S,1,46963,47563,1,0.2 MX,1,46963,47563,357,386 MY,1,46963,47563,216,184
Sprite,Foreground,Centre,"sb\dot.png",0,0 C,0,46963,,255,255,255 F,1,46963,47563,1,0 S,1,46963,47563,1,0.2 MX,1,46963,47563,357,364 MY,1,46963,47563,216,198
Sprite,Foreground,Centre,"sb\dot.png",0,0 C,0,46963,,255,255,255 F,1,46963,47563,1,0 S,1,46963,47563,1,0.2 MX,1,46963,47563,357,375 MY,1,46963,47563,216,263
Sprite,Foreground,Centre,"sb\dot.png",0,0 C,0,46963,,255,255,255 F,1,46963,47563,1,0 S,1,46963,47563,1,0.2 MX,1,46963,47563,357,376 MY,1,46963,47563,216,250
Sprite,Foreground,Centre,"sb\dot.png",0,0 C,0,46963,,255,255,255 F,1,46963,47563,1,0 S,1,46963,47563,1,0.2 MX,1,46963,47563,357,315 MY,1,46963,47563,216,243
Sprite,Foreground,Centre,"sb\dot.png",0,0 C,0,46963,,255,255,255 F,1,46963,47563,1,0 S,1,46963,47563,1,0.2 MX,1,46963,47563,357,403 MY,1,46963,47563,216,187
Sprite,Foreground,Centre,"sb\dot.png",0,0 C,0,46963,,255,255,255 F,1,46963,47563,1,0 S,1,46963,47563,1,0.2 MX,1,46963,47563,357,319 MY,1,46963,47563,216,261
Sprite,Foreground,Centre,"sb\dot.png",0,0 C,0,46963,,255,255,255 F,1,46963,47563,1,0 S,1,46963,47563,1,0.2 MX,1,46963,47563,357,348 MY,1,46963,47563,216,186
Sprite,Foreground,Centre,"sb\dot.png",0,0 C,0,46963,,255,255,255 F,1,46963,47563,1,0 S,1,46963,47563,1,0.2 MX,1,46963,47563,357,308 MY,1,46963,47563,216,272
Sprite,Foreground,Centre,"sb\dot.png",0,0 C,0,47127,,255,255,255 F,1,47127,47727,1,0 S,1,47127,47727,1,0.2 MX,1,47127,47727,439,409 MY,1,47127,47727,340,290
Sprite,Foreground,Centre,"sb\dot.png",0,0 C,0,47127,,255,255,255 F,1,47127,47727,1,0 S,1,47127,47727,1,0.2 MX,1,47127,47727,439,445 MY,1,47127,47727,340,378
Sprite,Foreground,Centre,"sb\dot.png",0,0 C,0,47127,,255,255,255 F,1,47127,47727,1,0 S,1,47127,47727,1,0.2 MX,1,47127,47727,439,468 MY,1,47127,47727,340,307
Sprite,Foreground,Centre,"sb\dot.png",0,0 C,0,47127,,255,255,255 F,1,47127,47727,1,0 S,1,47127,47727,1,0.2 MX,1,47127,47727,439,441 MY,1,47127,47727,340,383
Sprite,Foreground,Centre,"sb\dot.png",0,0 C,0,47127,,255,255,255 F,1,47127,47727,1,0 S,1,47127,47727,1,0.2 MX,1,47127,47727,439,460 MY,1,47127,47727,340,337
Sprite,Foreground,Centre,"sb\dot.png",0,0 C,0,47127,,255,255,255 F,1,47127,47727,1,0 S,1,47127,47727,1,0.2 MX,1,47127,47727,439,435 MY,1,47127,47727,340,336
Sprite,Foreground,Centre,"sb\dot.png",0,0 C,0,47127,,255,255,255 F,1,47127,47727,1,0 S,1,47127,47727,1,0.2 MX,1,47127,47727,439,456 MY,1,47127,47727,340,347
Sprite,Foreground,Centre,"sb\dot.png",0,0 C,0,47127,,255,255,255 F,1,47127,47727,1,0 S,1,47127,47727,1,0.2 MX,1,47127,47727,439,479 MY,1,47127,47727,340,331
Sprite,Foreground,Centre,"sb\dot.png",0,0 C,0,47127,,255,255,255 F,1,47127,47727,1,0 S,1,47127,47727,1,0.2 MX,1,47127,47727,439,451 MY,1,47127,47727,340,345
Sprite,Foreground,Centre,"sb\dot.png",0,0 C,0,47127,,255,255,255 F,1,47127,47727,1,0 S,1,47127,47727,1,0.2 MX,1,47127,47727,439,449 MY,1,47127,47727,340,346
Sprite,Foreground,Centre,"sb\dot.png",0,0 C,0,47127,,255,255,255 F,1,47127,47727,1,0 S,1,47127,47727,1,0.2 MX,1,47127,47727,439,462 MY,1,47127,47727,340,327
Sprite,Foreground,Centre,"sb\dot.png",0,0 C,0,47127,,255,255,255 F,1,47127,47727,1,0 S,1,47127,47727,1,0.2 MX,1,47127,47727,439,432 MY,1,47127,47727,340,367
Sprite,Foreground,Centre,"sb\dot.png",0,0 C,0,47127,,255,255,255 F,1,47127,47727,1,0 S,1,47127,47727,1,0.2 MX,1,47127,47727,439,422 MY,1,47127,47727,340,280
Sprite,Foreground,Centre,"sb\dot.png",0,0 C,0,47127,,255,255,255 F,1,47127,47727,1,0 S,1,47127,47727,1,0.2 MX,1,47127,47727,439,401 MY,1,47127,47727,340,369
Sprite,Foreground,Centre,"sb\dot.png",0,0 C,0,47127,,255,255,255 F,1,47127,47727,1,0 S,1,47127,47727,1,0.2 MX,1,47127,47727,439,382 MY,1,47127,47727,340,397
Sprite,Foreground,Centre,"sb\dot.png",0,0 C,0,47127,,255,255,255 F,1,47127,47727,1,0 S,1,47127,47727,1,0.2 MX,1,47127,47727,439,423 MY,1,47127,47727,340,342
Sprite,Foreground,Centre,"sb\dot.png",0,0 C,0,47127,,255,255,255 F,1,47127,47727,1,0 S,1,47127,47727,1,0.2 MX,1,47127,47727,439,417 MY,1,47127,47727,340,331
Sprite,Foreground,Centre,"sb\dot.png",0,0 C,0,47127,,255,255,255 F,1,47127,47727,1,0 S,1,47127,47727,1,0.2 MX,1,47127,47727,439,421 MY,1,47127,47727,340,392
Sprite,Foreground,Centre,"sb\dot.png",0,0 C,0,47127,,255,255,255 F,1,47127,47727,1,0 S,1,47127,47727,1,0.2 MX,1,47127,47727,439,388 MY,1,47127,47727,340,391
Sprite,Foreground,Centre,"sb\dot.png",0,0 C,0,47127,,255,255,255 F,1,47127,47727,1,0 S,1,47127,47727,1,0.2 MX,1,47127,47727,439,438 MY,1,47127,47727,340,319
Sprite,Foreground,Centre,"sb\dot.png",0,0 C,0,47127,,255,255,255 F,1,47127,47727,1,0 S,1,47127,47727,1,0.2 MX,1,47127,47727,439,479 MY,1,47127,47727,340,374
Sprite,Foreground,Centre,"sb\dot.png",0,0 C,0,47127,,255,255,255 F,1,47127,47727,1,0 S,1,47127,47727,1,0.2 MX,1,47127,47727,439,405 MY,1,47127,47727,340,301
Sprite,Foreground,Centre,"sb\dot.png",0,0 C,0,47127,,255,255,255 F,1,47127,47727,1,0 S,1,47127,47727,1,0.2 MX,1,47127,47727,439,416 MY,1,47127,47727,340,362
Sprite,Foreground,Centre,"sb\dot.png",0,0 C,0,47127,,255,255,255 F,1,47127,47727,1,0 S,1,47127,47727,1,0.2 MX,1,47127,47727,439,388 MY,1,47127,47727,340,319
Sprite,Foreground,Centre,"sb\dot.png",0,0 C,0,47127,,255,255,255 F,1,47127,47727,1,0 S,1,47127,47727,1,0.2 MX,1,47127,47727,439,429 MY,1,47127,47727,340,371
Sprite,Foreground,Centre,"sb\dot.png",0,0 C,0,47127,,255,255,255 F,1,47127,47727,1,0 S,1,47127,47727,1,0.2 MX,1,47127,47727,439,411 MY,1,47127,47727,340,386
Sprite,Foreground,Centre,"sb\dot.png",0,0 C,0,47127,,255,255,255 F,1,47127,47727,1,0 S,1,47127,47727,1,0.2 MX,1,47127,47727,439,459 MY,1,47127,47727,340,344
Sprite,Foreground,Centre,"sb\dot.png",0,0 C,0,47127,,255,255,255 F,1,47127,47727,1,0 S,1,47127,47727,1,0.2 MX,1,47127,47727,439,412 MY,1,47127,47727,340,382
Sprite,Foreground,Centre,"sb\dot.png",0,0 C,0,47127,,255,255,255 F,1,47127,47727,1,0 S,1,47127,47727,1,0.2 MX,1,47127,47727,439,455 MY,1,47127,47727,340,379
Sprite,Foreground,Centre,"sb\dot.png",0,0 C,0,47127,,255,255,255 F,1,47127,47727,1,0 S,1,47127,47727,1,0.2 MX,1,47127,47727,439,433 MY,1,47127,47727,340,368
Sprite,Foreground,Centre,"sb\dot.png",0,0 C,0,47291,,255,255,255 F,1,47291,47891,1,0 S,1,47291,47891,1,0.2 MX,1,47291,47891,344,288 MY,1,47291,47891,208,240
Sprite,Foreground,Centre,"sb\dot.png",0,0 C,0,47291,,255,255,255 F,1,47291,47891,1,0 S,1,47291,47891,1,0.2 MX,1,47291,47891,344,383 MY,1,47291,47891,208,231
Sprite,Foreground,Centre,"sb\dot.png",0,0 C,0,47291,,255,255,255 F,1,47291,47891,1,0 S,1,47291,47891,1,0.2 MX,1,47291,47891,344,297 MY,1,47291,47891,208,261
Sprite,Foreground,Centre,"sb\dot.png",0,0 C,0,47291,,255,255,255 F,1,47291,47891,1,0 S,1,47291,47891,1,0.2 MX,1,47291,47891,344,301 MY,1,47291,47891,208,174
Sprite,Foreground,Centre,"sb\dot.png",0,0 C,0,47291,,255,255,255 F,1,47291,47891,1,0 S,1,47291,47891,1,0.2 MX,1,47291,47891,344,308 MY,1,47291,47891,208,256
Sprite,Foreground,Centre,"sb\dot.png",0,0 C,0,47291,,255,255,255 F,1,47291,47891,1,0 S,1,47291,47891,1,0.2 MX,1,47291,47891,344,325 MY,1,47291,47891,208,228
Sprite,Foreground,Centre,"sb\dot.png",0,0 C,0,47291,,255,255,255 F,1,47291,47891,1,0 S,1,47291,47891,1,0.2 MX,1,47291,47891,344,289 MY,1,47291,47891,208,178
Sprite,Foreground,Centre,"sb\dot.png",0,0 C,0,47291,,255,255,255 F,1,47291,47891,1,0 S,1,47291,47891,1,0.2 MX,1,47291,47891,344,370 MY,1,47291,47891,208,256
Sprite,Foreground,Centre,"sb\dot.png",0,0 C,0,47291,,255,255,255 F,1,47291,47891,1,0 S,1,47291,47891,1,0.2 MX,1,47291,47891,344,305 MY,1,47291,47891,208,180
Sprite,Foreground,Centre,"sb\dot.png",0,0 C,0,47291,,255,255,255 F,1,47291,47891,1,0 S,1,47291,47891,1,0.2 MX,1,47291,47891,344,334 MY,1,47291,47891,208,229
Sprite,Foreground,Centre,"sb\dot.png",0,0 C,0,47291,,255,255,255 F,1,47291,47891,1,0 S,1,47291,47891,1,0.2 MX,1,47291,47891,344,394 MY,1,47291,47891,208,251
Sprite,Foreground,Centre,"sb\dot.png",0,0 C,0,47291,,255,255,255 F,1,47291,47891,1,0 S,1,47291,47891,1,0.2 MX,1,47291,47891,344,323 MY,1,47291,47891,208,180
Sprite,Foreground,Centre,"sb\dot.png",0,0 C,0,47291,,255,255,255 F,1,47291,47891,1,0 S,1,47291,47891,1,0.2 MX,1,47291,47891,344,368 MY,1,47291,47891,208,205
Sprite,Foreground,Centre,"sb\dot.png",0,0 C,0,47291,,255,255,255 F,1,47291,47891,1,0 S,1,47291,47891,1,0.2 MX,1,47291,47891,344,386 MY,1,47291,47891,208,241
Sprite,Foreground,Centre,"sb\dot.png",0,0 C,0,47291,,255,255,255 F,1,47291,47891,1,0 S,1,47291,47891,1,0.2 MX,1,47291,47891,344,302 MY,1,47291,47891,208
Sprite,Foreground,Centre,"sb\dot.png",0,0 C,0,47291,,255,255,255 F,1,47291,47891,1,0 S,1,47291,47891,1,0.2 MX,1,47291,47891,344,320 MY,1,47291,47891,208,178
Sprite,Foreground,Centre,"sb\dot.png",0,0 C,0,47291,,255,255,255 F,1,47291,47891,1,0 S,1,47291,47891,1,0.2 MX,1,47291,47891,344,340 MY,1,47291,47891,208,238
Sprite,Foreground,Centre,"sb\dot.png",0,0 C,0,47291,,255,255,255 F,1,47291,47891,1,0 S,1,47291,47891,1,0.2 MX,1,47291,47891,344,319 MY,1,47291,47891,208,156
Sprite,Foreground,Centre,"sb\dot.png",0,0 C,0,47291,,255,255,255 F,1,47291,47891,1,0 S,1,47291,47891,1,0.2 MX,1,47291,47891,344,399 MY,1,47291,47891,208,210
Sprite,Foreground,Centre,"sb\dot.png",0,0 C,0,47291,,255,255,255 F,1,47291,47891,1,0 S,1,47291,47891,1,0.2 MX,1,47291,47891,344,291 MY,1,47291,47891,208,191
Sprite,Foreground,Centre,"sb\dot.png",0,0 C,0,47291,,255,255,255 F,1,47291,47891,1,0 S,1,47291,47891,1,0.2 MX,1,47291,47891,344,348 MY,1,47291,47891,208,251
Sprite,Foreground,Centre,"sb\dot.png",0,0 C,0,47291,,255,255,255 F,1,47291,47891,1,0 S,1,47291,47891,1,0.2 MX,1,47291,47891,344,298 MY,1,47291,47891,208,210
Sprite,Foreground,Centre,"sb\dot.png",0,0 C,0,47291,,255,255,255 F,1,47291,47891,1,0 S,1,47291,47891,1,0.2 MX,1,47291,47891,344,333 MY,1,47291,47891,208,220
Sprite,Foreground,Centre,"sb\dot.png",0,0 C,0,47291,,255,255,255 F,1,47291,47891,1,0 S,1,47291,47891,1,0.2 MX,1,47291,47891,344,385 MY,1,47291,47891,208,198
Sprite,Foreground,Centre,"sb\dot.png",0,0 C,0,47291,,255,255,255 F,1,47291,47891,1,0 S,1,47291,47891,1,0.2 MX,1,47291,47891,344,382 MY,1,47291,47891,208,192
Sprite,Foreground,Centre,"sb\dot.png",0,0 C,0,47291,,255,255,255 F,1,47291,47891,1,0 S,1,47291,47891,1,0.2 MX,1,47291,47891,344,365 MY,1,47291,47891,208,191
Sprite,Foreground,Centre,"sb\dot.png",0,0 C,0,47291,,255,255,255 F,1,47291,47891,1,0 S,1,47291,47891,1,0.2 MX,1,47291,47891,344,332 MY,1,47291,47891,208,241
Sprite,Foreground,Centre,"sb\dot.png",0,0 C,0,47291,,255,255,255 F,1,47291,47891,1,0 S,1,47291,47891,1,0.2 MX,1,47291,47891,344,382 MY,1,47291,47891,208,169
Sprite,Foreground,Centre,"sb\dot.png",0,0 C,0,47291,,255,255,255 F,1,47291,47891,1,0 S,1,47291,47891,1,0.2 MX,1,47291,47891,344,336 MY,1,47291,47891,208,215
Sprite,Foreground,Centre,"sb\dot.png",0,0 C,0,47291,,255,255,255 F,1,47291,47891,1,0 S,1,47291,47891,1,0.2 MX,1,47291,47891,344,403 MY,1,47291,47891,208,224
Sprite,Foreground,Centre,"sb\dot.png",0,0 C,0,47455,,255,255,255 F,1,47455,48055,1,0 S,1,47455,48055,1,0.2 MX,1,47455,48055,189,140 MY,1,47455,48055,288,272
Sprite,Foreground,Centre,"sb\dot.png",0,0 C,0,47455,,255,255,255 F,1,47455,48055,1,0 S,1,47455,48055,1,0.2 MX,1,47455,48055,189,137 MY,1,47455,48055,288,312
Sprite,Foreground,Centre,"sb\dot.png",0,0 C,0,47455,,255,255,255 F,1,47455,48055,1,0 S,1,47455,48055,1,0.2 MX,1,47455,48055,189,201 MY,1,47455,48055,288,239
Sprite,Foreground,Centre,"sb\dot.png",0,0 C,0,47455,,255,255,255 F,1,47455,48055,1,0 S,1,47455,48055,1,0.2 MX,1,47455,48055,189,152 MY,1,47455,48055,288,262
Sprite,Foreground,Centre,"sb\dot.png",0,0 C,0,47455,,255,255,255 F,1,47455,48055,1,0 S,1,47455,48055,1,0.2 MX,1,47455,48055,189,243 MY,1,47455,48055,288,305
Sprite,Foreground,Centre,"sb\dot.png",0,0 C,0,47455,,255,255,255 F,1,47455,48055,1,0 S,1,47455,48055,1,0.2 MX,1,47455,48055,189,242 MY,1,47455,48055,288,306
Sprite,Foreground,Centre,"sb\dot.png",0,0 C,0,47455,,255,255,255 F,1,47455,48055,1,0 S,1,47455,48055,1,0.2 MX,1,47455,48055,189,153 MY,1,47455,48055,288,234
Sprite,Foreground,Centre,"sb\dot.png",0,0 C,0,47455,,255,255,255 F,1,47455,48055,1,0 S,1,47455,48055,1,0.2 MX,1,47455,48055,189,145 MY,1,47455,48055,288,235
Sprite,Foreground,Centre,"sb\dot.png",0,0 C,0,47455,,255,255,255 F,1,47455,48055,1,0 S,1,47455,48055,1,0.2 MX,1,47455,48055,189,218 MY,1,47455,48055,288,324
Sprite,Foreground,Centre,"sb\dot.png",0,0 C,0,47455,,255,255,255 F,1,47455,48055,1,0 S,1,47455,48055,1,0.2 MX,1,47455,48055,189,231 MY,1,47455,48055,288,240
Sprite,Foreground,Centre,"sb\dot.png",0,0 C,0,47455,,255,255,255 F,1,47455,48055,1,0 S,1,47455,48055,1,0.2 MX,1,47455,48055,189,204 MY,1,47455,48055,288,279
Sprite,Foreground,Centre,"sb\dot.png",0,0 C,0,47455,,255,255,255 F,1,47455,48055,1,0 S,1,47455,48055,1,0.2 MX,1,47455,48055,189,243 MY,1,47455,48055,288,321
Sprite,Foreground,Centre,"sb\dot.png",0,0 C,0,47455,,255,255,255 F,1,47455,48055,1,0 S,1,47455,48055,1,0.2 MX,1,47455,48055,189,228 MY,1,47455,48055,288,340
Sprite,Foreground,Centre,"sb\dot.png",0,0 C,0,47455,,255,255,255 F,1,47455,48055,1,0 S,1,47455,48055,1,0.2 MX,1,47455,48055,189,230 MY,1,47455,48055,288,311
Sprite,Foreground,Centre,"sb\dot.png",0,0 C,0,47455,,255,255,255 F,1,47455,48055,1,0 S,1,47455,48055,1,0.2 MX,1,47455,48055,189,241 MY,1,47455,48055,288,241
Sprite,Foreground,Centre,"sb\dot.png",0,0 C,0,47455,,255,255,255 F,1,47455,48055,1,0 S,1,47455,48055,1,0.2 MX,1,47455,48055,189,204 MY,1,47455,48055,288,276
Sprite,Foreground,Centre,"sb\dot.png",0,0 C,0,47455,,255,255,255 F,1,47455,48055,1,0 S,1,47455,48055,1,0.2 MX,1,47455,48055,189,192 MY,1,47455,48055,288,279
Sprite,Foreground,Centre,"sb\dot.png",0,0 C,0,47455,,255,255,255 F,1,47455,48055,1,0 S,1,47455,48055,1,0.2 MX,1,47455,48055,189,160 MY,1,47455,48055,288,248
Sprite,Foreground,Centre,"sb\dot.png",0,0 C,0,47455,,255,255,255 F,1,47455,48055,1,0 S,1,47455,48055,1,0.2 MX,1,47455,48055,189,223 MY,1,47455,48055,288,277
Sprite,Foreground,Centre,"sb\dot.png",0,0 C,0,47455,,255,255,255 F,1,47455,48055,1,0 S,1,47455,48055,1,0.2 MX,1,47455,48055,189,239 MY,1,47455,48055,288,266
Sprite,Foreground,Centre,"sb\dot.png",0,0 C,0,47455,,255,255,255 F,1,47455,48055,1,0 S,1,47455,48055,1,0.2 MX,1,47455,48055,189,177 MY,1,47455,48055,288,295
Sprite,Foreground,Centre,"sb\dot.png",0,0 C,0,47455,,255,255,255 F,1,47455,48055,1,0 S,1,47455,48055,1,0.2 MX,1,47455,48055,189,184 MY,1,47455,48055,288,249
Sprite,Foreground,Centre,"sb\dot.png",0,0 C,0,47455,,255,255,255 F,1,47455,48055,1,0 S,1,47455,48055,1,0.2 MX,1,47455,48055,189,179 MY,1,47455,48055,288,230
Sprite,Foreground,Centre,"sb\dot.png",0,0 C,0,47455,,255,255,255 F,1,47455,48055,1,0 S,1,47455,48055,1,0.2 MX,1,47455,48055,189,148 MY,1,47455,48055,288,270
Sprite,Foreground,Centre,"sb\dot.png",0,0 C,0,47455,,255,255,255 F,1,47455,48055,1,0 S,1,47455,48055,1,0.2 MX,1,47455,48055,189,206 MY,1,47455,48055,288,319
Sprite,Foreground,Centre,"sb\dot.png",0,0 C,0,47455,,255,255,255 F,1,47455,48055,1,0 S,1,47455,48055,1,0.2 MX,1,47455,48055,189,181 MY,1,47455,48055,288,303
Sprite,Foreground,Centre,"sb\dot.png",0,0 C,0,47455,,255,255,255 F,1,47455,48055,1,0 S,1,47455,48055,1,0.2 MX,1,47455,48055,189,213 MY,1,47455,48055,288,335
Sprite,Foreground,Centre,"sb\dot.png",0,0 C,0,47455,,255,255,255 F,1,47455,48055,1,0 S,1,47455,48055,1,0.2 MX,1,47455,48055,189,129 MY,1,47455,48055,288,308
Sprite,Foreground,Centre,"sb\dot.png",0,0 C,0,47455,,255,255,255 F,1,47455,48055,1,0 S,1,47455,48055,1,0.2 MX,1,47455,48055,189,178 MY,1,47455,48055,288,262
Sprite,Foreground,Centre,"sb\dot.png",0,0 C,0,47455,,255,255,255 F,1,47455,48055,1,0 S,1,47455,48055,1,0.2 MX,1,47455,48055,189,234 MY,1,47455,48055,288,307
Sprite,Foreground,Centre,"sb\dot.png",0,0 C,0,47619,,255,255,255 F,1,47619,48219,1,0 S,1,47619,48219,1,0.2 MX,1,47619,48219,359,328 MY,1,47619,48219,314
Sprite,Foreground,Centre,"sb\dot.png",0,0 C,0,47619,,255,255,255 F,1,47619,48219,1,0 S,1,47619,48219,1,0.2 MX,1,47619,48219,359,340 MY,1,47619,48219,314,355
Sprite,Foreground,Centre,"sb\dot.png",0,0 C,0,47619,,255,255,255 F,1,47619,48219,1,0 S,1,47619,48219,1,0.2 MX,1,47619,48219,359,301 MY,1,47619,48219,314,319
Sprite,Foreground,Centre,"sb\dot.png",0,0 C,0,47619,,255,255,255 F,1,47619,48219,1,0 S,1,47619,48219,1,0.2 MX,1,47619,48219,359,314 MY,1,47619,48219,314,346
Sprite,Foreground,Centre,"sb\dot.png",0,0 C,0,47619,,255,255,255 F,1,47619,48219,1,0 S,1,47619,48219,1,0.2 MX,1,47619,48219,359,393 MY,1,47619,48219,314,369
Sprite,Foreground,Centre,"sb\dot.png",0,0 C,0,47619,,255,255,255 F,1,47619,48219,1,0 S,1,47619,48219,1,0.2 MX,1,47619,48219,359,331 MY,1,47619,48219,314,293
Sprite,Foreground,Centre,"sb\dot.png",0,0 C,0,47619,,255,255,255 F,1,47619,48219,1,0 S,1,47619,48219,1,0.2 MX,1,47619,48219,359,405 MY,1,47619,48219,314,317
Sprite,Foreground,Centre,"sb\dot.png",0,0 C,0,47619,,255,255,255 F,1,47619,48219,1,0 S,1,47619,48219,1,0.2 MX,1,47619,48219,359,383 MY,1,47619,48219,314,262
Sprite,Foreground,Centre,"sb\dot.png",0,0 C,0,47619,,255,255,255 F,1,47619,48219,1,0 S,1,47619,48219,1,0.2 MX,1,47619,48219,359,414 MY,1,47619,48219,314,347
Sprite,Foreground,Centre,"sb\dot.png",0,0 C,0,47619,,255,255,255 F,1,47619,48219,1,0 S,1,47619,48219,1,0.2 MX,1,47619,48219,359,341 MY,1,47619,48219,314,350
Sprite,Foreground,Centre,"sb\dot.png",0,0 C,0,47619,,255,255,255 F,1,47619,48219,1,0 S,1,47619,48219,1,0.2 MX,1,47619,48219,359,391 MY,1,47619,48219,314,313
Sprite,Foreground,Centre,"sb\dot.png",0,0 C,0,47619,,255,255,255 F,1,47619,48219,1,0 S,1,47619,48219,1,0.2 MX,1,47619,48219,359,305 MY,1,47619,48219,314,275
Sprite,Foreground,Centre,"sb\dot.png",0,0 C,0,47619,,255,255,255 F,1,47619,48219,1,0 S,1,47619,48219,1,0.2 MX,1,47619,48219,359,380 MY,1,47619,48219,314,373
Sprite,Foreground,Centre,"sb\dot.png",0,0 C,0,47619,,255,255,255 F,1,47619,48219,1,0 S,1,47619,48219,1,0.2 MX,1,47619,48219,359,382 MY,1,47619,48219,314,329
Sprite,Foreground,Centre,"sb\dot.png",0,0 C,0,47619,,255,255,255 F,1,47619,48219,1,0 S,1,47619,48219,1,0.2 MX,1,47619,48219,359,349 MY,1,47619,48219,314,325
Sprite,Foreground,Centre,"sb\dot.png",0,0 C,0,47619,,255,255,255 F,1,47619,48219,1,0 S,1,47619,48219,1,0.2 MX,1,47619,48219,359,390 MY,1,47619,48219,314,313
Sprite,Foreground,Centre,"sb\dot.png",0,0 C,0,47619,,255,255,255 F,1,47619,48219,1,0 S,1,47619,48219,1,0.2 MX,1,47619,48219,359,363 MY,1,47619,48219,314,284
Sprite,Foreground,Centre,"sb\dot.png",0,0 C,0,47619,,255,255,255 F,1,47619,48219,1,0 S,1,47619,48219,1,0.2 MX,1,47619,48219,359,307 MY,1,47619,48219,314,361
Sprite,Foreground,Centre,"sb\dot.png",0,0 C,0,47619,,255,255,255 F,1,47619,48219,1,0 S,1,47619,48219,1,0.2 MX,1,47619,48219,359,324 MY,1,47619,48219,314,328
Sprite,Foreground,Centre,"sb\dot.png",0,0 C,0,47619,,255,255,255 F,1,47619,48219,1,0 S,1,47619,48219,1,0.2 MX,1,47619,48219,359,318 MY,1,47619,48219,314,359
Sprite,Foreground,Centre,"sb\dot.png",0,0 C,0,47619,,255,255,255 F,1,47619,48219,1,0 S,1,47619,48219,1,0.2 MX,1,47619,48219,359,406 MY,1,47619,48219,314,300
Sprite,Foreground,Centre,"sb\dot.png",0,0 C,0,47619,,255,255,255 F,1,47619,48219,1,0 S,1,47619,48219,1,0.2 MX,1,47619,48219,359,366 MY,1,47619,48219,314,335
Sprite,Foreground,Centre,"sb\dot.png",0,0 C,0,47619,,255,255,255 F,1,47619,48219,1,0 S,1,47619,48219,1,0.2 MX,1,47619,48219,359,357 MY,1,47619,48219,314,266
Sprite,Foreground,Centre,"sb\dot.png",0,0 C,0,47619,,255,255,255 F,1,47619,48219,1,0 S,1,47619,48219,1,0.2 MX,1,47619,48219,359,388 MY,1,47619,48219,314,275
Sprite,Foreground,Centre,"sb\dot.png",0,0 C,0,47619,,255,255,255 F,1,47619,48219,1,0 S,1,47619,48219,1,0.2 MX,1,47619,48219,359,322 MY,1,47619,48219,314,366
Sprite,Foreground,Centre,"sb\dot.png",0,0 C,0,47619,,255,255,255 F,1,47619,48219,1,0 S,1,47619,48219,1,0.2 MX,1,47619,48219,359,383 MY,1,47619,48219,314,329
Sprite,Foreground,Centre,"sb\dot.png",0,0 C,0,47619,,255,255,255 F,1,47619,48219,1,0 S,1,47619,48219,1,0.2 MX,1,47619,48219,359,410 MY,1,47619,48219,314,263
Sprite,Foreground,Centre,"sb\dot.png",0,0 C,0,47619,,255,255,255 F,1,47619,48219,1,0 S,1,47619,48219,1,0.2 MX,1,47619,48219,359,406 MY,1,47619,48219,314,344
Sprite,Foreground,Centre,"sb\dot.png",0,0 C,0,47619,,255,255,255 F,1,47619,48219,1,0 S,1,47619,48219,1,0.2 MX,1,47619,48219,359,353 MY,1,47619,48219,314,274
Sprite,Foreground,Centre,"sb\dot.png",0,0 C,0,47619,,255,255,255 F,1,47619,48219,1,0 S,1,47619,48219,1,0.2 MX,1,47619,48219,359,318 MY,1,47619,48219,314,256
Sprite,Foreground,Centre,"sb\dot.png",0,0 C,0,47783,,255,255,255 F,1,47783,48383,1,0 S,1,47783,48383,1,0.2 MX,1,47783,48383,231,273 MY,1,47783,48383,197,196
Sprite,Foreground,Centre,"sb\dot.png",0,0 C,0,47783,,255,255,255 F,1,47783,48383,1,0 S,1,47783,48383,1,0.2 MX,1,47783,48383,231,213 MY,1,47783,48383,197,160
Sprite,Foreground,Centre,"sb\dot.png",0,0 C,0,47783,,255,255,255 F,1,47783,48383,1,0 S,1,47783,48383,1,0.2 MX,1,47783,48383,231,195 MY,1,47783,48383,197,229
Sprite,Foreground,Centre,"sb\dot.png",0,0 C,0,47783,,255,255,255 F,1,47783,48383,1,0 S,1,47783,48383,1,0.2 MX,1,47783,48383,231,266 MY,1,47783,48383,197,213
Sprite,Foreground,Centre,"sb\dot.png",0,0 C,0,47783,,255,255,255 F,1,47783,48383,1,0 S,1,47783,48383,1,0.2 MX,1,47783,48383,231,225 MY,1,47783,48383,197,233
Sprite,Foreground,Centre,"sb\dot.png",0,0 C,0,47783,,255,255,255 F,1,47783,48383,1,0 S,1,47783,48383,1,0.2 MX,1,47783,48383,231,274 MY,1,47783,48383,197,178
Sprite,Foreground,Centre,"sb\dot.png",0,0 C,0,47783,,255,255,255 F,1,47783,48383,1,0 S,1,47783,48383,1,0.2 MX,1,47783,48383,231,245 MY,1,47783,48383,197,194
Sprite,Foreground,Centre,"sb\dot.png",0,0 C,0,47783,,255,255,255 F,1,47783,48383,1,0 S,1,47783,48383,1,0.2 MX,1,47783,48383,231,279 MY,1,47783,48383,197,183
Sprite,Foreground,Centre,"sb\dot.png",0,0 C,0,47783,,255,255,255 F,1,47783,48383,1,0 S,1,47783,48383,1,0.2 MX,1,47783,48383,231,283 MY,1,47783,48383,197,181
Sprite,Foreground,Centre,"sb\dot.png",0,0 C,0,47783,,255,255,255 F,1,47783,48383,1,0 S,1,47783,48383,1,0.2 MX,1,47783,48383,231,253 MY,1,47783,48383,197,205
Sprite,Foreground,Centre,"sb\dot.png",0,0 C,0,47783,,255,255,255 F,1,47783,48383,1,0 S,1,47783,48383,1,0.2 MX,1,47783,48383,231,201 MY,1,47783,48383,197,199
Sprite,Foreground,Centre,"sb\dot.png",0,0 C,0,47783,,255,255,255 F,1,47783,48383,1,0 S,1,47783,48383,1,0.2 MX,1,47783,48383,231,223 MY,1,47783,48383,197,195
Sprite,Foreground,Centre,"sb\dot.png",0,0 C,0,47783,,255,255,255 F,1,47783,48383,1,0 S,1,47783,48383,1,0.2 MX,1,47783,48383,231,277 MY,1,47783,48383,197,152
Sprite,Foreground,Centre,"sb\dot.png",0,0 C,0,47783,,255,255,255 F,1,47783,48383,1,0 S,1,47783,48383,1,0.2 MX,1,47783,48383,231,238 MY,1,47783,48383,197,192
Sprite,Foreground,Centre,"sb\dot.png",0,0 C,0,47783,,255,255,255 F,1,47783,48383,1,0 S,1,47783,48383,1,0.2 MX,1,47783,48383,231,214 MY,1,47783,48383,197,175
Sprite,Foreground,Centre,"sb\dot.png",0,0 C,0,47783,,255,255,255 F,1,47783,48383,1,0 S,1,47783,48383,1,0.2 MX,1,47783,48383,231,224 MY,1,47783,48383,197,141
Sprite,Foreground,Centre,"sb\dot.png",0,0 C,0,47783,,255,255,255 F,1,47783,48383,1,0 S,1,47783,48383,1,0.2 MX,1,47783,48383,231,225 MY,1,47783,48383,197,153
Sprite,Foreground,Centre,"sb\dot.png",0,0 C,0,47783,,255,255,255 F,1,47783,48383,1,0 S,1,47783,48383,1,0.2 MX,1,47783,48383,231,174 MY,1,47783,48383,197,185
Sprite,Foreground,Centre,"sb\dot.png",0,0 C,0,47783,,255,255,255 F,1,47783,48383,1,0 S,1,47783,48383,1,0.2 MX,1,47783,48383,231,175 MY,1,47783,48383,197,180
Sprite,Foreground,Centre,"sb\dot.png",0,0 C,0,47783,,255,255,255 F,1,47783,48383,1,0 S,1,47783,48383,1,0.2 MX,1,47783,48383,231,228 MY,1,47783,48383,197,223
Sprite,Foreground,Centre,"sb\dot.png",0,0 C,0,47783,,255,255,255 F,1,47783,48383,1,0 S,1,47783,48383,1,0.2 MX,1,47783,48383,231,208 MY,1,47783,48383,197,150
Sprite,Foreground,Centre,"sb\dot.png",0,0 C,0,47783,,255,255,255 F,1,47783,48383,1,0 S,1,47783,48383,1,0.2 MX,1,47783,48383,231,257 MY,1,47783,48383,197,183
Sprite,Foreground,Centre,"sb\dot.png",0,0 C,0,47783,,255,255,255 F,1,47783,48383,1,0 S,1,47783,48383,1,0.2 MX,1,47783,48383,231,179 MY,1,47783,48383,197,179
Sprite,Foreground,Centre,"sb\dot.png",0,0 C,0,47783,,255,255,255 F,1,47783,48383,1,0 S,1,47783,48383,1,0.2 MX,1,47783,48383,231,171 MY,1,47783,48383,197,191
Sprite,Foreground,Centre,"sb\dot.png",0,0 C,0,47783,,255,255,255 F,1,47783,48383,1,0 S,1,47783,48383,1,0.2 MX,1,47783,48383,231,191 MY,1,47783,48383,197
Sprite,Foreground,Centre,"sb\dot.png",0,0 C,0,47783,,255,255,255 F,1,47783,48383,1,0 S,1,47783,48383,1,0.2 MX,1,47783,48383,231,269 MY,1,47783,48383,197,146
Sprite,Foreground,Centre,"sb\dot.png",0,0 C,0,47783,,255,255,255 F,1,47783,48383,1,0 S,1,47783,48383,1,0.2 MX,1,47783,48383,231,229 MY,1,47783,48383,197,208
Sprite,Foreground,Centre,"sb\dot.png",0,0 C,0,47783,,255,255,255 F,1,47783,48383,1,0 S,1,47783,48383,1,0.2 MX,1,47783,48383,231,263 MY,1,47783,48383,197,177
Sprite,Foreground,Centre,"sb\dot.png",0,0 C,0,47783,,255,255,255 F,1,47783,48383,1,0 S,1,47783,48383,1,0.2 MX,1,47783,48383,231,177 MY,1,47783,48383,197,240
Sprite,Foreground,Centre,"sb\dot.png",0,0 C,0,47783,,255,255,255 F,1,47783,48383,1,0 S,1,47783,48383,1,0.2 MX,1,47783,48383,231,207 MY,1,47783,48383,197,145
Sprite,Foreground,Centre,"sb\dot.png",0,0 C,0,48111,,255,255,255 F,1,48111,48711,1,0 S,1,48111,48711,1,0.2 MX,1,48111,48711,127,91 MY,1,48111,48711,355,334
Sprite,Foreground,Centre,"sb\dot.png",0,0 C,0,48111,,255,255,255 F,1,48111,48711,1,0 S,1,48111,48711,1,0.2 MX,1,48111,48711,127,99 MY,1,48111,48711,355,311
Sprite,Foreground,Centre,"sb\dot.png",0,0 C,0,48111,,255,255,255 F,1,48111,48711,1,0 S,1,48111,48711,1,0.2 MX,1,48111,48711,127,109 MY,1,48111,48711,355,394
Sprite,Foreground,Centre,"sb\dot.png",0,0 C,0,48111,,255,255,255 F,1,48111,48711,1,0 S,1,48111,48711,1,0.2 MX,1,48111,48711,127,174 MY,1,48111,48711,355,352
Sprite,Foreground,Centre,"sb\dot.png",0,0 C,0,48111,,255,255,255 F,1,48111,48711,1,0 S,1,48111,48711,1,0.2 MX,1,48111,48711,127,120 MY,1,48111,48711,355
Sprite,Foreground,Centre,"sb\dot.png",0,0 C,0,48111,,255,255,255 F,1,48111,48711,1,0 S,1,48111,48711,1,0.2 MX,1,48111,48711,127,109 MY,1,48111,48711,355,363
Sprite,Foreground,Centre,"sb\dot.png",0,0 C,0,48111,,255,255,255 F,1,48111,48711,1,0 S,1,48111,48711,1,0.2 MX,1,48111,48711,127,174 MY,1,48111,48711,355,411
Sprite,Foreground,Centre,"sb\dot.png",0,0 C,0,48111,,255,255,255 F,1,48111,48711,1,0 S,1,48111,48711,1,0.2 MX,1,48111,48711,127,97 MY,1,48111,48711,355,312
Sprite,Foreground,Centre,"sb\dot.png",0,0 C,0,48111,,255,255,255 F,1,48111,48711,1,0 S,1,48111,48711,1,0.2 MX,1,48111,48711,127,162 MY,1,48111,48711,355,300
Sprite,Foreground,Centre,"sb\dot.png",0,0 C,0,48111,,255,255,255 F,1,48111,48711,1,0 S,1,48111,48711,1,0.2 MX,1,48111,48711,127,116 MY,1,48111,48711,355,359
Sprite,Foreground,Centre,"sb\dot.png",0,0 C,0,48111,,255,255,255 F,1,48111,48711,1,0 S,1,48111,48711,1,0.2 MX,1,48111,48711,127,81 MY,1,48111,48711,355,308
Sprite,Foreground,Centre,"sb\dot.png",0,0 C,0,48111,,255,255,255 F,1,48111,48711,1,0 S,1,48111,48711,1,0.2 MX,1,48111,48711,127,101 MY,1,48111,48711,355,397
Sprite,Foreground,Centre,"sb\dot.png",0,0 C,0,48111,,255,255,255 F,1,48111,48711,1,0 S,1,48111,48711,1,0.2 MX,1,48111,48711,127 MY,1,48111,48711,355,339
Sprite,Foreground,Centre,"sb\dot.png",0,0 C,0,48111,,255,255,255 F,1,48111,48711,1,0 S,1,48111,48711,1,0.2 MX,1,48111,48711,127,132 MY,1,48111,48711,355,398
Sprite,Foreground,Centre,"sb\dot.png",0,0 C,0,48111,,255,255,255 F,1,48111,48711,1,0 S,1,48111,48711,1,0.2 MX,1,48111,48711,127,111 MY,1,48111,48711,355,378
Sprite,Foreground,Centre,"sb\dot.png",0,0 C,0,48111,,255,255,255 F,1,48111,48711,1,0 S,1,48111,48711,1,0.2 MX,1,48111,48711,127,108 MY,1,48111,48711,355,315
Sprite,Foreground,Centre,"sb\dot.png",0,0 C,0,48111,,255,255,255 F,1,48111,48711,1,0 S,1,48111,48711,1,0.2 MX,1,48111,48711,127,73 MY,1,48111,48711,355,343
Sprite,Foreground,Centre,"sb\dot.png",0,0 C,0,48111,,255,255,255 F,1,48111,48711,1,0 S,1,48111,48711,1,0.2 MX,1,48111,48711,127,128 MY,1,48111,48711,355,412
Sprite,Foreground,Centre,"sb\dot.png",0,0 C,0,48111,,255,255,255 F,1,48111,48711,1,0 S,1,48111,48711,1,0.2 MX,1,48111,48711,127,167 MY,1,48111,48711,355,364
Sprite,Foreground,Centre,"sb\dot.png",0,0 C,0,48111,,255,255,255 F,1,48111,48711,1,0 S,1,48111,48711,1,0.2 MX,1,48111,48711,127,71 MY,1,48111,48711,355,324
Sprite,Foreground,Centre,"sb\dot.png",0,0 C,0,48111,,255,255,255 F,1,48111,48711,1,0 S,1,48111,48711,1,0.2 MX,1,48111,48711,127,122 MY,1,48111,48711,355,358
Sprite,Foreground,Centre,"sb\dot.png",0,0 C,0,48111,,255,255,255 F,1,48111,48711,1,0 S,1,48111,48711,1,0.2 MX,1,48111,48711,127,68 MY,1,48111,48711,355,375
Sprite,Foreground,Centre,"sb\dot.png",0,0 C,0,48111,,255,255,255 F,1,48111,48711,1,0 S,1,48111,48711,1,0.2 MX,1,48111,48711,127,85 MY,1,48111,48711,355,325
Sprite,Foreground,Centre,"sb\dot.png",0,0 C,0,48111,,255,255,255 F,1,48111,48711,1,0 S,1,48111,48711,1,0.2 MX,1,48111,48711,127,88 MY,1,48111,48711,355,357
Sprite,Foreground,Centre,"sb\dot.png",0,0 C,0,48111,,255,255,255 F,1,48111,48711,1,0 S,1,48111,48711,1,0.2 MX,1,48111,48711,127,107 MY,1,48111,48711,355,369
Sprite,Foreground,Centre,"sb\dot.png",0,0 C,0,48111,,255,255,255 F,1,48111,48711,1,0 S,1,48111,48711,1,0.2 MX,1,48111,48711,127,131 MY,1,48111,48711,355,296
Sprite,Foreground,Centre,"sb\dot.png",0,0 C,0,48111,,255,255,255 F,1,48111,48711,1,0 S,1,48111,48711,1,0.2 MX,1,48111,48711,127,120 MY,1,48111,48711,355,387
Sprite,Foreground,Centre,"sb\dot.png",0,0 C,0,48111,,255,255,255 F,1,48111,48711,1,0 S,1,48111,48711,1,0.2 MX,1,48111,48711,127,180 MY,1,48111,48711,355,306
Sprite,Foreground,Centre,"sb\dot.png",0,0 C,0,48111,,255,255,255 F,1,48111,48711,1,0 S,1,48111,48711,1,0.2 MX,1,48111,48711,127,72 MY,1,48111,48711,355,345
Sprite,Foreground,Centre,"sb\dot.png",0,0 C,0,48111,,255,255,255 F,1,48111,48711,1,0 S,1,48111,48711,1,0.2 MX,1,48111,48711,127,143 MY,1,48111,48711,355,413
Sprite,Foreground,Centre,"sb\dot.png",0,0 C,0,48193,,255,255,255 F,1,48193,48793,1,0 S,1,48193,48793,1,0.2 MX,1,48193,48793,127,100 MY,1,48193,48793,355,299
Sprite,Foreground,Centre,"sb\dot.png",0,0 C,0,48193,,255,255,255 F,1,48193,48793,1,0 S,1,48193,48793,1,0.2 MX,1,48193,48793,127,80 MY,1,48193,48793,355,385
Sprite,Foreground,Centre,"sb\dot.png",0,0 C,0,48193,,255,255,255 F,1,48193,48793,1,0 S,1,48193,48793,1,0.2 MX,1,48193,48793,127,86 MY,1,48193,48793,355,316
Sprite,Foreground,Centre,"sb\dot.png",0,0 C,0,48193,,255,255,255 F,1,48193,48793,1,0 S,1,48193,48793,1,0.2 MX,1,48193,48793,127,128 MY,1,48193,48793,355,353
Sprite,Foreground,Centre,"sb\dot.png",0,0 C,0,48193,,255,255,255 F,1,48193,48793,1,0 S,1,48193,48793,1,0.2 MX,1,48193,48793,127,121 MY,1,48193,48793,355,327
Sprite,Foreground,Centre,"sb\dot.png",0,0 C,0,48193,,255,255,255 F,1,48193,48793,1,0 S,1,48193,48793,1,0.2 MX,1,48193,48793,127,103 MY,1,48193,48793,355,320
Sprite,Foreground,Centre,"sb\dot.png",0,0 C,0,48193,,255,255,255 F,1,48193,48793,1,0 S,1,48193,48793,1,0.2 MX,1,48193,48793,127,68 MY,1,48193,48793,355,315
Sprite,Foreground,Centre,"sb\dot.png",0,0 C,0,48193,,255,255,255 F,1,48193,48793,1,0 S,1,48193,48793,1,0.2 MX,1,48193,48793,127,75 MY,1,48193,48793,355,366
Sprite,Foreground,Centre,"sb\dot.png",0,0 C,0,48193,,255,255,255 F,1,48193,48793,1,0 S,1,48193,48793,1,0.2 MX,1,48193,48793,127,79 MY,1,48193,48793,355,369
Sprite,Foreground,Centre,"sb\dot.png",0,0 C,0,48193,,255,255,255 F,1,48193,48793,1,0 S,1,48193,48793,1,0.2 MX,1,48193,48793,127,150 MY,1,48193,48793,355,325
Sprite,Foreground,Centre,"sb\dot.png",0,0 C,0,48193,,255,255,255 F,1,48193,48793,1,0 S,1,48193,48793,1,0.2 MX,1,48193,48793,127,89 MY,1,48193,48793,355,297
Sprite,Foreground,Centre,"sb\dot.png",0,0 C,0,48193,,255,255,255 F,1,48193,48793,1,0 S,1,48193,48793,1,0.2 MX,1,48193,48793,127,129 MY,1,48193,48793,355,384
Sprite,Foreground,Centre,"sb\dot.png",0,0 C,0,48193,,255,255,255 F,1,48193,48793,1,0 S,1,48193,48793,1,0.2 MX,1,48193,48793,127,85 MY,1,48193,48793,355,335
Sprite,Foreground,Centre,"sb\dot.png",0,0 C,0,48193,,255,255,255 F,1,48193,48793,1,0 S,1,48193,48793,1,0.2 MX,1,48193,48793,127,153 MY,1,48193,48793,355,329
Sprite,Foreground,Centre,"sb\dot.png",0,0 C,0,48193,,255,255,255 F,1,48193,48793,1,0 S,1,48193,48793,1,0.2 MX,1,48193,48793,127,121 MY,1,48193,48793,355,344
Sprite,Foreground,Centre,"sb\dot.png",0,0 C,0,48193,,255,255,255 F,1,48193,48793,1,0 S,1,48193,48793,1,0.2 MX,1,48193,48793,127,179 MY,1,48193,48793,355,345
Sprite,Foreground,Centre,"sb\dot.png",0,0 C,0,48193,,255,255,255 F,1,48193,48793,1,0 S,1,48193,48793,1,0.2 MX,1,48193,48793,127,180 MY,1,48193,48793,355,301
Sprite,Foreground,Centre,"sb\dot.png",0,0 C,0,48193,,255,255,255 F,1,48193,48793,1,0 S,1,48193,48793,1,0.2 MX,1,48193,48793,127,182 MY,1,48193,48793,355,346
Sprite,Foreground,Centre,"sb\dot.png",0,0 C,0,48193,,255,255,255 F,1,48193,48793,1,0 S,1,48193,48793,1,0.2 MX,1,48193,48793,127,116 MY,1,48193,48793,355,325
Sprite,Foreground,Centre,"sb\dot.png",0,0 C,0,48193,,255,255,255 F,1,48193,48793,1,0 S,1,48193,48793,1,0.2 MX,1,48193,48793,127 MY,1,48193,48793,355,412
Sprite,Foreground,Centre,"sb\dot.png",0,0 C,0,48193,,255,255,255 F,1,48193,48793,1,0 S,1,48193,48793,1,0.2 MX,1,48193,48793,127,155 MY,1,48193,48793,355,377
Sprite,Foreground,Centre,"sb\dot.png",0,0 C,0,48193,,255,255,255 F,1,48193,48793,1,0 S,1,48193,48793,1,0.2 MX,1,48193,48793,127,74 MY,1,48193,48793,355,302
Sprite,Foreground,Centre,"sb\dot.png",0,0 C,0,48193,,255,255,255 F,1,48193,48793,1,0 S,1,48193,48793,1,0.2 MX,1,48193,48793,127,105 MY,1,48193,48793,355,333
Sprite,Foreground,Centre,"sb\dot.png",0,0 C,0,48193,,255,255,255 F,1,48193,48793,1,0 S,1,48193,48793,1,0.2 MX,1,48193,48793,127,186 MY,1,48193,48793,355,328
Sprite,Foreground,Centre,"sb\dot.png",0,0 C,0,48193,,255,255,255 F,1,48193,48793,1,0 S,1,48193,48793,1,0.2 MX,1,48193,48793,127,151 MY,1,48193,48793,355,337
Sprite,Foreground,Centre,"sb\dot.png",0,0 C,0,48193,,255,255,255 F,1,48193,48793,1,0 S,1,48193,48793,1,0.2 MX,1,48193,48793,127,186 MY,1,48193,48793,355,346
Sprite,Foreground,Centre,"sb\dot.png",0,0 C,0,48193,,255,255,255 F,1,48193,48793,1,0 S,1,48193,48793,1,0.2 MX,1,48193,48793,127,153 MY,1,48193,48793,355,341
Sprite,Foreground,Centre,"sb\dot.png",0,0 C,0,48193,,255,255,255 F,1,48193,48793,1,0 S,1,48193,48793,1,0.2 MX,1,48193,48793,127,162 MY,1,48193,48793,355,325
Sprite,Foreground,Centre,"sb\dot.png",0,0 C,0,48193,,255,255,255 F,1,48193,48793,1,0 S,1,48193,48793,1,0.2 MX,1,48193,48793,127,128 MY,1,48193,48793,355,338
Sprite,Foreground,Centre,"sb\dot.png",0,0 C,0,48193,,255,255,255 F,1,48193,48793,1,0 S,1,48193,48793,1,0.2 MX,1,48193,48793,127,138 MY,1,48193,48793,355,393
Sprite,Foreground,Centre,"sb\dot.png",0,0 C,0,48275,,255,255,255 F,1,48275,48875,1,0 S,1,48275,48875,1,0.2 MX,1,48275,48875,127,122 MY,1,48275,48875,355,322
Sprite,Foreground,Centre,"sb\dot.png",0,0 C,0,48275,,255,255,255 F,1,48275,48875,1,0 S,1,48275,48875,1,0.2 MX,1,48275,48875,127,71 MY,1,48275,48875,355,300
Sprite,Foreground,Centre,"sb\dot.png",0,0 C,0,48275,,255,255,255 F,1,48275,48875,1,0 S,1,48275,48875,1,0.2 MX,1,48275,48875,127,107 MY,1,48275,48875,355,401
Sprite,Foreground,Centre,"sb\dot.png",0,0 C,0,48275,,255,255,255 F,1,48275,48875,1,0 S,1,48275,48875,1,0.2 MX,1,48275,48875,127,99 MY,1,48275,48875,355,410
Sprite,Foreground,Centre,"sb\dot.png",0,0 C,0,48275,,255,255,255 F,1,48275,48875,1,0 S,1,48275,48875,1,0.2 MX,1,48275,48875,127,91 MY,1,48275,48875,355,372
Sprite,Foreground,Centre,"sb\dot.png",0,0 C,0,48275,,255,255,255 F,1,48275,48875,1,0 S,1,48275,48875,1,0.2 MX,1,48275,48875,127,89 MY,1,48275,48875,355,396
Sprite,Foreground,Centre,"sb\dot.png",0,0 C,0,48275,,255,255,255 F,1,48275,48875,1,0 S,1,48275,48875,1,0.2 MX,1,48275,48875,127,80 MY,1,48275,48875,355,381
Sprite,Foreground,Centre,"sb\dot.png",0,0 C,0,48275,,255,255,255 F,1,48275,48875,1,0 S,1,48275,48875,1,0.2 MX,1,48275,48875,127,128 MY,1,48275,48875,355,354
Sprite,Foreground,Centre,"sb\dot.png",0,0 C,0,48275,,255,255,255 F,1,48275,48875,1,0 S,1,48275,48875,1,0.2 MX,1,48275,48875,127,182 MY,1,48275,48875,355,349
Sprite,Foreground,Centre,"sb\dot.png",0,0 C,0,48275,,255,255,255 F,1,48275,48875,1,0 S,1,48275,48875,1,0.2 MX,1,48275,48875,127,118 MY,1,48275,48875,355,395
Sprite,Foreground,Centre,"sb\dot.png",0,0 C,0,48275,,255,255,255 F,1,48275,48875,1,0 S,1,48275,48875,1,0.2 MX,1,48275,48875,127,107 MY,1,48275,48875,355,347
Sprite,Foreground,Centre,"sb\dot.png",0,0 C,0,48275,,255,255,255 F,1,48275,48875,1,0 S,1,48275,48875,1,0.2 MX,1,48275,48875,127,136 MY,1,48275,48875,355,307
Sprite,Foreground,Centre,"sb\dot.png",0,0 C,0,48275,,255,255,255 F,1,48275,48875,1,0 S,1,48275,48875,1,0.2 MX,1,48275,48875,127,117 MY,1,48275,48875,355,356
Sprite,Foreground,Centre,"sb\dot.png",0,0 C,0,48275,,255,255,255 F,1,48275,48875,1,0 S,1,48275,48875,1,0.2 MX,1,48275,48875,127,150 MY,1,48275,48875,355,362
Sprite,Foreground,Centre,"sb\dot.png",0,0 C,0,48275,,255,255,255 F,1,48275,48875,1,0 S,1,48275,48875,1,0.2 MX,1,48275,48875,127,97 MY,1,48275,48875,355,380
Sprite,Foreground,Centre,"sb\dot.png",0,0 C,0,48275,,255,255,255 F,1,48275,48875,1,0 S,1,48275,48875,1,0.2 MX,1,48275,48875,127,176 MY,1,48275,48875,355,300
Sprite,Foreground,Centre,"sb\dot.png",0,0 C,0,48275,,255,255,255 F,1,48275,48875,1,0 S,1,48275,48875,1,0.2 MX,1,48275,48875,127,146 MY,1,48275,48875,355,377
Sprite,Foreground,Centre,"sb\dot.png",0,0 C,0,48275,,255,255,255 F,1,48275,48875,1,0 S,1,48275,48875,1,0.2 MX,1,48275,48875,127,128 MY,1,48275,48875,355,356
Sprite,Foreground,Centre,"sb\dot.png",0,0 C,0,48275,,255,255,255 F,1,48275,48875,1,0 S,1,48275,48875,1,0.2 MX,1,48275,48875,127,145 MY,1,48275,48875,355,297
Sprite,Foreground,Centre,"sb\dot.png",0,0 C,0,48275,,255,255,255 F,1,48275,48875,1,0 S,1,48275,48875,1,0.2 MX,1,48275,48875,127,153 MY,1,48275,48875,355,346
Sprite,Foreground,Centre,"sb\dot.png",0,0 C,0,48275,,255,255,255 F,1,48275,48875,1,0 S,1,48275,48875,1,0.2 MX,1,48275,48875,127,73 MY,1,48275,48875,355,299
Sprite,Foreground,Centre,"sb\dot.png",0,0 C,0,48275,,255,255,255 F,1,48275,48875,1,0 S,1,48275,48875,1,0.2 MX,1,48275,48875,127,76 MY,1,48275,48875,355,301
Sprite,Foreground,Centre,"sb\dot.png",0,0 C,0,48275,,255,255,255 F,1,48275,48875,1,0 S,1,48275,48875,1,0.2 MX,1,48275,48875,127,86 MY,1,48275,48875,355,313
Sprite,Foreground,Centre,"sb\dot.png",0,0 C,0,48275,,255,255,255 F,1,48275,48875,1,0 S,1,48275,48875,1,0.2 MX,1,48275,48875,127,104 MY,1,48275,48875,355,414
Sprite,Foreground,Centre,"sb\dot.png",0,0 C,0,48275,,255,255,255 F,1,48275,48875,1,0 S,1,48275,48875,1,0.2 MX,1,48275,48875,127,171 MY,1,48275,48875,355,331
Sprite,Foreground,Centre,"sb\dot.png",0,0 C,0,48275,,255,255,255 F,1,48275,48875,1,0 S,1,48275,48875,1,0.2 MX,1,48275,48875,127,102 MY,1,48275,48875,355,301
Sprite,Foreground,Centre,"sb\dot.png",0,0 C,0,48275,,255,255,255 F,1,48275,48875,1,0 S,1,48275,48875,1,0.2 MX,1,48275,48875,127,179 MY,1,48275,48875,355,386
Sprite,Foreground,Centre,"sb\dot.png",0,0 C,0,48275,,255,255,255 F,1,48275,48875,1,0 S,1,48275,48875,1,0.2 MX,1,48275,48875,127,125 MY,1,48275,48875,355,297
Sprite,Foreground,Centre,"sb\dot.png",0,0 C,0,48275,,255,255,255 F,1,48275,48875,1,0 S,1,48275,48875,1,0.2 MX,1,48275,48875,127,144 MY,1,48275,48875,355,406
Sprite,Foreground,Centre,"sb\dot.png",0,0 C,0,48275,,255,255,255 F,1,48275,48875,1,0 S,1,48275,48875,1,0.2 MX,1,48275,48875,127,142 MY,1,48275,48875,355,394
Sprite,Foreground,Centre,"sb\dot.png",0,0 C,0,48603,,255,255,255 F,1,48603,49203,1,0 S,1,48603,49203,1,0.2 MX,1,48603,49203,297,259 MY,1,48603,49203,426,450
Sprite,Foreground,Centre,"sb\dot.png",0,0 C,0,48603,,255,255,255 F,1,48603,49203,1,0 S,1,48603,49203,1,0.2 MX,1,48603,49203,297,321 MY,1,48603,49203,426,425
Sprite,Foreground,Centre,"sb\dot.png",0,0 C,0,48603,,255,255,255 F,1,48603,49203,1,0 S,1,48603,49203,1,0.2 MX,1,48603,49203,297,325 MY,1,48603,49203,426,382
Sprite,Foreground,Centre,"sb\dot.png",0,0 C,0,48603,,255,255,255 F,1,48603,49203,1,0 S,1,48603,49203,1,0.2 MX,1,48603,49203,297,258 MY,1,48603,49203,426,417
Sprite,Foreground,Centre,"sb\dot.png",0,0 C,0,48603,,255,255,255 F,1,48603,49203,1,0 S,1,48603,49203,1,0.2 MX,1,48603,49203,297,262 MY,1,48603,49203,426,366
Sprite,Foreground,Centre,"sb\dot.png",0,0 C,0,48603,,255,255,255 F,1,48603,49203,1,0 S,1,48603,49203,1,0.2 MX,1,48603,49203,297,337 MY,1,48603,49203,426,478
Sprite,Foreground,Centre,"sb\dot.png",0,0 C,0,48603,,255,255,255 F,1,48603,49203,1,0 S,1,48603,49203,1,0.2 MX,1,48603,49203,297,325 MY,1,48603,49203,426,485
Sprite,Foreground,Centre,"sb\dot.png",0,0 C,0,48603,,255,255,255 F,1,48603,49203,1,0 S,1,48603,49203,1,0.2 MX,1,48603,49203,297,330 MY,1,48603,49203,426,401
Sprite,Foreground,Centre,"sb\dot.png",0,0 C,0,48603,,255,255,255 F,1,48603,49203,1,0 S,1,48603,49203,1,0.2 MX,1,48603,49203,297,280 MY,1,48603,49203,426,429
Sprite,Foreground,Centre,"sb\dot.png",0,0 C,0,48603,,255,255,255 F,1,48603,49203,1,0 S,1,48603,49203,1,0.2 MX,1,48603,49203,297,349 MY,1,48603,49203,426,397
Sprite,Foreground,Centre,"sb\dot.png",0,0 C,0,48603,,255,255,255 F,1,48603,49203,1,0 S,1,48603,49203,1,0.2 MX,1,48603,49203,297,260 MY,1,48603,49203,426,450
Sprite,Foreground,Centre,"sb\dot.png",0,0 C,0,48603,,255,255,255 F,1,48603,49203,1,0 S,1,48603,49203,1,0.2 MX,1,48603,49203,297,319 MY,1,48603,49203,426,479
Sprite,Foreground,Centre,"sb\dot.png",0,0 C,0,48603,,255,255,255 F,1,48603,49203,1,0 S,1,48603,49203,1,0.2 MX,1,48603,49203,297,286 MY,1,48603,49203,426,468
Sprite,Foreground,Centre,"sb\dot.png",0,0 C,0,48603,,255,255,255 F,1,48603,49203,1,0 S,1,48603,49203,1,0.2 MX,1,48603,49203,297,250 MY,1,48603,49203,426,474
Sprite,Foreground,Centre,"sb\dot.png",0,0 C,0,48603,,255,255,255 F,1,48603,49203,1,0 S,1,48603,49203,1,0.2 MX,1,48603,49203,297,261 MY,1,48603,49203,426,425
Sprite,Foreground,Centre,"sb\dot.png",0,0 C,0,48603,,255,255,255 F,1,48603,49203,1,0 S,1,48603,49203,1,0.2 MX,1,48603,49203,297,340 MY,1,48603,49203,426,453
Sprite,Foreground,Centre,"sb\dot.png",0,0 C,0,48603,,255,255,255 F,1,48603,49203,1,0 S,1,48603,49203,1,0.2 MX,1,48603,49203,297,284 MY,1,48603,49203,426,473
Sprite,Foreground,Centre,"sb\dot.png",0,0 C,0,48603,,255,255,255 F,1,48603,49203,1,0 S,1,48603,49203,1,0.2 MX,1,48603,49203,297,266 MY,1,48603,49203,426,407
Sprite,Foreground,Centre,"sb\dot.png",0,0 C,0,48603,,255,255,255 F,1,48603,49203,1,0 S,1,48603,49203,1,0.2 MX,1,48603,49203,297,277 MY,1,48603,49203,426,435
Sprite,Foreground,Centre,"sb\dot.png",0,0 C,0,48603,,255,255,255 F,1,48603,49203,1,0 S,1,48603,49203,1,0.2 MX,1,48603,49203,297,275 MY,1,48603,49203,426,369
Sprite,Foreground,Centre,"sb\dot.png",0,0 C,0,48603,,255,255,255 F,1,48603,49203,1,0 S,1,48603,49203,1,0.2 MX,1,48603,49203,297,353 MY,1,48603,49203,426,472
Sprite,Foreground,Centre,"sb\dot.png",0,0 C,0,48603,,255,255,255 F,1,48603,49203,1,0 S,1,48603,49203,1,0.2 MX,1,48603,49203,297,331 MY,1,48603,49203,426,470
Sprite,Foreground,Centre,"sb\dot.png",0,0 C,0,48603,,255,255,255 F,1,48603,49203,1,0 S,1,48603,49203,1,0.2 MX,1,48603,49203,297,292 MY,1,48603,49203,426,408
Sprite,Foreground,Centre,"sb\dot.png",0,0 C,0,48603,,255,255,255 F,1,48603,49203,1,0 S,1,48603,49203,1,0.2 MX,1,48603,49203,297,275 MY,1,48603,49203,426,478
Sprite,Foreground,Centre,"sb\dot.png",0,0 C,0,48603,,255,255,255 F,1,48603,49203,1,0 S,1,48603,49203,1,0.2 MX,1,48603,49203,297,354 MY,1,48603,49203,426,388
Sprite,Foreground,Centre,"sb\dot.png",0,0 C,0,48603,,255,255,255 F,1,48603,49203,1,0 S,1,48603,49203,1,0.2 MX,1,48603,49203,297,315 MY,1,48603,49203,426,380
Sprite,Foreground,Centre,"sb\dot.png",0,0 C,0,48603,,255,255,255 F,1,48603,49203,1,0 S,1,48603,49203,1,0.2 MX,1,48603,49203,297,356 MY,1,48603,49203,426,409
Sprite,Foreground,Centre,"sb\dot.png",0,0 C,0,48603,,255,255,255 F,1,48603,49203,1,0 S,1,48603,49203,1,0.2 MX,1,48603,49203,297,313 MY,1,48603,49203,426,424
Sprite,Foreground,Centre,"sb\dot.png",0,0 C,0,48603,,255,255,255 F,1,48603,49203,1,0 S,1,48603,49203,1,0.2 MX,1,48603,49203,297,239 MY,1,48603,49203,426,456
Sprite,Foreground,Centre,"sb\dot.png",0,0 C,0,48603,,255,255,255 F,1,48603,49203,1,0 S,1,48603,49203,1,0.2 MX,1,48603,49203,297,246 MY,1,48603,49203,426,471
Sprite,Foreground,Centre,"sb\dot.png",0,0 C,0,48930,,255,255,255 F,1,48930,49530,1,0 S,1,48930,49530,1,0.2 MX,1,48930,49530,414,356 MY,1,48930,49530,381,354
Sprite,Foreground,Centre,"sb\dot.png",0,0 C,0,48930,,255,255,255 F,1,48930,49530,1,0 S,1,48930,49530,1,0.2 MX,1,48930,49530,414,381 MY,1,48930,49530,381,406
Sprite,Foreground,Centre,"sb\dot.png",0,0 C,0,48930,,255,255,255 F,1,48930,49530,1,0 S,1,48930,49530,1,0.2 MX,1,48930,49530,414,370 MY,1,48930,49530,381,334
Sprite,Foreground,Centre,"sb\dot.png",0,0 C,0,48930,,255,255,255 F,1,48930,49530,1,0 S,1,48930,49530,1,0.2 MX,1,48930,49530,414,419 MY,1,48930,49530,381,421
Sprite,Foreground,Centre,"sb\dot.png",0,0 C,0,48930,,255,255,255 F,1,48930,49530,1,0 S,1,48930,49530,1,0.2 MX,1,48930,49530,414,444 MY,1,48930,49530,381,372
Sprite,Foreground,Centre,"sb\dot.png",0,0 C,0,48930,,255,255,255 F,1,48930,49530,1,0 S,1,48930,49530,1,0.2 MX,1,48930,49530,414,469 MY,1,48930,49530,381,414
Sprite,Foreground,Centre,"sb\dot.png",0,0 C,0,48930,,255,255,255 F,1,48930,49530,1,0 S,1,48930,49530,1,0.2 MX,1,48930,49530,414,378 MY,1,48930,49530,381,429
Sprite,Foreground,Centre,"sb\dot.png",0,0 C,0,48930,,255,255,255 F,1,48930,49530,1,0 S,1,48930,49530,1,0.2 MX,1,48930,49530,414,389 MY,1,48930,49530,381,357
Sprite,Foreground,Centre,"sb\dot.png",0,0 C,0,48930,,255,255,255 F,1,48930,49530,1,0 S,1,48930,49530,1,0.2 MX,1,48930,49530,414,463 MY,1,48930,49530,381,418
Sprite,Foreground,Centre,"sb\dot.png",0,0 C,0,48930,,255,255,255 F,1,48930,49530,1,0 S,1,48930,49530,1,0.2 MX,1,48930,49530,414,411 MY,1,48930,49530,381,328
Sprite,Foreground,Centre,"sb\dot.png",0,0 C,0,48930,,255,255,255 F,1,48930,49530,1,0 S,1,48930,49530,1,0.2 MX,1,48930,49530,414,417 MY,1,48930,49530,381,341
Sprite,Foreground,Centre,"sb\dot.png",0,0 C,0,48930,,255,255,255 F,1,48930,49530,1,0 S,1,48930,49530,1,0.2 MX,1,48930,49530,414,464 MY,1,48930,49530,381,322
Sprite,Foreground,Centre,"sb\dot.png",0,0 C,0,48930,,255,255,255 F,1,48930,49530,1,0 S,1,48930,49530,1,0.2 MX,1,48930,49530,414,455 MY,1,48930,49530,381,410
Sprite,Foreground,Centre,"sb\dot.png",0,0 C,0,48930,,255,255,255 F,1,48930,49530,1,0 S,1,48930,49530,1,0.2 MX,1,48930,49530,414,441 MY,1,48930,49530,381,325
Sprite,Foreground,Centre,"sb\dot.png",0,0 C,0,48930,,255,255,255 F,1,48930,49530,1,0 S,1,48930,49530,1,0.2 MX,1,48930,49530,414,385 MY,1,48930,49530,381,411
Sprite,Foreground,Centre,"sb\dot.png",0,0 C,0,48930,,255,255,255 F,1,48930,49530,1,0 S,1,48930,49530,1,0.2 MX,1,48930,49530,414,393 MY,1,48930,49530,381,390
Sprite,Foreground,Centre,"sb\dot.png",0,0 C,0,48930,,255,255,255 F,1,48930,49530,1,0 S,1,48930,49530,1,0.2 MX,1,48930,49530,414 MY,1,48930,49530,381,374
Sprite,Foreground,Centre,"sb\dot.png",0,0 C,0,48930,,255,255,255 F,1,48930,49530,1,0 S,1,48930,49530,1,0.2 MX,1,48930,49530,414,354 MY,1,48930,49530,381,403
Sprite,Foreground,Centre,"sb\dot.png",0,0 C,0,48930,,255,255,255 F,1,48930,49530,1,0 S,1,48930,49530,1,0.2 MX,1,48930,49530,414,433 MY,1,48930,49530,381,329
Sprite,Foreground,Centre,"sb\dot.png",0,0 C,0,48930,,255,255,255 F,1,48930,49530,1,0 S,1,48930,49530,1,0.2 MX,1,48930,49530,414,442 MY,1,48930,49530,381,363
Sprite,Foreground,Centre,"sb\dot.png",0,0 C,0,48930,,255,255,255 F,1,48930,49530,1,0 S,1,48930,49530,1,0.2 MX,1,48930,49530,414,451 MY,1,48930,49530,381,378
Sprite,Foreground,Centre,"sb\dot.png",0,0 C,0,48930,,255,255,255 F,1,48930,49530,1,0 S,1,48930,49530,1,0.2 MX,1,48930,49530,414,376 MY,1,48930,49530,381,386
Sprite,Foreground,Centre,"sb\dot.png",0,0 C,0,48930,,255,255,255 F,1,48930,49530,1,0 S,1,48930,49530,1,0.2 MX,1,48930,49530,414,380 MY,1,48930,49530,381,425
Sprite,Foreground,Centre,"sb\dot.png",0,0 C,0,48930,,255,255,255 F,1,48930,49530,1,0 S,1,48930,49530,1,0.2 MX,1,48930,49530,414,463 MY,1,48930,49530,381,331
Sprite,Foreground,Centre,"sb\dot.png",0,0 C,0,48930,,255,255,255 F,1,48930,49530,1,0 S,1,48930,49530,1,0.2 MX,1,48930,49530,414,362 MY,1,48930,49530,381,360
Sprite,Foreground,Centre,"sb\dot.png",0,0 C,0,48930,,255,255,255 F,1,48930,49530,1,0 S,1,48930,49530,1,0.2 MX,1,48930,49530,414,422 MY,1,48930,49530,381,345
Sprite,Foreground,Centre,"sb\dot.png",0,0 C,0,48930,,255,255,255 F,1,48930,49530,1,0 S,1,48930,49530,1,0.2 MX,1,48930,49530,414,387 MY,1,48930,49530,381,323
Sprite,Foreground,Centre,"sb\dot.png",0,0 C,0,48930,,255,255,255 F,1,48930,49530,1,0 S,1,48930,49530,1,0.2 MX,1,48930,49530,414,395 MY,1,48930,49530,381,423
Sprite,Foreground,Centre,"sb\dot.png",0,0 C,0,48930,,255,255,255 F,1,48930,49530,1,0 S,1,48930,49530,1,0.2 MX,1,48930,49530,414,397 MY,1,48930,49530,381,346
Sprite,Foreground,Centre,"sb\dot.png",0,0 C,0,48930,,255,255,255 F,1,48930,49530,1,0 S,1,48930,49530,1,0.2 MX,1,48930,49530,414,458 MY,1,48930,49530,381,368
Sprite,Foreground,Centre,"sb\dot.png",0,0 C,0,49094,,255,255,255 F,1,49094,49694,1,0 S,1,49094,49694,1,0.2 MX,1,49094,49694,529,514 MY,1,49094,49694,341,342
Sprite,Foreground,Centre,"sb\dot.png",0,0 C,0,49094,,255,255,255 F,1,49094,49694,1,0 S,1,49094,49694,1,0.2 MX,1,49094,49694,529,538 MY,1,49094,49694,341,400
Sprite,Foreground,Centre,"sb\dot.png",0,0 C,0,49094,,255,255,255 F,1,49094,49694,1,0 S,1,49094,49694,1,0.2 MX,1,49094,49694,529,481 MY,1,49094,49694,341,327
Sprite,Foreground,Centre,"sb\dot.png",0,0 C,0,49094,,255,255,255 F,1,49094,49694,1,0 S,1,49094,49694,1,0.2 MX,1,49094,49694,529,502 MY,1,49094,49694,341,372
Sprite,Foreground,Centre,"sb\dot.png",0,0 C,0,49094,,255,255,255 F,1,49094,49694,1,0 S,1,49094,49694,1,0.2 MX,1,49094,49694,529,577 MY,1,49094,49694,341,353
Sprite,Foreground,Centre,"sb\dot.png",0,0 C,0,49094,,255,255,255 F,1,49094,49694,1,0 S,1,49094,49694,1,0.2 MX,1,49094,49694,529,546 MY,1,49094,49694,341,381
Sprite,Foreground,Centre,"sb\dot.png",0,0 C,0,49094,,255,255,255 F,1,49094,49694,1,0 S,1,49094,49694,1,0.2 MX,1,49094,49694,529,478 MY,1,49094,49694,341,296
Sprite,Foreground,Centre,"sb\dot.png",0,0 C,0,49094,,255,255,255 F,1,49094,49694,1,0 S,1,49094,49694,1,0.2 MX,1,49094,49694,529,498 MY,1,49094,49694,341,286
Sprite,Foreground,Centre,"sb\dot.png",0,0 C,0,49094,,255,255,255 F,1,49094,49694,1,0 S,1,49094,49694,1,0.2 MX,1,49094,49694,529,587 MY,1,49094,49694,341,326
Sprite,Foreground,Centre,"sb\dot.png",0,0 C,0,49094,,255,255,255 F,1,49094,49694,1,0 S,1,49094,49694,1,0.2 MX,1,49094,49694,529,564 MY,1,49094,49694,341,397
Sprite,Foreground,Centre,"sb\dot.png",0,0 C,0,49094,,255,255,255 F,1,49094,49694,1,0 S,1,49094,49694,1,0.2 MX,1,49094,49694,529,568 MY,1,49094,49694,341,358
Sprite,Foreground,Centre,"sb\dot.png",0,0 C,0,49094,,255,255,255 F,1,49094,49694,1,0 S,1,49094,49694,1,0.2 MX,1,49094,49694,529,584 MY,1,49094,49694,341,392
Sprite,Foreground,Centre,"sb\dot.png",0,0 C,0,49094,,255,255,255 F,1,49094,49694,1,0 S,1,49094,49694,1,0.2 MX,1,49094,49694,529,491 MY,1,49094,49694,341,295
Sprite,Foreground,Centre,"sb\dot.png",0,0 C,0,49094,,255,255,255 F,1,49094,49694,1,0 S,1,49094,49694,1,0.2 MX,1,49094,49694,529,504 MY,1,49094,49694,341,339
Sprite,Foreground,Centre,"sb\dot.png",0,0 C,0,49094,,255,255,255 F,1,49094,49694,1,0 S,1,49094,49694,1,0.2 MX,1,49094,49694,529,480 MY,1,49094,49694,341,299
Sprite,Foreground,Centre,"sb\dot.png",0,0 C,0,49094,,255,255,255 F,1,49094,49694,1,0 S,1,49094,49694,1,0.2 MX,1,49094,49694,529,508 MY,1,49094,49694,341,335
Sprite,Foreground,Centre,"sb\dot.png",0,0 C,0,49094,,255,255,255 F,1,49094,49694,1,0 S,1,49094,49694,1,0.2 MX,1,49094,49694,529,493 MY,1,49094,49694,341,322
Sprite,Foreground,Centre,"sb\dot.png",0,0 C,0,49094,,255,255,255 F,1,49094,49694,1,0 S,1,49094,49694,1,0.2 MX,1,49094,49694,529,585 MY,1,49094,49694,341,317
Sprite,Foreground,Centre,"sb\dot.png",0,0 C,0,49094,,255,255,255 F,1,49094,49694,1,0 S,1,49094,49694,1,0.2 MX,1,49094,49694,529,577 MY,1,49094,49694,341,303
Sprite,Foreground,Centre,"sb\dot.png",0,0 C,0,49094,,255,255,255 F,1,49094,49694,1,0 S,1,49094,49694,1,0.2 MX,1,49094,49694,529,521 MY,1,49094,49694,341,380
Sprite,Foreground,Centre,"sb\dot.png",0,0 C,0,49094,,255,255,255 F,1,49094,49694,1,0 S,1,49094,49694,1,0.2 MX,1,49094,49694,529,540 MY,1,49094,49694,341,299
Sprite,Foreground,Centre,"sb\dot.png",0,0 C,0,49094,,255,255,255 F,1,49094,49694,1,0 S,1,49094,49694,1,0.2 MX,1,49094,49694,529,490 MY,1,49094,49694,341,336
Sprite,Foreground,Centre,"sb\dot.png",0,0 C,0,49094,,255,255,255 F,1,49094,49694,1,0 S,1,49094,49694,1,0.2 MX,1,49094,49694,529,550 MY,1,49094,49694,341,368
Sprite,Foreground,Centre,"sb\dot.png",0,0 C,0,49094,,255,255,255 F,1,49094,49694,1,0 S,1,49094,49694,1,0.2 MX,1,49094,49694,529,484 MY,1,49094,49694,341,298
Sprite,Foreground,Centre,"sb\dot.png",0,0 C,0,49094,,255,255,255 F,1,49094,49694,1,0 S,1,49094,49694,1,0.2 MX,1,49094,49694,529,561 MY,1,49094,49694,341,316
Sprite,Foreground,Centre,"sb\dot.png",0,0 C,0,49094,,255,255,255 F,1,49094,49694,1,0 S,1,49094,49694,1,0.2 MX,1,49094,49694,529,572 MY,1,49094,49694,341,398
Sprite,Foreground,Centre,"sb\dot.png",0,0 C,0,49094,,255,255,255 F,1,49094,49694,1,0 S,1,49094,49694,1,0.2 MX,1,49094,49694,529,518 MY,1,49094,49694,341,388
Sprite,Foreground,Centre,"sb\dot.png",0,0 C,0,49094,,255,255,255 F,1,49094,49694,1,0 S,1,49094,49694,1,0.2 MX,1,49094,49694,529,536 MY,1,49094,49694,341,368
Sprite,Foreground,Centre,"sb\dot.png",0,0 C,0,49094,,255,255,255 F,1,49094,49694,1,0 S,1,49094,49694,1,0.2 MX,1,49094,49694,529,534 MY,1,49094,49694,341,359
Sprite,Foreground,Centre,"sb\dot.png",0,0 C,0,49094,,255,255,255 F,1,49094,49694,1,0 S,1,49094,49694,1,0.2 MX,1,49094,49694,529,566 MY,1,49094,49694,341,399
Sprite,Foreground,Centre,"sb\dot.png",0,0 C,0,49257,,255,255,255 F,1,49257,49857,1,0 S,1,49257,49857,1,0.2 MX,1,49257,49857,417,367 MY,1,49257,49857,285,319
Sprite,Foreground,Centre,"sb\dot.png",0,0 C,0,49257,,255,255,255 F,1,49257,49857,1,0 S,1,49257,49857,1,0.2 MX,1,49257,49857,417,437 MY,1,49257,49857,285,314
Sprite,Foreground,Centre,"sb\dot.png",0,0 C,0,49257,,255,255,255 F,1,49257,49857,1,0 S,1,49257,49857,1,0.2 MX,1,49257,49857,417,389 MY,1,49257,49857,285,248
Sprite,Foreground,Centre,"sb\dot.png",0,0 C,0,49257,,255,255,255 F,1,49257,49857,1,0 S,1,49257,49857,1,0.2 MX,1,49257,49857,417,433 MY,1,49257,49857,285,313
Sprite,Foreground,Centre,"sb\dot.png",0,0 C,0,49257,,255,255,255 F,1,49257,49857,1,0 S,1,49257,49857,1,0.2 MX,1,49257,49857,417,376 MY,1,49257,49857,285,337
Sprite,Foreground,Centre,"sb\dot.png",0,0 C,0,49257,,255,255,255 F,1,49257,49857,1,0 S,1,49257,49857,1,0.2 MX,1,49257,49857,417,374 MY,1,49257,49857,285,321
Sprite,Foreground,Centre,"sb\dot.png",0,0 C,0,49257,,255,255,255 F,1,49257,49857,1,0 S,1,49257,49857,1,0.2 MX,1,49257,49857,417,469 MY,1,49257,49857,285,341
Sprite,Foreground,Centre,"sb\dot.png",0,0 C,0,49257,,255,255,255 F,1,49257,49857,1,0 S,1,49257,49857,1,0.2 MX,1,49257,49857,417,402 MY,1,49257,49857,285,306
Sprite,Foreground,Centre,"sb\dot.png",0,0 C,0,49257,,255,255,255 F,1,49257,49857,1,0 S,1,49257,49857,1,0.2 MX,1,49257,49857,417,412 MY,1,49257,49857,285,284
Sprite,Foreground,Centre,"sb\dot.png",0,0 C,0,49257,,255,255,255 F,1,49257,49857,1,0 S,1,49257,49857,1,0.2 MX,1,49257,49857,417,386 MY,1,49257,49857,285,279
Sprite,Foreground,Centre,"sb\dot.png",0,0 C,0,49257,,255,255,255 F,1,49257,49857,1,0 S,1,49257,49857,1,0.2 MX,1,49257,49857,417,476 MY,1,49257,49857,285,243
Sprite,Foreground,Centre,"sb\dot.png",0,0 C,0,49257,,255,255,255 F,1,49257,49857,1,0 S,1,49257,49857,1,0.2 MX,1,49257,49857,417,442 MY,1,49257,49857,285,320
Sprite,Foreground,Centre,"sb\dot.png",0,0 C,0,49257,,255,255,255 F,1,49257,49857,1,0 S,1,49257,49857,1,0.2 MX,1,49257,49857,417,391 MY,1,49257,49857,285,266
Sprite,Foreground,Centre,"sb\dot.png",0,0 C,0,49257,,255,255,255 F,1,49257,49857,1,0 S,1,49257,49857,1,0.2 MX,1,49257,49857,417,361 MY,1,49257,49857,285,262
Sprite,Foreground,Centre,"sb\dot.png",0,0 C,0,49257,,255,255,255 F,1,49257,49857,1,0 S,1,49257,49857,1,0.2 MX,1,49257,49857,417,450 MY,1,49257,49857,285,253
Sprite,Foreground,Centre,"sb\dot.png",0,0 C,0,49257,,255,255,255 F,1,49257,49857,1,0 S,1,49257,49857,1,0.2 MX,1,49257,49857,417,448 MY,1,49257,49857,285,255
Sprite,Foreground,Centre,"sb\dot.png",0,0 C,0,49257,,255,255,255 F,1,49257,49857,1,0 S,1,49257,49857,1,0.2 MX,1,49257,49857,417,401 MY,1,49257,49857,285,279
Sprite,Foreground,Centre,"sb\dot.png",0,0 C,0,49257,,255,255,255 F,1,49257,49857,1,0 S,1,49257,49857,1,0.2 MX,1,49257,49857,417,445 MY,1,49257,49857,285,321
Sprite,Foreground,Centre,"sb\dot.png",0,0 C,0,49257,,255,255,255 F,1,49257,49857,1,0 S,1,49257,49857,1,0.2 MX,1,49257,49857,417,415 MY,1,49257,49857,285,277
Sprite,Foreground,Centre,"sb\dot.png",0,0 C,0,49257,,255,255,255 F,1,49257,49857,1,0 S,1,49257,49857,1,0.2 MX,1,49257,49857,417,380 MY,1,49257,49857,285,283
Sprite,Foreground,Centre,"sb\dot.png",0,0 C,0,49257,,255,255,255 F,1,49257,49857,1,0 S,1,49257,49857,1,0.2 MX,1,49257,49857,417,368 MY,1,49257,49857,285,271
Sprite,Foreground,Centre,"sb\dot.png",0,0 C,0,49257,,255,255,255 F,1,49257,49857,1,0 S,1,49257,49857,1,0.2 MX,1,49257,49857,417,475 MY,1,49257,49857,285,325
Sprite,Foreground,Centre,"sb\dot.png",0,0 C,0,49257,,255,255,255 F,1,49257,49857,1,0 S,1,49257,49857,1,0.2 MX,1,49257,49857,417,374 MY,1,49257,49857,285,232
Sprite,Foreground,Centre,"sb\dot.png",0,0 C,0,49257,,255,255,255 F,1,49257,49857,1,0 S,1,49257,49857,1,0.2 MX,1,49257,49857,417,362 MY,1,49257,49857,285,278
Sprite,Foreground,Centre,"sb\dot.png",0,0 C,0,49257,,255,255,255 F,1,49257,49857,1,0 S,1,49257,49857,1,0.2 MX,1,49257,49857,417,419 MY,1,49257,49857,285,331
Sprite,Foreground,Centre,"sb\dot.png",0,0 C,0,49257,,255,255,255 F,1,49257,49857,1,0 S,1,49257,49857,1,0.2 MX,1,49257,49857,417,389 MY,1,49257,49857,285,230
Sprite,Foreground,Centre,"sb\dot.png",0,0 C,0,49257,,255,255,255 F,1,49257,49857,1,0 S,1,49257,49857,1,0.2 MX,1,49257,49857,417,405 MY,1,49257,49857,285,267
Sprite,Foreground,Centre,"sb\dot.png",0,0 C,0,49257,,255,255,255 F,1,49257,49857,1,0 S,1,49257,49857,1,0.2 MX,1,49257,49857,417,476 MY,1,49257,49857,285,337
Sprite,Foreground,Centre,"sb\dot.png",0,0 C,0,49257,,255,255,255 F,1,49257,49857,1,0 S,1,49257,49857,1,0.2 MX,1,49257,49857,417,366 MY,1,49257,49857,285,329
Sprite,Foreground,Centre,"sb\dot.png",0,0 C,0,49257,,255,255,255 F,1,49257,49857,1,0 S,1,49257,49857,1,0.2 MX,1,49257,49857,417,411 MY,1,49257,49857,285,336
Sprite,Foreground,Centre,"sb\dot.png",0,0 C,0,49421,,255,255,255 F,1,49421,50021,1,0 S,1,49421,50021,1,0.2 MX,1,49421,50021,523,482 MY,1,49421,50021,226,205
Sprite,Foreground,Centre,"sb\dot.png",0,0 C,0,49421,,255,255,255 F,1,49421,50021,1,0 S,1,49421,50021,1,0.2 MX,1,49421,50021,523,577 MY,1,49421,50021,226,276
Sprite,Foreground,Centre,"sb\dot.png",0,0 C,0,49421,,255,255,255 F,1,49421,50021,1,0 S,1,49421,50021,1,0.2 MX,1,49421,50021,523,483 MY,1,49421,50021,226,273
Sprite,Foreground,Centre,"sb\dot.png",0,0 C,0,49421,,255,255,255 F,1,49421,50021,1,0 S,1,49421,50021,1,0.2 MX,1,49421,50021,523,514 MY,1,49421,50021,226,223
Sprite,Foreground,Centre,"sb\dot.png",0,0 C,0,49421,,255,255,255 F,1,49421,50021,1,0 S,1,49421,50021,1,0.2 MX,1,49421,50021,523,490 MY,1,49421,50021,226,234
Sprite,Foreground,Centre,"sb\dot.png",0,0 C,0,49421,,255,255,255 F,1,49421,50021,1,0 S,1,49421,50021,1,0.2 MX,1,49421,50021,523,486 MY,1,49421,50021,226,169
Sprite,Foreground,Centre,"sb\dot.png",0,0 C,0,49421,,255,255,255 F,1,49421,50021,1,0 S,1,49421,50021,1,0.2 MX,1,49421,50021,523,499 MY,1,49421,50021,226,257
Sprite,Foreground,Centre,"sb\dot.png",0,0 C,0,49421,,255,255,255 F,1,49421,50021,1,0 S,1,49421,50021,1,0.2 MX,1,49421,50021,523,506 MY,1,49421,50021,226,238
Sprite,Foreground,Centre,"sb\dot.png",0,0 C,0,49421,,255,255,255 F,1,49421,50021,1,0 S,1,49421,50021,1,0.2 MX,1,49421,50021,523,483 MY,1,49421,50021,226,270
Sprite,Foreground,Centre,"sb\dot.png",0,0 C,0,49421,,255,255,255 F,1,49421,50021,1,0 S,1,49421,50021,1,0.2 MX,1,49421,50021,523,540 MY,1,49421,50021,226,193
Sprite,Foreground,Centre,"sb\dot.png",0,0 C,0,49421,,255,255,255 F,1,49421,50021,1,0 S,1,49421,50021,1,0.2 MX,1,49421,50021,523,499 MY,1,49421,50021,226,236
Sprite,Foreground,Centre,"sb\dot.png",0,0 C,0,49421,,255,255,255 F,1,49421,50021,1,0 S,1,49421,50021,1,0.2 MX,1,49421,50021,523,557 MY,1,49421,50021,226,273
Sprite,Foreground,Centre,"sb\dot.png",0,0 C,0,49421,,255,255,255 F,1,49421,50021,1,0 S,1,49421,50021,1,0.2 MX,1,49421,50021,523,579 MY,1,49421,50021,226,251
Sprite,Foreground,Centre,"sb\dot.png",0,0 C,0,49421,,255,255,255 F,1,49421,50021,1,0 S,1,49421,50021,1,0.2 MX,1,49421,50021,523,564 MY,1,49421,50021,226,167
Sprite,Foreground,Centre,"sb\dot.png",0,0 C,0,49421,,255,255,255 F,1,49421,50021,1,0 S,1,49421,50021,1,0.2 MX,1,49421,50021,523,518 MY,1,49421,50021,226,262
Sprite,Foreground,Centre,"sb\dot.png",0,0 C,0,49421,,255,255,255 F,1,49421,50021,1,0 S,1,49421,50021,1,0.2 MX,1,49421,50021,523,550 MY,1,49421,50021,226,239
Sprite,Foreground,Centre,"sb\dot.png",0,0 C,0,49421,,255,255,255 F,1,49421,50021,1,0 S,1,49421,50021,1,0.2 MX,1,49421,50021,523,580 MY,1,49421,50021,226,198
Sprite,Foreground,Centre,"sb\dot.png",0,0 C,0,49421,,255,255,255 F,1,49421,50021,1,0 S,1,49421,50021,1,0.2 MX,1,49421,50021,523,501 MY,1,49421,50021,226,257
Sprite,Foreground,Centre,"sb\dot.png",0,0 C,0,49421,,255,255,255 F,1,49421,50021,1,0 S,1,49421,50021,1,0.2 MX,1,49421,50021,523,515 MY,1,49421,50021,226,174
Sprite,Foreground,Centre,"sb\dot.png",0,0 C,0,49421,,255,255,255 F,1,49421,50021,1,0 S,1,49421,50021,1,0.2 MX,1,49421,50021,523,542 MY,1,49421,50021,226,196
Sprite,Foreground,Centre,"sb\dot.png",0,0 C,0,49421,,255,255,255 F,1,49421,50021,1,0 S,1,49421,50021,1,0.2 MX,1,49421,50021,523,538 MY,1,49421,50021,226,233
Sprite,Foreground,Centre,"sb\dot.png",0,0 C,0,49421,,255,255,255 F,1,49421,50021,1,0 S,1,49421,50021,1,0.2 MX,1,49421,50021,523,489 MY,1,49421,50021,226,279
Sprite,Foreground,Centre,"sb\dot.png",0,0 C,0,49421,,255,255,255 F,1,49421,50021,1,0 S,1,49421,50021,1,0.2 MX,1,49421,50021,523,545 MY,1,49421,50021,226,194
Sprite,Foreground,Centre,"sb\dot.png",0,0 C,0,49421,,255,255,255 F,1,49421,50021,1,0 S,1,49421,50021,1,0.2 MX,1,49421,50021,523,551 MY,1,49421,50021,226,242
Sprite,Foreground,Centre,"sb\dot.png",0,0 C,0,49421,,255,255,255 F,1,49421,50021,1,0 S,1,49421,50021,1,0.2 MX,1,49421,50021,523,582 MY,1,49421,50021,226,213
Sprite,Foreground,Centre,"sb\dot.png",0,0 C,0,49421,,255,255,255 F,1,49421,50021,1,0 S,1,49421,50021,1,0.2 MX,1,49421,50021,523,555 MY,1,49421,50021,226,190
Sprite,Foreground,Centre,"sb\dot.png",0,0 C,0,49421,,255,255,255 F,1,49421,50021,1,0 S,1,49421,50021,1,0.2 MX,1,49421,50021,523,489 MY,1,49421,50021,226,193
Sprite,Foreground,Centre,"sb\dot.png",0,0 C,0,49421,,255,255,255 F,1,49421,50021,1,0 S,1,49421,50021,1,0.2 MX,1,49421,50021,523,537 MY,1,49421,50021,226,234
Sprite,Foreground,Centre,"sb\dot.png",0,0 C,0,49421,,255,255,255 F,1,49421,50021,1,0 S,1,49421,50021,1,0.2 MX,1,49421,50021,523,527 MY,1,49421,50021,226,173
Sprite,Foreground,Centre,"sb\dot.png",0,0 C,0,49421,,255,255,255 F,1,49421,50021,1,0 S,1,49421,50021,1,0.2 MX,1,49421,50021,523,576 MY,1,49421,50021,226,221
Sprite,Foreground,Centre,"sb\dot.png",0,0 C,0,49586,,255,255,255 F,1,49586,50186,1,0 S,1,49586,50186,1,0.2 MX,1,49586,50186,411,356 MY,1,49586,50186,170,159
Sprite,Foreground,Centre,"sb\dot.png",0,0 C,0,49586,,255,255,255 F,1,49586,50186,1,0 S,1,49586,50186,1,0.2 MX,1,49586,50186,411,353 MY,1,49586,50186,170,161
Sprite,Foreground,Centre,"sb\dot.png",0,0 C,0,49586,,255,255,255 F,1,49586,50186,1,0 S,1,49586,50186,1,0.2 MX,1,49586,50186,411,451 MY,1,49586,50186,170,179
Sprite,Foreground,Centre,"sb\dot.png",0,0 C,0,49586,,255,255,255 F,1,49586,50186,1,0 S,1,49586,50186,1,0.2 MX,1,49586,50186,411,357 MY,1,49586,50186,170,114
Sprite,Foreground,Centre,"sb\dot.png",0,0 C,0,49586,,255,255,255 F,1,49586,50186,1,0 S,1,49586,50186,1,0.2 MX,1,49586,50186,411,403 MY,1,49586,50186,170,181
Sprite,Foreground,Centre,"sb\dot.png",0,0 C,0,49586,,255,255,255 F,1,49586,50186,1,0 S,1,49586,50186,1,0.2 MX,1,49586,50186,411,370 MY,1,49586,50186,170,122
Sprite,Foreground,Centre,"sb\dot.png",0,0 C,0,49586,,255,255,255 F,1,49586,50186,1,0 S,1,49586,50186,1,0.2 MX,1,49586,50186,411,376 MY,1,49586,50186,170,157
Sprite,Foreground,Centre,"sb\dot.png",0,0 C,0,49586,,255,255,255 F,1,49586,50186,1,0 S,1,49586,50186,1,0.2 MX,1,49586,50186,411,422 MY,1,49586,50186,170,198
Sprite,Foreground,Centre,"sb\dot.png",0,0 C,0,49586,,255,255,255 F,1,49586,50186,1,0 S,1,49586,50186,1,0.2 MX,1,49586,50186,411,395 MY,1,49586,50186,170,210
Sprite,Foreground,Centre,"sb\dot.png",0,0 C,0,49586,,255,255,255 F,1,49586,50186,1,0 S,1,49586,50186,1,0.2 MX,1,49586,50186,411,375 MY,1,49586,50186,170,198
Sprite,Foreground,Centre,"sb\dot.png",0,0 C,0,49586,,255,255,255 F,1,49586,50186,1,0 S,1,49586,50186,1,0.2 MX,1,49586,50186,411,468 MY,1,49586,50186,170,135
Sprite,Foreground,Centre,"sb\dot.png",0,0 C,0,49586,,255,255,255 F,1,49586,50186,1,0 S,1,49586,50186,1,0.2 MX,1,49586,50186,411,353 MY,1,49586,50186,170,117
Sprite,Foreground,Centre,"sb\dot.png",0,0 C,0,49586,,255,255,255 F,1,49586,50186,1,0 S,1,49586,50186,1,0.2 MX,1,49586,50186,411,354 MY,1,49586,50186,170,173
Sprite,Foreground,Centre,"sb\dot.png",0,0 C,0,49586,,255,255,255 F,1,49586,50186,1,0 S,1,49586,50186,1,0.2 MX,1,49586,50186,411,398 MY,1,49586,50186,170,200
Sprite,Foreground,Centre,"sb\dot.png",0,0 C,0,49586,,255,255,255 F,1,49586,50186,1,0 S,1,49586,50186,1,0.2 MX,1,49586,50186,411,428 MY,1,49586,50186,170,200
Sprite,Foreground,Centre,"sb\dot.png",0,0 C,0,49586,,255,255,255 F,1,49586,50186,1,0 S,1,49586,50186,1,0.2 MX,1,49586,50186,411,378 MY,1,49586,50186,170,154
Sprite,Foreground,Centre,"sb\dot.png",0,0 C,0,49586,,255,255,255 F,1,49586,50186,1,0 S,1,49586,50186,1,0.2 MX,1,49586,50186,411,365 MY,1,49586,50186,170,134
Sprite,Foreground,Centre,"sb\dot.png",0,0 C,0,49586,,255,255,255 F,1,49586,50186,1,0 S,1,49586,50186,1,0.2 MX,1,49586,50186,411,375 MY,1,49586,50186,170,135
Sprite,Foreground,Centre,"sb\dot.png",0,0 C,0,49586,,255,255,255 F,1,49586,50186,1,0 S,1,49586,50186,1,0.2 MX,1,49586,50186,411,416 MY,1,49586,50186,170,205
Sprite,Foreground,Centre,"sb\dot.png",0,0 C,0,49586,,255,255,255 F,1,49586,50186,1,0 S,1,49586,50186,1,0.2 MX,1,49586,50186,411,363 MY,1,49586,50186,170,122
Sprite,Foreground,Centre,"sb\dot.png",0,0 C,0,49586,,255,255,255 F,1,49586,50186,1,0 S,1,49586,50186,1,0.2 MX,1,49586,50186,411,373 MY,1,49586,50186,170,193
Sprite,Foreground,Centre,"sb\dot.png",0,0 C,0,49586,,255,255,255 F,1,49586,50186,1,0 S,1,49586,50186,1,0.2 MX,1,49586,50186,411,374 MY,1,49586,50186,170,157
Sprite,Foreground,Centre,"sb\dot.png",0,0 C,0,49586,,255,255,255 F,1,49586,50186,1,0 S,1,49586,50186,1,0.2 MX,1,49586,50186,411,378 MY,1,49586,50186,170,190
Sprite,Foreground,Centre,"sb\dot.png",0,0 C,0,49586,,255,255,255 F,1,49586,50186,1,0 S,1,49586,50186,1,0.2 MX,1,49586,50186,411,469 MY,1,49586,50186,170,208
Sprite,Foreground,Centre,"sb\dot.png",0,0 C,0,49586,,255,255,255 F,1,49586,50186,1,0 S,1,49586,50186,1,0.2 MX,1,49586,50186,411,426 MY,1,49586,50186,170,216
Sprite,Foreground,Centre,"sb\dot.png",0,0 C,0,49586,,255,255,255 F,1,49586,50186,1,0 S,1,49586,50186,1,0.2 MX,1,49586,50186,411,374 MY,1,49586,50186,170,193
Sprite,Foreground,Centre,"sb\dot.png",0,0 C,0,49586,,255,255,255 F,1,49586,50186,1,0 S,1,49586,50186,1,0.2 MX,1,49586,50186,411,453 MY,1,49586,50186,170,135
Sprite,Foreground,Centre,"sb\dot.png",0,0 C,0,49586,,255,255,255 F,1,49586,50186,1,0 S,1,49586,50186,1,0.2 MX,1,49586,50186,411,408 MY,1,49586,50186,170,210
Sprite,Foreground,Centre,"sb\dot.png",0,0 C,0,49586,,255,255,255 F,1,49586,50186,1,0 S,1,49586,50186,1,0.2 MX,1,49586,50186,411,398 MY,1,49586,50186,170,224
Sprite,Foreground,Centre,"sb\dot.png",0,0 C,0,49586,,255,255,255 F,1,49586,50186,1,0 S,1,49586,50186,1,0.2 MX,1,49586,50186,411,398 MY,1,49586,50186,170,147
Sprite,Foreground,Centre,"sb\dot.png",0,0 C,0,49749,,255,255,255 F,1,49749,50349,1,0 S,1,49749,50349,1,0.2 MX,1,49749,50349,512,474 MY,1,49749,50349,98,73
Sprite,Foreground,Centre,"sb\dot.png",0,0 C,0,49749,,255,255,255 F,1,49749,50349,1,0 S,1,49749,50349,1,0.2 MX,1,49749,50349,512,499 MY,1,49749,50349,98,120
Sprite,Foreground,Centre,"sb\dot.png",0,0 C,0,49749,,255,255,255 F,1,49749,50349,1,0 S,1,49749,50349,1,0.2 MX,1,49749,50349,512,496 MY,1,49749,50349,98,133
Sprite,Foreground,Centre,"sb\dot.png",0,0 C,0,49749,,255,255,255 F,1,49749,50349,1,0 S,1,49749,50349,1,0.2 MX,1,49749,50349,512,569 MY,1,49749,50349,98,38
Sprite,Foreground,Centre,"sb\dot.png",0,0 C,0,49749,,255,255,255 F,1,49749,50349,1,0 S,1,49749,50349,1,0.2 MX,1,49749,50349,512,475 MY,1,49749,50349,98,84
Sprite,Foreground,Centre,"sb\dot.png",0,0 C,0,49749,,255,255,255 F,1,49749,50349,1,0 S,1,49749,50349,1,0.2 MX,1,49749,50349,512,474 MY,1,49749,50349,98,107
Sprite,Foreground,Centre,"sb\dot.png",0,0 C,0,49749,,255,255,255 F,1,49749,50349,1,0 S,1,49749,50349,1,0.2 MX,1,49749,50349,512,539 MY,1,49749,50349,98,50
Sprite,Foreground,Centre,"sb\dot.png",0,0 C,0,49749,,255,255,255 F,1,49749,50349,1,0 S,1,49749,50349,1,0.2 MX,1,49749,50349,512,517 MY,1,49749,50349,98,71
Sprite,Foreground,Centre,"sb\dot.png",0,0 C,0,49749,,255,255,255 F,1,49749,50349,1,0 S,1,49749,50349,1,0.2 MX,1,49749,50349,512,454 MY,1,49749,50349,98,113
Sprite,Foreground,Centre,"sb\dot.png",0,0 C,0,49749,,255,255,255 F,1,49749,50349,1,0 S,1,49749,50349,1,0.2 MX,1,49749,50349,512,552 MY,1,49749,50349,98,81
Sprite,Foreground,Centre,"sb\dot.png",0,0 C,0,49749,,255,255,255 F,1,49749,50349,1,0 S,1,49749,50349,1,0.2 MX,1,49749,50349,512,516 MY,1,49749,50349,98,106
Sprite,Foreground,Centre,"sb\dot.png",0,0 C,0,49749,,255,255,255 F,1,49749,50349,1,0 S,1,49749,50349,1,0.2 MX,1,49749,50349,512,466 MY,1,49749,50349,98,128
Sprite,Foreground,Centre,"sb\dot.png",0,0 C,0,49749,,255,255,255 F,1,49749,50349,1,0 S,1,49749,50349,1,0.2 MX,1,49749,50349,512,518 MY,1,49749,50349,98,101
Sprite,Foreground,Centre,"sb\dot.png",0,0 C,0,49749,,255,255,255 F,1,49749,50349,1,0 S,1,49749,50349,1,0.2 MX,1,49749,50349,512,514 MY,1,49749,50349,98,146
Sprite,Foreground,Centre,"sb\dot.png",0,0 C,0,49749,,255,255,255 F,1,49749,50349,1,0 S,1,49749,50349,1,0.2 MX,1,49749,50349,512,538 MY,1,49749,50349,98,82
Sprite,Foreground,Centre,"sb\dot.png",0,0 C,0,49749,,255,255,255 F,1,49749,50349,1,0 S,1,49749,50349,1,0.2 MX,1,49749,50349,512,550 MY,1,49749,50349,98,108
Sprite,Foreground,Centre,"sb\dot.png",0,0 C,0,49749,,255,255,255 F,1,49749,50349,1,0 S,1,49749,50349,1,0.2 MX,1,49749,50349,512,499 MY,1,49749,50349,98,133
Sprite,Foreground,Centre,"sb\dot.png",0,0 C,0,49749,,255,255,255 F,1,49749,50349,1,0 S,1,49749,50349,1,0.2 MX,1,49749,50349,512,562 MY,1,49749,50349,98,144
Sprite,Foreground,Centre,"sb\dot.png",0,0 C,0,49749,,255,255,255 F,1,49749,50349,1,0 S,1,49749,50349,1,0.2 MX,1,49749,50349,512,488 MY,1,49749,50349,98
Sprite,Foreground,Centre,"sb\dot.png",0,0 C,0,49749,,255,255,255 F,1,49749,50349,1,0 S,1,49749,50349,1,0.2 MX,1,49749,50349,512,455 MY,1,49749,50349,98,90
Sprite,Foreground,Centre,"sb\dot.png",0,0 C,0,49749,,255,255,255 F,1,49749,50349,1,0 S,1,49749,50349,1,0.2 MX,1,49749,50349,512,534 MY,1,49749,50349,98,155
Sprite,Foreground,Centre,"sb\dot.png",0,0 C,0,49749,,255,255,255 F,1,49749,50349,1,0 S,1,49749,50349,1,0.2 MX,1,49749,50349,512,527 MY,1,49749,50349,98,67
Sprite,Foreground,Centre,"sb\dot.png",0,0 C,0,49749,,255,255,255 F,1,49749,50349,1,0 S,1,49749,50349,1,0.2 MX,1,49749,50349,512,536 MY,1,49749,50349,98,112
Sprite,Foreground,Centre,"sb\dot.png",0,0 C,0,49749,,255,255,255 F,1,49749,50349,1,0 S,1,49749,50349,1,0.2 MX,1,49749,50349,512,567 MY,1,49749,50349,98,128
Sprite,Foreground,Centre,"sb\dot.png",0,0 C,0,49749,,255,255,255 F,1,49749,50349,1,0 S,1,49749,50349,1,0.2 MX,1,49749,50349,512,532 MY,1,49749,50349,98,62
Sprite,Foreground,Centre,"sb\dot.png",0,0 C,0,49749,,255,255,255 F,1,49749,50349,1,0 S,1,49749,50349,1,0.2 MX,1,49749,50349,512,549 MY,1,49749,50349,98,129
Sprite,Foreground,Centre,"sb\dot.png",0,0 C,0,49749,,255,255,255 F,1,49749,50349,1,0 S,1,49749,50349,1,0.2 MX,1,49749,50349,512,465 MY,1,49749,50349,98,41
Sprite,Foreground,Centre,"sb\dot.png",0,0 C,0,49749,,255,255,255 F,1,49749,50349,1,0 S,1,49749,50349,1,0.2 MX,1,49749,50349,512,544 MY,1,49749,50349,98,112
Sprite,Foreground,Centre,"sb\dot.png",0,0 C,0,49749,,255,255,255 F,1,49749,50349,1,0 S,1,49749,50349,1,0.2 MX,1,49749,50349,512,472 MY,1,49749,50349,98,115
Sprite,Foreground,Centre,"sb\dot.png",0,0 C,0,49749,,255,255,255 F,1,49749,50349,1,0 S,1,49749,50349,1,0.2 MX,1,49749,50349,512,467 MY,1,49749,50349,98,138
Sprite,Foreground,Centre,"sb\dot.png",0,0 C,0,49914,,255,255,255 F,1,49914,50514,1,0 S,1,49914,50514,1,0.2 MX,1,49914,50514,405,377 MY,1,49914,50514,62,11
Sprite,Foreground,Centre,"sb\dot.png",0,0 C,0,49914,,255,255,255 F,1,49914,50514,1,0 S,1,49914,50514,1,0.2 MX,1,49914,50514,405,379 MY,1,49914,50514,62,101
Sprite,Foreground,Centre,"sb\dot.png",0,0 C,0,49914,,255,255,255 F,1,49914,50514,1,0 S,1,49914,50514,1,0.2 MX,1,49914,50514,405,412 MY,1,49914,50514,62,73
Sprite,Foreground,Centre,"sb\dot.png",0,0 C,0,49914,,255,255,255 F,1,49914,50514,1,0 S,1,49914,50514,1,0.2 MX,1,49914,50514,405,366 MY,1,49914,50514,62,114
Sprite,Foreground,Centre,"sb\dot.png",0,0 C,0,49914,,255,255,255 F,1,49914,50514,1,0 S,1,49914,50514,1,0.2 MX,1,49914,50514,405,366 MY,1,49914,50514,62,80
Sprite,Foreground,Centre,"sb\dot.png",0,0 C,0,49914,,255,255,255 F,1,49914,50514,1,0 S,1,49914,50514,1,0.2 MX,1,49914,50514,405,461 MY,1,49914,50514,62,63
Sprite,Foreground,Centre,"sb\dot.png",0,0 C,0,49914,,255,255,255 F,1,49914,50514,1,0 S,1,49914,50514,1,0.2 MX,1,49914,50514,405,417 MY,1,49914,50514,62,50
Sprite,Foreground,Centre,"sb\dot.png",0,0 C,0,49914,,255,255,255 F,1,49914,50514,1,0 S,1,49914,50514,1,0.2 MX,1,49914,50514,405,425 MY,1,49914,50514,62,68
Sprite,Foreground,Centre,"sb\dot.png",0,0 C,0,49914,,255,255,255 F,1,49914,50514,1,0 S,1,49914,50514,1,0.2 MX,1,49914,50514,405,458 MY,1,49914,50514,62,107
Sprite,Foreground,Centre,"sb\dot.png",0,0 C,0,49914,,255,255,255 F,1,49914,50514,1,0 S,1,49914,50514,1,0.2 MX,1,49914,50514,405,350 MY,1,49914,50514,62,114
Sprite,Foreground,Centre,"sb\dot.png",0,0 C,0,49914,,255,255,255 F,1,49914,50514,1,0 S,1,49914,50514,1,0.2 MX,1,49914,50514,405,413 MY,1,49914,50514,62,94
Sprite,Foreground,Centre,"sb\dot.png",0,0 C,0,49914,,255,255,255 F,1,49914,50514,1,0 S,1,49914,50514,1,0.2 MX,1,49914,50514,405,373 MY,1,49914,50514,62,64
Sprite,Foreground,Centre,"sb\dot.png",0,0 C,0,49914,,255,255,255 F,1,49914,50514,1,0 S,1,49914,50514,1,0.2 MX,1,49914,50514,405,411 MY,1,49914,50514,62,8
Sprite,Foreground,Centre,"sb\dot.png",0,0 C,0,49914,,255,255,255 F,1,49914,50514,1,0 S,1,49914,50514,1,0.2 MX,1,49914,50514,405,401 MY,1,49914,50514,62,46
Sprite,Foreground,Centre,"sb\dot.png",0,0 C,0,49914,,255,255,255 F,1,49914,50514,1,0 S,1,49914,50514,1,0.2 MX,1,49914,50514,405,347 MY,1,49914,50514,62,37
Sprite,Foreground,Centre,"sb\dot.png",0,0 C,0,49914,,255,255,255 F,1,49914,50514,1,0 S,1,49914,50514,1,0.2 MX,1,49914,50514,405,430 MY,1,49914,50514,62,80
Sprite,Foreground,Centre,"sb\dot.png",0,0 C,0,49914,,255,255,255 F,1,49914,50514,1,0 S,1,49914,50514,1,0.2 MX,1,49914,50514,405,390 MY,1,49914,50514,62,24
Sprite,Foreground,Centre,"sb\dot.png",0,0 C,0,49914,,255,255,255 F,1,49914,50514,1,0 S,1,49914,50514,1,0.2 MX,1,49914,50514,405,364 MY,1,49914,50514,62,75
Sprite,Foreground,Centre,"sb\dot.png",0,0 C,0,49914,,255,255,255 F,1,49914,50514,1,0 S,1,49914,50514,1,0.2 MX,1,49914,50514,405,428 MY,1,49914,50514,62,97
Sprite,Foreground,Centre,"sb\dot.png",0,0 C,0,49914,,255,255,255 F,1,49914,50514,1,0 S,1,49914,50514,1,0.2 MX,1,49914,50514,405,426 MY,1,49914,50514,62,14
Sprite,Foreground,Centre,"sb\dot.png",0,0 C,0,49914,,255,255,255 F,1,49914,50514,1,0 S,1,49914,50514,1,0.2 MX,1,49914,50514,405,397 MY,1,49914,50514,62,5
Sprite,Foreground,Centre,"sb\dot.png",0,0 C,0,49914,,255,255,255 F,1,49914,50514,1,0 S,1,49914,50514,1,0.2 MX,1,49914,50514,405,413 MY,1,49914,50514,62,3
Sprite,Foreground,Centre,"sb\dot.png",0,0 C,0,49914,,255,255,255 F,1,49914,50514,1,0 S,1,49914,50514,1,0.2 MX,1,49914,50514,405,372 MY,1,49914,50514,62,38
Sprite,Foreground,Centre,"sb\dot.png",0,0 C,0,49914,,255,255,255 F,1,49914,50514,1,0 S,1,49914,50514,1,0.2 MX,1,49914,50514,405,364 MY,1,49914,50514,62,87
Sprite,Foreground,Centre,"sb\dot.png",0,0 C,0,49914,,255,255,255 F,1,49914,50514,1,0 S,1,49914,50514,1,0.2 MX,1,49914,50514,405,387 MY,1,49914,50514,62,28
Sprite,Foreground,Centre,"sb\dot.png",0,0 C,0,49914,,255,255,255 F,1,49914,50514,1,0 S,1,49914,50514,1,0.2 MX,1,49914,50514,405,426 MY,1,49914,50514,62,37
Sprite,Foreground,Centre,"sb\dot.png",0,0 C,0,49914,,255,255,255 F,1,49914,50514,1,0 S,1,49914,50514,1,0.2 MX,1,49914,50514,405,416 MY,1,49914,50514,62,24
Sprite,Foreground,Centre,"sb\dot.png",0,0 C,0,49914,,255,255,255 F,1,49914,50514,1,0 S,1,49914,50514,1,0.2 MX,1,49914,50514,405,376 MY,1,49914,50514,62
Sprite,Foreground,Centre,"sb\dot.png",0,0 C,0,49914,,255,255,255 F,1,49914,50514,1,0 S,1,49914,50514,1,0.2 MX,1,49914,50514,405,445 MY,1,49914,50514,62,93
Sprite,Foreground,Centre,"sb\dot.png",0,0 C,0,49914,,255,255,255 F,1,49914,50514,1,0 S,1,49914,50514,1,0.2 MX,1,49914,50514,405,378 MY,1,49914,50514,62
Sprite,Foreground,Centre,"sb\dot.png",0,0 C,0,50242,,255,255,255 F,1,50242,50842,1,0 S,1,50242,50842,1,0.2 MX,1,50242,50842,283,237 MY,1,50242,50842,85,122
Sprite,Foreground,Centre,"sb\dot.png",0,0 C,0,50242,,255,255,255 F,1,50242,50842,1,0 S,1,50242,50842,1,0.2 MX,1,50242,50842,283,332 MY,1,50242,50842,85,131
Sprite,Foreground,Centre,"sb\dot.png",0,0 C,0,50242,,255,255,255 F,1,50242,50842,1,0 S,1,50242,50842,1,0.2 MX,1,50242,50842,283,336 MY,1,50242,50842,85,63
Sprite,Foreground,Centre,"sb\dot.png",0,0 C,0,50242,,255,255,255 F,1,50242,50842,1,0 S,1,50242,50842,1,0.2 MX,1,50242,50842,283,239 MY,1,50242,50842,85,74
Sprite,Foreground,Centre,"sb\dot.png",0,0 C,0,50242,,255,255,255 F,1,50242,50842,1,0 S,1,50242,50842,1,0.2 MX,1,50242,50842,283,251 MY,1,50242,50842,85,32
Sprite,Foreground,Centre,"sb\dot.png",0,0 C,0,50242,,255,255,255 F,1,50242,50842,1,0 S,1,50242,50842,1,0.2 MX,1,50242,50842,283,325 MY,1,50242,50842,85,42
Sprite,Foreground,Centre,"sb\dot.png",0,0 C,0,50242,,255,255,255 F,1,50242,50842,1,0 S,1,50242,50842,1,0.2 MX,1,50242,50842,283,247 MY,1,50242,50842,85,138
Sprite,Foreground,Centre,"sb\dot.png",0,0 C,0,50242,,255,255,255 F,1,50242,50842,1,0 S,1,50242,50842,1,0.2 MX,1,50242,50842,283 MY,1,50242,50842,85,90
Sprite,Foreground,Centre,"sb\dot.png",0,0 C,0,50242,,255,255,255 F,1,50242,50842,1,0 S,1,50242,50842,1,0.2 MX,1,50242,50842,283,246 MY,1,50242,50842,85,52
Sprite,Foreground,Centre,"sb\dot.png",0,0 C,0,50242,,255,255,255 F,1,50242,50842,1,0 S,1,50242,50842,1,0.2 MX,1,50242,50842,283,257 MY,1,50242,50842,85,55
Sprite,Foreground,Centre,"sb\dot.png",0,0 C,0,50242,,255,255,255 F,1,50242,50842,1,0 S,1,50242,50842,1,0.2 MX,1,50242,50842,283,330 MY,1,50242,50842,85,116
Sprite,Foreground,Centre,"sb\dot.png",0,0 C,0,50242,,255,255,255 F,1,50242,50842,1,0 S,1,50242,50842,1,0.2 MX,1,50242,50842,283,224 MY,1,50242,50842,85,121
Sprite,Foreground,Centre,"sb\dot.png",0,0 C,0,50242,,255,255,255 F,1,50242,50842,1,0 S,1,50242,50842,1,0.2 MX,1,50242,50842,283,297 MY,1,50242,50842,85,75
Sprite,Foreground,Centre,"sb\dot.png",0,0 C,0,50242,,255,255,255 F,1,50242,50842,1,0 S,1,50242,50842,1,0.2 MX,1,50242,50842,283,229 MY,1,50242,50842,85,47
Sprite,Foreground,Centre,"sb\dot.png",0,0 C,0,50242,,255,255,255 F,1,50242,50842,1,0 S,1,50242,50842,1,0.2 MX,1,50242,50842,283,334 MY,1,50242,50842,85,104
Sprite,Foreground,Centre,"sb\dot.png",0,0 C,0,50242,,255,255,255 F,1,50242,50842,1,0 S,1,50242,50842,1,0.2 MX,1,50242,50842,283,316 MY,1,50242,50842,85,137
Sprite,Foreground,Centre,"sb\dot.png",0,0 C,0,50242,,255,255,255 F,1,50242,50842,1,0 S,1,50242,50842,1,0.2 MX,1,50242,50842,283,285 MY,1,50242,50842,85,45
Sprite,Foreground,Centre,"sb\dot.png",0,0 C,0,50242,,255,255,255 F,1,50242,50842,1,0 S,1,50242,50842,1,0.2 MX,1,50242,50842,283,341 MY,1,50242,50842,85,99
Sprite,Foreground,Centre,"sb\dot.png",0,0 C,0,50242,,255,255,255 F,1,50242,50842,1,0 S,1,50242,50842,1,0.2 MX,1,50242,50842,283,236 MY,1,50242,50842,85,107
Sprite,Foreground,Centre,"sb\dot.png",0,0 C,0,50242,,255,255,255 F,1,50242,50842,1,0 S,1,50242,50842,1,0.2 MX,1,50242,50842,283,231 MY,1,50242,50842,85,134
Sprite,Foreground,Centre,"sb\dot.png",0,0 C,0,50242,,255,255,255 F,1,50242,50842,1,0 S,1,50242,50842,1,0.2 MX,1,50242,50842,283,242 MY,1,50242,50842,85,115
Sprite,Foreground,Centre,"sb\dot.png",0,0 C,0,50242,,255,255,255 F,1,50242,50842,1,0 S,1,50242,50842,1,0.2 MX,1,50242,50842,283,280 MY,1,50242,50842,85,60
Sprite,Foreground,Centre,"sb\dot.png",0,0 C,0,50242,,255,255,255 F,1,50242,50842,1,0 S,1,50242,50842,1,0.2 MX,1,50242,50842,283,266 MY,1,50242,50842,85,88
Sprite,Foreground,Centre,"sb\dot.png",0,0 C,0,50242,,255,255,255 F,1,50242,50842,1,0 S,1,50242,50842,1,0.2 MX,1,50242,50842,283,233 MY,1,50242,50842,85,103
Sprite,Foreground,Centre,"sb\dot.png",0,0 C,0,50242,,255,255,255 F,1,50242,50842,1,0 S,1,50242,50842,1,0.2 MX,1,50242,50842,283,305 MY,1,50242,50842,85,111
Sprite,Foreground,Centre,"sb\dot.png",0,0 C,0,50242,,255,255,255 F,1,50242,50842,1,0 S,1,50242,50842,1,0.2 MX,1,50242,50842,283,259 MY,1,50242,50842,85,98
Sprite,Foreground,Centre,"sb\dot.png",0,0 C,0,50242,,255,255,255 F,1,50242,50842,1,0 S,1,50242,50842,1,0.2 MX,1,50242,50842,283,280 MY,1,50242,50842,85,27
Sprite,Foreground,Centre,"sb\dot.png",0,0 C,0,50242,,255,255,255 F,1,50242,50842,1,0 S,1,50242,50842,1,0.2 MX,1,50242,50842,283,296 MY,1,50242,50842,85,68
Sprite,Foreground,Centre,"sb\dot.png",0,0 C,0,50242,,255,255,255 F,1,50242,50842,1,0 S,1,50242,50842,1,0.2 MX,1,50242,50842,283,318 MY,1,50242,50842,85,38
Sprite,Foreground,Centre,"sb\dot.png",0,0 C,0,50242,,255,255,255 F,1,50242,50842,1,0 S,1,50242,50842,1,0.2 MX,1,50242,50842,283,254 MY,1,50242,50842,85,87
Sprite,Foreground,Centre,"sb\dot.png",0,0 C,0,50406,,255,255,255 F,1,50406,51006,1,0 S,1,50406,51006,1,0.2 MX,1,50406,51006,152,123 MY,1,50406,51006,156,209
Sprite,Foreground,Centre,"sb\dot.png",0,0 C,0,50406,,255,255,255 F,1,50406,51006,1,0 S,1,50406,51006,1,0.2 MX,1,50406,51006,152,150 MY,1,50406,51006,156,165
Sprite,Foreground,Centre,"sb\dot.png",0,0 C,0,50406,,255,255,255 F,1,50406,51006,1,0 S,1,50406,51006,1,0.2 MX,1,50406,51006,152,126 MY,1,50406,51006,156,206
Sprite,Foreground,Centre,"sb\dot.png",0,0 C,0,50406,,255,255,255 F,1,50406,51006,1,0 S,1,50406,51006,1,0.2 MX,1,50406,51006,152,167 MY,1,50406,51006,156,99
Sprite,Foreground,Centre,"sb\dot.png",0,0 C,0,50406,,255,255,255 F,1,50406,51006,1,0 S,1,50406,51006,1,0.2 MX,1,50406,51006,152,207 MY,1,50406,51006,156,201
Sprite,Foreground,Centre,"sb\dot.png",0,0 C,0,50406,,255,255,255 F,1,50406,51006,1,0 S,1,50406,51006,1,0.2 MX,1,50406,51006,152,144 MY,1,50406,51006,156,157
Sprite,Foreground,Centre,"sb\dot.png",0,0 C,0,50406,,255,255,255 F,1,50406,51006,1,0 S,1,50406,51006,1,0.2 MX,1,50406,51006,152,111 MY,1,50406,51006,156,141
Sprite,Foreground,Centre,"sb\dot.png",0,0 C,0,50406,,255,255,255 F,1,50406,51006,1,0 S,1,50406,51006,1,0.2 MX,1,50406,51006,152,102 MY,1,50406,51006,156,113
Sprite,Foreground,Centre,"sb\dot.png",0,0 C,0,50406,,255,255,255 F,1,50406,51006,1,0 S,1,50406,51006,1,0.2 MX,1,50406,51006,152,126 MY,1,50406,51006,156,182
Sprite,Foreground,Centre,"sb\dot.png",0,0 C,0,50406,,255,255,255 F,1,50406,51006,1,0 S,1,50406,51006,1,0.2 MX,1,50406,51006,152,144 MY,1,50406,51006,156,106
Sprite,Foreground,Centre,"sb\dot.png",0,0 C,0,50406,,255,255,255 F,1,50406,51006,1,0 S,1,50406,51006,1,0.2 MX,1,50406,51006,152,131 MY,1,50406,51006,156,144
Sprite,Foreground,Centre,"sb\dot.png",0,0 C,0,50406,,255,255,255 F,1,50406,51006,1,0 S,1,50406,51006,1,0.2 MX,1,50406,51006,152,151 MY,1,50406,51006,156,120
Sprite,Foreground,Centre,"sb\dot.png",0,0 C,0,50406,,255,255,255 F,1,50406,51006,1,0 S,1,50406,51006,1,0.2 MX,1,50406,51006,152,134 MY,1,50406,51006,156,116
Sprite,Foreground,Centre,"sb\dot.png",0,0 C,0,50406,,255,255,255 F,1,50406,51006,1,0 S,1,50406,51006,1,0.2 MX,1,50406,51006,152,146 MY,1,50406,51006,156,155
Sprite,Foreground,Centre,"sb\dot.png",0,0 C,0,50406,,255,255,255 F,1,50406,51006,1,0 S,1,50406,51006,1,0.2 MX,1,50406,51006,152,159 MY,1,50406,51006,156,170
Sprite,Foreground,Centre,"sb\dot.png",0,0 C,0,50406,,255,255,255 F,1,50406,51006,1,0 S,1,50406,51006,1,0.2 MX,1,50406,51006,152,191 MY,1,50406,51006,156,215
Sprite,Foreground,Centre,"sb\dot.png",0,0 C,0,50406,,255,255,255 F,1,50406,51006,1,0 S,1,50406,51006,1,0.2 MX,1,50406,51006,152,142 MY,1,50406,51006,156,161
Sprite,Foreground,Centre,"sb\dot.png",0,0 C,0,50406,,255,255,255 F,1,50406,51006,1,0 S,1,50406,51006,1,0.2 MX,1,50406,51006,152,170 MY,1,50406,51006,156,121
Sprite,Foreground,Centre,"sb\dot.png",0,0 C,0,50406,,255,255,255 F,1,50406,51006,1,0 S,1,50406,51006,1,0.2 MX,1,50406,51006,152,123 MY,1,50406,51006,156,203
Sprite,Foreground,Centre,"sb\dot.png",0,0 C,0,50406,,255,255,255 F,1,50406,51006,1,0 S,1,50406,51006,1,0.2 MX,1,50406,51006,152,92 MY,1,50406,51006,156,148
Sprite,Foreground,Centre,"sb\dot.png",0,0 C,0,50406,,255,255,255 F,1,50406,51006,1,0 S,1,50406,51006,1,0.2 MX,1,50406,51006,152,200 MY,1,50406,51006,156,103
Sprite,Foreground,Centre,"sb\dot.png",0,0 C,0,50406,,255,255,255 F,1,50406,51006,1,0 S,1,50406,51006,1,0.2 MX,1,50406,51006,152,175 MY,1,50406,51006,156,192
Sprite,Foreground,Centre,"sb\dot.png",0,0 C,0,50406,,255,255,255 F,1,50406,51006,1,0 S,1,50406,51006,1,0.2 MX,1,50406,51006,152,126 MY,1,50406,51006,156,191
Sprite,Foreground,Centre,"sb\dot.png",0,0 C,0,50406,,255,255,255 F,1,50406,51006,1,0 S,1,50406,51006,1,0.2 MX,1,50406,51006,152,145 MY,1,50406,51006,156,108
Sprite,Foreground,Centre,"sb\dot.png",0,0 C,0,50406,,255,255,255 F,1,50406,51006,1,0 S,1,50406,51006,1,0.2 MX,1,50406,51006,152,204 MY,1,50406,51006,156,151
Sprite,Foreground,Centre,"sb\dot.png",0,0 C,0,50406,,255,255,255 F,1,50406,51006,1,0 S,1,50406,51006,1,0.2 MX,1,50406,51006,152,101 MY,1,50406,51006,156,105
Sprite,Foreground,Centre,"sb\dot.png",0,0 C,0,50406,,255,255,255 F,1,50406,51006,1,0 S,1,50406,51006,1,0.2 MX,1,50406,51006,152,172 MY,1,50406,51006,156,117
Sprite,Foreground,Centre,"sb\dot.png",0,0 C,0,50406,,255,255,255 F,1,50406,51006,1,0 S,1,50406,51006,1,0.2 MX,1,50406,51006,152,114 MY,1,50406,51006,156,199
Sprite,Foreground,Centre,"sb\dot.png",0,0 C,0,50406,,255,255,255 F,1,50406,51006,1,0 S,1,50406,51006,1,0.2 MX,1,50406,51006,152,146 MY,1,50406,51006,156,129
Sprite,Foreground,Centre,"sb\dot.png",0,0 C,0,50406,,255,255,255 F,1,50406,51006,1,0 S,1,50406,51006,1,0.2 MX,1,50406,51006,152,118 MY,1,50406,51006,156,110
Sprite,Foreground,Centre,"sb\dot.png",0,0 C,0,50570,,255,255,255 F,1,50570,51170,1,0 S,1,50570,51170,1,0.2 MX,1,50570,51170,211,206 MY,1,50570,51170,270,226
Sprite,Foreground,Centre,"sb\dot.png",0,0 C,0,50570,,255,255,255 F,1,50570,51170,1,0 S,1,50570,51170,1,0.2 MX,1,50570,51170,211,206 MY,1,50570,51170,270,250
Sprite,Foreground,Centre,"sb\dot.png",0,0 C,0,50570,,255,255,255 F,1,50570,51170,1,0 S,1,50570,51170,1,0.2 MX,1,50570,51170,211,157 MY,1,50570,51170,270,262
Sprite,Foreground,Centre,"sb\dot.png",0,0 C,0,50570,,255,255,255 F,1,50570,51170,1,0 S,1,50570,51170,1,0.2 MX,1,50570,51170,211,162 MY,1,50570,51170,270,283
Sprite,Foreground,Centre,"sb\dot.png",0,0 C,0,50570,,255,255,255 F,1,50570,51170,1,0 S,1,50570,51170,1,0.2 MX,1,50570,51170,211,237 MY,1,50570,51170,270,314
Sprite,Foreground,Centre,"sb\dot.png",0,0 C,0,50570,,255,255,255 F,1,50570,51170,1,0 S,1,50570,51170,1,0.2 MX,1,50570,51170,211,256 MY,1,50570,51170,270,256
Sprite,Foreground,Centre,"sb\dot.png",0,0 C,0,50570,,255,255,255 F,1,50570,51170,1,0 S,1,50570,51170,1,0.2 MX,1,50570,51170,211,236 MY,1,50570,51170,270,210
Sprite,Foreground,Centre,"sb\dot.png",0,0 C,0,50570,,255,255,255 F,1,50570,51170,1,0 S,1,50570,51170,1,0.2 MX,1,50570,51170,211,173 MY,1,50570,51170,270,242
Sprite,Foreground,Centre,"sb\dot.png",0,0 C,0,50570,,255,255,255 F,1,50570,51170,1,0 S,1,50570,51170,1,0.2 MX,1,50570,51170,211,235 MY,1,50570,51170,270,292
Sprite,Foreground,Centre,"sb\dot.png",0,0 C,0,50570,,255,255,255 F,1,50570,51170,1,0 S,1,50570,51170,1,0.2 MX,1,50570,51170,211,260 MY,1,50570,51170,270,277
Sprite,Foreground,Centre,"sb\dot.png",0,0 C,0,50570,,255,255,255 F,1,50570,51170,1,0 S,1,50570,51170,1,0.2 MX,1,50570,51170,211,237 MY,1,50570,51170,270,252
Sprite,Foreground,Centre,"sb\dot.png",0,0 C,0,50570,,255,255,255 F,1,50570,51170,1,0 S,1,50570,51170,1,0.2 MX,1,50570,51170,211,217 MY,1,50570,51170,270,221
Sprite,Foreground,Centre,"sb\dot.png",0,0 C,0,50570,,255,255,255 F,1,50570,51170,1,0 S,1,50570,51170,1,0.2 MX,1,50570,51170,211,216 MY,1,50570,51170,270,299
Sprite,Foreground,Centre,"sb\dot.png",0,0 C,0,50570,,255,255,255 F,1,50570,51170,1,0 S,1,50570,51170,1,0.2 MX,1,50570,51170,211,190 MY,1,50570,51170,270,238
Sprite,Foreground,Centre,"sb\dot.png",0,0 C,0,50570,,255,255,255 F,1,50570,51170,1,0 S,1,50570,51170,1,0.2 MX,1,50570,51170,211,194 MY,1,50570,51170,270,305
Sprite,Foreground,Centre,"sb\dot.png",0,0 C,0,50570,,255,255,255 F,1,50570,51170,1,0 S,1,50570,51170,1,0.2 MX,1,50570,51170,211,242 MY,1,50570,51170,270,328
Sprite,Foreground,Centre,"sb\dot.png",0,0 C,0,50570,,255,255,255 F,1,50570,51170,1,0 S,1,50570,51170,1,0.2 MX,1,50570,51170,211,232 MY,1,50570,51170,270,316
Sprite,Foreground,Centre,"sb\dot.png",0,0 C,0,50570,,255,255,255 F,1,50570,51170,1,0 S,1,50570,51170,1,0.2 MX,1,50570,51170,211,267 MY,1,50570,51170,270,301
Sprite,Foreground,Centre,"sb\dot.png",0,0 C,0,50570,,255,255,255 F,1,50570,51170,1,0 S,1,50570,51170,1,0.2 MX,1,50570,51170,211,222 MY,1,50570,51170,270,253
Sprite,Foreground,Centre,"sb\dot.png",0,0 C,0,50570,,255,255,255 F,1,50570,51170,1,0 S,1,50570,51170,1,0.2 MX,1,50570,51170,211,241 MY,1,50570,51170,270,312
Sprite,Foreground,Centre,"sb\dot.png",0,0 C,0,50570,,255,255,255 F,1,50570,51170,1,0 S,1,50570,51170,1,0.2 MX,1,50570,51170,211,234 MY,1,50570,51170,270,310
Sprite,Foreground,Centre,"sb\dot.png",0,0 C,0,50570,,255,255,255 F,1,50570,51170,1,0 S,1,50570,51170,1,0.2 MX,1,50570,51170,211,196 MY,1,50570,51170,270,217
Sprite,Foreground,Centre,"sb\dot.png",0,0 C,0,50570,,255,255,255 F,1,50570,51170,1,0 S,1,50570,51170,1,0.2 MX,1,50570,51170,211,220 MY,1,50570,51170,270,292
Sprite,Foreground,Centre,"sb\dot.png",0,0 C,0,50570,,255,255,255 F,1,50570,51170,1,0 S,1,50570,51170,1,0.2 MX,1,50570,51170,211,194 MY,1,50570,51170,270,290
Sprite,Foreground,Centre,"sb\dot.png",0,0 C,0,50570,,255,255,255 F,1,50570,51170,1,0 S,1,50570,51170,1,0.2 MX,1,50570,51170,211,269 MY,1,50570,51170,270,320
Sprite,Foreground,Centre,"sb\dot.png",0,0 C,0,50570,,255,255,255 F,1,50570,51170,1,0 S,1,50570,51170,1,0.2 MX,1,50570,51170,211,169 MY,1,50570,51170,270,301
Sprite,Foreground,Centre,"sb\dot.png",0,0 C,0,50570,,255,255,255 F,1,50570,51170,1,0 S,1,50570,51170,1,0.2 MX,1,50570,51170,211,194 MY,1,50570,51170,270,288
Sprite,Foreground,Centre,"sb\dot.png",0,0 C,0,50570,,255,255,255 F,1,50570,51170,1,0 S,1,50570,51170,1,0.2 MX,1,50570,51170,211,198 MY,1,50570,51170,270,223
Sprite,Foreground,Centre,"sb\dot.png",0,0 C,0,50570,,255,255,255 F,1,50570,51170,1,0 S,1,50570,51170,1,0.2 MX,1,50570,51170,211,220 MY,1,50570,51170,270,253
Sprite,Foreground,Centre,"sb\dot.png",0,0 C,0,50570,,255,255,255 F,1,50570,51170,1,0 S,1,50570,51170,1,0.2 MX,1,50570,51170,211,245 MY,1,50570,51170,270,246
Sprite,Foreground,Centre,"sb\dot.png",0,0 C,0,50734,,255,255,255 F,1,50734,51334,1,0 S,1,50734,51334,1,0.2 MX,1,50734,51334,283,236 MY,1,50734,51334,166,208
Sprite,Foreground,Centre,"sb\dot.png",0,0 C,0,50734,,255,255,255 F,1,50734,51334,1,0 S,1,50734,51334,1,0.2 MX,1,50734,51334,283,253 MY,1,50734,51334,166,217
Sprite,Foreground,Centre,"sb\dot.png",0,0 C,0,50734,,255,255,255 F,1,50734,51334,1,0 S,1,50734,51334,1,0.2 MX,1,50734,51334,283,236 MY,1,50734,51334,166,213
Sprite,Foreground,Centre,"sb\dot.png",0,0 C,0,50734,,255,255,255 F,1,50734,51334,1,0 S,1,50734,51334,1,0.2 MX,1,50734,51334,283,308 MY,1,50734,51334,166,204
Sprite,Foreground,Centre,"sb\dot.png",0,0 C,0,50734,,255,255,255 F,1,50734,51334,1,0 S,1,50734,51334,1,0.2 MX,1,50734,51334,283,226 MY,1,50734,51334,166,157
Sprite,Foreground,Centre,"sb\dot.png",0,0 C,0,50734,,255,255,255 F,1,50734,51334,1,0 S,1,50734,51334,1,0.2 MX,1,50734,51334,283,303 MY,1,50734,51334,166,146
Sprite,Foreground,Centre,"sb\dot.png",0,0 C,0,50734,,255,255,255 F,1,50734,51334,1,0 S,1,50734,51334,1,0.2 MX,1,50734,51334,283,335 MY,1,50734,51334,166,113
Sprite,Foreground,Centre,"sb\dot.png",0,0 C,0,50734,,255,255,255 F,1,50734,51334,1,0 S,1,50734,51334,1,0.2 MX,1,50734,51334,283,327 MY,1,50734,51334,166,211
Sprite,Foreground,Centre,"sb\dot.png",0,0 C,0,50734,,255,255,255 F,1,50734,51334,1,0 S,1,50734,51334,1,0.2 MX,1,50734,51334,283,340 MY,1,50734,51334,166,165
Sprite,Foreground,Centre,"sb\dot.png",0,0 C,0,50734,,255,255,255 F,1,50734,51334,1,0 S,1,50734,51334,1,0.2 MX,1,50734,51334,283,285 MY,1,50734,51334,166,209
Sprite,Foreground,Centre,"sb\dot.png",0,0 C,0,50734,,255,255,255 F,1,50734,51334,1,0 S,1,50734,51334,1,0.2 MX,1,50734,51334,283,269 MY,1,50734,51334,166,184
Sprite,Foreground,Centre,"sb\dot.png",0,0 C,0,50734,,255,255,255 F,1,50734,51334,1,0 S,1,50734,51334,1,0.2 MX,1,50734,51334,283,253 MY,1,50734,51334,166,158
Sprite,Foreground,Centre,"sb\dot.png",0,0 C,0,50734,,255,255,255 F,1,50734,51334,1,0 S,1,50734,51334,1,0.2 MX,1,50734,51334,283,299 MY,1,50734,51334,166,106
Sprite,Foreground,Centre,"sb\dot.png",0,0 C,0,50734,,255,255,255 F,1,50734,51334,1,0 S,1,50734,51334,1,0.2 MX,1,50734,51334,283,297 MY,1,50734,51334,166,108
Sprite,Foreground,Centre,"sb\dot.png",0,0 C,0,50734,,255,255,255 F,1,50734,51334,1,0 S,1,50734,51334,1,0.2 MX,1,50734,51334,283,281 MY,1,50734,51334,166,209
Sprite,Foreground,Centre,"sb\dot.png",0,0 C,0,50734,,255,255,255 F,1,50734,51334,1,0 S,1,50734,51334,1,0.2 MX,1,50734,51334,283,245 MY,1,50734,51334,166,133
Sprite,Foreground,Centre,"sb\dot.png",0,0 C,0,50734,,255,255,255 F,1,50734,51334,1,0 S,1,50734,51334,1,0.2 MX,1,50734,51334,283,291 MY,1,50734,51334,166,160
Sprite,Foreground,Centre,"sb\dot.png",0,0 C,0,50734,,255,255,255 F,1,50734,51334,1,0 S,1,50734,51334,1,0.2 MX,1,50734,51334,283,311 MY,1,50734,51334,166,206
Sprite,Foreground,Centre,"sb\dot.png",0,0 C,0,50734,,255,255,255 F,1,50734,51334,1,0 S,1,50734,51334,1,0.2 MX,1,50734,51334,283,293 MY,1,50734,51334,166,159
Sprite,Foreground,Centre,"sb\dot.png",0,0 C,0,50734,,255,255,255 F,1,50734,51334,1,0 S,1,50734,51334,1,0.2 MX,1,50734,51334,283,336 MY,1,50734,51334,166,188
Sprite,Foreground,Centre,"sb\dot.png",0,0 C,0,50734,,255,255,255 F,1,50734,51334,1,0 S,1,50734,51334,1,0.2 MX,1,50734,51334,283,340 MY,1,50734,51334,166,170
Sprite,Foreground,Centre,"sb\dot.png",0,0 C,0,50734,,255,255,255 F,1,50734,51334,1,0 S,1,50734,51334,1,0.2 MX,1,50734,51334,283,299 MY,1,50734,51334,166,173
Sprite,Foreground,Centre,"sb\dot.png",0,0 C,0,50734,,255,255,255 F,1,50734,51334,1,0 S,1,50734,51334,1,0.2 MX,1,50734,51334,283,252 MY,1,50734,51334,166,203
Sprite,Foreground,Centre,"sb\dot.png",0,0 C,0,50734,,255,255,255 F,1,50734,51334,1,0 S,1,50734,51334,1,0.2 MX,1,50734,51334,283,321 MY,1,50734,51334,166,142
Sprite,Foreground,Centre,"sb\dot.png",0,0 C,0,50734,,255,255,255 F,1,50734,51334,1,0 S,1,50734,51334,1,0.2 MX,1,50734,51334,283,317 MY,1,50734,51334,166,168
Sprite,Foreground,Centre,"sb\dot.png",0,0 C,0,50734,,255,255,255 F,1,50734,51334,1,0 S,1,50734,51334,1,0.2 MX,1,50734,51334,283,238 MY,1,50734,51334,166,115
Sprite,Foreground,Centre,"sb\dot.png",0,0 C,0,50734,,255,255,255 F,1,50734,51334,1,0 S,1,50734,51334,1,0.2 MX,1,50734,51334,283,324 MY,1,50734,51334,166,217
Sprite,Foreground,Centre,"sb\dot.png",0,0 C,0,50734,,255,255,255 F,1,50734,51334,1,0 S,1,50734,51334,1,0.2 MX,1,50734,51334,283,333 MY,1,50734,51334,166,160
Sprite,Foreground,Centre,"sb\dot.png",0,0 C,0,50734,,255,255,255 F,1,50734,51334,1,0 S,1,50734,51334,1,0.2 MX,1,50734,51334,283,295 MY,1,50734,51334,166,203
Sprite,Foreground,Centre,"sb\dot.png",0,0 C,0,50734,,255,255,255 F,1,50734,51334,1,0 S,1,50734,51334,1,0.2 MX,1,50734,51334,283,258 MY,1,50734,51334,166,118
Sprite,Foreground,Centre,"sb\dot.png",0,0 C,0,50898,,255,255,255 F,1,50898,51498,1,0 S,1,50898,51498,1,0.2 MX,1,50898,51498,342,315 MY,1,50898,51498,280,302
Sprite,Foreground,Centre,"sb\dot.png",0,0 C,0,50898,,255,255,255 F,1,50898,51498,1,0 S,1,50898,51498,1,0.2 MX,1,50898,51498,342,321 MY,1,50898,51498,280,240
Sprite,Foreground,Centre,"sb\dot.png",0,0 C,0,50898,,255,255,255 F,1,50898,51498,1,0 S,1,50898,51498,1,0.2 MX,1,50898,51498,342,310 MY,1,50898,51498,280,273
Sprite,Foreground,Centre,"sb\dot.png",0,0 C,0,50898,,255,255,255 F,1,50898,51498,1,0 S,1,50898,51498,1,0.2 MX,1,50898,51498,342,374 MY,1,50898,51498,280,278
Sprite,Foreground,Centre,"sb\dot.png",0,0 C,0,50898,,255,255,255 F,1,50898,51498,1,0 S,1,50898,51498,1,0.2 MX,1,50898,51498,342,320 MY,1,50898,51498,280,223
Sprite,Foreground,Centre,"sb\dot.png",0,0 C,0,50898,,255,255,255 F,1,50898,51498,1,0 S,1,50898,51498,1,0.2 MX,1,50898,51498,342,317 MY,1,50898,51498,280,283
Sprite,Foreground,Centre,"sb\dot.png",0,0 C,0,50898,,255,255,255 F,1,50898,51498,1,0 S,1,50898,51498,1,0.2 MX,1,50898,51498,342,347 MY,1,50898,51498,280,319
Sprite,Foreground,Centre,"sb\dot.png",0,0 C,0,50898,,255,255,255 F,1,50898,51498,1,0 S,1,50898,51498,1,0.2 MX,1,50898,51498,342,387 MY,1,50898,51498,280,321
Sprite,Foreground,Centre,"sb\dot.png",0,0 C,0,50898,,255,255,255 F,1,50898,51498,1,0 S,1,50898,51498,1,0.2 MX,1,50898,51498,342,283 MY,1,50898,51498,280,302
Sprite,Foreground,Centre,"sb\dot.png",0,0 C,0,50898,,255,255,255 F,1,50898,51498,1,0 S,1,50898,51498,1,0.2 MX,1,50898,51498,342,305 MY,1,50898,51498,280,318
Sprite,Foreground,Centre,"sb\dot.png",0,0 C,0,50898,,255,255,255 F,1,50898,51498,1,0 S,1,50898,51498,1,0.2 MX,1,50898,51498,342,303 MY,1,50898,51498,280,258
Sprite,Foreground,Centre,"sb\dot.png",0,0 C,0,50898,,255,255,255 F,1,50898,51498,1,0 S,1,50898,51498,1,0.2 MX,1,50898,51498,342,309 MY,1,50898,51498,280,336
Sprite,Foreground,Centre,"sb\dot.png",0,0 C,0,50898,,255,255,255 F,1,50898,51498,1,0 S,1,50898,51498,1,0.2 MX,1,50898,51498,342,369 MY,1,50898,51498,280,232
Sprite,Foreground,Centre,"sb\dot.png",0,0 C,0,50898,,255,255,255 F,1,50898,51498,1,0 S,1,50898,51498,1,0.2 MX,1,50898,51498,342,327 MY,1,50898,51498,280,297
Sprite,Foreground,Centre,"sb\dot.png",0,0 C,0,50898,,255,255,255 F,1,50898,51498,1,0 S,1,50898,51498,1,0.2 MX,1,50898,51498,342,345 MY,1,50898,51498,280,254
Sprite,Foreground,Centre,"sb\dot.png",0,0 C,0,50898,,255,255,255 F,1,50898,51498,1,0 S,1,50898,51498,1,0.2 MX,1,50898,51498,342,310 MY,1,50898,51498,280,312
Sprite,Foreground,Centre,"sb\dot.png",0,0 C,0,50898,,255,255,255 F,1,50898,51498,1,0 S,1,50898,51498,1,0.2 MX,1,50898,51498,342,300 MY,1,50898,51498,280,321
Sprite,Foreground,Centre,"sb\dot.png",0,0 C,0,50898,,255,255,255 F,1,50898,51498,1,0 S,1,50898,51498,1,0.2 MX,1,50898,51498,342,331 MY,1,50898,51498,280,254
Sprite,Foreground,Centre,"sb\dot.png",0,0 C,0,50898,,255,255,255 F,1,50898,51498,1,0 S,1,50898,51498,1,0.2 MX,1,50898,51498,342,306 MY,1,50898,51498,280,276
Sprite,Foreground,Centre,"sb\dot.png",0,0 C,0,50898,,255,255,255 F,1,50898,51498,1,0 S,1,50898,51498,1,0.2 MX,1,50898,51498,342,320 MY,1,50898,51498,280,315
Sprite,Foreground,Centre,"sb\dot.png",0,0 C,0,50898,,255,255,255 F,1,50898,51498,1,0 S,1,50898,51498,1,0.2 MX,1,50898,51498,342,287 MY,1,50898,51498,280,260
Sprite,Foreground,Centre,"sb\dot.png",0,0 C,0,50898,,255,255,255 F,1,50898,51498,1,0 S,1,50898,51498,1,0.2 MX,1,50898,51498,342,399 MY,1,50898,51498,280,311
Sprite,Foreground,Centre,"sb\dot.png",0,0 C,0,50898,,255,255,255 F,1,50898,51498,1,0 S,1,50898,51498,1,0.2 MX,1,50898,51498,342,308 MY,1,50898,51498,280,292
Sprite,Foreground,Centre,"sb\dot.png",0,0 C,0,50898,,255,255,255 F,1,50898,51498,1,0 S,1,50898,51498,1,0.2 MX,1,50898,51498,342,345 MY,1,50898,51498,280,222
Sprite,Foreground,Centre,"sb\dot.png",0,0 C,0,50898,,255,255,255 F,1,50898,51498,1,0 S,1,50898,51498,1,0.2 MX,1,50898,51498,342,287 MY,1,50898,51498,280,228
Sprite,Foreground,Centre,"sb\dot.png",0,0 C,0,50898,,255,255,255 F,1,50898,51498,1,0 S,1,50898,51498,1,0.2 MX,1,50898,51498,342,334 MY,1,50898,51498,280,329
Sprite,Foreground,Centre,"sb\dot.png",0,0 C,0,50898,,255,255,255 F,1,50898,51498,1,0 S,1,50898,51498,1,0.2 MX,1,50898,51498,342,356 MY,1,50898,51498,280,276
Sprite,Foreground,Centre,"sb\dot.png",0,0 C,0,50898,,255,255,255 F,1,50898,51498,1,0 S,1,50898,51498,1,0.2 MX,1,50898,51498,342,392 MY,1,50898,51498,280,335
Sprite,Foreground,Centre,"sb\dot.png",0,0 C,0,50898,,255,255,255 F,1,50898,51498,1,0 S,1,50898,51498,1,0.2 MX,1,50898,51498,342,337 MY,1,50898,51498,280,263
Sprite,Foreground,Centre,"sb\dot.png",0,0 C,0,50898,,255,255,255 F,1,50898,51498,1,0 S,1,50898,51498,1,0.2 MX,1,50898,51498,342,334 MY,1,50898,51498,280,236
Sprite,Foreground,Centre,"sb\dot.png",0,0 C,0,51062,,255,255,255 F,1,51062,51662,1,0 S,1,51062,51662,1,0.2 MX,1,51062,51662,404,352 MY,1,51062,51662,177,131
Sprite,Foreground,Centre,"sb\dot.png",0,0 C,0,51062,,255,255,255 F,1,51062,51662,1,0 S,1,51062,51662,1,0.2 MX,1,51062,51662,404,458 MY,1,51062,51662,177,121
Sprite,Foreground,Centre,"sb\dot.png",0,0 C,0,51062,,255,255,255 F,1,51062,51662,1,0 S,1,51062,51662,1,0.2 MX,1,51062,51662,404,438 MY,1,51062,51662,177,179
Sprite,Foreground,Centre,"sb\dot.png",0,0 C,0,51062,,255,255,255 F,1,51062,51662,1,0 S,1,51062,51662,1,0.2 MX,1,51062,51662,404,389 MY,1,51062,51662,177,201
Sprite,Foreground,Centre,"sb\dot.png",0,0 C,0,51062,,255,255,255 F,1,51062,51662,1,0 S,1,51062,51662,1,0.2 MX,1,51062,51662,404,394 MY,1,51062,51662,177,188
Sprite,Foreground,Centre,"sb\dot.png",0,0 C,0,51062,,255,255,255 F,1,51062,51662,1,0 S,1,51062,51662,1,0.2 MX,1,51062,51662,404,420 MY,1,51062,51662,177,182
Sprite,Foreground,Centre,"sb\dot.png",0,0 C,0,51062,,255,255,255 F,1,51062,51662,1,0 S,1,51062,51662,1,0.2 MX,1,51062,51662,404,388 MY,1,51062,51662,177,164
Sprite,Foreground,Centre,"sb\dot.png",0,0 C,0,51062,,255,255,255 F,1,51062,51662,1,0 S,1,51062,51662,1,0.2 MX,1,51062,51662,404,436 MY,1,51062,51662,177,218
Sprite,Foreground,Centre,"sb\dot.png",0,0 C,0,51062,,255,255,255 F,1,51062,51662,1,0 S,1,51062,51662,1,0.2 MX,1,51062,51662,404,384 MY,1,51062,51662,177,173
Sprite,Foreground,Centre,"sb\dot.png",0,0 C,0,51062,,255,255,255 F,1,51062,51662,1,0 S,1,51062,51662,1,0.2 MX,1,51062,51662,404,434 MY,1,51062,51662,177,132
Sprite,Foreground,Centre,"sb\dot.png",0,0 C,0,51062,,255,255,255 F,1,51062,51662,1,0 S,1,51062,51662,1,0.2 MX,1,51062,51662,404,412 MY,1,51062,51662,177,160
Sprite,Foreground,Centre,"sb\dot.png",0,0 C,0,51062,,255,255,255 F,1,51062,51662,1,0 S,1,51062,51662,1,0.2 MX,1,51062,51662,404,415 MY,1,51062,51662,177,172
Sprite,Foreground,Centre,"sb\dot.png",0,0 C,0,51062,,255,255,255 F,1,51062,51662,1,0 S,1,51062,51662,1,0.2 MX,1,51062,51662,404,445 MY,1,51062,51662,177,155
Sprite,Foreground,Centre,"sb\dot.png",0,0 C,0,51062,,255,255,255 F,1,51062,51662,1,0 S,1,51062,51662,1,0.2 MX,1,51062,51662,404,362 MY,1,51062,51662,177,198
Sprite,Foreground,Centre,"sb\dot.png",0,0 C,0,51062,,255,255,255 F,1,51062,51662,1,0 S,1,51062,51662,1,0.2 MX,1,51062,51662,404,454 MY,1,51062,51662,177,171
Sprite,Foreground,Centre,"sb\dot.png",0,0 C,0,51062,,255,255,255 F,1,51062,51662,1,0 S,1,51062,51662,1,0.2 MX,1,51062,51662,404,443 MY,1,51062,51662,177,218
Sprite,Foreground,Centre,"sb\dot.png",0,0 C,0,51062,,255,255,255 F,1,51062,51662,1,0 S,1,51062,51662,1,0.2 MX,1,51062,51662,404,347 MY,1,51062,51662,177,139
Sprite,Foreground,Centre,"sb\dot.png",0,0 C,0,51062,,255,255,255 F,1,51062,51662,1,0 S,1,51062,51662,1,0.2 MX,1,51062,51662,404,431 MY,1,51062,51662,177,228
Sprite,Foreground,Centre,"sb\dot.png",0,0 C,0,51062,,255,255,255 F,1,51062,51662,1,0 S,1,51062,51662,1,0.2 MX,1,51062,51662,404,389 MY,1,51062,51662,177,230
Sprite,Foreground,Centre,"sb\dot.png",0,0 C,0,51062,,255,255,255 F,1,51062,51662,1,0 S,1,51062,51662,1,0.2 MX,1,51062,51662,404,460 MY,1,51062,51662,177,200
Sprite,Foreground,Centre,"sb\dot.png",0,0 C,0,51062,,255,255,255 F,1,51062,51662,1,0 S,1,51062,51662,1,0.2 MX,1,51062,51662,404,370 MY,1,51062,51662,177,216
Sprite,Foreground,Centre,"sb\dot.png",0,0 C,0,51062,,255,255,255 F,1,51062,51662,1,0 S,1,51062,51662,1,0.2 MX,1,51062,51662,404,415 MY,1,51062,51662,177,171
Sprite,Foreground,Centre,"sb\dot.png",0,0 C,0,51062,,255,255,255 F,1,51062,51662,1,0 S,1,51062,51662,1,0.2 MX,1,51062,51662,404,396 MY,1,51062,51662,177,224
Sprite,Foreground,Centre,"sb\dot.png",0,0 C,0,51062,,255,255,255 F,1,51062,51662,1,0 S,1,51062,51662,1,0.2 MX,1,51062,51662,404,409 MY,1,51062,51662,177,143
Sprite,Foreground,Centre,"sb\dot.png",0,0 C,0,51062,,255,255,255 F,1,51062,51662,1,0 S,1,51062,51662,1,0.2 MX,1,51062,51662,404,428 MY,1,51062,51662,177,126
Sprite,Foreground,Centre,"sb\dot.png",0,0 C,0,51062,,255,255,255 F,1,51062,51662,1,0 S,1,51062,51662,1,0.2 MX,1,51062,51662,404,418 MY,1,51062,51662,177,236
Sprite,Foreground,Centre,"sb\dot.png",0,0 C,0,51062,,255,255,255 F,1,51062,51662,1,0 S,1,51062,51662,1,0.2 MX,1,51062,51662,404,417 MY,1,51062,51662,177,154
Sprite,Foreground,Centre,"sb\dot.png",0,0 C,0,51062,,255,255,255 F,1,51062,51662,1,0 S,1,51062,51662,1,0.2 MX,1,51062,51662,404,411 MY,1,51062,51662,177,202
Sprite,Foreground,Centre,"sb\dot.png",0,0 C,0,51062,,255,255,255 F,1,51062,51662,1,0 S,1,51062,51662,1,0.2 MX,1,51062,51662,404,407 MY,1,51062,51662,177,176
Sprite,Foreground,Centre,"sb\dot.png",0,0 C,0,51062,,255,255,255 F,1,51062,51662,1,0 S,1,51062,51662,1,0.2 MX,1,51062,51662,404,366 MY,1,51062,51662,177,172
Sprite,Foreground,Centre,"sb\dot.png",0,0 C,0,51226,,255,255,255 F,1,51226,51826,1,0 S,1,51226,51826,1,0.2 MX,1,51226,51826,451,435 MY,1,51226,51826,294,317
Sprite,Foreground,Centre,"sb\dot.png",0,0 C,0,51226,,255,255,255 F,1,51226,51826,1,0 S,1,51226,51826,1,0.2 MX,1,51226,51826,451,485 MY,1,51226,51826,294,350
Sprite,Foreground,Centre,"sb\dot.png",0,0 C,0,51226,,255,255,255 F,1,51226,51826,1,0 S,1,51226,51826,1,0.2 MX,1,51226,51826,451,482 MY,1,51226,51826,294,328
Sprite,Foreground,Centre,"sb\dot.png",0,0 C,0,51226,,255,255,255 F,1,51226,51826,1,0 S,1,51226,51826,1,0.2 MX,1,51226,51826,451,452 MY,1,51226,51826,294,255
Sprite,Foreground,Centre,"sb\dot.png",0,0 C,0,51226,,255,255,255 F,1,51226,51826,1,0 S,1,51226,51826,1,0.2 MX,1,51226,51826,451,470 MY,1,51226,51826,294,335
Sprite,Foreground,Centre,"sb\dot.png",0,0 C,0,51226,,255,255,255 F,1,51226,51826,1,0 S,1,51226,51826,1,0.2 MX,1,51226,51826,451,446 MY,1,51226,51826,294,281
Sprite,Foreground,Centre,"sb\dot.png",0,0 C,0,51226,,255,255,255 F,1,51226,51826,1,0 S,1,51226,51826,1,0.2 MX,1,51226,51826,451,450 MY,1,51226,51826,294,240
Sprite,Foreground,Centre,"sb\dot.png",0,0 C,0,51226,,255,255,255 F,1,51226,51826,1,0 S,1,51226,51826,1,0.2 MX,1,51226,51826,451,499 MY,1,51226,51826,294,323
Sprite,Foreground,Centre,"sb\dot.png",0,0 C,0,51226,,255,255,255 F,1,51226,51826,1,0 S,1,51226,51826,1,0.2 MX,1,51226,51826,451,482 MY,1,51226,51826,294,250
Sprite,Foreground,Centre,"sb\dot.png",0,0 C,0,51226,,255,255,255 F,1,51226,51826,1,0 S,1,51226,51826,1,0.2 MX,1,51226,51826,451,393 MY,1,51226,51826,294,348
Sprite,Foreground,Centre,"sb\dot.png",0,0 C,0,51226,,255,255,255 F,1,51226,51826,1,0 S,1,51226,51826,1,0.2 MX,1,51226,51826,451,484 MY,1,51226,51826,294,345
Sprite,Foreground,Centre,"sb\dot.png",0,0 C,0,51226,,255,255,255 F,1,51226,51826,1,0 S,1,51226,51826,1,0.2 MX,1,51226,51826,451,508 MY,1,51226,51826,294,335
Sprite,Foreground,Centre,"sb\dot.png",0,0 C,0,51226,,255,255,255 F,1,51226,51826,1,0 S,1,51226,51826,1,0.2 MX,1,51226,51826,451,490 MY,1,51226,51826,294,334
Sprite,Foreground,Centre,"sb\dot.png",0,0 C,0,51226,,255,255,255 F,1,51226,51826,1,0 S,1,51226,51826,1,0.2 MX,1,51226,51826,451,419 MY,1,51226,51826,294,320
Sprite,Foreground,Centre,"sb\dot.png",0,0 C,0,51226,,255,255,255 F,1,51226,51826,1,0 S,1,51226,51826,1,0.2 MX,1,51226,51826,451,465 MY,1,51226,51826,294,236
Sprite,Foreground,Centre,"sb\dot.png",0,0 C,0,51226,,255,255,255 F,1,51226,51826,1,0 S,1,51226,51826,1,0.2 MX,1,51226,51826,451,438 MY,1,51226,51826,294,340
Sprite,Foreground,Centre,"sb\dot.png",0,0 C,0,51226,,255,255,255 F,1,51226,51826,1,0 S,1,51226,51826,1,0.2 MX,1,51226,51826,451,481 MY,1,51226,51826,294
Sprite,Foreground,Centre,"sb\dot.png",0,0 C,0,51226,,255,255,255 F,1,51226,51826,1,0 S,1,51226,51826,1,0.2 MX,1,51226,51826,451,430 MY,1,51226,51826,294,296
Sprite,Foreground,Centre,"sb\dot.png",0,0 C,0,51226,,255,255,255 F,1,51226,51826,1,0 S,1,51226,51826,1,0.2 MX,1,51226,51826,451,396 MY,1,51226,51826,294,309
Sprite,Foreground,Centre,"sb\dot.png",0,0 C,0,51226,,255,255,255 F,1,51226,51826,1,0 S,1,51226,51826,1,0.2 MX,1,51226,51826,451,473 MY,1,51226,51826,294,311
Sprite,Foreground,Centre,"sb\dot.png",0,0 C,0,51226,,255,255,255 F,1,51226,51826,1,0 S,1,51226,51826,1,0.2 MX,1,51226,51826,451,436 MY,1,51226,51826,294,277
Sprite,Foreground,Centre,"sb\dot.png",0,0 C,0,51226,,255,255,255 F,1,51226,51826,1,0 S,1,51226,51826,1,0.2 MX,1,51226,51826,451,458 MY,1,51226,51826,294,336
Sprite,Foreground,Centre,"sb\dot.png",0,0 C,0,51226,,255,255,255 F,1,51226,51826,1,0 S,1,51226,51826,1,0.2 MX,1,51226,51826,451,464 MY,1,51226,51826,294,260
Sprite,Foreground,Centre,"sb\dot.png",0,0 C,0,51226,,255,255,255 F,1,51226,51826,1,0 S,1,51226,51826,1,0.2 MX,1,51226,51826,451,450 MY,1,51226,51826,294,301
Sprite,Foreground,Centre,"sb\dot.png",0,0 C,0,51226,,255,255,255 F,1,51226,51826,1,0 S,1,51226,51826,1,0.2 MX,1,51226,51826,451,439 MY,1,51226,51826,294,332
Sprite,Foreground,Centre,"sb\dot.png",0,0 C,0,51226,,255,255,255 F,1,51226,51826,1,0 S,1,51226,51826,1,0.2 MX,1,51226,51826,451,504 MY,1,51226,51826,294,280
Sprite,Foreground,Centre,"sb\dot.png",0,0 C,0,51226,,255,255,255 F,1,51226,51826,1,0 S,1,51226,51826,1,0.2 MX,1,51226,51826,451,447 MY,1,51226,51826,294,261
Sprite,Foreground,Centre,"sb\dot.png",0,0 C,0,51226,,255,255,255 F,1,51226,51826,1,0 S,1,51226,51826,1,0.2 MX,1,51226,51826,451,473 MY,1,51226,51826,294,286
Sprite,Foreground,Centre,"sb\dot.png",0,0 C,0,51226,,255,255,255 F,1,51226,51826,1,0 S,1,51226,51826,1,0.2 MX,1,51226,51826,451,477 MY,1,51226,51826,294,347
Sprite,Foreground,Centre,"sb\dot.png",0,0 C,0,51226,,255,255,255 F,1,51226,51826,1,0 S,1,51226,51826,1,0.2 MX,1,51226,51826,451,407 MY,1,51226,51826,294,345
Sprite,Foreground,Centre,"sb\dot.png",0,0 C,0,51553,,255,255,255 F,1,51553,52153,1,0 S,1,51553,52153,1,0.2 MX,1,51553,52153,465,470 MY,1,51553,52153,416,450
Sprite,Foreground,Centre,"sb\dot.png",0,0 C,0,51553,,255,255,255 F,1,51553,52153,1,0 S,1,51553,52153,1,0.2 MX,1,51553,52153,465,471 MY,1,51553,52153,416,433
Sprite,Foreground,Centre,"sb\dot.png",0,0 C,0,51553,,255,255,255 F,1,51553,52153,1,0 S,1,51553,52153,1,0.2 MX,1,51553,52153,465,458 MY,1,51553,52153,416,425
Sprite,Foreground,Centre,"sb\dot.png",0,0 C,0,51553,,255,255,255 F,1,51553,52153,1,0 S,1,51553,52153,1,0.2 MX,1,51553,52153,465,482 MY,1,51553,52153,416,474
Sprite,Foreground,Centre,"sb\dot.png",0,0 C,0,51553,,255,255,255 F,1,51553,52153,1,0 S,1,51553,52153,1,0.2 MX,1,51553,52153,465,491 MY,1,51553,52153,416,402
Sprite,Foreground,Centre,"sb\dot.png",0,0 C,0,51553,,255,255,255 F,1,51553,52153,1,0 S,1,51553,52153,1,0.2 MX,1,51553,52153,465,489 MY,1,51553,52153,416,371
Sprite,Foreground,Centre,"sb\dot.png",0,0 C,0,51553,,255,255,255 F,1,51553,52153,1,0 S,1,51553,52153,1,0.2 MX,1,51553,52153,465,459 MY,1,51553,52153,416,401
Sprite,Foreground,Centre,"sb\dot.png",0,0 C,0,51553,,255,255,255 F,1,51553,52153,1,0 S,1,51553,52153,1,0.2 MX,1,51553,52153,465,474 MY,1,51553,52153,416,405
Sprite,Foreground,Centre,"sb\dot.png",0,0 C,0,51553,,255,255,255 F,1,51553,52153,1,0 S,1,51553,52153,1,0.2 MX,1,51553,52153,465,449 MY,1,51553,52153,416,371
Sprite,Foreground,Centre,"sb\dot.png",0,0 C,0,51553,,255,255,255 F,1,51553,52153,1,0 S,1,51553,52153,1,0.2 MX,1,51553,52153,465,432 MY,1,51553,52153,416,428
Sprite,Foreground,Centre,"sb\dot.png",0,0 C,0,51553,,255,255,255 F,1,51553,52153,1,0 S,1,51553,52153,1,0.2 MX,1,51553,52153,465,445 MY,1,51553,52153,416,437
Sprite,Foreground,Centre,"sb\dot.png",0,0 C,0,51553,,255,255,255 F,1,51553,52153,1,0 S,1,51553,52153,1,0.2 MX,1,51553,52153,465,443 MY,1,51553,52153,416,452
Sprite,Foreground,Centre,"sb\dot.png",0,0 C,0,51553,,255,255,255 F,1,51553,52153,1,0 S,1,51553,52153,1,0.2 MX,1,51553,52153,465,413 MY,1,51553,52153,416,357
Sprite,Foreground,Centre,"sb\dot.png",0,0 C,0,51553,,255,255,255 F,1,51553,52153,1,0 S,1,51553,52153,1,0.2 MX,1,51553,52153,465,454 MY,1,51553,52153,416,418
Sprite,Foreground,Centre,"sb\dot.png",0,0 C,0,51553,,255,255,255 F,1,51553,52153,1,0 S,1,51553,52153,1,0.2 MX,1,51553,52153,465,503 MY,1,51553,52153,416,462
Sprite,Foreground,Centre,"sb\dot.png",0,0 C,0,51553,,255,255,255 F,1,51553,52153,1,0 S,1,51553,52153,1,0.2 MX,1,51553,52153,465,501 MY,1,51553,52153,416,368
Sprite,Foreground,Centre,"sb\dot.png",0,0 C,0,51553,,255,255,255 F,1,51553,52153,1,0 S,1,51553,52153,1,0.2 MX,1,51553,52153,465,463 MY,1,51553,52153,416,446
Sprite,Foreground,Centre,"sb\dot.png",0,0 C,0,51553,,255,255,255 F,1,51553,52153,1,0 S,1,51553,52153,1,0.2 MX,1,51553,52153,465,416 MY,1,51553,52153,416,426
Sprite,Foreground,Centre,"sb\dot.png",0,0 C,0,51553,,255,255,255 F,1,51553,52153,1,0 S,1,51553,52153,1,0.2 MX,1,51553,52153,465,502 MY,1,51553,52153,416,466
Sprite,Foreground,Centre,"sb\dot.png",0,0 C,0,51553,,255,255,255 F,1,51553,52153,1,0 S,1,51553,52153,1,0.2 MX,1,51553,52153,465,453 MY,1,51553,52153,416,359
Sprite,Foreground,Centre,"sb\dot.png",0,0 C,0,51553,,255,255,255 F,1,51553,52153,1,0 S,1,51553,52153,1,0.2 MX,1,51553,52153,465,474 MY,1,51553,52153,416,417
Sprite,Foreground,Centre,"sb\dot.png",0,0 C,0,51553,,255,255,255 F,1,51553,52153,1,0 S,1,51553,52153,1,0.2 MX,1,51553,52153,465,505 MY,1,51553,52153,416,357
Sprite,Foreground,Centre,"sb\dot.png",0,0 C,0,51553,,255,255,255 F,1,51553,52153,1,0 S,1,51553,52153,1,0.2 MX,1,51553,52153,465,419 MY,1,51553,52153,416,454
Sprite,Foreground,Centre,"sb\dot.png",0,0 C,0,51553,,255,255,255 F,1,51553,52153,1,0 S,1,51553,52153,1,0.2 MX,1,51553,52153,465,517 MY,1,51553,52153,416,367
Sprite,Foreground,Centre,"sb\dot.png",0,0 C,0,51553,,255,255,255 F,1,51553,52153,1,0 S,1,51553,52153,1,0.2 MX,1,51553,52153,465,483 MY,1,51553,52153,416,388
Sprite,Foreground,Centre,"sb\dot.png",0,0 C,0,51553,,255,255,255 F,1,51553,52153,1,0 S,1,51553,52153,1,0.2 MX,1,51553,52153,465,413 MY,1,51553,52153,416,427
Sprite,Foreground,Centre,"sb\dot.png",0,0 C,0,51553,,255,255,255 F,1,51553,52153,1,0 S,1,51553,52153,1,0.2 MX,1,51553,52153,465,490 MY,1,51553,52153,416,420
Sprite,Foreground,Centre,"sb\dot.png",0,0 C,0,51553,,255,255,255 F,1,51553,52153,1,0 S,1,51553,52153,1,0.2 MX,1,51553,52153,465,476 MY,1,51553,52153,416,460
Sprite,Foreground,Centre,"sb\dot.png",0,0 C,0,51553,,255,255,255 F,1,51553,52153,1,0 S,1,51553,52153,1,0.2 MX,1,51553,52153,465,461 MY,1,51553,52153,416,445
Sprite,Foreground,Centre,"sb\dot.png",0,0 C,0,51553,,255,255,255 F,1,51553,52153,1,0 S,1,51553,52153,1,0.2 MX,1,51553,52153,465,473 MY,1,51553,52153,416,408
Sprite,Foreground,Centre,"sb\dot.png",0,0 C,0,51717,,255,255,255 F,1,51717,52317,1,0 S,1,51717,52317,1,0.2 MX,1,51717,52317,346,306 MY,1,51717,52317,373,327
Sprite,Foreground,Centre,"sb\dot.png",0,0 C,0,51717,,255,255,255 F,1,51717,52317,1,0 S,1,51717,52317,1,0.2 MX,1,51717,52317,346,306 MY,1,51717,52317,373,412
Sprite,Foreground,Centre,"sb\dot.png",0,0 C,0,51717,,255,255,255 F,1,51717,52317,1,0 S,1,51717,52317,1,0.2 MX,1,51717,52317,346,356 MY,1,51717,52317,373,384
Sprite,Foreground,Centre,"sb\dot.png",0,0 C,0,51717,,255,255,255 F,1,51717,52317,1,0 S,1,51717,52317,1,0.2 MX,1,51717,52317,346,363 MY,1,51717,52317,373,396
Sprite,Foreground,Centre,"sb\dot.png",0,0 C,0,51717,,255,255,255 F,1,51717,52317,1,0 S,1,51717,52317,1,0.2 MX,1,51717,52317,346,319 MY,1,51717,52317,373,431
Sprite,Foreground,Centre,"sb\dot.png",0,0 C,0,51717,,255,255,255 F,1,51717,52317,1,0 S,1,51717,52317,1,0.2 MX,1,51717,52317,346,358 MY,1,51717,52317,373,367
Sprite,Foreground,Centre,"sb\dot.png",0,0 C,0,51717,,255,255,255 F,1,51717,52317,1,0 S,1,51717,52317,1,0.2 MX,1,51717,52317,346,372 MY,1,51717,52317,373,336
Sprite,Foreground,Centre,"sb\dot.png",0,0 C,0,51717,,255,255,255 F,1,51717,52317,1,0 S,1,51717,52317,1,0.2 MX,1,51717,52317,346,288 MY,1,51717,52317,373,412
Sprite,Foreground,Centre,"sb\dot.png",0,0 C,0,51717,,255,255,255 F,1,51717,52317,1,0 S,1,51717,52317,1,0.2 MX,1,51717,52317,346,387 MY,1,51717,52317,373,349
Sprite,Foreground,Centre,"sb\dot.png",0,0 C,0,51717,,255,255,255 F,1,51717,52317,1,0 S,1,51717,52317,1,0.2 MX,1,51717,52317,346,368 MY,1,51717,52317,373,343
Sprite,Foreground,Centre,"sb\dot.png",0,0 C,0,51717,,255,255,255 F,1,51717,52317,1,0 S,1,51717,52317,1,0.2 MX,1,51717,52317,346,294 MY,1,51717,52317,373,350
Sprite,Foreground,Centre,"sb\dot.png",0,0 C,0,51717,,255,255,255 F,1,51717,52317,1,0 S,1,51717,52317,1,0.2 MX,1,51717,52317,346,389 MY,1,51717,52317,373,378
Sprite,Foreground,Centre,"sb\dot.png",0,0 C,0,51717,,255,255,255 F,1,51717,52317,1,0 S,1,51717,52317,1,0.2 MX,1,51717,52317,346,384 MY,1,51717,52317,373,337
Sprite,Foreground,Centre,"sb\dot.png",0,0 C,0,51717,,255,255,255 F,1,51717,52317,1,0 S,1,51717,52317,1,0.2 MX,1,51717,52317,346,332 MY,1,51717,52317,373,427
Sprite,Foreground,Centre,"sb\dot.png",0,0 C,0,51717,,255,255,255 F,1,51717,52317,1,0 S,1,51717,52317,1,0.2 MX,1,51717,52317,346,305 MY,1,51717,52317,373,340
Sprite,Foreground,Centre,"sb\dot.png",0,0 C,0,51717,,255,255,255 F,1,51717,52317,1,0 S,1,51717,52317,1,0.2 MX,1,51717,52317,346,299 MY,1,51717,52317,373,320
Sprite,Foreground,Centre,"sb\dot.png",0,0 C,0,51717,,255,255,255 F,1,51717,52317,1,0 S,1,51717,52317,1,0.2 MX,1,51717,52317,346,328 MY,1,51717,52317,373,428
Sprite,Foreground,Centre,"sb\dot.png",0,0 C,0,51717,,255,255,255 F,1,51717,52317,1,0 S,1,51717,52317,1,0.2 MX,1,51717,52317,346,389 MY,1,51717,52317,373,368
Sprite,Foreground,Centre,"sb\dot.png",0,0 C,0,51717,,255,255,255 F,1,51717,52317,1,0 S,1,51717,52317,1,0.2 MX,1,51717,52317,346,327 MY,1,51717,52317,373,314
Sprite,Foreground,Centre,"sb\dot.png",0,0 C,0,51717,,255,255,255 F,1,51717,52317,1,0 S,1,51717,52317,1,0.2 MX,1,51717,52317,346,337 MY,1,51717,52317,373,375
Sprite,Foreground,Centre,"sb\dot.png",0,0 C,0,51717,,255,255,255 F,1,51717,52317,1,0 S,1,51717,52317,1,0.2 MX,1,51717,52317,346,306 MY,1,51717,52317,373,342
Sprite,Foreground,Centre,"sb\dot.png",0,0 C,0,51717,,255,255,255 F,1,51717,52317,1,0 S,1,51717,52317,1,0.2 MX,1,51717,52317,346,384 MY,1,51717,52317,373,393
Sprite,Foreground,Centre,"sb\dot.png",0,0 C,0,51717,,255,255,255 F,1,51717,52317,1,0 S,1,51717,52317,1,0.2 MX,1,51717,52317,346,366 MY,1,51717,52317,373,387
Sprite,Foreground,Centre,"sb\dot.png",0,0 C,0,51717,,255,255,255 F,1,51717,52317,1,0 S,1,51717,52317,1,0.2 MX,1,51717,52317,346,390 MY,1,51717,52317,373,374
Sprite,Foreground,Centre,"sb\dot.png",0,0 C,0,51717,,255,255,255 F,1,51717,52317,1,0 S,1,51717,52317,1,0.2 MX,1,51717,52317,346,347 MY,1,51717,52317,373,404
Sprite,Foreground,Centre,"sb\dot.png",0,0 C,0,51717,,255,255,255 F,1,51717,52317,1,0 S,1,51717,52317,1,0.2 MX,1,51717,52317,346,289 MY,1,51717,52317,373,333
Sprite,Foreground,Centre,"sb\dot.png",0,0 C,0,51717,,255,255,255 F,1,51717,52317,1,0 S,1,51717,52317,1,0.2 MX,1,51717,52317,346,293 MY,1,51717,52317,373,350
Sprite,Foreground,Centre,"sb\dot.png",0,0 C,0,51717,,255,255,255 F,1,51717,52317,1,0 S,1,51717,52317,1,0.2 MX,1,51717,52317,346,330 MY,1,51717,52317,373,415
Sprite,Foreground,Centre,"sb\dot.png",0,0 C,0,51717,,255,255,255 F,1,51717,52317,1,0 S,1,51717,52317,1,0.2 MX,1,51717,52317,346,317 MY,1,51717,52317,373,387
Sprite,Foreground,Centre,"sb\dot.png",0,0 C,0,51717,,255,255,255 F,1,51717,52317,1,0 S,1,51717,52317,1,0.2 MX,1,51717,52317,346,287 MY,1,51717,52317,373,358
Sprite,Foreground,Centre,"sb\dot.png",0,0 C,0,51881,,255,255,255 F,1,51881,52481,1,0 S,1,51881,52481,1,0.2 MX,1,51881,52481,346,311 MY,1,51881,52481,373,395
Sprite,Foreground,Centre,"sb\dot.png",0,0 C,0,51881,,255,255,255 F,1,51881,52481,1,0 S,1,51881,52481,1,0.2 MX,1,51881,52481,346,349 MY,1,51881,52481,373,318
Sprite,Foreground,Centre,"sb\dot.png",0,0 C,0,51881,,255,255,255 F,1,51881,52481,1,0 S,1,51881,52481,1,0.2 MX,1,51881,52481,346,390 MY,1,51881,52481,373,378
Sprite,Foreground,Centre,"sb\dot.png",0,0 C,0,51881,,255,255,255 F,1,51881,52481,1,0 S,1,51881,52481,1,0.2 MX,1,51881,52481,346,298 MY,1,51881,52481,373,403
Sprite,Foreground,Centre,"sb\dot.png",0,0 C,0,51881,,255,255,255 F,1,51881,52481,1,0 S,1,51881,52481,1,0.2 MX,1,51881,52481,346,326 MY,1,51881,52481,373,380
Sprite,Foreground,Centre,"sb\dot.png",0,0 C,0,51881,,255,255,255 F,1,51881,52481,1,0 S,1,51881,52481,1,0.2 MX,1,51881,52481,346,344 MY,1,51881,52481,373,413
Sprite,Foreground,Centre,"sb\dot.png",0,0 C,0,51881,,255,255,255 F,1,51881,52481,1,0 S,1,51881,52481,1,0.2 MX,1,51881,52481,346,391 MY,1,51881,52481,373,333
Sprite,Foreground,Centre,"sb\dot.png",0,0 C,0,51881,,255,255,255 F,1,51881,52481,1,0 S,1,51881,52481,1,0.2 MX,1,51881,52481,346,295 MY,1,51881,52481,373,412
Sprite,Foreground,Centre,"sb\dot.png",0,0 C,0,51881,,255,255,255 F,1,51881,52481,1,0 S,1,51881,52481,1,0.2 MX,1,51881,52481,346,345 MY,1,51881,52481,373,336
Sprite,Foreground,Centre,"sb\dot.png",0,0 C,0,51881,,255,255,255 F,1,51881,52481,1,0 S,1,51881,52481,1,0.2 MX,1,51881,52481,346,391 MY,1,51881,52481,373,336
Sprite,Foreground,Centre,"sb\dot.png",0,0 C,0,51881,,255,255,255 F,1,51881,52481,1,0 S,1,51881,52481,1,0.2 MX,1,51881,52481,346,326 MY,1,51881,52481,373,418
Sprite,Foreground,Centre,"sb\dot.png",0,0 C,0,51881,,255,255,255 F,1,51881,52481,1,0 S,1,51881,52481,1,0.2 MX,1,51881,52481,346,339 MY,1,51881,52481,373,360
Sprite,Foreground,Centre,"sb\dot.png",0,0 C,0,51881,,255,255,255 F,1,51881,52481,1,0 S,1,51881,52481,1,0.2 MX,1,51881,52481,346,310 MY,1,51881,52481,373,426
Sprite,Foreground,Centre,"sb\dot.png",0,0 C,0,51881,,255,255,255 F,1,51881,52481,1,0 S,1,51881,52481,1,0.2 MX,1,51881,52481,346,405 MY,1,51881,52481,373,317
Sprite,Foreground,Centre,"sb\dot.png",0,0 C,0,51881,,255,255,255 F,1,51881,52481,1,0 S,1,51881,52481,1,0.2 MX,1,51881,52481,346,357 MY,1,51881,52481,373,314
Sprite,Foreground,Centre,"sb\dot.png",0,0 C,0,51881,,255,255,255 F,1,51881,52481,1,0 S,1,51881,52481,1,0.2 MX,1,51881,52481,346,309 MY,1,51881,52481,373,399
Sprite,Foreground,Centre,"sb\dot.png",0,0 C,0,51881,,255,255,255 F,1,51881,52481,1,0 S,1,51881,52481,1,0.2 MX,1,51881,52481,346,405 MY,1,51881,52481,373,319
Sprite,Foreground,Centre,"sb\dot.png",0,0 C,0,51881,,255,255,255 F,1,51881,52481,1,0 S,1,51881,52481,1,0.2 MX,1,51881,52481,346,323 MY,1,51881,52481,373,371
Sprite,Foreground,Centre,"sb\dot.png",0,0 C,0,51881,,255,255,255 F,1,51881,52481,1,0 S,1,51881,52481,1,0.2 MX,1,51881,52481,346,371 MY,1,51881,52481,373,405
Sprite,Foreground,Centre,"sb\dot.png",0,0 C,0,51881,,255,255,255 F,1,51881,52481,1,0 S,1,51881,52481,1,0.2 MX,1,51881,52481,346,381 MY,1,51881,52481,373,327
Sprite,Foreground,Centre,"sb\dot.png",0,0 C,0,51881,,255,255,255 F,1,51881,52481,1,0 S,1,51881,52481,1,0.2 MX,1,51881,52481,346,348 MY,1,51881,52481,373,326
Sprite,Foreground,Centre,"sb\dot.png",0,0 C,0,51881,,255,255,255 F,1,51881,52481,1,0 S,1,51881,52481,1,0.2 MX,1,51881,52481,346,307 MY,1,51881,52481,373,426
Sprite,Foreground,Centre,"sb\dot.png",0,0 C,0,51881,,255,255,255 F,1,51881,52481,1,0 S,1,51881,52481,1,0.2 MX,1,51881,52481,346,319 MY,1,51881,52481,373,336
Sprite,Foreground,Centre,"sb\dot.png",0,0 C,0,51881,,255,255,255 F,1,51881,52481,1,0 S,1,51881,52481,1,0.2 MX,1,51881,52481,346,320 MY,1,51881,52481,373,420
Sprite,Foreground,Centre,"sb\dot.png",0,0 C,0,51881,,255,255,255 F,1,51881,52481,1,0 S,1,51881,52481,1,0.2 MX,1,51881,52481,346,313 MY,1,51881,52481,373,377
Sprite,Foreground,Centre,"sb\dot.png",0,0 C,0,51881,,255,255,255 F,1,51881,52481,1,0 S,1,51881,52481,1,0.2 MX,1,51881,52481,346,328 MY,1,51881,52481,373,320
Sprite,Foreground,Centre,"sb\dot.png",0,0 C,0,51881,,255,255,255 F,1,51881,52481,1,0 S,1,51881,52481,1,0.2 MX,1,51881,52481,346,374 MY,1,51881,52481,373,410
Sprite,Foreground,Centre,"sb\dot.png",0,0 C,0,51881,,255,255,255 F,1,51881,52481,1,0 S,1,51881,52481,1,0.2 MX,1,51881,52481,346,291 MY,1,51881,52481,373,352
Sprite,Foreground,Centre,"sb\dot.png",0,0 C,0,51881,,255,255,255 F,1,51881,52481,1,0 S,1,51881,52481,1,0.2 MX,1,51881,52481,346,314 MY,1,51881,52481,373,328
Sprite,Foreground,Centre,"sb\dot.png",0,0 C,0,51881,,255,255,255 F,1,51881,52481,1,0 S,1,51881,52481,1,0.2 MX,1,51881,52481,346,387 MY,1,51881,52481,373,423
Sprite,Foreground,Centre,"sb\dot.png",0,0 C,0,52209,,255,255,255 F,1,52209,52809,1,0 S,1,52209,52809,1,0.2 MX,1,52209,52809,451,456 MY,1,52209,52809,294,241
Sprite,Foreground,Centre,"sb\dot.png",0,0 C,0,52209,,255,255,255 F,1,52209,52809,1,0 S,1,52209,52809,1,0.2 MX,1,52209,52809,451,409 MY,1,52209,52809,294,273
Sprite,Foreground,Centre,"sb\dot.png",0,0 C,0,52209,,255,255,255 F,1,52209,52809,1,0 S,1,52209,52809,1,0.2 MX,1,52209,52809,451,434 MY,1,52209,52809,294,325
Sprite,Foreground,Centre,"sb\dot.png",0,0 C,0,52209,,255,255,255 F,1,52209,52809,1,0 S,1,52209,52809,1,0.2 MX,1,52209,52809,451,491 MY,1,52209,52809,294,333
Sprite,Foreground,Centre,"sb\dot.png",0,0 C,0,52209,,255,255,255 F,1,52209,52809,1,0 S,1,52209,52809,1,0.2 MX,1,52209,52809,451,494 MY,1,52209,52809,294,305
Sprite,Foreground,Centre,"sb\dot.png",0,0 C,0,52209,,255,255,255 F,1,52209,52809,1,0 S,1,52209,52809,1,0.2 MX,1,52209,52809,451,404 MY,1,52209,52809,294,321
Sprite,Foreground,Centre,"sb\dot.png",0,0 C,0,52209,,255,255,255 F,1,52209,52809,1,0 S,1,52209,52809,1,0.2 MX,1,52209,52809,451,438 MY,1,52209,52809,294,325
Sprite,Foreground,Centre,"sb\dot.png",0,0 C,0,52209,,255,255,255 F,1,52209,52809,1,0 S,1,52209,52809,1,0.2 MX,1,52209,52809,451,472 MY,1,52209,52809,294,260
Sprite,Foreground,Centre,"sb\dot.png",0,0 C,0,52209,,255,255,255 F,1,52209,52809,1,0 S,1,52209,52809,1,0.2 MX,1,52209,52809,451,475 MY,1,52209,52809,294
Sprite,Foreground,Centre,"sb\dot.png",0,0 C,0,52209,,255,255,255 F,1,52209,52809,1,0 S,1,52209,52809,1,0.2 MX,1,52209,52809,451,405 MY,1,52209,52809,294,235
Sprite,Foreground,Centre,"sb\dot.png",0,0 C,0,52209,,255,255,255 F,1,52209,52809,1,0 S,1,52209,52809,1,0.2 MX,1,52209,52809,451,470 MY,1,52209,52809,294,246
Sprite,Foreground,Centre,"sb\dot.png",0,0 C,0,52209,,255,255,255 F,1,52209,52809,1,0 S,1,52209,52809,1,0.2 MX,1,52209,52809,451,488 MY,1,52209,52809,294,241
Sprite,Foreground,Centre,"sb\dot.png",0,0 C,0,52209,,255,255,255 F,1,52209,52809,1,0 S,1,52209,52809,1,0.2 MX,1,52209,52809,451,469 MY,1,52209,52809,294,250
Sprite,Foreground,Centre,"sb\dot.png",0,0 C,0,52209,,255,255,255 F,1,52209,52809,1,0 S,1,52209,52809,1,0.2 MX,1,52209,52809,451,509 MY,1,52209,52809,294,256
Sprite,Foreground,Centre,"sb\dot.png",0,0 C,0,52209,,255,255,255 F,1,52209,52809,1,0 S,1,52209,52809,1,0.2 MX,1,52209,52809,451,391 MY,1,52209,52809,294,351
Sprite,Foreground,Centre,"sb\dot.png",0,0 C,0,52209,,255,255,255 F,1,52209,52809,1,0 S,1,52209,52809,1,0.2 MX,1,52209,52809,451,420 MY,1,52209,52809,294,304
Sprite,Foreground,Centre,"sb\dot.png",0,0 C,0,52209,,255,255,255 F,1,52209,52809,1,0 S,1,52209,52809,1,0.2 MX,1,52209,52809,451,501 MY,1,52209,52809,294,339
Sprite,Foreground,Centre,"sb\dot.png",0,0 C,0,52209,,255,255,255 F,1,52209,52809,1,0 S,1,52209,52809,1,0.2 MX,1,52209,52809,451,460 MY,1,52209,52809,294,288
Sprite,Foreground,Centre,"sb\dot.png",0,0 C,0,52209,,255,255,255 F,1,52209,52809,1,0 S,1,52209,52809,1,0.2 MX,1,52209,52809,451,506 MY,1,52209,52809,294,335
Sprite,Foreground,Centre,"sb\dot.png",0,0 C,0,52209,,255,255,255 F,1,52209,52809,1,0 S,1,52209,52809,1,0.2 MX,1,52209,52809,451,460 MY,1,52209,52809,294,295
Sprite,Foreground,Centre,"sb\dot.png",0,0 C,0,52209,,255,255,255 F,1,52209,52809,1,0 S,1,52209,52809,1,0.2 MX,1,52209,52809,451,433 MY,1,52209,52809,294,289
Sprite,Foreground,Centre,"sb\dot.png",0,0 C,0,52209,,255,255,255 F,1,52209,52809,1,0 S,1,52209,52809,1,0.2 MX,1,52209,52809,451,394 MY,1,52209,52809,294,309
Sprite,Foreground,Centre,"sb\dot.png",0,0 C,0,52209,,255,255,255 F,1,52209,52809,1,0 S,1,52209,52809,1,0.2 MX,1,52209,52809,451,441 MY,1,52209,52809,294,308
Sprite,Foreground,Centre,"sb\dot.png",0,0 C,0,52209,,255,255,255 F,1,52209,52809,1,0 S,1,52209,52809,1,0.2 MX,1,52209,52809,451,471 MY,1,52209,52809,294,351
Sprite,Foreground,Centre,"sb\dot.png",0,0 C,0,52209,,255,255,255 F,1,52209,52809,1,0 S,1,52209,52809,1,0.2 MX,1,52209,52809,451,406 MY,1,52209,52809,294,332
Sprite,Foreground,Centre,"sb\dot.png",0,0 C,0,52209,,255,255,255 F,1,52209,52809,1,0 S,1,52209,52809,1,0.2 MX,1,52209,52809,451,466 MY,1,52209,52809,294,322
Sprite,Foreground,Centre,"sb\dot.png",0,0 C,0,52209,,255,255,255 F,1,52209,52809,1,0 S,1,52209,52809,1,0.2 MX,1,52209,52809,451,391 MY,1,52209,52809,294,334
Sprite,Foreground,Centre,"sb\dot.png",0,0 C,0,52209,,255,255,255 F,1,52209,52809,1,0 S,1,52209,52809,1,0.2 MX,1,52209,52809,451,422 MY,1,52209,52809,294,286
Sprite,Foreground,Centre,"sb\dot.png",0,0 C,0,52209,,255,255,255 F,1,52209,52809,1,0 S,1,52209,52809,1,0.2 MX,1,52209,52809,451,420 MY,1,52209,52809,294,245
Sprite,Foreground,Centre,"sb\dot.png",0,0 C,0,52209,,255,255,255 F,1,52209,52809,1,0 S,1,52209,52809,1,0.2 MX,1,52209,52809,451,471 MY,1,52209,52809,294,261
Sprite,Foreground,Centre,"sb\DiffByApollo.png",320,240 F,0,43357,43685,0,1 S,0,43357,44914,0.5927274 F,0,43685,44668,1 F,0,44668,44914,1,0.9977117 M,0,44914,,320,240 F,0,44914,44996,0.9977117,0 S,0,44914,44996,0.5927274,1.180364 F,0,44996,,0
//Storyboard Layer 4 (Overlay)
//Storyboard Sound Samples

[TimingPoints]
1390,327.868852459016,4,2,1,50,1,0
22209,-125,4,2,1,50,0,0
30242,-200,4,2,1,50,0,0
30570,-142.857142857143,4,2,1,50,0,0
30898,-111.111111111111,4,2,1,50,0,0
31226,-90.9090909090909,4,2,1,50,0,0
31553,-76.9230769230769,4,2,1,50,0,0
32455,-76.9230769230769,4,2,1,5,0,0
32537,-76.9230769230769,4,2,1,50,0,0
32865,-83.3333333333333,4,2,1,60,0,0
53193,-100,4,2,1,60,0,0
53274,-100,4,2,1,5,0,0
53356,-100,4,2,1,60,0,0
53438,-100,4,2,1,5,0,0
53521,-100,4,2,1,60,0,0
53602,-100,4,2,1,5,0,0
53684,-100,4,2,1,50,0,0
53766,-100,4,2,1,5,0,0
53849,-100,4,2,1,50,0,0
64176,-125,4,2,1,50,0,0
72209,-200,4,2,1,50,0,0
72537,-142.857142857143,4,2,1,50,0,0
72865,-111.111111111111,4,2,1,50,0,0
73193,-90.9090909090909,4,2,1,50,0,0
73520,-76.9230769230769,4,2,1,50,0,0
74422,-76.9230769230769,4,2,1,5,0,0
74504,-76.9230769230769,4,2,1,50,0,0
74832,-83.3333333333333,4,2,1,60,0,0
85160,-125,4,2,1,50,0,0

[Colours]
Combo1 : 124,202,231
Combo2 : 218,103,106
Combo3 : 51,174,221
Combo4 : 225,221,40

[HitObjects]
284,257,11881,6,0,P|285:192|346:151,1,140,0|8,1:0|0:0,0:0:0:0:
452,222,12373,1,0,0:0:0:0:
362,236,12537,1,0,1:0:0:0:
433,137,12701,1,0,0:0:0:0:
343,151,12865,2,0,P|291:145|257:135,1,70,8|2,0:0|0:0,0:0:0:0:
214,65,13193,6,0,P|179:102|195:194,1,140,0|8,1:0|0:0,0:0:0:0:
273,140,13685,1,2,0:0:0:0:
214,65,13849,1,0,1:0:0:0:
312,54,14012,1,0,0:0:0:0:
273,140,14176,2,0,P|283:181|283:220,1,70,8|2,0:0|0:0,0:0:0:0:
348,271,14504,6,0,P|294:243|226:281,1,140,0|8,1:0|0:0,0:0:0:0:
336,359,14996,1,0,0:0:0:0:
336,359,15160,2,0,P|301:371|261:366,1,70,0|0,1:0|0:0,0:0:0:0:
166,333,15488,2,0,P|131:330|98:342,1,70,8|0,0:0|0:0,0:0:0:0:
0,384,15816,5,0,1:0:0:0:
349,273,16144,1,8,0:0:0:0:
48,21,16471,1,0,1:0:0:0:
0,384,16799,1,8,0:0:0:0:
94,116,17127,6,0,P|137:89|233:107,1,140,0|8,1:0|0:0,0:0:0:0:
305,146,17619,1,0,0:0:0:0:
269,18,17783,1,0,1:0:0:0:
350,65,17947,1,0,0:0:0:0:
222,99,18111,2,0,P|215:136|210:176,1,70,8|2,0:0|0:0,0:0:0:0:
265,256,18439,6,0,P|217:272|132:234,1,140,0|8,1:0|0:0,0:0:0:0:
39,169,18930,1,0,0:0:0:0:
128,142,19094,1,0,1:0:0:0:
59,78,19258,1,0,0:0:0:0:
148,51,19422,2,0,P|191:42|233:41,1,70,8|2,0:0|0:0,0:0:0:0:
315,107,19750,6,0,P|356:122|444:87,1,140,0|8,1:0|0:0,0:0:0:0:
329,28,20242,1,0,0:0:0:0:
329,28,20406,2,0,P|312:67|304:111,1,70,0|0,1:0|0:0,0:0:0:0:
238,177,20734,2,0,P|237:225|246:266,1,70,8|2,0:0|0:0,0:0:0:0:
222,345,21062,5,0,1:0:0:0:
480,310,21389,1,8,0:0:0:0:
432,57,21717,1,2,0:0:0:0:
192,98,22045,1,8,0:0:0:0:
192,98,22209,6,0,B|147:80|147:80|148:75|148:75|147:80|147:80|89:87,2,112,2|2|0,0:0|0:0|0:0,0:0:0:0:
369,35,23193,6,0,P|396:44|425:65,1,56,2|8,0:0|0:0,0:0:0:0:
358,118,23521,2,0,P|331:110|304:109,1,56,2|0,0:0|0:0,0:0:0:0:
265,198,23849,2,0,P|292:191|320:192,1,56,2|8,0:0|0:0,0:0:0:0:
302,273,24176,2,0,P|274:280|250:293,1,56,2|0,0:0|0:0,0:0:0:0:
302,273,24832,5,0,0:0:0:0:
302,273,24996,2,0,P|274:280|250:293,1,56,2|0,0:0|0:0,0:0:0:0:
320,192,25324,2,0,P|292:191|265:198,1,56,8|0,0:0|0:0,0:0:0:0:
358,118,25652,2,0,P|331:110|304:109,1,56,2|0,0:0|0:0,0:0:0:0:
418,59,25980,2,0,P|395:43|369:35,1,56,8|0,0:0|0:0,0:0:0:0:
202,25,26308,5,2,0:0:0:0:
202,25,26471,2,0,L|209:103,1,56,0|8,0:0|0:0,0:0:0:0:
310,25,26799,1,2,0:0:0:0:
310,25,26963,2,0,L|303:103,1,56,2|0,0:0|0:0,0:0:0:0:
403,149,27291,1,8,0:0:0:0:
403,149,27455,6,0,B|448:131|448:131|447:126|447:126|448:131|448:131|506:138,2,112,2|2|0,0:0|0:0|0:0,0:0:0:0:
256,372,28439,5,2,0:0:0:0:
256,372,28603,1,8,0:0:0:0:
204,308,28767,2,0,P|183:272|179:255,1,56,2|0,0:0|0:0,0:0:0:0:
332,258,29094,2,0,P|323:284|308:308,1,56,2|8,0:0|0:0,0:0:0:0:
256,222,29422,2,0,B|238:171|272:171|256:113,1,112,2|0,0:0|0:0,0:0:0:0:
256,34,29914,1,8,0:0:0:0:
256,34,30078,1,0,0:0:0:0:
157,20,30242,6,0,L|116:13,1,35,2|0,0:0|0:0,0:0:0:0:
100,94,30570,2,0,L|148:102,1,48.9999985046387,8|0,0:0|0:0,0:0:0:0:
143,184,30898,2,0,L|79:173,1,62.9999980773926,2|0,0:0|0:0,0:0:0:0:
56,254,31226,2,0,L|139:268,1,77.0000023498536,8|0,0:0|0:0,0:0:0:0:
127,354,31553,2,0,L|37:338,1,90.9999958343508,2|0,0:0|0:0,0:0:0:0:
321,342,32865,6,0,P|362:334|401:263,2,125.999996154785,4|0|0,1:0|0:0|0:0,0:0:0:0:
236,208,33521,1,0,1:0:0:0:
239,334,33685,1,0,0:0:0:0:
165,240,33849,1,8,0:0:0:0:
282,272,34012,1,2,0:0:0:0:
166,316,34176,6,0,P|118:326|31:238,1,167.999994873047,0|8,1:0|0:0,0:0:0:0:
136,169,34668,1,0,0:0:0:0:
21,119,34832,1,0,1:0:0:0:
33,254,34996,1,0,0:0:0:0:
33,254,35078,1,0,0:0:0:0:
33,254,35160,2,0,P|73:246|118:244,1,83.9999974365235,8|2,0:0|0:0,0:0:0:0:
235,279,35488,2,0,P|294:281|376:247,1,125.999996154785,0|0,1:0|0:0,0:0:0:0:
356,259,35816,1,8,0:0:0:0:
198,125,35980,5,0,0:0:0:0:
340,104,36144,1,0,1:0:0:0:
175,128,36308,1,0,0:0:0:0:
362,100,36472,1,8,0:0:0:0:
253,21,36635,1,2,0:0:0:0:
287,201,36799,2,0,P|296:259|309:368,1,167.999994873047,0|8,1:0|0:0,0:0:0:0:
175,128,37455,6,0,P|133:130|91:138,1,83.9999974365235,0|0,1:0|0:0,0:0:0:0:
92,138,37701,1,0,0:0:0:0:
92,138,37783,1,8,0:0:0:0:
329,121,38111,6,0,P|390:114|440:159,2,125.999996154785,0|0|0,1:0|0:0|0:0,0:0:0:0:
248,215,38767,1,0,1:0:0:0:
366,195,38930,1,0,0:0:0:0:
318,300,39094,1,8,0:0:0:0:
370,187,39258,1,2,0:0:0:0:
419,316,39422,6,0,P|370:318|254:363,1,167.999994873047,0|8,1:0|0:0,0:0:0:0:
108,309,39914,1,0,0:0:0:0:
108,309,39996,1,0,0:0:0:0:
108,309,40078,5,0,1:0:0:0:
251,199,40242,1,0,0:0:0:0:
171,358,40406,1,8,0:0:0:0:
74,181,40570,1,2,0:0:0:0:
257,334,40734,2,0,P|297:323|334:302,1,83.9999974365235,0|0,1:0|0:0,0:0:0:0:
333,302,40980,1,0,0:0:0:0:
333,302,41062,1,8,0:0:0:0:
251,199,41226,1,0,0:0:0:0:
108,309,41389,5,0,1:0:0:0:
134,130,41553,1,0,0:0:0:0:
106,321,41717,1,8,0:0:0:0:
135,117,41881,1,2,0:0:0:0:
237,315,42045,2,0,P|277:304|314:283,1,83.9999974365235,0|0,1:0|0:0,0:0:0:0:
313,283,42291,1,0,0:0:0:0:
313,283,42373,1,8,0:0:0:0:
235,181,42537,1,0,0:0:0:0:
344,123,42701,6,0,P|327:181|367:226,1,125.999996154785,2|0,0:0|0:0,0:0:0:0:
424,212,43029,2,0,P|440:153|400:108,1,125.999996154785,8|0,0:0|0:0,0:0:0:0:
347,46,43357,6,0,L|172:34,1,167.999994873047,4|8,1:0|0:0,0:0:0:0:
25,88,43849,1,0,0:0:0:0:
137,144,44012,1,0,1:0:0:0:
31,203,44176,1,0,0:0:0:0:
143,259,44339,1,8,0:0:0:0:
42,331,44504,1,0,0:0:0:0:
146,383,44668,6,0,P|200:356|329:331,1,167.999994873047,0|8,1:0|0:0,0:0:0:0:
439,248,45160,1,0,0:0:0:0:
380,134,45324,1,0,1:0:0:0:
308,238,45488,1,0,0:0:0:0:
249,124,45652,1,8,0:0:0:0:
187,227,45816,1,0,0:0:0:0:
146,109,45980,6,0,P|156:58|255:2,1,167.999994873047,0|8,1:0|0:0,0:0:0:0:
380,134,46471,5,0,0:0:0:0:
295,258,46635,1,0,1:0:0:0:
435,214,46799,1,0,0:0:0:0:
293,160,46963,1,8,0:0:0:0:
375,284,47127,1,0,0:0:0:0:
280,152,47291,5,0,1:0:0:0:
125,232,47455,1,2,0:0:0:0:
295,258,47619,1,8,0:0:0:0:
167,141,47783,2,0,P|136:132|82:128,1,83.9999974365235,2|0,0:0|1:0,0:0:0:0:
63,299,48111,1,2,0:0:0:0:
63,299,48193,1,0,0:0:0:0:
63,299,48275,2,0,P|94:308|148:312,1,83.9999974365235,8|2,0:0|0:0,0:0:0:0:
233,370,48603,6,0,P|284:346|371:321,1,125.999996154785,0|0,1:0|0:0,0:0:0:0:
350,325,48930,1,8,0:0:0:0:
465,285,49094,1,0,0:0:0:0:
353,229,49257,1,0,1:0:0:0:
459,170,49421,1,0,0:0:0:0:
347,114,49586,1,8,0:0:0:0:
448,42,49749,1,2,0:0:0:0:
341,6,49914,6,0,P|301:24|206:27,1,125.999996154785,0|0,1:0|0:0,0:0:0:0:
219,29,50242,1,8,0:0:0:0:
88,100,50406,1,0,0:0:0:0:
147,214,50570,1,0,1:0:0:0:
219,110,50734,1,0,0:0:0:0:
278,224,50898,1,8,0:0:0:0:
340,121,51062,1,2,0:0:0:0:
387,238,51226,6,0,P|404:284|399:368,1,125.999996154785,0|0,1:0|0:0,0:0:0:0:
401,360,51553,1,8,0:0:0:0:
282,317,51717,1,0,0:0:0:0:
282,317,51881,2,0,P|235:302|194:293,1,83.9999974365235,0|0,1:0|0:0,0:0:0:0:
387,238,52209,2,0,P|426:224|467:215,1,83.9999974365235,8|0,0:0|0:0,0:0:0:0:
264,137,52537,1,2,0:0:0:0:
253,355,53193,6,0,L|139:366,1,105,0|0,1:0|0:0,0:0:0:0:
253,355,53521,6,0,L|357:344,1,105,0|0,1:0|0:0,0:0:0:0:
467,292,53849,6,0,P|467:250|406:172,1,140,0|8,1:0|0:0,0:0:0:0:
304,229,54340,1,0,0:0:0:0:
381,256,54504,1,0,1:0:0:0:
334,148,54668,1,0,0:0:0:0:
411,175,54832,2,0,P|445:176|484:167,1,70,8|2,0:0|0:0,0:0:0:0:
497,55,55160,6,0,P|458:47|362:70,1,140,0|8,1:0|0:0,0:0:0:0:
261,129,55652,1,0,0:0:0:0:
235,33,55816,1,0,1:0:0:0:
166,106,55980,1,0,0:0:0:0:
261,129,56144,2,0,P|282:142|335:182,2,70,8|2|0,0:0|0:0|0:0,0:0:0:0:
260,128,57455,2,0,P|290:147|318:168,1,70,8|0,0:0|0:0,0:0:0:0:
377,242,57783,5,0,1:0:0:0:
123,340,58111,1,8,0:0:0:0:
185,60,58439,1,0,1:0:0:0:
389,332,58767,1,8,0:0:0:0:
49,264,59094,6,0,P|24:212|53:138,1,140,0|8,1:0|0:0,0:0:0:0:
129,207,59586,1,0,0:0:0:0:
151,114,59750,1,0,0:0:0:0:
151,114,60406,6,0,P|190:89|288:106,1,140,0|8,1:0|0:0,0:0:0:0:
333,262,60898,1,0,0:0:0:0:
223,173,61062,1,0,1:0:0:0:
356,122,61226,1,0,0:0:0:0:
303,187,61389,1,8,0:0:0:0:
393,201,61553,1,2,0:0:0:0:
251,254,61717,6,0,P|200:255|137:185,1,140,0|8,1:0|0:0,0:0:0:0:
223,173,62209,1,0,0:0:0:0:
148,316,62373,1,0,1:0:0:0:
58,184,62537,1,0,0:0:0:0:
149,334,62701,1,8,0:0:0:0:
223,173,62865,1,0,0:0:0:0:
63,282,63029,5,0,1:0:0:0:
351,357,63357,1,8,0:0:0:0:
413,75,63685,1,2,0:0:0:0:
122,7,64013,1,8,0:0:0:0:
122,7,64176,6,2,B|98:0|74:7|74:7|73:0|73:0|74:7|74:7|51:17|37:48,2,112,2|2|0,0:0|0:0|0:0,0:0:0:0:
110,155,65160,6,0,P|90:186|86:220,1,56,2|8,0:0|0:0,0:0:0:0:
194,253,65488,2,0,P|177:230|169:203,1,56,2|0,0:0|0:0,0:0:0:0:
280,147,65816,2,0,P|260:178|256:212,1,56,2|8,0:0|0:0,0:0:0:0:
364,245,66144,2,0,P|347:222|339:195,1,56,2|0,0:0|0:0,0:0:0:0:
364,245,66799,5,0,0:0:0:0:
364,245,66963,2,0,P|347:222|339:195,1,56,2|0,0:0|0:0,0:0:0:0:
255,196,67291,2,0,P|263:169|280:147,1,56,8|0,0:0|0:0,0:0:0:0:
194,253,67619,2,0,P|177:230|169:203,1,56,2|0,0:0|0:0,0:0:0:0:
85,204,67947,2,0,P|93:177|110:155,1,56,8|0,0:0|0:0,0:0:0:0:
194,74,68275,5,2,0:0:0:0:
194,74,68439,2,0,L|199:143,1,56,0|8,0:0|0:0,0:0:0:0:
318,74,68767,1,2,0:0:0:0:
318,74,68931,2,0,L|313:143,1,56,2|0,0:0|0:0,0:0:0:0:
396,210,69258,1,8,0:0:0:0:
396,210,69422,6,0,B|420:203|443:210|443:210|445:203|445:203|443:210|443:210|467:220|480:251,2,112,2|2|2,0:0|0:0|0:0,0:0:0:0:
256,353,70406,5,2,0:0:0:0:
256,353,70570,1,8,0:0:0:0:
346,301,70734,2,0,B|325:277|325:277|295:277,1,56,2|0,0:0|0:0,0:0:0:0:
211,277,71062,2,0,B|187:277|187:277|166:301,1,56,2|8,0:0|0:0,0:0:0:0:
256,213,71389,2,0,B|256:172|256:172|251:168|251:168|261:168|261:168|256:165|256:165|256:114,1,112,2|2,0:0|0:0,0:0:0:0:
256,38,71881,1,8,0:0:0:0:
256,38,72045,1,0,0:0:0:0:
355,20,72209,6,0,L|396:13,1,35,2|0,0:0|0:0,0:0:0:0:
412,94,72537,2,0,L|364:102,1,48.9999985046387,8|0,0:0|0:0,0:0:0:0:
369,184,72865,2,0,L|437:172,1,62.9999980773926,2|0,0:0|0:0,0:0:0:0:
456,254,73193,2,0,L|376:268,1,77.0000023498536,8|0,0:0|0:0,0:0:0:0:
385,354,73521,2,0,L|475:338,1,90.9999958343508,2|2,0:0|0:0,0:0:0:0:
209,156,74832,6,0,L|201:11,2,125.999996154785,4|0|0,1:0|0:0|0:0,0:0:0:0:
262,326,75488,1,0,1:0:0:0:
252,220,75652,1,0,0:0:0:0:
187,333,75816,1,8,0:0:0:0:
177,227,75980,1,2,0:0:0:0:
262,326,76144,6,0,P|314:307|417:255,1,167.999994873047,0|8,1:0|0:0,0:0:0:0:
457,105,76635,1,0,0:0:0:0:
331,146,76799,1,0,1:0:0:0:
456,187,76963,1,0,0:0:0:0:
456,187,77045,1,0,0:0:0:0:
456,187,77127,2,0,P|462:141|450:87,1,83.9999974365235,8|2,0:0|0:0,0:0:0:0:
317,158,77455,2,0,P|265:170|181:138,1,125.999996154785,0|0,1:0|0:0,0:0:0:0:
196,150,77783,1,8,0:0:0:0:
83,296,77947,5,0,0:0:0:0:
252,267,78111,1,0,1:0:0:0:
65,298,78275,1,0,0:0:0:0:
269,264,78439,1,8,0:0:0:0:
184,383,78603,1,2,0:0:0:0:
150,179,78767,2,0,P|136:102|138:11,1,167.999994873047,0|8,1:0|0:0,0:0:0:0:
65,214,79422,6,0,P|56:261|60:306,1,83.9999974365235,0|0,1:0|0:0,0:0:0:0:
58,296,79668,1,0,0:0:0:0:
58,296,79750,1,8,0:0:0:0:
274,290,80078,6,0,P|317:313|402:300,2,125.999996154785,0|0|0,1:0|0:0|0:0,0:0:0:0:
193,130,80734,1,0,1:0:0:0:
167,313,80898,1,0,0:0:0:0:
183,113,81062,1,8,0:0:0:0:
342,233,81226,1,2,0:0:0:0:
130,213,81389,6,0,P|88:170|87:62,1,167.999994873047,0|8,1:0|0:0,0:0:0:0:
287,62,81881,1,0,0:0:0:0:
218,218,82045,1,0,1:0:0:0:
175,53,82209,1,0,0:0:0:0:
304,158,82373,1,8,0:0:0:0:
139,144,82537,1,2,0:0:0:0:
362,96,82701,2,0,P|388:137|357:225,1,125.999996154785,0|0,1:0|0:0,0:0:0:0:
373,209,83029,1,8,0:0:0:0:
212,332,83193,5,0,0:0:0:0:
225,124,83357,1,0,1:0:0:0:
210,349,83521,1,0,0:0:0:0:
226,106,83685,1,8,0:0:0:0:
339,235,83849,1,2,0:0:0:0:
97,220,84012,2,0,P|66:296|98:372,1,167.999994873047,2|8,0:3|0:0,0:0:0:0:
414,163,84668,2,0,P|445:87|413:11,1,167.999994873047,2|12,0:0|0:0,0:0:0:0:
413,11,85160,1,2,0:0:0:0:
256,192,85324,12,0,86635,0:0:0:0:
256,192,86799,12,2,87947,0:0:0:0:
256,192,88111,12,4,89258,0:0:0:0:
