osu file format v14

[General]
AudioFilename: audio.mp3
AudioLeadIn: 0
PreviewTime: 13327
Countdown: 1
SampleSet: None
StackLeniency: 0.7
Mode: 1
LetterboxInBreaks: 0
WidescreenStoryboard: 1

[Editor]
Bookmarks: 15786
DistanceSpacing: 2.5
BeatDivisor: 4
GridSize: 32
TimelineZoom: 2.4

[Metadata]
Title:Shenanigans
TitleUnicode:Shenanigans
Artist:Jasiah X Yung Bans
ArtistUnicode:Jasiah X Yung Bans
Creator:Grimbow
Version:idgaf
Source:
Tags:
BeatmapID:1965775
BeatmapSetID:941323

[Difficulty]
HPDrainRate:5
CircleSize:5
OverallDifficulty:5
ApproachRate:5
SliderMultiplier:1.4
SliderTickRate:1

[Events]
//Background and Video events
0,0,"shenanigans.jpg",0,0
//Break Periods
//Storyboard Layer 0 (Background)
//Storyboard Layer 1 (Fail)
//Storyboard Layer 2 (Pass)
//Storyboard Layer 3 (Foreground)
//Storyboard Sound Samples

[TimingPoints]
50,327.868852459016,4,1,0,50,1,0
2672,-133.333333333333,4,1,0,50,0,0
13327,-100,4,1,0,50,0,0
14721,-47.6190476190476,4,1,0,50,0,0
15786,329.67032967033,4,1,0,70,1,0
15786,-66.6666666666667,4,1,0,70,0,0
22296,-50,4,1,0,70,0,0
23615,-66.6666666666667,4,1,0,70,0,0
31527,-100,4,1,0,70,0,0
32846,-50,4,1,0,70,0,0
34165,-66.6666666666667,4,1,0,70,0,0
43395,-50,4,1,0,70,0,0
44714,-66.6666666666667,4,1,0,70,0,0
52626,-50,4,1,0,70,0,0
53615,-100,4,1,0,70,0,0
53945,-50,4,1,0,70,0,0
55264,-100,4,1,0,70,0,0
56912,-50,4,1,0,70,0,0
57901,-66.6666666666667,4,1,0,70,0,0

[HitObjects]
256,192,2673,5,0,0:0:0:0:
256,192,2837,1,0,0:0:0:0:
256,192,3001,1,8,0:0:0:0:
256,192,3164,1,0,0:0:0:0:
256,192,3246,1,8,0:0:0:0:
256,192,3328,1,0,0:0:0:0:
256,192,3410,1,8,0:0:0:0:
256,192,3492,1,0,0:0:0:0:
256,192,3656,1,8,0:0:0:0:
256,192,3820,1,8,0:0:0:0:
256,192,3984,1,0,0:0:0:0:
256,192,4312,1,8,0:0:0:0:
256,192,4476,1,0,0:0:0:0:
256,192,4558,1,8,0:0:0:0:
256,192,4640,1,0,0:0:0:0:
256,192,4804,1,0,0:0:0:0:
256,192,4968,1,8,0:0:0:0:
256,192,5296,1,0,0:0:0:0:
256,192,5623,1,8,0:0:0:0:
256,192,5787,1,0,0:0:0:0:
256,192,5869,1,8,0:0:0:0:
256,192,5951,1,0,0:0:0:0:
256,192,6033,1,8,0:0:0:0:
256,192,6115,1,0,0:0:0:0:
256,192,6279,1,8,0:0:0:0:
256,192,6443,1,8,0:0:0:0:
256,192,6607,1,0,0:0:0:0:
256,192,6935,1,8,0:0:0:0:
256,192,7099,1,8,0:0:0:0:
256,192,7181,1,8,0:0:0:0:
256,192,7263,1,0,0:0:0:0:
256,192,7345,1,8,0:0:0:0:
256,192,7427,1,0,0:0:0:0:
256,192,7591,1,8,0:0:0:0:
256,192,7673,1,8,0:0:0:0:
256,192,7755,1,8,0:0:0:0:
256,192,7919,1,8,0:0:0:0:
256,192,8246,1,8,0:0:0:0:
256,192,8410,1,0,0:0:0:0:
256,192,8492,1,8,0:0:0:0:
256,192,8574,1,0,0:0:0:0:
256,192,8656,1,8,0:0:0:0:
256,192,8738,1,0,0:0:0:0:
256,192,8902,1,8,0:0:0:0:
256,192,9066,1,8,0:0:0:0:
256,192,9230,1,0,0:0:0:0:
256,192,9558,1,8,0:0:0:0:
256,192,9722,1,8,0:0:0:0:
256,192,9804,1,8,0:0:0:0:
256,192,9886,1,0,0:0:0:0:
256,192,9968,1,8,0:0:0:0:
256,192,10050,1,0,0:0:0:0:
256,192,10214,1,8,0:0:0:0:
256,192,10542,1,8,0:0:0:0:
256,192,10787,1,8,0:0:0:0:
256,192,11033,1,8,0:0:0:0:
256,192,11197,1,0,0:0:0:0:
256,192,11279,1,8,0:0:0:0:
256,192,11361,1,0,0:0:0:0:
256,192,11443,1,0,0:0:0:0:
256,192,11525,1,8,0:0:0:0:
256,192,11689,1,0,0:0:0:0:
256,192,11853,1,8,0:0:0:0:
256,192,12017,1,0,0:0:0:0:
256,192,12099,1,0,0:0:0:0:
256,192,12181,1,8,0:0:0:0:
256,192,12345,1,0,0:0:0:0:
256,192,12427,1,0,0:0:0:0:
256,192,12509,1,8,0:0:0:0:
256,192,12673,1,8,0:0:0:0:
256,192,12837,1,8,0:0:0:0:
256,192,12919,1,8,0:0:0:0:
256,192,13001,1,8,0:0:0:0:
256,192,13082,1,8,0:0:0:0:
256,192,13164,1,0,0:0:0:0:
256,192,13492,1,8,0:0:0:0:
256,192,13656,1,0,0:0:0:0:
256,192,13820,1,8,0:0:0:0:
256,192,13984,1,8,0:0:0:0:
256,192,14148,1,8,0:0:0:0:
256,192,14312,1,0,0:0:0:0:
256,192,14476,1,0,0:0:0:0:
256,192,14804,1,12,0:0:0:0:
256,192,14968,1,4,0:0:0:0:
256,192,15132,1,12,0:0:0:0:
256,192,15296,1,12,0:0:0:0:
256,192,15460,1,4,0:0:0:0:
256,192,15786,1,0,0:0:0:0:
256,192,15950,1,0,0:0:0:0:
256,192,16033,1,0,0:0:0:0:
256,192,16115,1,8,0:0:0:0:
256,192,16280,1,0,0:0:0:0:
256,192,16445,1,8,0:0:0:0:
256,192,16527,1,8,0:0:0:0:
256,192,16610,1,8,0:0:0:0:
256,192,16775,1,0,0:0:0:0:
256,192,16939,1,8,0:0:0:0:
256,192,17022,1,0,0:0:0:0:
256,192,17104,1,0,0:0:0:0:
256,192,17269,1,8,0:0:0:0:
256,192,17434,1,0,0:0:0:0:
256,192,17516,1,0,0:0:0:0:
256,192,17599,1,0,0:0:0:0:
256,192,17681,1,0,0:0:0:0:
256,192,17764,1,8,0:0:0:0:
256,192,17928,1,0,0:0:0:0:
256,192,18093,1,8,0:0:0:0:
256,192,18176,1,8,0:0:0:0:
256,192,18258,1,8,0:0:0:0:
256,192,18340,1,8,0:0:0:0:
256,192,18423,1,0,0:0:0:0:
256,192,18588,1,0,0:0:0:0:
256,192,18753,1,8,0:0:0:0:
256,192,18917,1,0,0:0:0:0:
256,192,19000,1,8,0:0:0:0:
256,192,19082,1,8,0:0:0:0:
256,192,19247,1,8,0:0:0:0:
256,192,19412,1,0,0:0:0:0:
256,192,19494,1,8,0:0:0:0:
256,192,19577,1,0,0:0:0:0:
256,192,19742,1,8,0:0:0:0:
256,192,19824,1,8,0:0:0:0:
256,192,19906,1,8,0:0:0:0:
256,192,19989,1,0,0:0:0:0:
256,192,20071,1,8,0:0:0:0:
256,192,20154,1,8,0:0:0:0:
256,192,20236,1,0,0:0:0:0:
256,192,20318,1,0,0:0:0:0:
256,192,20401,1,8,0:0:0:0:
256,192,20566,1,0,0:0:0:0:
256,192,20731,1,8,0:0:0:0:
256,192,20895,1,8,0:0:0:0:
256,192,21060,1,0,0:0:0:0:
256,192,21143,1,8,0:0:0:0:
256,192,21225,1,8,0:0:0:0:
256,192,21307,1,8,0:0:0:0:
256,192,21390,1,8,0:0:0:0:
256,192,21555,1,0,0:0:0:0:
256,192,21720,1,8,0:0:0:0:
256,192,21802,1,8,0:0:0:0:
256,192,21884,1,8,0:0:0:0:
256,192,22049,1,0,0:0:0:0:
256,192,22214,1,0,0:0:0:0:
256,192,22379,1,12,0:0:0:0:
256,192,22544,1,12,0:0:0:0:
256,192,22709,1,4,0:0:0:0:
256,192,22873,1,4,0:0:0:0:
256,192,23038,1,12,0:0:0:0:
256,192,23698,1,0,0:0:0:0:
256,192,23862,1,0,0:0:0:0:
256,192,24027,1,8,0:0:0:0:
256,192,24110,1,0,0:0:0:0:
256,192,24192,1,0,0:0:0:0:
256,192,24275,1,8,0:0:0:0:
256,192,24357,1,8,0:0:0:0:
256,192,24522,1,0,0:0:0:0:
256,192,24687,1,0,0:0:0:0:
256,192,24769,1,8,0:0:0:0:
256,192,24851,1,0,0:0:0:0:
256,192,25016,1,8,0:0:0:0:
256,192,25181,1,0,0:0:0:0:
256,192,25264,1,8,0:0:0:0:
256,192,25346,1,8,0:0:0:0:
256,192,25428,1,8,0:0:0:0:
256,192,25511,1,0,0:0:0:0:
256,192,25593,1,0,0:0:0:0:
256,192,25676,1,8,0:0:0:0:
256,192,25840,1,0,0:0:0:0:
256,192,26005,1,8,0:0:0:0:
256,192,26088,1,8,0:0:0:0:
256,192,26170,1,8,0:0:0:0:
256,192,26335,1,0,0:0:0:0:
256,192,26500,1,8,0:0:0:0:
256,192,26582,1,8,0:0:0:0:
256,192,26665,1,8,0:0:0:0:
256,192,26829,1,0,0:0:0:0:
256,192,26994,1,8,0:0:0:0:
256,192,27077,1,0,0:0:0:0:
256,192,27159,1,8,0:0:0:0:
256,192,27324,1,0,0:0:0:0:
256,192,27406,1,8,0:0:0:0:
256,192,27489,1,0,0:0:0:0:
256,192,27571,1,0,0:0:0:0:
256,192,27654,1,8,0:0:0:0:
256,192,27818,1,8,0:0:0:0:
256,192,27983,1,0,0:0:0:0:
256,192,28066,1,8,0:0:0:0:
256,192,28148,1,0,0:0:0:0:
256,192,28313,1,8,0:0:0:0:
256,192,28478,1,0,0:0:0:0:
256,192,28643,1,8,0:0:0:0:
256,192,28725,1,8,0:0:0:0:
256,192,28807,1,8,0:0:0:0:
256,192,28890,1,0,0:0:0:0:
256,192,28972,1,8,0:0:0:0:
256,192,29055,1,8,0:0:0:0:
256,192,29137,1,0,0:0:0:0:
256,192,29220,1,0,0:0:0:0:
256,192,29302,1,8,0:0:0:0:
256,192,29384,1,0,0:0:0:0:
256,192,29467,1,8,0:0:0:0:
256,192,29632,1,8,0:0:0:0:
256,192,29796,1,0,0:0:0:0:
256,192,29879,1,8,0:0:0:0:
256,192,29961,1,8,0:0:0:0:
256,192,30044,1,8,0:0:0:0:
256,192,30126,1,0,0:0:0:0:
256,192,30209,1,0,0:0:0:0:
256,192,30291,1,8,0:0:0:0:
256,192,30456,1,0,0:0:0:0:
256,192,30621,1,0,0:0:0:0:
256,192,30703,1,8,0:0:0:0:
256,192,30786,1,8,0:0:0:0:
256,192,30868,1,8,0:0:0:0:
256,192,30950,1,8,0:0:0:0:
256,192,31115,1,0,0:0:0:0:
256,192,31280,1,8,0:0:0:0:
256,192,31445,1,0,0:0:0:0:
256,192,31610,1,0,0:0:0:0:
256,192,31775,1,0,0:0:0:0:
256,192,31939,1,8,0:0:0:0:
256,192,32104,1,8,0:0:0:0:
256,192,32269,1,8,0:0:0:0:
256,192,32434,1,0,0:0:0:0:
256,192,32599,1,8,0:0:0:0:
256,192,32928,1,4,0:0:0:0:
256,192,33093,1,4,0:0:0:0:
256,192,33258,1,12,0:0:0:0:
256,192,33423,1,4,0:0:0:0:
256,192,33588,1,12,0:0:0:0:
256,192,34247,1,0,0:0:0:0:
256,192,34412,1,0,0:0:0:0:
256,192,34494,1,8,0:0:0:0:
256,192,34577,1,8,0:0:0:0:
256,192,34742,1,8,0:0:0:0:
256,192,34906,1,8,0:0:0:0:
256,192,34989,1,8,0:0:0:0:
256,192,35071,1,8,0:0:0:0:
256,192,35236,1,0,0:0:0:0:
256,192,35318,1,8,0:0:0:0:
256,192,35401,1,0,0:0:0:0:
256,192,35566,1,8,0:0:0:0:
256,192,35648,1,8,0:0:0:0:
256,192,35731,1,0,0:0:0:0:
256,192,35813,1,0,0:0:0:0:
256,192,35895,1,8,0:0:0:0:
256,192,35978,1,8,0:0:0:0:
256,192,36060,1,8,0:0:0:0:
256,192,36143,1,0,0:0:0:0:
256,192,36225,1,8,0:0:0:0:
256,192,36390,1,0,0:0:0:0:
256,192,36555,1,8,0:0:0:0:
256,192,36720,1,8,0:0:0:0:
256,192,36884,1,0,0:0:0:0:
256,192,36967,1,8,0:0:0:0:
256,192,37049,1,8,0:0:0:0:
256,192,37214,1,8,0:0:0:0:
256,192,37296,1,0,0:0:0:0:
256,192,37379,1,8,0:0:0:0:
256,192,37461,1,8,0:0:0:0:
256,192,37544,1,8,0:0:0:0:
256,192,37709,1,8,0:0:0:0:
256,192,37873,1,0,0:0:0:0:
256,192,37956,1,8,0:0:0:0:
256,192,38038,1,0,0:0:0:0:
256,192,38121,1,0,0:0:0:0:
256,192,38203,1,8,0:0:0:0:
256,192,38286,1,0,0:0:0:0:
256,192,38368,1,8,0:0:0:0:
256,192,38533,1,8,0:0:0:0:
256,192,38698,1,0,0:0:0:0:
256,192,38780,1,8,0:0:0:0:
256,192,38862,1,8,0:0:0:0:
256,192,39027,1,0,0:0:0:0:
256,192,39192,1,8,0:0:0:0:
256,192,39275,1,8,0:0:0:0:
256,192,39357,1,8,0:0:0:0:
256,192,39439,1,8,0:0:0:0:
256,192,39522,1,0,0:0:0:0:
256,192,39687,1,0,0:0:0:0:
256,192,39851,1,8,0:0:0:0:
256,192,39934,1,8,0:0:0:0:
256,192,40016,1,0,0:0:0:0:
256,192,40099,1,8,0:0:0:0:
256,192,40181,1,8,0:0:0:0:
256,192,40346,1,8,0:0:0:0:
256,192,40511,1,0,0:0:0:0:
256,192,40593,1,8,0:0:0:0:
256,192,40676,1,0,0:0:0:0:
256,192,40758,1,0,0:0:0:0:
256,192,40840,1,8,0:0:0:0:
256,192,40923,1,8,0:0:0:0:
256,192,41005,1,0,0:0:0:0:
256,192,41088,1,8,0:0:0:0:
256,192,41170,1,0,0:0:0:0:
256,192,41253,1,8,0:0:0:0:
256,192,41335,1,8,0:0:0:0:
256,192,41417,1,8,0:0:0:0:
256,192,41500,1,8,0:0:0:0:
256,192,41665,1,0,0:0:0:0:
256,192,41829,1,8,0:0:0:0:
256,192,41994,1,8,0:0:0:0:
256,192,42077,1,8,0:0:0:0:
256,192,42159,1,0,0:0:0:0:
256,192,42242,1,8,0:0:0:0:
256,192,42324,1,0,0:0:0:0:
256,192,42406,1,0,0:0:0:0:
256,192,42489,1,8,0:0:0:0:
256,192,42654,1,0,0:0:0:0:
256,192,42818,1,8,0:0:0:0:
256,192,42901,1,8,0:0:0:0:
256,192,42983,1,8,0:0:0:0:
256,192,43148,1,0,0:0:0:0:
256,192,43313,1,0,0:0:0:0:
256,192,43478,1,12,0:0:0:0:
256,192,43807,1,4,0:0:0:0:
256,192,44137,1,12,0:0:0:0:
256,192,44302,1,12,0:0:0:0:
256,192,44796,1,0,0:0:0:0:
256,192,44961,1,0,0:0:0:0:
256,192,45126,1,8,0:0:0:0:
256,192,45209,1,8,0:0:0:0:
256,192,45291,1,8,0:0:0:0:
256,192,45456,1,8,0:0:0:0:
256,192,45621,1,8,0:0:0:0:
256,192,45703,1,0,0:0:0:0:
256,192,45786,1,0,0:0:0:0:
256,192,45950,1,0,0:0:0:0:
256,192,46115,1,8,0:0:0:0:
256,192,46198,1,8,0:0:0:0:
256,192,46280,1,8,0:0:0:0:
256,192,46445,1,0,0:0:0:0:
256,192,46527,1,8,0:0:0:0:
256,192,46610,1,8,0:0:0:0:
256,192,46692,1,8,0:0:0:0:
256,192,46775,1,8,0:0:0:0:
256,192,46939,1,0,0:0:0:0:
256,192,47022,1,8,0:0:0:0:
256,192,47104,1,8,0:0:0:0:
256,192,47269,1,0,0:0:0:0:
256,192,47434,1,8,0:0:0:0:
256,192,47516,1,8,0:0:0:0:
256,192,47599,1,0,0:0:0:0:
256,192,47681,1,0,0:0:0:0:
256,192,47764,1,8,0:0:0:0:
256,192,47928,1,0,0:0:0:0:
256,192,48093,1,8,0:0:0:0:
256,192,48176,1,8,0:0:0:0:
256,192,48258,1,8,0:0:0:0:
256,192,48340,1,0,0:0:0:0:
256,192,48423,1,8,0:0:0:0:
256,192,48588,1,0,0:0:0:0:
256,192,48753,1,8,0:0:0:0:
256,192,48835,1,0,0:0:0:0:
256,192,48917,1,8,0:0:0:0:
256,192,49000,1,0,0:0:0:0:
256,192,49082,1,8,0:0:0:0:
256,192,49247,1,0,0:0:0:0:
256,192,49412,1,8,0:0:0:0:
256,192,49577,1,8,0:0:0:0:
256,192,49659,1,0,0:0:0:0:
256,192,49742,1,8,0:0:0:0:
256,192,49824,1,8,0:0:0:0:
256,192,49906,1,8,0:0:0:0:
256,192,49989,1,8,0:0:0:0:
256,192,50071,1,0,0:0:0:0:
256,192,50236,1,0,0:0:0:0:
256,192,50401,1,8,0:0:0:0:
256,192,50566,1,0,0:0:0:0:
256,192,50648,1,8,0:0:0:0:
256,192,50731,1,8,0:0:0:0:
256,192,50895,1,8,0:0:0:0:
256,192,51060,1,0,0:0:0:0:
256,192,51143,1,8,0:0:0:0:
256,192,51225,1,0,0:0:0:0:
256,192,51307,1,0,0:0:0:0:
256,192,51390,1,8,0:0:0:0:
256,192,51555,1,8,0:0:0:0:
256,192,51720,1,0,0:0:0:0:
256,192,51802,1,0,0:0:0:0:
256,192,51884,1,0,0:0:0:0:
256,192,51967,1,0,0:0:0:0:
256,192,52049,1,8,0:0:0:0:
256,192,52214,1,0,0:0:0:0:
256,192,52379,1,8,0:0:0:0:
256,192,52461,1,8,0:0:0:0:
256,192,52544,1,8,0:0:0:0:
256,192,52709,1,4,0:0:0:0:
256,192,53038,1,12,0:0:0:0:
256,192,53368,1,12,0:0:0:0:
256,192,53698,1,0,0:0:0:0:
256,192,54027,1,12,0:0:0:0:
256,192,54357,1,4,0:0:0:0:
256,192,54687,1,12,0:0:0:0:
256,192,55016,1,12,0:0:0:0:
256,192,55346,1,0,0:0:0:0:
256,192,55676,1,8,0:0:0:0:
256,192,55840,1,0,0:0:0:0:
256,192,56005,1,8,0:0:0:0:
256,192,56170,1,8,0:0:0:0:
256,192,56335,1,8,0:0:0:0:
256,192,56500,1,0,0:0:0:0:
256,192,56665,1,0,0:0:0:0:
256,192,56994,1,12,0:0:0:0:
256,192,57159,1,12,0:0:0:0:
256,192,57324,1,4,0:0:0:0:
256,192,57489,1,4,0:0:0:0:
256,192,57654,1,12,0:0:0:0:
