osu file format v14

[General]
AudioFilename: audio.mp3
AudioLeadIn: 0
PreviewTime: 55843
Countdown: 0
SampleSet: Soft
StackLeniency: 0.5
Mode: 0
LetterboxInBreaks: 0
WidescreenStoryboard: 1

[Editor]
DistanceSpacing: 1.1
BeatDivisor: 3
GridSize: 4
TimelineZoom: 1.100002

[Metadata]
Title:Anoko ni Drop Kick (TV Size)
TitleUnicode:あの娘にドロップキック (TV Size)
Artist:Jashin*Girls
ArtistUnicode:邪神★ガールズ
Creator:Nozhomi
Version:Shapy's Insane
Source:邪神ちゃんドロップキック
Tags:Dropkick On My Devil!! Jyashin-chan False God Aina Suzuki Nichika Oomori Miyu Kubota Yurie Kozakai Chiaki Omigawa Rico Sasaki Riho Iida yuii- shapy snake anime japanese
BeatmapID:1777372
BeatmapSetID:817560

[Difficulty]
HPDrainRate:5.5
CircleSize:4
OverallDifficulty:7.5
ApproachRate:9.2
SliderMultiplier:1.7
SliderTickRate:1

[Events]
//Background and Video events
0,0,"Dropkick.jpg",0,0
//Break Periods
//Storyboard Layer 0 (Background)
//Storyboard Layer 1 (Fail)
//Storyboard Layer 2 (Pass)
//Storyboard Layer 3 (Foreground)
//Storyboard Sound Samples

[TimingPoints]
540,260.869565217391,4,2,1,30,1,0
540,-133.333333333333,4,2,1,30,0,0
1583,-153.846153846153,4,2,1,40,0,0
7844,-117.647058823529,4,2,1,50,0,0
14105,-117.647058823529,4,2,1,60,0,0
16061,-100,4,2,1,50,0,0
26626,-111.111111111111,4,2,1,50,0,0
34844,-100,4,2,1,50,0,0
46453,521.739130434783,4,2,1,15,1,0
46974,-100,4,2,1,25,0,0
47148,-100,4,2,1,35,0,0
47496,521.739130434783,4,2,1,40,1,0
53756,-100,4,2,1,15,0,0
54104,-100,4,2,1,25,0,0
54452,-100,4,2,1,35,0,0
54800,-100,4,2,1,40,0,0
59843,-100,4,2,1,5,0,0
60017,260.869565217391,4,2,1,50,1,0
60017,-117.647058823529,4,2,1,50,0,0
69408,-83.3333333333333,4,2,1,60,0,1
77234,-83.3333333333333,4,2,1,60,0,0
77756,-83.3333333333333,4,2,1,60,0,1
81930,-111.111111111111,4,2,1,60,0,1
84016,-100,4,2,1,60,0,1
85582,-100,4,2,1,75,0,0
86103,-100,4,2,1,40,0,0
86364,-100,4,2,1,35,0,0
86625,-100,4,2,1,30,0,0
86886,-100,4,2,1,25,0,0
87147,-100,4,2,1,20,0,0
87408,-100,4,2,1,15,0,0
87669,-100,4,2,1,10,0,0
87864,-100,4,2,1,5,0,0

[Colours]
Combo1 : 233,222,12
Combo2 : 112,39,171
Combo3 : 217,163,36
Combo4 : 165,46,49
Combo5 : 125,199,44
Combo6 : 71,188,226

[HitObjects]
443,285,540,5,2,0:0:0:0:
206,301,800,1,2,0:0:0:0:
431,155,1061,1,2,0:0:0:0:
325,347,1322,1,2,0:0:0:0:
197,166,1583,6,0,B|157:182|113:153|113:153|54:176|5:135|5:135|16:92|49:68|106:66,1,331.499984825135,4|2,3:2|0:0,0:0:0:0:
307,203,2626,1,2,3:2:0:0:
203,318,2887,1,0,0:0:0:0:
398,328,3148,2,0,P|404:296|422:273,1,55.2499974708558,2|0,0:0|0:0,0:0:0:0:
488,280,3409,2,0,P|482:248|464:225,1,55.2499974708558,2|0,0:0|0:0,0:0:0:0:
254,188,3670,5,4,0:0:0:0:
252,198,3931,1,0,3:0:0:0:
324,74,4061,1,0,1:0:0:0:
326,64,4322,1,8,0:3:0:0:
353,225,4453,1,0,3:0:0:0:
203,78,4713,6,0,B|157:110|157:110|132:161,1,110.499994941712,4|2,0:0|0:0,0:0:0:0:
255,303,5235,2,0,P|257:317|253:344,2,36.8333316472372,8|8|8,3:0|3:0|3:0,0:0:0:0:
180,286,5496,2,0,P|177:267|179:249,2,36.8333316472372,0|0|0,3:0|3:0|3:0,0:0:0:0:
255,226,5757,2,0,P|306:246|331:300,1,110.499994941712,2|0,3:2|0:0,0:0:0:0:
440,129,6279,2,0,P|389:148|364:196,1,110.499994941712,2|2,0:0|0:0,0:0:0:0:
463,354,6800,5,2,3:2:0:0:
244,217,7061,1,0,3:0:0:0:
479,250,7322,1,0,3:0:0:0:
245,343,7583,1,0,3:0:0:0:
364,195,7844,6,0,L|369:122,1,72.2500013780594,4|4,0:3|0:3,0:0:0:0:
86,301,8887,53,4,0:3:0:0:
49,198,9018,1,4,0:3:0:0:
215,260,9279,2,0,P|152:257|83:304,1,144.500002756119,4|4,0:3|0:3,0:0:0:0:
261,335,9670,2,0,P|324:338|356:320,1,72.2500013780594,2|0,0:0|0:0,0:0:0:0:
406,190,9931,5,4,0:3:0:0:
443,293,10062,1,4,0:3:0:0:
70,71,10974,5,4,0:3:0:0:
173,38,11105,2,0,L|210:42,2,36.1250006890297,0|0|0,3:0|3:0|3:0,0:0:0:0:
114,194,11366,2,0,P|109:108|60:66,1,144.500002756119,4|0,0:0|1:0,0:0:0:0:
26,156,11757,1,8,3:0:0:0:
109,272,11887,1,4,3:0:0:0:
196,158,12018,54,0,L|267:167,1,72.2500013780594,2|0,3:2|0:0,0:0:0:0:
328,285,12279,2,0,P|332:244|318:195,1,72.2500013780594,0|0,3:0|0:0,0:0:0:0:
455,156,12539,2,0,L|384:165,1,72.2500013780594,0|0,3:0|0:0,0:0:0:0:
322,48,12800,2,0,P|318:89|332:138,1,72.2500013780594,0|0,3:0|0:0,0:0:0:0:
328,285,13061,5,0,0:0:0:0:
196,158,13192,2,0,P|206:193|236:222,1,72.2500013780594,0|0,1:0|3:0,0:0:0:0:
455,156,13453,1,2,0:0:0:0:
322,48,13583,1,0,1:0:0:0:
296,46,13648,1,0,1:0:0:0:
271,44,13713,1,4,3:0:0:0:
246,42,13778,1,4,3:0:0:0:
221,39,13844,2,0,L|151:33,3,36.1250006890297,8|8|0|0,3:0|3:0|3:0|3:0,0:0:0:0:
114,54,14105,5,0,1:0:0:0:
56,108,14235,2,0,P|63:184|38:250,1,144.500002756119,2|0,0:0|0:0,0:0:0:0:
170,308,14626,1,0,3:0:0:0:
230,256,14757,2,0,P|223:180|248:114,1,144.500002756119,2|0,0:0|0:0,0:0:0:0:
378,202,15148,1,0,3:0:0:0:
393,226,15213,1,0,3:0:0:0:
400,254,15278,1,0,3:0:0:0:
397,282,15343,1,0,3:0:0:0:
385,309,15409,54,0,P|370:330|353:342,3,36.1250006890297,0|0|0|0,3:0|3:0|3:0|3:0,0:0:0:0:
290,348,15670,1,0,1:0:0:0:
136,272,15800,1,0,1:0:0:0:
110,109,16061,6,0,P|104:187|138:276,1,170,4|0,3:2|3:0,0:0:0:0:
253,171,16453,2,0,L|257:78,1,85,0|0,1:0|0:0,0:0:0:0:
339,207,16713,2,0,L|342:291,1,85,0|0,3:0|3:0,0:0:0:0:
418,162,16974,1,0,1:0:0:0:
256,86,17105,6,0,L|80:78,1,170,0|0,3:0|3:0,0:0:0:0:
86,78,17431,1,0,3:0:0:0:
86,78,17496,1,0,1:0:0:0:
145,197,17626,1,0,0:0:0:0:
256,86,17757,2,0,P|298:92|338:127,1,85,0|0,3:0|3:0,0:0:0:0:
255,250,18018,1,0,1:0:0:0:
54,197,18148,54,0,P|56:268|116:347,1,170,2|0,0:0|3:0,0:0:0:0:
255,250,18539,2,0,L|348:243,1,85,0|0,1:0|0:0,0:0:0:0:
410,337,18800,2,0,L|317:330,1,85,0|0,3:0|3:0,0:0:0:0:
433,242,19061,1,0,1:0:0:0:
288,163,19192,6,0,P|204:151|154:80,1,170,2|0,0:0|3:0,0:0:0:0:
260,57,19583,1,0,1:0:0:0:
433,242,19844,1,0,1:0:0:0:
445,118,19974,1,0,3:2:0:0:
433,254,20105,1,0,1:0:0:0:
445,102,20235,6,0,P|414:47|317:18,1,170,4|0,3:2|3:0,0:0:0:0:
288,163,20626,1,0,1:0:0:0:
163,70,20757,1,0,3:0:0:0:
163,70,20822,1,0,3:0:0:0:
163,70,20887,2,0,P|121:55|81:48,2,85,0|0|0,3:0|3:0|1:0,0:0:0:0:
212,219,21279,1,0,3:0:0:0:
430,341,21539,53,0,3:0:0:0:
430,341,21605,1,0,3:0:0:0:
430,341,21670,2,0,P|440:267|419:233,1,85,0|0,1:0|0:0,0:0:0:0:
332,173,21931,2,0,P|325:214|339:254,1,85,0|0,3:0|3:0,0:0:0:0:
436,165,22192,1,0,1:0:0:0:
326,53,22322,6,0,B|269:52|269:52|209:78|209:78|147:76,1,170,2|0,0:0|3:0,0:0:0:0:
161,76,22648,1,0,3:0:0:0:
161,76,22713,1,0,1:0:0:0:
115,207,22844,2,0,P|122:256|112:298,2,85,0|0|0,0:0|0:0|3:0,0:0:0:0:
35,118,23235,1,0,1:0:0:0:
203,160,23366,6,0,P|288:171|363:222,1,170,0|0,0:0|1:0,0:0:0:0:
429,332,23757,1,0,1:0:0:0:
453,202,23887,1,0,3:0:0:0:
340,307,24018,2,0,P|266:307|243:295,1,85,0|0,1:0|3:0,0:0:0:0:
132,207,24279,1,0,1:0:0:0:
156,337,24409,1,4,3:2:0:0:
52,110,24800,53,0,3:0:0:0:
52,110,25061,2,0,P|60:63|89:27,1,85,0|0,3:0|0:0,0:0:0:0:
159,107,25322,1,0,3:0:0:0:
308,43,25453,2,0,P|379:75|411:164,1,170,4|0,1:2|3:0,0:0:0:0:
411,283,25844,1,0,1:0:0:0:
411,283,26105,2,0,P|364:293|331:316,1,85,0|0,1:0|0:0,0:0:0:0:
209,223,26366,2,0,P|244:245|286:253,1,85,0|0,1:0|0:0,0:0:0:0:
352,204,26626,5,2,3:2:0:0:
139,110,26887,2,0,P|87:91|77:70,1,76.4999976654053,0|0,3:0|0:0,0:0:0:0:
2,21,27148,2,0,L|183:27,1,152.999995330811,0|0,3:0|3:0,0:0:0:0:
248,79,27539,1,0,0:0:0:0:
336,32,27670,1,0,3:0:0:0:
418,86,27800,2,0,P|421:158|410:268,1,152.999995330811,0|0,0:0|0:0,0:0:0:0:
354,309,28192,5,0,3:0:0:0:
293,203,28322,1,0,1:0:0:0:
343,315,28453,1,0,3:0:0:0:
227,277,28583,1,0,1:0:0:0:
414,238,28713,54,0,P|420:162|418:86,1,152.999995330811,4|0,3:2|3:0,0:0:0:0:
351,32,29105,1,0,0:0:0:0:
259,29,29235,2,0,L|175:30,2,76.4999976654053,0|0|0,3:0|0:0|3:0,0:0:0:0:
301,110,29626,2,0,L|148:111,1,152.999995330811,2|0,0:0|0:0,0:0:0:0:
50,67,30018,2,0,P|41:106|49:154,1,76.4999976654053,2|0,3:2|0:0,0:0:0:0:
82,217,30279,5,0,3:0:0:0:
241,196,30409,1,0,1:0:0:0:
204,271,30539,1,0,3:0:0:0:
148,110,30670,1,0,1:0:0:0:
196,278,30800,5,4,3:2:0:0:
257,41,31061,2,0,P|289:28|345:32,2,76.4999976654053,0|0|0,3:0|0:0|3:0,0:0:0:0:
309,122,31453,2,0,B|325:162|323:229|323:229|363:196,1,152.999995330811,0|0,0:0|0:0,0:0:0:0:
419,94,31844,1,0,3:0:0:0:
450,253,31974,1,0,1:0:0:0:
450,253,32039,1,0,1:0:0:0:
450,253,32105,2,0,P|453:290|438:339,1,76.4999976654053,0|0,3:0|0:0,0:0:0:0:
292,300,32366,2,0,P|253:291|209:266,1,76.4999976654053,0|0,3:0|0:0,0:0:0:0:
148,135,32626,1,0,3:0:0:0:
103,305,32757,1,0,0:0:0:0:
43,140,32887,53,0,3:0:0:0:
39,125,33409,1,0,3:0:0:0:
251,341,33800,1,0,0:0:0:0:
255,180,33931,2,0,L|247:92,1,76.4999976654053,0|0,1:0|3:0,0:0:0:0:
333,277,34192,2,0,L|341:189,1,76.4999976654053,0|0,1:0|3:0,0:0:0:0:
251,341,34453,1,0,1:0:0:0:
255,180,34583,1,0,1:0:0:0:
24,33,34844,6,0,L|198:39,1,170,4|0,3:2|3:0,0:0:0:0:
104,153,35235,1,0,1:0:0:0:
149,281,35366,1,0,0:0:0:0:
255,180,35496,2,0,P|324:181|350:198,1,85,0|0,3:0|3:0,0:0:0:0:
429,298,35757,1,0,1:0:0:0:
487,148,35887,6,0,P|467:73|382:37,1,170,0|0,3:0|3:0,0:0:0:0:
255,180,36279,2,0,P|209:232|180:241,1,85,0|0,1:0|0:0,0:0:0:0:
177,81,36539,2,0,P|182:149|167:177,1,85,0|0,0:0|3:0,0:0:0:0:
62,238,36800,1,0,1:0:0:0:
255,338,36931,54,0,P|349:268|376:201,1,170,4|0,3:2|3:0,0:0:0:0:
350,78,37322,2,0,P|288:50|265:47,1,85,0|0,1:0|0:0,0:0:0:0:
415,142,37583,2,0,P|456:132|493:111,2,85,0|0|0,3:0|3:0|1:0,0:0:0:0:
211,121,37974,2,0,B|170:119|143:114|143:114|109:122|77:124|77:124|77:138|115:160,1,170,0|0,3:0|3:0,0:0:0:0:
275,163,38366,2,0,P|287:121|264:67,1,85,0|0,1:0|0:0,0:0:0:0:
169,221,38626,1,0,1:0:0:0:
169,221,38692,1,0,1:0:0:0:
169,221,38757,1,0,3:0:0:0:
258,316,38887,1,0,1:0:0:0:
275,82,39018,6,0,P|173:64|90:82,1,170,4|0,3:2|3:0,0:0:0:0:
25,194,39409,1,0,1:0:0:0:
12,42,39539,1,0,0:0:0:0:
113,193,39670,2,0,P|121:231|110:292,1,85,0|0,3:0|3:0,0:0:0:0:
20,351,39931,1,0,1:0:0:0:
236,328,40061,6,0,P|326:325|402:353,1,170,0|0,3:0|3:0,0:0:0:0:
502,235,40453,1,0,1:0:0:0:
357,185,40583,1,0,0:0:0:0:
482,98,40713,2,0,P|485:38|468:14,1,85,0|0,0:0|3:0,0:0:0:0:
441,187,40974,2,0,P|423:225|431:266,1,85,0|0,1:0|0:0,0:0:0:0:
311,73,41235,54,0,L|131:86,1,170,0|0,1:0|3:0,0:0:0:0:
124,96,41561,1,0,3:0:0:0:
124,96,41626,2,0,P|94:159|138:247,1,170,0|0,1:0|3:0,0:0:0:0:
360,178,42018,2,0,L|191:166,1,170,0|0,1:0|3:0,0:0:0:0:
263,285,42409,1,0,1:0:0:0:
416,232,42539,6,0,P|435:165|427:143,1,85,0|0,0:0|3:0,0:0:0:0:
300,38,42800,2,0,P|352:83|376:85,1,85,0|0,1:0|3:0,0:0:0:0:
502,128,43061,2,0,P|476:94|436:80,1,85,0|0,1:0|0:0,0:0:0:0:
188,125,43322,6,0,B|106:105|104:177|18:155,1,170,0|0,1:0|3:0,0:0:0:0:
14,177,43648,1,0,3:0:0:0:
14,177,43713,2,0,P|23:281|6:352,1,170,0|0,1:0|3:0,0:0:0:0:
195,332,44105,2,0,P|179:248|189:164,1,170,0|0,1:0|3:0,0:0:0:0:
328,61,44496,1,0,1:0:0:0:
371,215,44626,54,0,L|376:308,1,85,0|0,0:0|3:0,0:0:0:0:
396,321,44822,1,0,3:0:0:0:
396,321,44887,2,0,P|474:312|475:231,2,170,0|0|4,1:0|3:0|1:2,0:0:0:0:
254,42,45931,1,4,1:2:0:0:
256,339,46453,38,0,P|263:303|255:268,2,56.6666666666667,2|2|0,0:0|0:0|1:0,0:0:0:0:
128,309,46974,2,0,P|163:302|198:310,2,56.6666666666667,0|0|0,1:0|1:0|1:0,0:0:0:0:
229,216,47496,6,0,P|286:215|331:254,1,113.333333333333,4|0,0:0|0:0,0:0:0:0:
400,237,48017,2,0,P|388:291|342:320,1,113.333333333333,0|0,1:0|0:0,0:0:0:0:
229,216,48539,2,0,P|226:185|212:153,1,56.6666666666667,2|0,0:0|0:0,0:0:0:0:
153,112,48887,1,0,0:0:0:0:
262,53,49061,2,0,L|405:73,1,113.333333333333,0|0,1:0|0:0,0:0:0:0:
185,21,49582,6,0,L|42:41,1,113.333333333333,2|0,0:0|0:0,0:0:0:0:
251,132,50104,2,0,L|394:152,1,113.333333333333,0|0,1:0|0:0,0:0:0:0:
145,110,50626,2,0,L|2:130,1,113.333333333333,2|0,0:0|0:0,0:0:0:0:
101,209,51148,2,0,P|100:234|112:275,1,56.6666666666667,0|2,1:0|0:0,0:0:0:0:
163,328,51496,1,0,3:0:0:0:
261,227,51669,54,0,P|291:162|266:119,1,113.333333333333,4|0,0:0|0:0,0:0:0:0:
362,47,52191,2,0,P|346:99|376:145,1,113.333333333333,0|0,1:0|3:0,0:0:0:0:
295,296,52713,2,0,P|242:301|196:266,1,113.333333333333,2|0,0:0|0:0,0:0:0:0:
343,211,53235,2,0,P|398:215|441:181,1,113.333333333333,0|0,1:0|0:0,0:0:0:0:
362,47,53756,6,0,P|323:41|292:44,2,56.6666666666667,0|0|0,1:0|1:0|1:0,0:0:0:0:
188,92,54278,2,0,P|216:92|244:87,2,56.6666666666667,0|0|0,1:0|1:0|1:0,0:0:0:0:
406,110,54800,2,0,P|436:63|428:9,1,113.333333333333,0|0,3:0|3:0,0:0:0:0:
121,52,55322,2,0,P|112:107|143:154,1,113.333333333333,0|0,1:0|0:0,0:0:0:0:
256,338,55843,6,0,P|295:332|380:353,1,113.333333333333,4|0,0:0|0:0,0:0:0:0:
206,279,56365,2,0,P|179:333|195:386,1,113.333333333333,0|2,1:0|0:0,0:0:0:0:
366,346,56887,2,0,P|387:299|387:275,1,56.6666666666667,2|0,0:0|0:0,0:0:0:0:
373,210,57235,1,0,0:0:0:0:
242,171,57409,2,0,P|187:172|130:211,1,113.333333333333,0|0,1:0|0:0,0:0:0:0:
373,210,57930,6,0,L|365:94,1,113.333333333333,2|0,0:0|0:0,0:0:0:0:
465,191,58452,2,0,L|472:304,1,113.333333333333,0|0,1:0|0:0,0:0:0:0:
476,32,58974,2,0,B|482:74|459:105|459:105|399:69|399:69|357:85|322:71|322:71|275:105,1,283.333333333333,6|0,0:0|0:0,0:0:0:0:
251,317,60017,5,4,0:3:0:0:
148,182,60147,1,4,0:3:0:0:
399,324,61060,5,4,0:3:0:0:
502,189,61190,1,4,0:3:0:0:
245,233,61451,2,0,P|180:261|165:332,1,144.500002756119,4|4,0:3|0:3,0:0:0:0:
322,239,61843,2,0,P|312:196|274:163,1,72.2500013780594,0|0,3:0|3:0,0:0:0:0:
115,147,62103,5,4,0:3:0:0:
164,327,62234,1,4,0:3:0:0:
437,59,63147,1,4,0:3:0:0:
273,32,63277,1,4,0:3:0:0:
338,240,63538,6,0,L|350:93,1,144.500002756119,0|0,1:0|3:0,0:0:0:0:
257,132,63930,2,0,L|250:203,1,72.2500013780594,0|0,1:0|0:0,0:0:0:0:
335,319,64190,54,0,P|375:309|400:289,1,72.2500013780594,2|0,3:2|0:0,0:0:0:0:
260,348,64451,2,0,P|231:326|196:319,1,72.2500013780594,0|0,3:0|0:0,0:0:0:0:
399,220,64712,2,0,P|406:255|398:290,1,72.2500013780594,0|0,3:0|0:0,0:0:0:0:
196,319,64973,2,0,P|188:283|196:248,1,72.2500013780594,0|0,3:0|0:0,0:0:0:0:
337,145,65234,2,0,L|250:153,1,72.2500013780594,0|0,3:0|0:0,0:0:0:0:
240,168,65430,1,0,0:0:0:0:
240,168,65495,1,0,3:0:0:0:
24,60,65625,2,0,B|-5:96|23:122|52:152|17:214,1,144.500002756119,0|0,3:0|3:0,0:0:0:0:
28,228,65951,1,0,3:0:0:0:
28,228,66017,2,0,P|59:279|60:301,1,72.2500013780594,0|0,1:0|0:0,0:0:0:0:
265,151,66277,6,0,P|242:178|233:213,1,72.2500013780594,4|0,1:2|0:0,0:0:0:0:
235,228,66799,1,4,1:2:0:0:
237,249,67321,6,0,L|248:338,1,72.2500013780594,0|0,1:0|3:0,0:0:0:0:
363,249,67582,2,0,L|371:177,1,72.2500013780594,0|0,1:0|0:0,0:0:0:0:
206,253,67843,54,0,L|217:342,1,72.2500013780594,0|0,1:0|3:0,0:0:0:0:
396,251,68104,2,0,L|404:179,1,72.2500013780594,0|0,1:0|0:0,0:0:0:0:
280,69,68364,1,0,3:0:0:0:
250,65,68430,1,0,3:0:0:0:
221,63,68495,1,0,3:0:0:0:
192,60,68560,1,0,3:0:0:0:
163,57,68625,1,0,1:0:0:0:
206,253,68886,5,2,0:0:0:0:
361,335,69016,1,2,0:0:0:0:
383,163,69147,1,2,0:0:0:0:
196,256,69277,1,2,0:0:0:0:
369,337,69408,6,0,L|469:351,1,101.999996887207,4|0,1:2|3:0,0:0:0:0:
264,337,69669,2,0,L|153:353,1,101.999996887207,0|0,1:0|0:0,0:0:0:0:
316,269,69930,2,0,P|310:217|281:166,1,101.999996887207,0|0,1:0|3:0,0:0:0:0:
138,107,70190,1,0,1:0:0:0:
290,46,70321,1,0,3:0:0:0:
182,178,70451,54,0,P|158:223|153:273,1,101.999996887207,0|0,1:0|3:0,0:0:0:0:
316,269,70712,2,0,P|369:256|404:202,1,101.999996887207,0|0,1:0|0:0,0:0:0:0:
302,102,70973,2,0,P|299:152|326:194,1,101.999996887207,0|0,1:0|3:0,0:0:0:0:
454,87,71234,2,0,P|420:124|371:135,1,101.999996887207,0|0,1:0|3:0,0:0:0:0:
195,39,71495,5,0,1:0:0:0:
96,168,71625,1,0,3:0:0:0:
96,168,71690,1,0,3:0:0:0:
96,168,71756,2,0,L|101:284,1,101.999996887207,0|0,1:0|0:0,0:0:0:0:
260,356,72016,2,0,L|256:254,1,101.999996887207,0|0,1:0|3:0,0:0:0:0:
58,102,72277,6,0,P|105:94|164:132,1,101.999996887207,0|0,1:0|3:0,0:0:0:0:
306,174,72538,2,0,P|259:182|200:144,1,101.999996887207,0|0,1:0|3:0,0:0:0:0:
283,13,72799,2,0,P|291:60|253:119,1,101.999996887207,0|0,1:0|3:0,0:0:0:0:
80,262,73060,2,0,P|72:212|95:167,1,101.999996887207,0|0,1:0|3:0,0:0:0:0:
215,51,73321,2,0,L|102:37,1,101.999996887207,0|0,1:0|0:0,0:0:0:0:
146,225,73582,54,0,L|361:253,1,203.999993774414,0|0,1:0|1:0,0:0:0:0:
438,270,73973,1,0,0:0:0:0:
410,119,74103,2,0,P|371:47|355:38,1,101.999996887207,0|0,1:0|3:0,0:0:0:0:
196,58,74364,1,0,1:0:0:0:
261,197,74495,1,0,3:0:0:0:
356,38,74625,6,0,P|436:25|450:14,1,101.999996887207,0|0,1:0|3:0,0:0:0:0:
480,184,74886,2,0,P|482:232|462:287,1,101.999996887207,0|0,1:0|0:0,0:0:0:0:
261,197,75147,2,0,P|180:209|166:220,1,101.999996887207,0|0,1:0|3:0,0:0:0:0:
371,136,75408,2,0,P|373:88|353:33,1,101.999996887207,0|0,1:0|3:0,0:0:0:0:
365,262,75669,6,0,P|288:327|231:255,1,203.999993774414,0|0,1:0|1:0,0:0:0:0:
204,146,76060,1,0,0:0:0:0:
79,250,76190,1,0,1:0:0:0:
161,82,76321,2,0,P|245:80|272:182,1,203.999993774414,0|0,3:0|3:0,0:0:0:0:
68,139,76712,54,0,B|49:34,1,101.999996887207,0|0,1:0|3:0,0:0:0:0:
166,224,76973,2,0,B|147:324,1,101.999996887207,0|0,1:0|3:0,0:0:0:0:
272,180,77234,1,2,0:0:0:0:
68,139,77364,1,2,3:2:0:0:
281,168,77495,1,2,1:2:0:0:
67,155,77625,1,2,0:0:0:0:
216,321,77756,6,0,L|344:332,1,101.999996887207,4|0,1:2|3:0,0:0:0:0:
501,216,78016,2,0,L|399:224,1,101.999996887207,0|0,1:0|0:0,0:0:0:0:
218,218,78277,2,0,L|319:226,1,101.999996887207,0|0,1:0|3:0,0:0:0:0:
505,322,78538,2,0,L|403:330,1,101.999996887207,0|0,1:0|3:0,0:0:0:0:
356,157,78799,6,0,P|363:74|384:49,1,101.999996887207,0|0,1:0|3:0,0:0:0:0:
234,121,79060,2,0,P|227:204|206:229,1,101.999996887207,0|0,1:0|0:0,0:0:0:0:
249,45,79321,2,0,P|189:57|160:99,1,101.999996887207,0|0,1:0|3:0,0:0:0:0:
340,232,79582,2,0,P|400:220|429:178,1,101.999996887207,0|0,1:0|3:0,0:0:0:0:
255,311,79843,53,0,1:0:0:0:
115,282,79973,1,0,3:0:0:0:
115,282,80038,1,0,3:0:0:0:
115,282,80103,2,0,P|58:256|42:214,1,101.999996887207,0|0,1:0|0:0,0:0:0:0:
37,89,80364,1,0,1:0:0:0:
142,170,80495,1,0,3:0:0:0:
261,37,80625,6,0,P|308:55|338:95,1,101.999996887207,0|0,1:0|3:0,0:0:0:0:
350,195,80886,2,0,P|397:178|429:139,1,101.999996887207,0|0,1:0|3:0,0:0:0:0:
278,220,81147,2,0,P|308:260|363:270,1,101.999996887207,0|0,1:0|3:0,0:0:0:0:
286,144,81408,2,0,P|237:155|207:195,1,101.999996887207,0|0,1:0|3:0,0:0:0:0:
258,347,81669,1,0,1:0:0:0:
28,166,81930,6,0,P|13:92|136:153,1,305.999990661621,4|2,3:2|0:0,0:0:0:0:
81,330,82712,1,0,0:0:0:0:
241,212,82973,1,2,3:2:0:0:
42,215,83234,1,2,0:0:0:0:
199,336,83495,1,2,0:0:0:0:
136,151,83756,53,2,0:0:0:0:
139,280,83886,1,0,3:0:0:0:
269,198,84016,2,0,P|333:177|341:76,1,170,0|0,1:0|3:0,0:0:0:0:
203,11,84408,2,0,P|206:91|280:124,1,170,0|0,1:0|3:0,0:0:0:0:
394,28,84799,2,0,P|416:65|412:118,1,85,0|0,1:0|0:0,0:0:0:0:
331,244,85060,6,0,P|255:273|195:212,1,170,0|0,1:0|0:0,0:0:0:0:
161,95,85451,1,0,3:0:0:0:
161,95,85516,1,0,3:0:0:0:
161,95,85582,5,4,1:2:0:0:
256,192,85712,12,0,87930,0:0:0:0:
