osu file format v14

[General]
AudioFilename: audio.mp3
AudioLeadIn: 0
PreviewTime: 55843
Countdown: 0
SampleSet: Soft
StackLeniency: 0.7
Mode: 0
LetterboxInBreaks: 0
WidescreenStoryboard: 0

[Editor]
DistanceSpacing: 1.1
BeatDivisor: 2
GridSize: 4
TimelineZoom: 1.3

[Metadata]
Title:Anoko ni Drop Kick (TV Size)
TitleUnicode:あの娘にドロップキック (TV Size)
Artist:Jashin*Girls
ArtistUnicode:邪神★ガールズ
Creator:Nozhomi
Version:Normal
Source:邪神ちゃんドロップキック
Tags:Dropkick On My Devil!! Jyashin-chan False God Aina Suzuki Nichika Oomori Miyu Kubota Yurie Kozakai Chiaki Omigawa Rico Sasaki Riho Iida yuii- shapy snake anime japanese
BeatmapID:1744001
BeatmapSetID:817560

[Difficulty]
HPDrainRate:3
CircleSize:3
OverallDifficulty:3.5
ApproachRate:5
SliderMultiplier:0.999999999999999
SliderTickRate:1

[Events]
//Background and Video events
0,0,"Dropkick.jpg",0,0
//Break Periods
//Storyboard Layer 0 (Background)
//Storyboard Layer 1 (Fail)
//Storyboard Layer 2 (Pass)
//Storyboard Layer 3 (Foreground)
//Storyboard Sound Samples

[TimingPoints]
540,260.869565217391,4,2,1,30,1,0
540,-125,4,2,1,30,0,0
1583,-125,4,2,1,40,0,0
7844,-125,4,2,1,50,0,0
14105,-125,4,2,1,60,0,0
16061,-100,4,2,1,50,0,0
46453,521.739130434783,4,2,1,15,1,0
46974,-100,4,2,1,25,0,0
47148,-100,4,2,1,35,0,0
47496,521.739130434783,4,2,1,40,1,0
53756,-100,4,2,1,15,0,0
54104,-100,4,2,1,25,0,0
54452,-100,4,2,1,35,0,0
54800,-100,4,2,1,40,0,0
59365,-100,4,2,1,5,0,0
60017,260.869565217391,4,2,1,50,1,0
60017,-125,4,2,1,50,0,0
69408,-100,4,2,1,60,0,1
77234,-100,4,2,1,60,0,0
77756,-100,4,2,1,60,0,1
85582,-100,4,2,1,75,0,0
86103,-100,4,2,1,40,0,0
86364,-100,4,2,1,35,0,0
86625,-100,4,2,1,30,0,0
86886,-100,4,2,1,25,0,0
87147,-100,4,2,1,20,0,0
87408,-100,4,2,1,15,0,0
87669,-100,4,2,1,10,0,0
87864,-100,4,2,1,5,0,0

[Colours]
Combo1 : 233,222,12
Combo2 : 112,39,171
Combo3 : 217,163,36
Combo4 : 165,46,49
Combo5 : 125,199,44
Combo6 : 71,188,226

[HitObjects]
0,40,540,6,0,L|96:32,1,80,2|2,0:0|0:0,0:0:0:0:
156,76,1061,2,0,L|235:82,1,80,2|2,0:0|0:0,0:0:0:0:
320,56,1583,6,0,P|304:172|404:208,1,240,4|2,3:2|0:0,0:0:0:0:
480,164,2626,1,2,3:2:0:0:
480,252,2887,2,0,L|480:340,2,79.9999999999999,0|2|2,0:0|0:0|0:0,0:0:0:0:
403,208,3670,6,0,P|329:199|287:228,2,120,4|0|0,0:0|1:0|3:0,0:0:0:0:
400,296,4713,2,0,L|316:308,1,79.9999999999999,4|2,0:0|0:0,0:0:0:0:
236,288,5235,2,0,L|156:276,1,79.9999999999999,8|0,3:0|3:0,0:0:0:0:
76,312,5757,54,0,P|80:232|76:140,1,160,2|2,3:2|0:0,0:0:0:0:
204,32,6800,2,0,P|228:63|264:81,1,79.9999999999999,2|0,3:2|3:0,0:0:0:0:
352,80,7322,2,0,P|387:62|411:30,1,79.9999999999999,0|0,3:0|3:0,0:0:0:0:
468,100,7844,38,0,L|472:152,1,40,4|4,0:3|0:3,0:0:0:0:
244,348,8887,2,0,L|240:308,1,40,4|4,0:3|0:3,0:0:0:0:
172,252,9279,2,0,P|114:264|60:240,1,120,4|2,0:3|0:0,0:0:0:0:
16,164,9931,6,0,L|12:124,1,40,4|4,0:3|0:3,0:0:0:0:
308,36,10974,2,0,L|304:75,1,40,4|0,0:3|3:0,0:0:0:0:
300,164,11366,1,4,0:0:0:0:
224,124,11626,2,0,P|208:112|148:108,1,79.9999999999999,0|4,1:0|3:0,0:0:0:0:
122,142,12018,6,0,P|150:214|221:246,1,160,2|0,3:2|3:0,0:0:0:0:
309,256,12800,1,0,3:0:0:0:
372,196,13061,2,0,L|368:116,1,79.9999999999999,0|0,0:0|3:0,0:0:0:0:
452,88,13583,2,0,L|456:168,1,79.9999999999999,0|8,1:0|3:0,0:0:0:0:
498,245,14105,54,0,P|456:263|431:318,1,79.9999999999999,0|0,1:0|3:0,0:0:0:0:
379,356,14626,2,0,L|291:348,1,79.9999999999999,0|0,3:0|3:0,0:0:0:0:
227,297,15148,2,0,L|175:293,2,40,0|0|0,3:0|3:0|3:0,0:0:0:0:
185,374,15670,2,0,P|159:370|133:354,1,40,0|0,1:0|1:0,0:0:0:0:
80,276,16061,6,0,L|88:116,1,150,4|0,3:2|1:0,0:0:0:0:
148,36,16713,2,0,P|195:25|274:86,1,150,0|0,3:0|3:0,0:0:0:0:
351,159,17366,2,0,P|258:176|229:267,1,200,0|0,3:0|3:0,0:0:0:0:
300,352,18148,6,0,L|148:352,1,150,2|0,0:0|1:0,0:0:0:0:
68,280,18800,2,0,P|48:200|84:128,2,150,0|2|0,3:0|0:0|1:0,0:0:0:0:
150,352,19844,2,0,L|261:352,1,99.9999999999999,0|0,1:0|1:0,0:0:0:0:
296,324,20235,54,0,P|332:276|420:272,1,150,4|0,3:2|1:0,0:0:0:0:
500,344,20887,2,0,L|496:184,1,150,0|0,3:0|3:0,0:0:0:0:
462,86,21539,2,0,P|406:166|310:182,1,200,0|0,3:0|3:0,0:0:0:0:
257,86,22322,6,0,P|216:27|144:16,1,150,2|0,0:0|1:0,0:0:0:0:
85,108,22974,2,0,P|127:168|200:180,1,150
310,182,23626,2,0,B|285:256|329:256|306:329,2,150,0|0|4,1:0|1:0|3:2,0:0:0:0:
265,22,24800,1,0,3:0:0:0:
179,91,25061,1,0,3:0:0:0:
310,182,25453,6,0,L|464:180,1,150,4|0,1:2|1:0,0:0:0:0:
436,288,26105,2,0,L|336:289,1,99.9999999999999,0|0,1:0|1:0,0:0:0:0:
232,252,26626,53,2,3:2:0:0:
131,200,26887,2,0,P|118:247|128:296,2,99.9999999999999,0|0|0,3:0|3:0|3:0,0:0:0:0:
172,96,27670,2,0,B|244:116|244:116|316:96,2,150,0|2|0,3:0|0:0|3:0,0:0:0:0:
80,36,28713,5,4,3:2:0:0:
89,145,28974,2,0,P|86:217|29:262,2,150,0|2|0,3:0|0:0|0:0,0:0:0:0:
184,200,30018,2,0,P|231:212|279:200,1,99.9999999999999,2|0,3:2|3:0,0:0:0:0:
367,132,30539,1,0,3:0:0:0:
396,30,30800,5,4,3:2:0:0:
473,107,31061,1,0,3:0:0:0:
497,214,31322,2,0,P|491:267|450:309,1,99.9999999999999,0|0,3:0|3:0,0:0:0:0:
375,234,31844,2,0,L|383:384,2,150,0|2|0,3:0|0:0|3:0,0:0:0:0:
324,136,32887,53,0,3:0:0:0:
256,344,33409,1,0,3:0:0:0:
188,136,33931,2,0,P|136:112|72:128,2,99.9999999999999,0|0|0,1:0|1:0|1:0,0:0:0:0:
212,300,34844,6,0,L|52:296,1,150,4|0,3:2|1:0,0:0:0:0:
0,204,35496,2,0,L|149:207,1,150,0|0,3:0|3:0,0:0:0:0:
260,204,36148,2,0,P|300:168|312:104,2,99.9999999999999,0|0|0,3:0|0:0|3:0,0:0:0:0:
212,300,36931,6,0,P|291:307|360:241,2,150,4|0|0,3:2|1:0|3:0,0:0:0:0:
136,220,37974,2,0,P|129:141|194:72,2,150,0|0|0,3:0|1:0|3:0,0:0:0:0:
212,300,39018,54,0,L|368:284,1,150,4|0,3:2|1:0,0:0:0:0:
440,208,39670,2,0,B|420:280|420:280|441:352,2,150,0|0|0,3:0|3:0|1:0,0:0:0:0:
488,108,40713,2,0,P|428:96|372:121,1,99.9999999999999,0|0,0:0|1:0,0:0:0:0:
304,172,41235,6,0,L|144:176,2,150,0|0|0,1:0|1:0|1:0,0:0:0:0:
116,284,42539,2,0,P|71:263|48:220,1,99.9999999999999,0|0,0:0|1:0,0:0:0:0:
60,112,43061,1,0,1:0:0:0:
154,176,43322,6,0,L|314:172,2,150,0|0|0,1:0|1:0|1:0,0:0:0:0:
341,63,44626,2,0,P|385:83|408:126,1,99.9999999999999,0|0,0:0|1:0,0:0:0:0:
392,236,45148,1,0,3:0:0:0:
304,172,45409,53,4,1:2:0:0:
204,368,45931,1,4,1:2:0:0:
304,172,46453,2,0,P|321:125|305:79,1,99.9999999999999,2|0,0:0|1:0,0:0:0:0:
200,49,47496,38,0,P|164:117|220:248,1,200,4|2,0:0|0:0,0:0:0:0:
288,292,49061,1,0,1:0:0:0:
192,340,49582,2,0,L|68:332,1,99.9999999999999,2|0,0:0|1:0,0:0:0:0:
98,223,50626,2,0,L|197:229,1,99.9999999999999,2|0,0:0|1:0,0:0:0:0:
276,308,51669,5,4,0:0:0:0:
353,230,52191,1,0,1:0:0:0:
276,152,52713,1,2,0:0:0:0:
198,230,53235,1,0,1:0:0:0:
275,307,53756,2,0,P|236:336|186:340,1,99.9999999999999,0|0,1:0|0:0,0:0:0:0:
94,277,54800,2,0,L|87:169,1,99.9999999999999,0|0,3:0|1:0,0:0:0:0:
85,67,55843,6,0,P|112:96|261:66,1,200,4|2,0:0|0:0,0:0:0:0:
346,14,57408,1,0,1:0:0:0:
437,75,57930,2,0,P|451:112|437:171,1,99.9999999999999,2|0,0:0|1:0,0:0:0:0:
372,257,58974,2,0,P|337:276|276:269,1,99.9999999999999,6|0,0:0|0:0,0:0:0:0:
256,160,60017,6,0,L|256:104,1,40,4|4,0:3|0:3,0:0:0:0:
256,292,61060,2,0,L|256:336,1,40,4|4,0:3|0:3,0:0:0:0:
176,368,61451,2,0,P|126:335|105:280,1,120,4|0,0:3|3:0,0:0:0:0:
104,192,62103,6,0,L|104:144,1,40,4|4,0:3|0:3,0:0:0:0:
408,152,63147,2,0,L|408:192,1,40,4|4,0:3|0:3,0:0:0:0:
340,248,63538,1,0,1:0:0:0:
272,304,63799,2,0,L|272:348,2,40,0|0|0,3:0|1:0|0:0,0:0:0:0:
244,272,64190,6,0,B|216:196|268:192|244:112,1,160,2|0,3:2|3:0,0:0:0:0:
176,60,64973,1,0,3:0:0:0:
112,122,65234,2,0,P|98:159|104:198,1,79.9999999999999,0|0,3:0|3:0,0:0:0:0:
140,280,65756,2,0,P|158:315|191:335,1,79.9999999999999,0|0,3:0|1:0,0:0:0:0:
280,348,66277,53,4,1:2:0:0:
438,270,66799,1,4,1:2:0:0:
271,215,67321,2,0,P|265:178|275:138,1,79.9999999999999,0|0,1:0|1:0,0:0:0:0:
352,180,67843,2,0,P|373:148|409:127,1,79.9999999999999,0|0,1:0|1:0,0:0:0:0:
435,213,68364,2,0,L|475:213,2,40,0|0|0,3:0|3:0|1:0,0:0:0:0:
128,144,69408,6,0,P|222:135|272:215,1,200,4|0,1:2|1:0,0:0:0:0:
244,324,70190,1,0,1:0:0:0:
352,296,70451,2,0,L|452:300,1,99.9999999999999,0|0,1:0|1:0,0:0:0:0:
480,192,70973,2,0,L|380:188,1,99.9999999999999,0|0,1:0|1:0,0:0:0:0:
272,215,71495,6,0,P|336:188|312:64,1,200,0|0,1:0|1:0,0:0:0:0:
232,16,72277,1,0,1:0:0:0:
136,72,72538,2,0,L|28:64,1,99.9999999999999,0|0,1:0|1:0,0:0:0:0:
60,172,73060,2,0,L|159:179,1,99.9999999999999,0|0,1:0|1:0,0:0:0:0:
256,124,73582,53,0,1:0:0:0:
376,308,74103,2,0,P|428:304|472:248,1,99.9999999999999,0|0,1:0|1:0,0:0:0:0:
496,168,74625,1,0,1:0:0:0:
388,188,74886,1,0,1:0:0:0:
372,80,75147,1,0,1:0:0:0:
264,100,75408,1,0,1:0:0:0:
200,11,75669,6,0,P|167:48|155:97,1,99.9999999999999,0|0,1:0|1:0,0:0:0:0:
48,80,76190,2,0,P|50:129|76:171,1,99.9999999999999,0|0,1:0|1:0,0:0:0:0:
20,268,76712,2,0,L|232:260,1,200,0|2,1:0|0:0,0:0:0:0:
332,256,77495,1,2,1:2:0:0:
388,160,77756,6,0,P|441:240|411:332,1,200,4|0,1:2|1:0,0:0:0:0:
332,256,78538,1,0,1:0:0:0:
256,332,78799,2,0,P|212:348|140:324,1,99.9999999999999,0|0,1:0|1:0,0:0:0:0:
68,276,79321,2,0,P|40:235|37:185,1,99.9999999999999,0|0,1:0|1:0,0:0:0:0:
92,88,79843,54,0,B|136:84|164:52|164:52|228:88|308:80,1,200,0|0,1:0|1:0,0:0:0:0:
384,56,80625,1,0,1:0:0:0:
352,160,80886,2,0,P|344:204|348:268,1,99.9999999999999,0|0,1:0|1:0,0:0:0:0:
384,364,81408,1,0,1:0:0:0:
455,279,81669,1,0,1:0:0:0:
346,259,81930,6,0,P|228:284|148:228,1,200,4|2,3:2|0:0,0:0:0:0:
32,72,82973,2,0,L|36:192,1,99.9999999999999,2|2,3:2|0:0,0:0:0:0:
140,144,83495,2,0,L|136:44,1,99.9999999999999,2|2,0:0|0:0,0:0:0:0:
236,88,84016,6,0,P|300:104|384:48,2,150,0|0|0,1:0|1:0|1:0,0:0:0:0:
136,44,85060,1,0,1:0:0:0:
192,256,85582,53,4,1:2:0:0:
256,192,85712,12,0,87930,0:0:0:0:
