osu file format v14

[General]
AudioFilename: audio.mp3
AudioLeadIn: 0
PreviewTime: 55843
Countdown: 0
SampleSet: Soft
StackLeniency: 0.5
Mode: 0
LetterboxInBreaks: 0
WidescreenStoryboard: 0

[Editor]
DistanceSpacing: 1.4
BeatDivisor: 4
GridSize: 4
TimelineZoom: 1.3

[Metadata]
Title:Anoko ni Drop Kick (TV Size)
TitleUnicode:あの娘にドロップキック (TV Size)
Artist:Jashin*Girls
ArtistUnicode:邪神★ガールズ
Creator:Nozhomi
Version:Insane
Source:邪神ちゃんドロップキック
Tags:Dropkick On My Devil!! Jyashin-chan False God Aina Suzuki Nichika Oomori Miyu Kubota Yurie Kozakai Chiaki Omigawa Rico Sasaki Riho Iida yuii- shapy snake anime japanese
BeatmapID:1765147
BeatmapSetID:817560

[Difficulty]
HPDrainRate:5
CircleSize:4
OverallDifficulty:7.2
ApproachRate:9
SliderMultiplier:1.6
SliderTickRate:1

[Events]
//Background and Video events
0,0,"Dropkick.jpg",0,0
//Break Periods
//Storyboard Layer 0 (Background)
//Storyboard Layer 1 (Fail)
//Storyboard Layer 2 (Pass)
//Storyboard Layer 3 (Foreground)
//Storyboard Sound Samples

[TimingPoints]
540,260.869565217391,4,2,1,30,1,0
540,-133.333333333333,4,2,1,30,0,0
1583,-133.333333333333,4,2,1,40,0,0
7844,-133.333333333333,4,2,1,50,0,0
14105,-133.333333333333,4,2,1,60,0,0
16061,-100,4,2,1,50,0,0
26561,-100,4,2,1,5,0,0
26626,-100,4,2,1,50,0,0
46453,521.739130434783,4,2,1,15,1,0
46974,-100,4,2,1,25,0,0
47148,-100,4,2,1,35,0,0
47496,521.739130434783,4,2,1,40,1,0
53756,-100,4,2,1,15,0,0
54104,-100,4,2,1,25,0,0
54452,-100,4,2,1,35,0,0
54800,-100,4,2,1,40,0,0
59756,-100,4,2,1,5,0,0
60017,260.869565217391,4,2,1,50,1,0
60017,-125,4,2,1,50,0,0
69408,-83.3333333333333,4,2,1,60,0,1
77234,-83.3333333333333,4,2,1,60,0,0
77756,-83.3333333333333,4,2,1,60,0,1
81930,-100,4,2,1,60,0,1
85582,-100,4,2,1,75,0,0
86103,-100,4,2,1,40,0,0
86364,-100,4,2,1,35,0,0
86625,-100,4,2,1,30,0,0
86886,-100,4,2,1,25,0,0
87147,-100,4,2,1,20,0,0
87408,-100,4,2,1,15,0,0
87669,-100,4,2,1,10,0,0
87864,-100,4,2,1,5,0,0

[Colours]
Combo1 : 233,222,12
Combo2 : 112,39,171
Combo3 : 217,163,36
Combo4 : 165,46,49
Combo5 : 125,199,44
Combo6 : 71,188,226

[HitObjects]
256,38,540,5,2,0:0:0:0:
409,192,800,1,2,0:0:0:0:
255,345,1061,1,2,0:0:0:0:
102,191,1322,1,2,0:0:0:0:
409,192,1583,6,0,B|300:264|296:128|186:192,1,240.000009155274,4|0,3:2|0:0,0:0:0:0:
236,328,2366,1,2,0:0:0:0:
345,213,2626,2,0,P|349:149|304:104,1,120.000004577637,2|0,3:2|0:0,0:0:0:0:
176,68,3148,1,2,0:0:0:0:
272,176,3409,1,2,0:0:0:0:
264,16,3670,6,0,L|271:135,1,120.000004577637,4|0,0:0|3:0,0:0:0:0:
216,224,4061,2,0,P|160:224|116:168,1,120.000004577637,0|8,1:0|0:3,0:0:0:0:
152,92,4453,1,0,3:0:0:0:
216,224,4713,2,0,L|209:343,1,120.000004577637,4|2,0:0|0:0,0:0:0:0:
76,276,5235,2,0,P|52:272|21:281,2,40.000001525879,8|8|8,3:0|3:0|3:0,0:0:0:0:
136,236,5496,2,0,P|121:216|93:201,2,40.000001525879,0|0|0,3:0|3:0|3:0,0:0:0:0:
209,268,5757,6,0,L|208:124,1,120.000004577637,2|0,3:2|0:0,0:0:0:0:
48,40,6279,2,0,P|70:98|126:121,1,120.000004577637,2|0,0:0|0:0,0:0:0:0:
256,24,6800,1,2,3:2:0:0:
208,148,7061,1,0,3:0:0:0:
352,32,7322,1,0,3:0:0:0:
284,216,7583,1,0,3:0:0:0:
444,40,7844,6,0,L|504:36,1,60.0000022888184,4|4,0:3|0:3,0:0:0:0:
68,344,8887,2,0,L|8:348,1,60.0000022888184,4|4,0:3|0:3,0:0:0:0:
84,168,9279,2,0,P|45:213|64:272,1,120.000004577637,4|4,0:3|0:3,0:0:0:0:
204,336,9670,2,0,L|144:340,1,60.0000022888184,2|0,0:0|0:0,0:0:0:0:
308,336,9931,6,0,L|368:340,1,60.0000022888184,4|4,0:3|0:3,0:0:0:0:
204,48,10974,1,4,0:3:0:0:
256,116,11105,2,0,L|256:168,2,30.0000011444092,0|0|0,3:0|3:0|3:0,0:0:0:0:
308,48,11366,1,4,0:0:0:0:
172,120,11626,1,0,1:0:0:0:
124,192,11757,1,8,3:0:0:0:
172,264,11887,1,4,3:0:0:0:
256,288,12018,54,0,L|340:284,1,60.0000022888184,2|0,3:2|0:0,0:0:0:0:
408,212,12279,2,0,L|348:214,1,60.0000022888184,0|0,3:0|0:0,0:0:0:0:
256,146,12539,2,0,L|315:143,2,60.0000022888184,0|0|0,3:0|0:0|3:0,0:0:0:0:
192,88,12931,1,0,0:0:0:0:
132,148,13061,1,0,0:0:0:0:
56,112,13192,2,0,L|26:112,2,30.0000011444092,0|0|0,1:0|0:0|3:0,0:0:0:0:
132,148,13453,1,2,0:0:0:0:
208,184,13583,6,0,L|237:183,3,30.0000011444092,0|0|4|4,1:0|1:0|3:0|3:0,0:0:0:0:
228,256,13844,2,0,L|257:255,3,30.0000011444092,8|8|0|0,3:0|3:0|3:0|3:0,0:0:0:0:
256,332,14105,5,0,1:0:0:0:
256,332,14235,2,0,P|310:311|334:257,1,120.000004577637,2|0,0:0|0:0,0:0:0:0:
348,164,14626,1,0,3:0:0:0:
348,164,14757,2,0,P|371:217|426:238,1,120.000004577637,2|0,0:0|0:0,0:0:0:0:
484,168,15148,54,0,L|488:132,3,30.0000011444092,0|0|0|0,3:0|3:0|3:0|3:0,0:0:0:0:
416,128,15409,2,0,L|412:92,3,30.0000011444092,0|0|0|0,3:0|3:0|3:0|3:0,0:0:0:0:
472,52,15670,1,0,1:0:0:0:
348,164,15800,1,0,1:0:0:0:
52,40,16061,6,0,P|131:62|144:152,1,160,4|0,3:2|3:0,0:0:0:0:
132,204,16453,2,0,L|48:200,1,80,0|0,1:0|0:0,0:0:0:0:
88,308,16713,1,0,3:0:0:0:
204,236,16844,2,0,L|288:232,1,80,0|0,3:0|1:0,0:0:0:0:
236,116,17105,1,0,3:0:0:0:
256,356,17366,1,0,3:0:0:0:
360,265,17496,2,0,P|368:227|356:189,1,80,0|0,1:0|0:0,0:0:0:0:
270,134,17757,2,0,P|252:127|236:116,4,40,0|0|0|0|0,3:0|3:0|3:0|3:0|1:0,0:0:0:0:
373,57,18148,6,0,P|427:43|435:141,1,160,2|0,0:0|3:0,0:0:0:0:
356,190,18540,2,0,L|248:184,1,80,0|0,1:0|0:0,0:0:0:0:
196,108,18800,1,0,3:0:0:0:
104,172,18931,2,0,P|56:148|44:108,1,80,0|0,3:0|0:0,0:0:0:0:
108,12,19192,2,0,L|104:172,1,160,2|0,0:0|3:0,0:0:0:0:
12,236,19583,1,0,1:0:0:0:
196,108,19844,1,0,1:0:0:0:
104,172,19974,1,0,3:2:0:0:
12,236,20105,1,0,1:0:0:0:
148,284,20235,54,0,B|204:296|204:296|320:280,1,160,4|0,3:2|3:0,0:0:0:0:
396,212,20627,2,0,P|407:174|392:128,1,80,0|0,1:0|3:0,0:0:0:0:
345,37,20887,1,0,3:0:0:0:
290,135,21018,2,0,P|281:174|291:211,1,80,0|0,3:0|1:0,0:0:0:0:
344,312,21279,1,0,3:0:0:0:
416,64,21540,1,0,3:0:0:0:
308,36,21670,2,0,L|208:40,1,80,0|0,1:0|0:0,0:0:0:0:
116,32,21931,2,0,P|92:21|68:-3,2,40,0|0|0,3:0|3:0|3:0,0:0:0:0:
172,128,22192,1,0,1:0:0:0:
88,200,22322,6,0,B|56:228|56:228|132:208|192:232,1,160,2|0,0:0|3:0,0:0:0:0:
180,232,22648,1,0,3:0:0:0:
180,232,22714,2,0,L|184:328,1,80,0|0,1:0|0:0,0:0:0:0:
276,376,22974,1,0,0:0:0:0:
272,264,23105,2,0,L|268:184,1,80,0|0,3:0|1:0,0:0:0:0:
292,76,23366,2,0,P|324:132|416:136,1,160,0|0,0:0|1:0,0:0:0:0:
496,64,23757,2,0,L|492:152,1,80,0|0,1:0|3:0,0:0:0:0:
472,256,24018,2,0,L|473:295,2,40,0|0|0,1:0|1:0|3:0,0:0:0:0:
413,138,24279,1,0,1:0:0:0:
348,284,24409,5,4,3:2:0:0:
348,284,24800,1,0,3:0:0:0:
96,360,25061,2,0,P|135:360|173:346,1,80,0|0,3:0|0:0,0:0:0:0:
236,272,25322,1,0,3:0:0:0:
232,113,25453,2,0,P|224:192|236:272,1,160,4|0,1:2|3:0,0:0:0:0:
312,356,25844,1,0,1:0:0:0:
152,224,26105,2,0,P|116:212|68:224,1,80,0|0,1:0|0:0,0:0:0:0:
12,168,26366,2,0,L|20:320,1,120,0|0,1:0|0:0,0:0:0:0:
24,360,26626,53,2,3:2:0:0:
80,144,26887,2,0,L|75:64,1,80,0|0,3:0|0:0,0:0:0:0:
176,96,27148,2,0,P|256:124|344:88,1,160,0|0,3:0|3:0,0:0:0:0:
408,40,27539,1,0,0:0:0:0:
412,144,27670,2,0,L|416:224,1,80,0|0,3:0|0:0,0:0:0:0:
416,328,27931,1,0,3:0:0:0:
336,264,28061,2,0,P|256:236|168:272,1,160,0|0,0:0|1:0,0:0:0:0:
260,340,28453,2,0,L|344:336,1,80,0|0,3:0|1:0,0:0:0:0:
264,200,28713,5,4,3:2:0:0:
104,356,28974,2,0,P|136:284|108:188,1,160,0|0,3:0|3:0,0:0:0:0:
56,112,29366,2,0,L|56:20,1,80,0|0,0:0|3:0,0:0:0:0:
8,172,29626,2,0,L|8:332,1,160,2|0,0:0|0:0,0:0:0:0:
92,256,30018,2,0,B|168:232|168:232|244:256,1,160,2|0,3:2|3:0,0:0:0:0:
368,296,30409,1,0,1:0:0:0:
272,380,30539,1,0,3:0:0:0:
244,256,30670,1,0,1:0:0:0:
380,300,30800,5,4,3:2:0:0:
164,368,31061,2,0,L|84:360,1,80,0|0,3:0|0:0,0:0:0:0:
23,267,31322,2,0,P|16:229|22:189,2,80,0|0|0,3:0|0:0|3:0,0:0:0:0:
128,224,31713,1,0,0:0:0:0:
232,268,31844,2,0,P|239:229|233:189,1,80,0|0,3:0|1:0,0:0:0:0:
164,104,32105,1,0,3:0:0:0:
288,120,32236,2,0,B|415:114|415:114|396:144,1,160,0|0,0:0|0:0,0:0:0:0:
356,244,32626,2,0,P|361:283|384:315,1,80,0|0,3:0|0:0,0:0:0:0:
504,208,32887,53,0,3:0:0:0:
500,204,33409,5,0,3:0:0:0:
398,141,33800,5,0,0:0:0:0:
356,244,33931,2,0,P|328:272|272:280,1,80,0|0,1:0|3:0,0:0:0:0:
236,292,34126,1,0,3:0:0:0:
236,292,34192,2,0,P|196:292|151:258,1,80,0|0,1:0|3:0,0:0:0:0:
128,164,34453,1,0,1:0:0:0:
80,320,34583,1,0,1:0:0:0:
128,164,34844,54,0,L|296:172,1,160,4|0,3:2|3:0,0:0:0:0:
360,96,35235,2,0,P|388:68|440:60,1,80,0|0,1:0|0:0,0:0:0:0:
496,136,35496,2,0,P|479:171|446:194,2,80,0|0|0,3:0|3:0|1:0,0:0:0:0:
368,176,35887,6,0,L|376:356,1,160,0|0,3:0|3:0,0:0:0:0:
280,292,36279,2,0,L|276:212,1,80,0|0,1:0|0:0,0:0:0:0:
276,108,36539,1,0,0:0:0:0:
187,161,36670,2,0,P|153:181|114:182,1,80,0|0,3:0|1:0,0:0:0:0:
20,81,36931,6,0,P|93:109|110:197,1,160,4|0,3:2|3:0,0:0:0:0:
86,283,37322,2,0,L|2:279,1,80,0|0,1:0|0:0,0:0:0:0:
57,370,37583,2,0,L|137:374,2,80,0|0|0,3:0|3:0|1:0,0:0:0:0:
170,300,37974,2,0,L|338:308,1,160,0|0,3:0|3:0,0:0:0:0:
441,329,38366,2,0,P|403:340|382:373,1,80,0|0,1:0|0:0,0:0:0:0:
394,263,38626,2,0,L|395:205,2,40,0|0|0,1:0|1:0|3:0,0:0:0:0:
496,248,38887,1,0,1:0:0:0:
396,152,39018,54,0,P|332:120|232:156,1,160,4|0,3:2|3:0,0:0:0:0:
160,196,39409,2,0,L|80:192,1,80,0|0,1:0|0:0,0:0:0:0:
120,280,39670,2,0,P|105:309|57:341,2,80,0|0|0,3:0|3:0|1:0,0:0:0:0:
80,192,40061,2,0,P|68:132|160:64,1,160,0|0,3:0|3:0,0:0:0:0:
232,100,40453,1,0,1:0:0:0:
332,132,40583,2,0,L|332:48,1,80,0|0,0:0|0:0,0:0:0:0:
412,120,40844,1,0,3:0:0:0:
412,120,40974,2,0,L|412:36,1,80,0|0,1:0|0:0,0:0:0:0:
496,160,41235,6,0,P|456:203|355:195,1,160,0|0,1:0|3:0,0:0:0:0:
296,160,41561,1,0,3:0:0:0:
296,160,41626,2,0,P|219:148|160:199,1,160,0|0,1:0|3:0,0:0:0:0:
192,312,42018,2,0,P|269:324|328:273,1,160,0|0,1:0|3:0,0:0:0:0:
296,160,42409,1,0,1:0:0:0:
392,236,42539,6,0,L|388:316,1,80,0|0,0:0|3:0,0:0:0:0:
464,292,42800,2,0,L|468:212,1,80,0|0,1:0|3:0,0:0:0:0:
392,236,43061,2,0,L|388:316,1,80,0|0,1:0|0:0,0:0:0:0:
468,212,43322,54,0,P|432:144|348:124,1,160,0|0,1:0|3:0,0:0:0:0:
284,156,43648,1,0,3:0:0:0:
284,156,43713,2,0,P|208:135|172:66,1,160,0|0,1:0|3:0,0:0:0:0:
267,14,44105,2,0,P|306:81|284:156,1,160,0|0,1:0|3:0,0:0:0:0:
224,240,44496,1,0,1:0:0:0:
128,284,44626,2,0,L|24:280,1,80,0|0,0:0|3:0,0:0:0:0:
96,144,44887,1,0,1:0:0:0:
256,368,45148,1,0,3:0:0:0:
344,60,45409,5,4,1:2:0:0:
352,68,45931,1,4,1:2:0:0:
360,76,46453,22,0,L|440:68,2,53.3333333333333,2|2|0,0:0|0:0|1:0,0:0:0:0:
292,136,46974,2,0,L|212:128,2,53.3333333333333,0|0|0,1:0|1:0|1:0,0:0:0:0:
376,204,47496,6,0,P|396:276|308:332,1,160,4|0,0:0|1:0,0:0:0:0:
140,332,48365,1,0,0:0:0:0:
140,332,48539,2,0,P|192:278|284:326,1,160,2|0,0:0|1:0,0:0:0:0:
341,331,49235,2,0,L|343:277,1,53.3333333333333,2|0,0:0|0:0,0:0:0:0:
337,171,49582,6,0,L|343:277,1,106.666666666667,2|0,0:0|0:0,0:0:0:0:
412,188,50104,2,0,L|418:294,1,106.666666666667,0|0,1:0|0:0,0:0:0:0:
488,204,50626,2,0,L|498:363,1,160,2|0,0:0|1:0,0:0:0:0:
348,281,51496,1,0,3:0:0:0:
348,281,51669,54,0,P|299:272|225:311,1,106.666666666667,4|0,0:0|0:0,0:0:0:0:
188,352,52191,1,0,1:0:0:0:
232,176,52539,1,0,3:0:0:0:
232,176,52713,2,0,P|192:204|167:284,1,106.666666666667,2|0,0:0|0:0,0:0:0:0:
169,339,53234,1,0,1:0:0:0:
168,96,53582,1,0,0:0:0:0:
96,152,53756,6,0,P|69:150|46:138,2,53.3333333333333,0|0|0,1:0|1:0|1:0,0:0:0:0:
160,212,54278,2,0,P|140:229|115:237,2,53.3333333333333,0|0|0,1:0|1:0|1:0,0:0:0:0:
240,244,54800,2,0,L|244:356,1,106.666666666667,0|0,3:0|3:0,0:0:0:0:
352,288,55322,1,0,1:0:0:0:
168,96,55843,6,0,P|215:157|293:166,1,160,4|0,0:0|1:0,0:0:0:0:
484,60,56713,1,2,0:0:0:0:
484,60,56887,2,0,P|406:70|360:133,1,160,2|0,0:0|1:0,0:0:0:0:
464,296,57930,54,0,P|440:268|368:256,1,106.666666666667,2|0,0:0|0:0,0:0:0:0:
332,328,58452,2,0,P|356:356|428:368,1,106.666666666667,0|0,1:0|0:0,0:0:0:0:
296,260,58973,2,0,B|104:276|104:276|132:236|128:156,1,266.666666666667,6|0,0:0|0:0,0:0:0:0:
80,40,60017,38,0,P|99:64|106:95,1,64,4|4,0:3|0:3,0:0:0:0:
106,95,61060,2,0,P|99:64|80:40,1,64,4|4,0:3|0:3,0:0:0:0:
260,164,61452,2,0,L|388:160,1,128,4|4,0:3|0:3,0:0:0:0:
360,240,61843,1,0,3:0:0:0:
316,88,61973,1,0,3:0:0:0:
272,240,62103,6,0,L|208:241,1,64,4|4,0:3|0:3,0:0:0:0:
208,241,63147,2,0,L|272:240,1,64,4|4,0:3|0:3,0:0:0:0:
104,244,63539,1,0,1:0:0:0:
240,312,63799,2,0,P|248:344|240:384,2,64,0|0|0,3:0|1:0|0:0,0:0:0:0:
156,348,64190,5,2,3:2:0:0:
368,256,64451,1,0,3:0:0:0:
184,120,64712,1,0,3:0:0:0:
156,348,64973,1,0,3:0:0:0:
300,152,65234,2,0,L|296:88,2,64,0|0|0,3:0|0:0|3:0,0:0:0:0:
256,224,65626,53,0,0:0:0:0:
192,172,65756,2,0,L|124:168,1,64,0|0,3:0|3:0,0:0:0:0:
100,200,65951,1,0,3:0:0:0:
100,200,66017,2,0,L|32:196,1,64,0|0,1:0|0:0,0:0:0:0:
44,56,66277,6,0,P|71:71|83:100,1,64,4|0,1:2|0:0,0:0:0:0:
80,108,66799,1,4,1:2:0:0:
76,116,67321,6,0,L|148:112,1,64,0|0,1:0|3:0,0:0:0:0:
328,160,67582,2,0,L|256:156,1,64,0|0,1:0|0:0,0:0:0:0:
68,104,67843,2,0,L|140:100,1,64,0|0,1:0|3:0,0:0:0:0:
336,172,68103,1,0,1:0:0:0:
172,276,68364,54,0,L|168:324,4,32,0|0|0|0|0,3:0|3:0|3:0|3:0|1:0,0:0:0:0:
452,188,68886,2,0,P|435:206|390:214,1,64,2|2,0:0|0:0,0:0:0:0:
285,138,69147,2,0,P|315:147|336:172,1,64,2|2,0:0|0:0,0:0:0:0:
324,344,69408,6,0,L|332:224,1,95.9999970703126,4|0,1:2|3:0,0:0:0:0:
292,43,69669,2,0,L|285:138,1,95.9999970703126,0|0,1:0|0:0,0:0:0:0:
320,348,69930,1,0,1:0:0:0:
136,248,70190,1,0,1:0:0:0:
285,139,70451,2,0,P|328:120|381:131,1,95.9999970703126,0|0,1:0|3:0,0:0:0:0:
192,188,70712,2,0,P|146:167|101:175,1,95.9999970703126,0|0,1:0|0:0,0:0:0:0:
277,330,70973,2,0,L|285:139,1,191.999994140625,0|0,1:0|1:0,0:0:0:0:
184,60,71364,1,0,3:0:0:0:
192,188,71495,5,0,1:0:0:0:
300,120,71625,2,0,L|347:117,2,47.9999985351563,0|0|0,3:0|3:0|1:0,0:0:0:0:
144,124,71886,1,0,0:0:0:0:
256,16,72016,1,0,1:0:0:0:
460,272,72277,2,0,L|356:260,1,95.9999970703126,0|0,1:0|3:0,0:0:0:0:
192,304,72538,2,0,L|296:292,1,95.9999970703126,0|0,1:0|3:0,0:0:0:0:
468,264,72799,2,0,L|364:252,1,95.9999970703126,0|0,1:0|3:0,0:0:0:0:
200,296,73060,2,0,L|304:284,1,95.9999970703126,0|0,1:0|3:0,0:0:0:0:
476,256,73321,1,0,1:0:0:0:
184,312,73582,53,0,1:0:0:0:
220,204,73712,2,0,L|216:156,2,47.9999985351563,0|0|0,3:0|3:0|1:0,0:0:0:0:
299,288,73973,1,0,0:0:0:0:
299,288,74103,2,0,P|361:278|403:156,1,191.999994140625,0|0,1:0|1:0,0:0:0:0:
232,32,74625,2,0,P|253:65|312:93,1,95.9999970703126,0|0,1:0|3:0,0:0:0:0:
464,32,74886,2,0,P|442:65|383:93,1,95.9999970703126,0|0,1:0|0:0,0:0:0:0:
228,36,75147,2,0,P|249:69|308:97,1,95.9999970703126,0|0,1:0|3:0,0:0:0:0:
468,36,75408,1,0,1:0:0:0:
216,256,75669,6,0,P|172:275|126:267,1,95.9999970703126,0|0,1:0|3:0,0:0:0:0:
126,116,75930,2,0,P|172:108|216:128,1,95.9999970703126,0|0,1:0|0:0,0:0:0:0:
305,287,76190,1,0,1:0:0:0:
305,287,76321,2,0,L|297:67,1,191.999994140625,0|0,3:0|3:0,0:0:0:0:
164,188,76712,2,0,L|170:379,1,191.999994140625,0|0,1:0|1:0,0:0:0:0:
396,184,77234,1,2,0:0:0:0:
298,95,77364,1,2,3:2:0:0:
270,225,77495,1,2,1:2:0:0:
396,184,77625,1,2,0:0:0:0:
240,56,77756,6,0,L|132:64,1,95.9999970703126,4|0,1:2|3:0,0:0:0:0:
332,92,78016,2,0,L|440:84,1,95.9999970703126,0|0,1:0|0:0,0:0:0:0:
244,52,78278,1,0,1:0:0:0:
304,304,78538,1,0,1:0:0:0:
92,256,78799,2,0,P|126:223|172:216,1,95.9999970703126,0|0,1:0|3:0,0:0:0:0:
236,328,79060,2,0,P|201:360|155:367,1,95.9999970703126,0|0,1:0|0:0,0:0:0:0:
20,244,79321,2,0,B|24:32,1,191.999994140625,0|0,1:0|1:0,0:0:0:0:
132,132,79712,1,0,3:0:0:0:
220,28,79843,53,0,1:0:0:0:
324,76,79973,2,0,L|371:73,2,47.9999985351563,0|0|0,3:0|3:0|1:0,0:0:0:0:
376,180,80234,1,0,0:0:0:0:
452,68,80364,1,0,1:0:0:0:
296,280,80625,2,0,L|304:392,1,95.9999970703126,0|0,1:0|3:0,0:0:0:0:
216,204,80886,2,0,L|208:316,1,95.9999970703126,0|0,1:0|3:0,0:0:0:0:
296,104,81147,2,0,L|304:216,1,95.9999970703126,0|0,1:0|3:0,0:0:0:0:
216,28,81408,2,0,L|208:140,1,95.9999970703126,0|0,1:0|3:0,0:0:0:0:
300,24,81669,1,0,1:0:0:0:
80,140,81930,6,0,P|134:247|29:189,1,320,4|2,3:2|0:0,0:0:0:0:
216,28,82712,1,0,0:0:0:0:
380,192,82973,2,0,B|416:208|416:208|472:200,1,80,2|0,3:2|0:0,0:0:0:0:
312,160,83234,2,0,B|276:144|276:144|220:152,1,80,2|0,0:0|0:0,0:0:0:0:
364,267,83495,2,0,P|382:232|380:192,1,80,2|0,0:0|0:0,0:0:0:0:
329,86,83756,2,0,P|309:145|321:177,1,80,2|0,0:0|3:0,0:0:0:0:
272,240,84016,6,0,B|201:251|157:211|157:211|113:263|53:253,2,240,0|0|0,1:0|1:0|1:0,0:0:0:0:
138,53,85060,2,0,L|158:221,1,160,0|0,1:0|0:0,0:0:0:0:
184,344,85451,1,0,3:0:0:0:
184,344,85516,1,0,3:0:0:0:
184,344,85582,5,4,1:2:0:0:
256,192,85647,12,0,87930,0:0:0:0:
