osu file format v14

[General]
AudioFilename: audio.mp3
AudioLeadIn: 0
PreviewTime: 68886
Countdown: 0
SampleSet: Soft
StackLeniency: 0.7
Mode: 2
LetterboxInBreaks: 0
WidescreenStoryboard: 1

[Editor]
Bookmarks: 16844,17105,17887,18148,18931,19192
DistanceSpacing: 0.8
BeatDivisor: 6
GridSize: 8
TimelineZoom: 2.1

[Metadata]
Title:Anoko ni Drop Kick (TV Size)
TitleUnicode:あの娘にドロップキック (TV Size)
Artist:Jashin*Girls
ArtistUnicode:邪神★ガールズ
Creator:[_-Kukkai-_]
Version:wonjae's Rain
Source:邪神ちゃんドロップキック
Tags:wonjae Paranoid Grapes rew0825 NyalettOwO x3 Dropkick daletto On My Devil!! Jyashin-chan False God Aina Suzuki Nichika Oomori Miyu Kubota Yurie Kozakai Chiaki Omigawa Rico Sasaki Riho Iida snake anime japanese
BeatmapID:3026560
BeatmapSetID:1466437

[Difficulty]
HPDrainRate:5
CircleSize:3.8
OverallDifficulty:9
ApproachRate:9
SliderMultiplier:1.7
SliderTickRate:1

[Events]
//Background and Video events
0,0,"BG.jpg",0,0
//Break Periods
//Storyboard Layer 0 (Background)
//Storyboard Layer 1 (Fail)
//Storyboard Layer 2 (Pass)
//Storyboard Layer 3 (Foreground)
//Storyboard Layer 4 (Overlay)
//Storyboard Sound Samples

[TimingPoints]
620,260.869565217391,4,2,1,70,1,0
7924,-90.9090909090909,4,2,1,70,0,0
16141,-90.9090909090909,4,3,1,70,0,0
26706,-100,4,2,1,60,0,0
34924,-100,4,3,1,65,0,0
46533,521.739130434783,4,2,2,60,1,0
46533,-100,4,2,2,60,0,0
47054,-100,4,2,2,60,0,0
47576,521.739130434783,4,2,2,60,1,0
47576,-100,4,2,2,60,0,0
49662,-55.5555555555556,4,2,2,60,0,0
59184,-55.5555555555556,4,2,2,20,0,0
60097,260.869565217391,4,2,1,70,1,0
60097,-100,4,2,1,70,0,0
69488,-90.9090909090909,4,3,1,85,0,1
77314,-90.9090909090909,4,2,1,85,0,0
77836,-90.9090909090909,4,3,1,85,0,1
82010,-90.9090909090909,4,2,1,85,0,0
82466,-100,4,2,1,5,0,0
82531,-100,4,2,1,85,0,0
82988,-100,4,2,1,5,0,0
83053,-100,4,2,1,85,0,0
85923,-100,4,2,1,5,0,0

[Colours]
Combo1 : 168,131,188
Combo2 : 143,245,114
Combo3 : 99,166,194
Combo4 : 235,213,109

[HitObjects]
363,323,620,6,0,P|405:260|346:177,1,170,2|2,0:0|0:0,0:0:0:0:
264,150,1141,2,0,L|456:142,1,170,2|2,0:0|0:0,0:0:0:0:
109,213,1663,6,0,P|57:203|114:151,1,170,4|0,3:2|0:0,0:0:0:0:
236,87,2185,2,0,L|78:-12,1,170,0|2,0:0|0:0,0:0:0:0:
417,93,2706,6,0,P|425:139|321:191,1,170,4|2,3:2|0:0,0:0:0:0:
202,206,3228,2,0,P|149:249|224:304,1,170,2|2,0:0|0:0,0:0:0:0:
272,310,3619,1,0,0:0:0:0:
70,281,3750,6,0,P|19:246|84:183,1,170,6|0,3:2|3:2,0:0:0:0:
228,168,4141,2,0,P|274:119|209:64,1,170,8|0,3:2|3:2,0:0:0:0:
130,108,4533,2,0,L|129:-7,1,85,2|0,3:2|0:0,0:0:0:0:
333,121,4793,6,0,L|532:117,1,170,6|2,3:2|0:2,0:0:0:0:
400,147,5185,1,0,0:2:0:0:
294,188,5315,2,0,P|294:256|406:273,1,170,10|2,0:2|3:2,0:0:0:0:
423,296,5663,1,0,3:2:0:0:
372,294,5750,1,0,3:2:0:0:
178,306,5837,6,0,L|8:309,1,170,6|0,3:2|0:0,0:0:0:0:
255,226,6359,2,0,P|365:205|385:125,1,170,2|0,0:2|0:0,0:0:0:0:
315,134,6750,1,0,0:0:0:0:
85,201,6880,6,0,P|30:167|98:119,1,170,6|0,3:2|3:2,0:0:0:0:
325,84,7402,2,0,L|135:92,1,170,0|2,3:2|3:2,0:0:0:0:
155,91,7793,1,0,0:0:0:0:
356,200,7924,6,0,L|445:244,2,93.5000028533936,6|0|2,3:2|3:2|0:2,0:0:0:0:
274,202,8315,1,0,0:2:0:0:
361,219,8446,2,0,L|370:329,1,93.5000028533936,2|2,0:2|0:2,0:0:0:0:
282,201,8706,2,0,L|272:92,1,93.5000028533936,0|0,0:2|0:2,0:0:0:0:
129,97,8967,6,0,L|13:101,2,93.5000028533936,2|0|0,3:2|3:2|0:2,0:0:0:0:
273,107,9359,2,0,P|333:177|264:239,1,187.000005706787,2|0,3:2|3:2,0:0:0:0:
195,250,9750,2,0,L|288:245,1,93.5000028533936,2|2,0:2|0:2,0:0:0:0:
504,277,10011,6,0,L|433:358,2,93.5000028533936,2|0|2,3:2|3:2|0:2,0:0:0:0:
258,235,10533,2,0,L|138:295,2,93.5000028533936,2|2|0,0:2|0:2|0:2,0:0:0:0:
338,232,10924,1,0,0:2:0:0:
116,152,11054,6,0,L|29:220,2,93.5000028533936,2|2|2,3:2|3:2|3:2,0:0:0:0:
344,147,11446,2,0,P|432:177|442:290,1,187.000005706787,6|2,3:2|3:2,0:0:0:0:
396,323,11837,2,0,L|284:333,1,93.5000028533936,2|2,3:2|3:2,0:0:0:0:
48,341,12098,6,0,L|36:224,1,93.5000028533936,6|0,3:2|0:2,0:0:0:0:
101,194,12359,2,0,L|184:117,1,93.5000028533936,2|0,3:2|0:2,0:0:0:0:
318,99,12619,2,0,L|441:107,2,93.5000028533936,2|2|0,3:2|0:2|3:2,0:0:0:0:
76,186,13141,6,0,L|146:267,2,93.5000028533936,2|8|2,3:2|0:2|3:2,0:0:0:0:
223,194,13533,2,0,P|220:293|145:315,1,187.000005706787,2|0,0:2|3:2,0:0:0:0:
77,330,13924,2,0,L|161:280,1,93.5000028533936,2|2,3:2|3:2,0:0:0:0:
410,301,14185,6,0,L|499:201,2,93.5000028533936,6|2|0,3:2|0:2|3:2,0:0:0:0:
326,301,14576,1,0,0:2:0:0:
92,197,14706,2,0,L|20:114,2,93.5000028533936,2|2|0,3:2|0:2|3:2,0:0:0:0:
175,195,15097,1,0,0:2:0:0:
390,213,15228,6,0,P|454:163|385:118,1,187.000005706787,2|2,3:2|3:2,0:0:0:0:
131,226,15619,1,2,3:2:0:0:
56,146,15750,2,0,L|150:145,1,93.5000028533936,8|8,3:2|3:2,0:0:0:0:
494,144,16141,6,0,P|481:222|376:258,1,187.000005706787,4|2,0:2|0:2,0:0:0:0:
262,251,16533,1,10,0:2:0:0:
172,249,16663,2,0,L|76:191,1,93.5000028533936,2|2,0:2|0:2,0:0:0:0:
91,200,16924,2,0,L|183:254,1,93.5000028533936,2|10,0:2|0:2,0:0:0:0:
409,142,17185,6,0,L|409:264,1,93.5000028533936,2|0,0:2|0:0,0:0:0:0:
267,212,17446,2,0,L|139:263,2,93.5000028533936,2|10|2,0:2|0:2|0:2,0:0:0:0:
387,209,17837,2,0,L|503:213,1,93.5000028533936,2|2,0:2|0:2,0:0:0:0:
480,212,18098,1,10,0:2:0:0:
234,142,18228,6,0,B|80:161|80:161|56:203,1,187.000005706787,6|2,0:2|0:2,0:0:0:0:
198,230,18619,2,0,L|196:329,1,93.5000028533936,10|2,0:2|0:2,0:0:0:0:
124,322,18880,2,0,L|46:262,2,93.5000028533936,2|2|10,0:2|0:2|0:2,0:0:0:0:
351,342,19272,6,0,P|448:312|457:228,1,187.000005706787,6|2,0:2|0:2,0:0:0:0:
227,176,19663,2,0,L|103:175,1,93.5000028533936,10|0,0:2|0:2,0:0:0:0:
213,178,19924,2,0,L|216:285,1,93.5000028533936,10|10,0:2|0:2,0:0:0:0:
139,296,20185,1,10,0:2:0:0:
351,324,20315,6,0,P|445:307|471:215,1,187.000005706787,6|2,0:2|0:2,0:0:0:0:
428,172,20706,2,0,L|351:84,1,93.5000028533936,10|2,0:2|0:2,0:0:0:0:
233,152,20967,2,0,L|117:162,2,93.5000028533936,2|2|10,0:2|0:2|0:2,0:0:0:0:
464,243,21359,6,0,L|463:353,1,93.5000028533936,2|0,0:2|0:0,0:0:0:0:
323,298,21619,2,0,L|246:218,2,93.5000028533936,2|10|2,0:2|0:2|0:2,0:0:0:0:
388,326,22011,2,0,L|472:283,2,93.5000028533936,2|2|10,0:2|0:2|0:2,0:0:0:0:
145,299,22402,6,0,P|90:217|174:183,1,187.000005706787,6|2,0:2|0:2,0:0:0:0:
176,174,22728,1,2,0:2:0:0:
220,178,22793,2,0,L|220:71,1,93.5000028533936,10|0,0:2|0:2,0:0:0:0:
88,61,23054,2,0,L|184:142,2,93.5000028533936,2|2|8,0:2|0:2|0:2,0:0:0:0:
231,79,23446,6,0,L|398:229,1,187.000005706787,2|10,0:2|0:2,0:0:0:0:
438,214,23837,2,0,L|438:321,1,93.5000028533936,10|10,0:2|0:2,0:0:0:0:
291,230,24098,2,0,L|228:299,2,93.5000028533936,10|10|10,0:2|0:2|0:2,0:0:0:0:
82,317,24489,5,6,0:2:0:0:
201,262,24880,2,0,P|240:223|175:120,1,187.000005706787,0|0,0:2|0:2,0:0:0:0:
61,115,25402,1,8,0:2:0:0:
276,302,25533,6,0,P|405:290|442:244,1,187.000005706787,6|2,0:2|0:2,0:0:0:0:
362,240,25924,2,0,L|351:118,1,93.5000028533936,10|0,0:2|0:2,0:0:0:0:
493,97,26185,2,0,L|408:28,2,93.5000028533936,10|2|10,0:2|0:2|0:2,0:0:0:0:
121,202,26706,5,4,3:2:0:0:
29,279,26967,2,0,L|126:291,1,85,2|0,3:2|0:2,0:0:0:0:
179,292,27228,2,0,L|77:302,1,85,2|0,3:2|0:0,0:0:0:0:
29,279,27489,2,0,L|127:288,1,85,0|2,3:0|0:2,0:0:0:0:
250,326,27750,6,0,L|338:320,2,85,2|2|0,3:2|0:2|3:2,0:0:0:0:
113,286,28141,2,0,P|46:247|116:217,1,170,2|10,0:2|0:2,0:0:0:0:
172,204,28533,2,0,L|257:201,1,85,2|10,3:2|0:2,0:0:0:0:
449,144,28793,6,0,L|332:119,1,85,6|0,3:2|0:2,0:0:0:0:
306,142,29054,2,0,L|423:117,1,85,2|0,3:2|0:2,0:0:0:0:
235,117,29315,2,0,L|118:92,2,85,2|2|0,3:2|0:2|3:2,0:0:0:0:
370,138,29706,6,0,P|447:187|441:275,1,170,2|0,0:2|0:2,0:0:0:0:
235,319,30098,2,0,L|40:314,1,170,2|2,3:2|3:2,0:0:0:0:
202,210,30489,2,0,L|291:200,2,85,10|0|10,0:2|3:2|0:2,0:0:0:0:
422,97,30880,6,0,P|429:177|328:212,1,170,4|2,3:2|3:2,0:0:0:0:
277,226,31272,1,2,0:2:0:0:
142,294,31402,2,0,L|267:305,1,85,2|2,3:2|0:2,0:0:0:0:
154,306,31663,2,0,L|64:314,1,85,0|2,3:2|0:2,0:0:0:0:
285,141,31924,6,0,L|288:57,1,85,6|2,3:2|3:2,3:0:0:0:
152,143,32185,2,0,L|146:27,1,85,0|2,3:2|3:2,3:0:0:0:
283,144,32446,1,0,3:2:0:0:
323,161,32511,1,0,3:0:0:0:
336,201,32576,1,2,3:2:0:0:
333,242,32641,1,0,3:0:0:0:
290,270,32706,1,2,3:2:0:0:
257,161,32772,1,0,3:0:0:0:
244,201,32837,1,2,3:2:0:0:
247,242,32902,1,0,3:0:0:0:
463,139,32967,5,10,3:2:0:0:
163,231,33489,1,8,3:2:0:0:
466,123,34011,2,0,L|367:128,1,85,8|0,3:2|0:2,0:0:0:0:
249,203,34272,2,0,L|361:208,1,85,8|0,3:2|0:2,0:0:0:0:
460,257,34533,2,0,L|461:364,1,85,8|8,3:2|3:2,0:0:0:0:
103,260,34924,6,0,P|45:221|118:184,1,170,4|0,3:2|0:2,0:0:0:0:
222,167,35315,2,0,L|321:165,1,85,10|0,0:2|0:2,0:0:0:0:
174,64,35576,2,0,L|80:64,2,85,2|0|10,0:2|0:2|0:2,0:0:0:0:
314,83,35967,6,0,P|289:187|218:191,1,170,2|2,0:2|0:2,0:0:0:0:
167,247,36359,2,0,L|272:251,1,85,10|0,0:2|0:2,0:0:0:0:
391,310,36619,2,0,L|499:312,2,85,2|2|8,0:2|0:2|0:2,0:0:0:0:
132,208,37011,6,0,P|136:148|248:114,1,170,4|0,0:2|0:2,0:0:0:0:
361,52,37402,2,0,L|367:175,1,85,10|0,0:2|0:2,0:0:0:0:
225,199,37663,2,0,L|139:245,2,85,2|0|8,0:2|0:2|0:2,0:0:0:0:
483,163,38054,6,0,P|479:259|394:288,1,170,6|0,0:2|0:2,0:0:0:0:
294,315,38446,2,0,L|194:327,1,85,10|0,0:2|0:2,0:0:0:0:
312,205,38706,2,0,L|358:199,2,42.5,2|0|2,0:2|0:2|0:2,0:0:0:0:
236,210,38967,1,8,0:2:0:0:
33,162,39098,6,0,L|192:43,1,170,4|0,0:2|0:2,0:0:0:0:
297,75,39489,2,0,L|299:186,1,85,10|0,0:2|0:2,0:0:0:0:
164,188,39750,2,0,L|63:203,2,85,2|2|8,0:2|0:2|0:2,0:0:0:0:
298,159,40141,6,0,P|369:212|300:246,1,170,2|2,0:2|0:2,0:0:0:0:
199,292,40533,2,0,L|195:197,1,85,10|0,0:2|0:2,0:0:0:0:
320,195,40793,2,0,L|331:92,1,85,2|2,0:2|0:2,0:0:0:0:
194,102,41054,2,0,L|191:0,1,85,8|0,0:2|0:2,0:0:0:0:
447,109,41315,6,0,P|492:198|432:229,1,170,14|0,0:2|0:2,0:0:0:0:
319,294,41706,2,0,L|134:291,1,170,10|0,0:2|0:2,0:0:0:0:
270,199,42098,2,0,L|390:203,1,85,10|0,0:2|0:0,0:0:0:0:
232,116,42359,6,0,L|225:59,2,42.5,0|0|8,0:2|0:0|0:2,0:0:0:0:
355,168,42619,2,0,L|361:221,2,42.5,10|0|0,0:2|0:0|0:2,0:0:0:0:
156,155,42880,2,0,L|52:162,1,85,10|0,0:2|0:2,0:0:0:0:
343,250,43141,2,0,L|442:262,1,85,10|0,0:2|0:2,0:0:0:0:
162,303,43402,6,0,P|76:286|69:195,1,170,14|0,0:2|0:2,0:0:0:0:
190,161,43793,2,0,L|399:151,1,170,10|0,0:2|0:2,0:0:0:0:
155,73,44185,2,0,P|65:109|60:191,1,170,10|0,0:2|0:2,0:0:0:0:
181,108,44576,6,0,L|206:142,2,42.5,8|0|10,0:2|0:0|0:2,0:0:0:0:
115,76,44837,1,0,0:2:0:0:
363,151,44967,2,0,L|482:158,1,85,10|0,0:2|0:2,0:0:0:0:
178,247,45228,2,0,L|57:256,1,85,10|0,0:2|0:2,0:0:0:0:
351,304,45489,5,10,0:2:0:0:
93,253,46011,1,8,0:2:0:0:
361,148,46533,5,6,1:2:0:0:
452,146,46706,1,0,1:0:0:0:
361,148,46880,1,0,1:0:0:0:
204,157,47054,1,2,0:2:0:0:
248,116,47228,1,8,0:1:0:0:
356,108,47402,1,8,0:1:0:0:
87,159,47576,6,0,L|86:317,1,113.333333333333,6|0,1:2|0:2,0:0:0:0:
231,314,48097,1,8,0:1:0:0:
231,314,48271,1,0,0:0:0:0:
128,319,48445,1,0,0:2:0:0:
369,288,48619,5,2,1:2:0:0:
471,240,48793,1,0,0:0:0:0:
492,157,48967,1,0,0:2:0:0:
478,77,49141,1,8,0:1:0:0:
418,21,49315,1,0,0:0:0:0:
337,16,49489,1,0,0:2:0:0:
66,241,49662,6,0,P|76:150|179:126,1,203.999993774414,2|0,1:2|0:2,0:0:0:0:
334,78,50184,2,0,L|79:169,1,203.999993774414,8|0,0:1|0:2,0:0:0:0:
306,264,50706,6,0,P|435:223|440:101,1,203.999993774414,2|0,1:2|0:2,0:0:0:0:
298,87,51228,1,8,0:1:0:0:
296,86,51402,1,0,0:0:0:0:
382,57,51576,1,0,0:2:0:0:
114,139,51749,6,0,P|48:212|129:260,1,203.999993774414,6|0,1:2|0:2,0:0:0:0:
265,271,52271,2,0,P|333:214|245:178,1,203.999993774414,8|0,0:1|0:2,0:0:0:0:
99,137,52793,6,0,P|105:247|221:252,1,203.999993774414,2|0,1:2|1:2,0:0:0:0:
334,289,53315,2,0,P|236:338|148:222,1,203.999993774414,8|0,0:1|0:2,0:0:0:0:
396,274,53836,5,2,1:2:0:0:
487,247,54009,1,0,1:2:0:0:
502,154,54183,1,0,1:2:0:0:
341,177,54358,1,8,1:1:0:0:
252,133,54531,1,0,1:2:0:0:
238,36,54705,1,0,1:2:0:0:
490,39,54880,6,0,L|394:117,2,101.999996887207,0|0|0,0:0|0:0|0:0,0:0:0:0:
208,127,55402,2,0,P|105:160|94:271,1,203.999993774414,2|0,1:2|0:2,0:0:0:0:
359,296,55923,6,0,P|432:244|344:198,1,203.999993774414,6|0,1:2|0:2,0:0:0:0:
215,89,56445,1,8,0:1:0:0:
216,83,56619,1,0,0:0:0:0:
307,63,56793,1,0,0:2:0:0:
45,55,56967,5,2,1:2:0:0:
63,153,57141,1,0,0:0:0:0:
136,208,57315,1,0,0:2:0:0:
201,204,57489,1,8,0:1:0:0:
274,149,57663,1,0,0:0:0:0:
292,51,57837,1,0,0:2:0:0:
28,60,58010,6,0,L|200:201,1,203.999993774414,2|0,1:2|0:2,0:0:0:0:
344,131,58532,2,0,P|416:186|332:234,1,203.999993774414,8|0,1:1|1:2,0:0:0:0:
59,347,59054,6,0,B|59:32|59:32|58:306,1,560.999982879639,6|0,1:2|0:0,0:0:0:0:
276,301,60097,6,0,L|384:260,2,85,2|0|2,3:2|3:2|0:2,0:0:0:0:
201,319,60488,1,0,0:2:0:0:
327,220,60618,2,0,L|412:192,1,85,2|2,0:2|0:2,0:0:0:0:
407,193,60879,2,0,L|305:221,1,85,0|0,0:2|0:2,0:0:0:0:
82,218,61140,6,0,L|83:119,1,85,2|2,3:2|3:2,0:0:0:0:
161,117,61401,1,0,0:2:0:0:
295,145,61531,2,0,P|269:65|165:62,1,170,2|2,3:2|3:2,0:0:0:0:
126,96,61923,2,0,L|212:99,1,85,2|2,3:2|3:2,0:0:0:0:
436,163,62183,6,0,L|442:290,1,85,2|0,3:2|3:2,0:0:0:0:
365,287,62444,2,0,L|451:241,1,85,2|0,0:2|0:2,0:0:0:0:
310,212,62705,2,0,L|230:179,1,85,2|2,0:2|0:2,0:0:0:0:
231,179,62966,2,0,L|317:215,1,85,0|0,0:2|0:2,0:0:0:0:
83,294,63227,6,0,L|-9:307,2,85,2|2|0,3:2|3:2|0:2,0:0:0:0:
315,221,63618,2,0,P|285:130|205:125,1,170,6|2,3:2|3:2,0:0:0:0:
143,79,64010,2,0,L|250:69,1,85,2|2,3:2|3:2,0:0:0:0:
463,210,64270,6,0,L|467:315,1,85,6|0,3:2|0:2,0:0:0:0:
414,335,64531,2,0,L|310:279,1,85,2|0,3:2|0:2,0:0:0:0:
214,203,64792,2,0,L|105:214,2,85,2|2|0,3:2|0:2|3:2,0:0:0:0:
293,193,65183,1,0,0:2:0:0:
160,171,65314,6,0,P|59:114|43:45,1,170,2|0,3:2|3:2,0:0:0:0:
298,104,65705,2,0,P|392:78|419:-1,1,170,2|2,3:2|3:2,0:0:0:0:
287,53,66097,2,0,L|187:50,1,85,10|2,3:2|3:2,0:0:0:0:
462,176,66357,6,0,L|460:279,1,85,10|0,3:2|0:0,0:0:0:0:
133,212,66879,2,0,L|136:102,1,85,10|0,3:2|0:0,0:0:0:0:
475,121,67401,6,0,L|409:178,1,85,10|0,3:2|3:2,0:0:0:0:
287,140,67662,2,0,L|368:211,1,85,8|0,3:2|3:2,0:0:0:0:
146,250,67923,2,0,L|50:253,1,85,10|0,3:2|3:2,0:0:0:0:
314,159,68183,2,0,L|400:158,1,85,8|0,3:2|3:2,0:0:0:0:
141,122,68444,6,0,L|85:94,2,42.5,0|0|0,3:2|3:0|3:0,3:0:0:0:
347,155,68705,1,8,3:2:0:0:
445,193,68966,2,0,L|446:308,1,85,2|2,0:2|0:2,0:0:0:0:
374,280,69227,2,0,L|457:235,1,85,2|2,0:2|0:2,0:0:0:0:
151,171,69488,6,0,L|152:51,1,93.5000028533936,14|0,0:2|0:0,0:0:0:0:
375,166,69749,2,0,L|377:43,1,93.5000028533936,8|0,0:2|0:2,0:0:0:0:
155,78,70010,2,0,L|41:80,1,93.5000028533936,8|0,0:2|0:2,0:0:0:0:
328,76,70270,2,0,L|451:80,1,93.5000028533936,10|0,0:2|0:2,0:0:0:0:
154,81,70531,5,14,0:2:0:0:
72,119,70662,1,0,0:2:0:0:
37,195,70792,1,10,0:2:0:0:
63,288,70923,1,0,0:2:0:0:
347,288,71053,2,0,L|460:304,1,93.5000028533936,10|0,0:2|0:2,0:0:0:0:
178,322,71314,2,0,L|54:324,1,93.5000028533936,10|0,0:2|0:2,0:0:0:0:
366,91,71575,5,14,0:2:0:0:
366,171,71705,1,0,0:2:0:0:
312,229,71836,1,8,0:2:0:0:
234,237,71966,1,0,0:2:0:0:
164,266,72096,1,8,0:2:0:0:
164,266,72227,1,0,0:2:0:0:
406,220,72357,2,0,L|511:237,1,93.5000028533936,10|0,0:2|0:2,0:0:0:0:
225,210,72618,6,0,L|106:222,1,93.5000028533936,14|0,0:2|0:2,0:0:0:0:
402,165,72879,2,0,L|402:44,1,93.5000028533936,10|0,0:2|0:2,0:0:0:0:
151,66,73140,2,0,L|14:68,1,93.5000028533936,10|0,0:2|0:2,0:0:0:0:
321,168,73401,2,0,L|433:169,1,93.5000028533936,10|0,0:2|0:2,0:0:0:0:
133,312,73662,5,14,0:2:0:0:
42,290,73792,1,0,0:2:0:0:
16,204,73923,1,8,0:2:0:0:
43,126,74053,1,0,0:2:0:0:
292,114,74183,2,0,L|396:210,1,93.5000028533936,10|0,0:2|0:2,0:0:0:0:
292,114,74444,2,0,L|190:204,1,93.5000028533936,8|0,0:2|0:2,0:0:0:0:
481,156,74705,6,0,L|478:262,1,93.5000028533936,14|0,0:2|0:2,0:0:0:0:
236,263,74966,2,0,L|118:257,1,93.5000028533936,10|0,0:2|0:2,0:0:0:0:
425,211,75227,2,0,L|425:97,1,93.5000028533936,10|0,0:2|0:2,0:0:0:0:
188,83,75488,2,0,L|317:75,1,93.5000028533936,10|0,0:2|0:2,0:0:0:0:
39,74,75749,5,14,0:2:0:0:
38,156,75879,1,0,0:2:0:0:
64,237,76010,1,10,0:2:0:0:
154,247,76140,1,0,0:2:0:0:
405,337,76270,2,0,L|500:257,2,93.5000028533936,10|2|8,0:2|0:2|0:2,0:0:0:0:
322,336,76662,1,0,0:2:0:0:
87,275,76792,6,0,L|76:153,1,93.5000028533936,14|0,0:2|0:2,0:0:0:0:
152,117,77053,2,0,L|55:196,1,93.5000028533936,0|0,0:2|0:2,0:0:0:0:
338,214,77314,2,0,L|431:214,1,93.5000028533936,2|2,3:2|3:2,0:0:0:0:
155,172,77575,2,0,L|61:170,1,93.5000028533936,10|2,3:2|3:2,0:0:0:0:
364,210,77836,6,0,L|371:101,1,93.5000028533936,14|0,0:2|0:0,0:0:0:0:
107,162,78096,2,0,L|96:66,1,93.5000028533936,8|0,0:2|0:2,0:0:0:0:
372,88,78357,2,0,L|483:74,1,93.5000028533936,8|0,0:2|0:2,0:0:0:0:
151,49,78618,2,0,L|38:46,1,93.5000028533936,10|0,0:2|0:2,0:0:0:0:
353,49,78879,5,14,0:2:0:0:
378,123,79010,1,0,0:2:0:0:
345,205,79140,1,10,0:2:0:0:
260,224,79270,1,0,0:2:0:0:
40,273,79401,2,0,L|40:161,1,93.5000028533936,10|0,0:2|0:2,0:0:0:0:
88,107,79662,2,0,P|114:61|162:49,1,93.5000028533936,10|0,0:2|0:2,0:0:0:0:
401,161,79923,6,0,L|405:285,1,93.5000028533936,14|0,0:2|0:2,0:0:0:0:
169,298,80183,2,0,L|61:320,1,93.5000028533936,8|0,0:2|0:2,0:0:0:0:
325,246,80444,2,0,L|425:208,1,93.5000028533936,8|0,0:2|0:2,0:0:0:0:
125,147,80705,2,0,L|115:30,1,93.5000028533936,10|0,0:2|0:2,0:0:0:0:
411,70,80966,5,14,0:2:0:0:
462,146,81096,1,0,0:2:0:0:
432,230,81227,1,10,0:2:0:0:
348,255,81357,1,0,0:2:0:0:
98,330,81488,2,0,L|94:223,1,93.5000028533936,10|0,0:2|0:2,0:0:0:0:
356,156,81749,2,0,L|479:154,1,93.5000028533936,10|0,0:2|0:2,0:0:0:0:
145,170,82010,6,0,P|47:140|158:59,1,280.500008560181,6|0,3:2|0:0,0:0:0:0:
258,52,82531,2,0,P|382:89|401:242,1,255,2|0,0:2|0:0,0:0:0:0:
117,301,83053,6,0,L|32:365,1,85,6|0,3:2|0:0,0:0:0:0:
117,301,83314,2,0,L|196:239,1,85,2|0,0:2|0:0,0:0:0:0:
309,135,83575,2,0,L|310:23,1,85,2|0,0:2|0:0,0:0:0:0:
222,134,83836,2,0,L|223:17,1,85,2|8,0:2|0:2,0:0:0:0:
439,100,84096,6,0,P|448:210|374:226,1,170,14|0,3:2|3:2,0:0:0:0:
189,286,84488,2,0,L|329:176,1,170,14|0,3:2|3:2,0:0:0:0:
191,175,84879,2,0,L|179:57,1,85,14|0,3:2|3:2,0:0:0:0:
431,112,85140,6,0,L|560:129,2,85,14|0|0,3:2|0:0|3:2,0:0:0:0:
350,97,85531,1,0,3:2:0:0:
112,95,85662,1,12,3:2:0:0:
256,192,85923,12,0,88010,0:0:0:0:
