osu file format v14

[General]
AudioFilename: audio.mp3
AudioLeadIn: 0
PreviewTime: 68886
Countdown: 0
SampleSet: Soft
StackLeniency: 0.7
Mode: 2
LetterboxInBreaks: 0
WidescreenStoryboard: 1

[Editor]
Bookmarks: 16844,17105,17887,18148,18931,19192
DistanceSpacing: 1.1
BeatDivisor: 8
GridSize: 4
TimelineZoom: 2.899999

[Metadata]
Title:Anoko ni Drop Kick (TV Size)
TitleUnicode:あの娘にドロップキック (TV Size)
Artist:Jashin*Girls
ArtistUnicode:邪神★ガールズ
Creator:[_-Kukkai-_]
Version:Rew's Platter
Source:邪神ちゃんドロップキック
Tags:wonjae Paranoid Grapes rew0825 NyalettOwO x3 Dropkick daletto On My Devil!! Jyashin-chan False God Aina Suzuki Nichika Oomori Miyu Kubota Yurie Kozakai Chiaki Omigawa Rico Sasaki Riho Iida snake anime japanese
BeatmapID:3023224
BeatmapSetID:1466437

[Difficulty]
HPDrainRate:4
CircleSize:3.5
OverallDifficulty:8
ApproachRate:8
SliderMultiplier:1.28
SliderTickRate:1

[Events]
//Background and Video events
Video,-1320,"vdo.mp4"
0,0,"BG.jpg",0,0
//Break Periods
//Storyboard Layer 0 (Background)
//Storyboard Layer 1 (Fail)
//Storyboard Layer 2 (Pass)
//Storyboard Layer 3 (Foreground)
//Storyboard Layer 4 (Overlay)
//Storyboard Sound Samples

[TimingPoints]
620,260.869565217391,4,2,1,70,1,0
7924,-100,4,2,1,70,0,0
16141,-100,4,3,1,70,0,0
26641,-100,4,3,1,70,0,0
26706,-100,4,2,1,60,0,0
34924,-100,4,3,1,65,0,0
46533,521.739130434783,4,2,2,60,1,0
46533,-50,4,2,2,60,0,0
47054,-50,4,2,2,60,0,0
47576,521.739130434783,4,2,2,60,1,0
47576,-50,4,2,2,60,0,0
59184,-50,4,2,2,20,0,0
60097,260.869565217391,4,2,1,70,1,0
60097,-100,4,2,1,70,0,0
69488,-100,4,3,1,85,0,1
77314,-100,4,2,1,85,0,0
77836,-100,4,3,1,85,0,1
82010,-100,4,2,1,85,0,0
82466,-100,4,2,1,5,0,0
82531,-100,4,2,1,85,0,0
82988,-100,4,2,1,5,0,0
83053,-100,4,2,1,85,0,0
85923,-100,4,2,1,5,0,0

[Colours]
Combo1 : 168,131,188
Combo2 : 143,245,114
Combo3 : 99,166,194
Combo4 : 235,213,109

[HitObjects]
96,312,620,6,0,L|92:184,1,128,2|2,0:0|0:0,0:0:0:0:
220,184,1141,1,2,0:0:0:0:
92,184,1402,1,2,0:0:0:0:
308,184,1663,6,0,P|396:132|308:56,1,256,4|0,3:2|0:0,0:0:0:0:
180,56,2446,1,2,0:0:0:0:
396,60,2706,6,0,L|400:188,1,128,4|2,3:2|0:0,0:0:0:0:
272,188,3227,1,2,0:0:0:0:
400,188,3488,1,2,0:0:0:0:
180,188,3750,6,0,P|140:220|180:268,1,128,6|0,3:2|3:2,0:0:0:0:
252,268,4141,1,8,3:2:0:0:
380,268,4402,1,0,3:2:0:0:
308,268,4533,1,2,3:2:0:0:
92,268,4793,6,0,P|52:236|92:188,1,128,6|2,3:2|0:2,0:0:0:0:
220,184,5315,1,10,0:2:0:0:
264,184,5402,1,8,0:2:0:0:
260,136,5489,1,8,0:2:0:0:
216,132,5576,1,2,3:2:0:0:
432,132,5837,5,6,3:2:0:0:
176,128,6359,2,0,L|44:128,1,128,2|0,0:2|0:0,0:0:0:0:
264,128,6880,6,0,L|408:128,2,128,6|0|0,3:2|3:2|3:2,0:0:0:0:
136,128,7663,1,2,3:2:0:0:
460,128,7924,6,0,L|464:256,1,128,6|2,3:2|0:2,0:0:0:0:
336,252,8446,1,2,0:2:0:0:
408,252,8576,1,2,0:2:0:0:
480,252,8706,1,0,0:2:0:0:
264,252,8967,5,2,3:2:0:0:
192,252,9098,1,0,3:2:0:0:
408,252,9359,2,0,P|448:220|408:172,1,128,2|0,3:2|3:2,0:0:0:0:
336,172,9750,1,2,0:2:0:0:
120,172,10011,6,0,L|116:304,1,128,2|2,3:2|0:2,0:0:0:0:
244,296,10533,1,2,0:2:0:0:
172,296,10663,1,2,0:2:0:0:
100,296,10793,1,0,0:2:0:0:
316,296,11054,5,2,3:2:0:0:
384,296,11185,1,2,3:2:0:0:
316,296,11315,1,2,3:2:0:0:
124,296,11446,2,0,P|84:264|124:216,1,128,6|2,3:2|3:2,0:0:0:0:
192,216,11837,1,2,3:2:0:0:
124,216,11967,1,2,3:2:0:0:
316,216,12098,6,0,L|444:216,1,128,6|2,3:2|3:2,0:0:0:0:
316,216,12619,1,2,3:2:0:0:
388,216,12750,1,2,0:2:0:0:
460,216,12880,1,0,3:2:0:0:
244,216,13141,5,2,3:2:0:0:
172,216,13272,1,8,0:2:0:0:
388,216,13533,2,0,P|428:184|388:136,1,128,2|0,0:2|3:2,0:0:0:0:
320,136,13924,1,2,3:2:0:0:
388,136,14054,1,2,3:2:0:0:
196,132,14185,5,6,3:2:0:0:
128,132,14315,1,2,0:2:0:0:
196,132,14446,1,0,3:2:0:0:
412,136,14706,1,2,3:2:0:0:
480,136,14836,1,2,0:2:0:0:
412,136,14967,1,0,3:2:0:0:
196,132,15228,6,0,P|156:160|196:212,1,128,2|2,3:2|3:2,0:0:0:0:
264,212,15619,1,2,3:2:0:0:
400,212,15750,2,0,L|404:276,1,64,8|8,3:2|3:2,0:0:0:0:
80,280,16141,6,0,P|40:248|80:200,1,128,4|2,0:2|0:2,0:0:0:0:
152,200,16533,1,10,0:2:0:0:
280,196,16793,1,2,0:2:0:0:
348,196,16924,1,2,0:2:0:0:
280,196,17054,1,10,0:2:0:0:
144,200,17185,5,2,0:2:0:0:
272,200,17446,1,2,0:2:0:0:
276,272,17576,1,10,0:2:0:0:
148,272,17837,1,2,0:2:0:0:
80,272,17967,1,2,0:2:0:0:
148,272,18098,1,10,0:2:0:0:
340,272,18228,5,6,0:2:0:0:
212,272,18489,2,0,L|208:208,1,64,2|10,0:2|0:2,0:0:0:0:
336,212,18880,1,2,0:2:0:0:
404,212,19011,1,2,0:2:0:0:
336,212,19141,1,10,0:2:0:0:
144,212,19272,6,0,P|108:192|144:132,1,128,6|2,0:2|0:2,0:0:0:0:
280,136,19663,1,10,0:2:0:0:
408,136,19924,1,10,0:2:0:0:
476,136,20054,1,10,0:2:0:0:
408,136,20185,1,10,0:2:0:0:
216,136,20315,6,0,P|176:168|216:216,1,128,6|2,0:2|0:2,0:0:0:0:
288,220,20706,1,10,0:2:0:0:
160,220,20967,1,2,0:2:0:0:
92,220,21098,1,2,0:2:0:0:
160,220,21228,1,10,0:2:0:0:
296,220,21359,5,2,0:2:0:0:
424,220,21619,1,2,0:2:0:0:
352,220,21750,1,10,0:2:0:0:
224,220,22011,1,2,0:2:0:0:
156,220,22141,1,2,0:2:0:0:
224,220,22272,1,10,0:2:0:0:
416,220,22402,6,0,P|456:188|416:140,1,128,6|2,0:2|0:2,0:0:0:0:
344,140,22793,1,10,0:2:0:0:
216,140,23054,1,2,0:2:0:0:
288,140,23185,1,2,0:2:0:0:
360,140,23315,1,8,0:2:0:0:
224,140,23446,6,0,P|184:176|224:224,1,128,2|10,0:2|0:2,0:0:0:0:
296,224,23837,1,10,0:2:0:0:
168,224,24098,1,10,0:2:0:0:
100,224,24228,1,10,0:2:0:0:
168,224,24359,1,10,0:2:0:0:
360,224,24489,5,6,0:2:0:0:
188,224,24880,2,0,L|56:224,2,128,0|0|8,0:2|0:2|0:2,0:0:0:0:
384,228,25533,6,0,P|416:200|368:148,1,128,6|2,0:2|0:2,0:0:0:0:
300,148,25924,1,10,0:2:0:0:
76,148,26185,1,10,0:2:0:0:
140,148,26315,1,2,0:2:0:0:
76,148,26446,1,10,0:2:0:0:
400,152,26706,6,0,P|440:184|400:232,1,128,4|2,3:2|3:2,0:0:0:0:
272,232,27228,2,0,L|140:232,1,128,2|0,3:2|3:0,0:0:0:0:
216,232,27619,1,2,0:2:0:0:
352,232,27750,6,0,L|356:168,1,64,2|2,3:2|0:2,0:0:0:0:
228,156,28141,2,0,P|188:188|228:236,1,128,2|10,0:2|0:2,0:0:0:0:
300,236,28533,2,0,L|304:308,1,64,2|10,3:2|0:2,0:0:0:0:
112,300,28793,6,0,P|72:272|112:220,1,128,6|2,3:2|3:2,0:0:0:0:
240,220,29315,1,2,3:2:0:0:
312,220,29446,1,2,0:2:0:0:
96,220,29706,6,0,P|56:252|96:300,1,128,2|0,0:2|0:2,0:0:0:0:
168,300,30098,1,2,3:2:0:0:
296,300,30359,1,2,3:2:0:0:
368,300,30489,1,10,0:2:0:0:
364,228,30619,1,0,3:2:0:0:
292,228,30750,1,10,0:2:0:0:
100,228,30880,6,0,P|60:200|100:148,1,128,4|2,3:2|3:2,0:0:0:0:
228,148,31402,1,2,3:2:0:0:
156,148,31533,1,2,0:2:0:0:
84,148,31663,1,0,3:2:0:0:
408,148,31924,6,0,L|412:216,1,64,6|2,3:2|3:2,0:0:0:0:
284,212,32315,2,0,L|420:212,1,128,2|2,3:2|3:2,0:0:0:0:
416,276,32706,1,2,3:2:0:0:
352,276,32837,1,2,3:2:0:0:
216,276,32967,5,10,3:2:0:0:
448,276,33489,1,8,3:2:0:0:
76,276,34011,5,8,3:2:0:0:
72,204,34141,1,0,0:2:0:0:
144,204,34272,1,8,3:2:0:0:
360,204,34533,1,8,3:2:0:0:
432,204,34663,1,8,3:2:0:0:
104,204,34924,6,0,P|64:168|104:120,1,128,4|0,3:2|0:2,0:0:0:0:
176,120,35315,1,10,0:2:0:0:
392,124,35576,1,2,0:2:0:0:
320,124,35706,1,0,0:2:0:0:
248,124,35837,1,10,0:2:0:0:
380,124,35967,6,0,P|420:152|380:208,1,128,2|2,0:2|0:2,0:0:0:0:
312,208,36359,1,10,0:2:0:0:
96,208,36619,1,2,0:2:0:0:
92,280,36750,1,2,0:2:0:0:
164,280,36880,1,8,0:2:0:0:
356,276,37011,6,0,L|484:276,1,128,4|0,0:2|0:2,0:0:0:0:
412,276,37402,1,10,0:2:0:0:
196,276,37663,1,2,0:2:0:0:
124,276,37793,1,0,0:2:0:0:
120,204,37924,1,8,0:2:0:0:
312,204,38054,6,0,P|352:160|312:120,1,128,6|0,0:2|0:2,0:0:0:0:
240,120,38446,1,10,0:2:0:0:
456,116,38706,1,2,0:2:0:0:
452,188,38837,1,2,0:2:0:0:
380,188,38967,1,8,0:2:0:0:
188,184,39098,6,0,P|132:192|96:256,1,128,4|0,0:2|0:2,0:0:0:0:
168,256,39489,1,10,0:2:0:0:
384,260,39750,1,2,0:2:0:0:
456,256,39880,1,2,0:2:0:0:
384,256,40011,1,8,0:2:0:0:
252,256,40141,6,0,P|216:208|264:168,1,128,2|2,0:2|0:2,0:0:0:0:
328,168,40533,1,10,0:2:0:0:
196,168,40663,1,0,0:2:0:0:
124,164,40793,1,2,0:2:0:0:
76,112,40924,1,2,0:2:0:0:
64,44,41054,1,8,0:2:0:0:
388,40,41315,6,0,P|424:76|388:132,1,128,14|0,0:2|0:2,0:0:0:0:
316,136,41706,2,0,L|188:136,1,128,10|0,0:2|0:2,0:0:0:0:
324,232,42098,6,0,P|364:260|324:312,1,128,10|0,0:2|0:2,0:0:0:0:
256,308,42489,2,0,L|124:308,1,128,8|0,0:2|0:2,0:0:0:0:
264,308,42880,1,10,0:2:0:0:
328,308,43011,1,0,0:2:0:0:
256,308,43141,1,10,0:2:0:0:
192,308,43272,1,0,0:2:0:0:
384,308,43402,6,0,P|420:260|380:212,1,128,14|0,0:2|0:2,0:0:0:0:
312,212,43793,2,0,L|180:212,1,128,10|0,0:2|0:2,0:0:0:0:
320,212,44185,6,0,P|356:164|316:116,1,128,10|0,0:2|0:2,0:0:0:0:
248,116,44576,2,0,L|380:116,1,128,8|0,0:2|0:2,0:0:0:0:
184,116,44967,1,10,0:2:0:0:
124,116,45098,1,0,0:2:0:0:
80,140,45228,1,10,0:2:0:0:
64,191,45359,1,0,0:2:0:0:
255,192,45489,5,10,0:2:0:0:
432,191,46011,1,8,0:2:0:0:
60,191,46533,6,0,P|28:248|64:344,1,170.666666666667,6|0,1:2|1:0,0:0:0:0:
156,344,47054,1,2,0:2:0:0:
152,252,47228,1,8,0:1:0:0:
60,252,47402,1,8,0:1:0:0:
299,252,47576,6,0,P|403:249|400:124,1,256,6|8,1:2|0:1,0:0:0:0:
228,128,48445,1,0,0:2:0:0:
320,128,48619,6,0,P|424:136|476:264,1,256,2|8,1:2|0:1,0:0:0:0:
68,284,49662,6,0,P|48:200|112:156,1,170.666666666667,2|0,1:2|0:2,0:0:0:0:
204,156,50184,2,0,L|376:156,1,170.666666666667,8|0,0:1|0:2,0:0:0:0:
204,156,50706,6,0,P|108:144|52:8,1,256,2|8,1:2|0:1,0:0:0:0:
224,20,51576,1,0,0:2:0:0:
460,20,51749,6,0,P|480:112|416:160,1,170.666666666667,6|0,1:2|0:2,0:0:0:0:
336,156,52271,2,0,L|156:156,1,170.666666666667,8|0,0:1|0:2,0:0:0:0:
328,156,52793,6,0,P|372:232|324:292,1,170.666666666667,2|0,1:2|1:2,0:0:0:0:
232,292,53315,2,0,L|408:292,1,170.666666666667,8|0,0:1|0:2,0:0:0:0:
240,292,53836,6,0,P|152:288|100:196,1,170.666666666667,2|0,1:2|1:2,0:0:0:0:
200,224,54358,2,0,L|392:224,1,170.666666666667,8|0,1:1|1:2,0:0:0:0:
208,228,54880,6,0,P|92:200|76:152,1,170.666666666667,0|0,0:0|0:0,0:0:0:0:
76,68,55402,1,2,1:2:0:0:
484,68,55923,6,0,P|496:172|372:216,1,256,6|8,1:2|0:1,0:0:0:0:
200,212,56793,1,0,0:2:0:0:
292,212,56967,6,0,P|396:220|452:352,1,256,2|8,1:2|0:1,0:0:0:0:
44,352,58010,6,0,P|28:268|128:216,1,170.666666666667,2|0,1:2|0:2,0:0:0:0:
180,216,58532,2,0,L|364:212,1,170.666666666667,8|0,1:1|1:2,0:0:0:0:
112,212,59054,6,0,P|28:128|220:-24,1,426.666666666667,6|0,1:2|0:0,0:0:0:0:
444,8,60097,6,0,L|448:136,1,128,2|2,3:2|0:2,0:0:0:0:
320,140,60618,1,2,0:2:0:0:
252,140,60749,1,2,0:2:0:0:
320,140,60879,1,0,0:2:0:0:
104,140,61140,6,0,L|100:220,1,64,2|2,3:2|3:2,0:0:0:0:
320,216,61531,2,0,L|452:216,1,128,2|2,3:2|3:2,0:0:0:0:
448,280,61923,1,2,3:2:0:0:
376,280,62053,1,2,3:2:0:0:
244,280,62183,6,0,P|180:272|148:216,1,128,2|2,3:2|0:2,0:0:0:0:
276,216,62705,1,2,0:2:0:0:
204,216,62836,1,2,0:2:0:0:
132,216,62966,1,0,0:2:0:0:
348,216,63227,6,0,L|352:144,1,64,2|2,3:2|3:2,0:0:0:0:
132,156,63618,2,0,P|96:100|148:52,1,128,6|2,3:2|3:2,0:0:0:0:
196,56,64010,1,2,3:2:0:0:
128,56,64140,1,2,3:2:0:0:
320,56,64270,6,0,L|464:56,1,128,6|2,3:2|3:2,0:0:0:0:
320,56,64792,1,2,3:2:0:0:
392,56,64923,1,2,0:2:0:0:
464,56,65053,1,0,3:2:0:0:
248,56,65314,6,0,L|104:56,1,128,2|0,3:2|3:2,0:0:0:0:
256,56,65705,1,2,3:2:0:0:
384,56,65966,1,2,3:2:0:0:
316,56,66097,1,10,3:2:0:0:
384,56,66227,1,2,3:2:0:0:
252,56,66357,5,10,3:2:0:0:
20,56,66879,1,10,3:2:0:0:
380,64,67401,6,0,P|416:112|376:164,1,128,10|8,3:2|3:2,0:0:0:0:
252,164,67923,1,10,3:2:0:0:
380,164,68183,1,8,3:2:0:0:
164,164,68444,6,0,P|124:220|168:264,1,128,0|8,3:2|3:2,0:0:0:0:
284,260,68966,1,2,0:2:0:0:
356,256,69096,1,2,0:2:0:0:
416,216,69227,1,2,0:2:0:0:
432,148,69357,1,2,0:2:0:0:
240,148,69488,6,0,L|92:148,2,128,14|8|8,0:2|0:2|0:2,0:0:0:0:
456,152,70270,2,0,L|460:224,1,64,10|0,0:2|0:2,0:0:0:0:
268,216,70531,6,0,L|128:216,1,128,14|10,0:2|0:2,0:0:0:0:
360,216,71053,1,10,0:2:0:0:
432,216,71183,1,0,0:2:0:0:
436,144,71314,1,10,0:2:0:0:
104,144,71575,6,0,P|68:200|104:248,1,128,14|8,0:2|0:2,0:0:0:0:
224,248,72096,1,8,0:2:0:0:
440,248,72357,2,0,L|356:248,1,64,10|0,0:2|0:2,0:0:0:0:
184,248,72618,6,0,L|52:248,1,128,14|10,0:2|0:2,0:0:0:0:
276,248,73140,1,10,0:2:0:0:
204,248,73270,1,0,0:2:0:0:
132,248,73401,1,10,0:2:0:0:
464,244,73662,6,0,L|468:104,1,128,14|8,0:2|0:2,0:0:0:0:
248,120,74183,1,10,0:2:0:0:
320,120,74314,1,0,0:2:0:0:
392,120,74444,1,8,0:2:0:0:
60,120,74705,6,0,P|32:180|72:232,1,128,14|10,0:2|0:2,0:0:0:0:
192,220,75227,1,10,0:2:0:0:
408,220,75488,2,0,L|412:288,1,64,10|0,0:2|0:2,0:0:0:0:
220,284,75749,6,0,L|68:284,1,128,14|10,0:2|0:2,0:0:0:0:
308,284,76270,1,10,0:2:0:0:
380,284,76401,1,2,0:2:0:0:
452,284,76531,1,8,0:2:0:0:
120,284,76792,6,0,P|88:220|132:184,1,128,14|0,0:2|0:2,0:0:0:0:
340,196,77314,1,2,3:2:0:0:
412,196,77444,1,2,3:2:0:0:
408,124,77575,1,10,3:2:0:0:
336,124,77705,1,2,3:2:0:0:
144,124,77836,6,0,L|16:124,2,128,14|8|8,0:2|0:2|0:2,0:0:0:0:
360,104,78618,2,0,L|280:104,1,64,10|0,0:2|0:2,0:0:0:0:
104,104,78879,6,0,L|248:104,1,128,14|10,0:2|0:2,0:0:0:0:
452,104,79401,1,10,0:2:0:0:
456,176,79531,1,0,0:2:0:0:
384,176,79662,1,10,0:2:0:0:
52,176,79923,6,0,L|196:176,1,128,14|8,0:2|0:2,0:0:0:0:
396,180,80444,1,8,0:2:0:0:
468,180,80575,1,0,0:2:0:0:
396,180,80705,1,10,0:2:0:0:
64,180,80966,6,0,L|216:180,1,128,14|10,0:2|0:2,0:0:0:0:
320,180,81488,1,10,0:2:0:0:
104,180,81749,2,0,L|100:248,1,64,10|0,0:2|0:2,0:0:0:0:
292,248,82010,6,0,P|404:240|472:108,1,256,6|2,3:2|0:2,0:0:0:0:
116,124,83053,6,0,L|112:276,1,128,6|2,3:2|0:2,0:0:0:0:
240,256,83575,1,2,0:2:0:0:
112,252,83836,1,2,0:2:0:0:
436,256,84096,6,0,P|476:224|436:176,1,128,14|0,3:2|3:2,0:0:0:0:
360,176,84488,2,0,P|320:128|368:92,1,128,14|0,3:2|3:2,0:0:0:0:
432,92,84879,1,14,3:2:0:0:
108,108,85140,6,0,P|68:160|124:200,1,128,14|0,3:2|3:2,0:0:0:0:
428,196,85662,5,12,3:2:0:0:
256,192,85923,12,0,88010,0:0:0:0:
