osu file format v14

[General]
AudioFilename: audio.mp3
AudioLeadIn: 0
PreviewTime: 68886
Countdown: 0
SampleSet: Soft
StackLeniency: 0.7
Mode: 2
LetterboxInBreaks: 0
WidescreenStoryboard: 0

[Editor]
Bookmarks: 16844,17105,17887,18148,18931,19192
DistanceSpacing: 1
BeatDivisor: 4
GridSize: 4
TimelineZoom: 2.599999

[Metadata]
Title:Anoko ni Drop Kick (TV Size)
TitleUnicode:あの娘にドロップキック (TV Size)
Artist:Jashin*Girls
ArtistUnicode:邪神★ガールズ
Creator:[_-Kukkai-_]
Version:Overdose
Source:邪神ちゃんドロップキック
Tags:wonjae Paranoid Grapes rew0825 NyalettOwO x3 Dropkick daletto On My Devil!! Jyashin-chan False God Aina Suzuki Nichika Oomori Miyu Kubota Yurie Kozakai Chiaki Omigawa Rico Sasaki Riho Iida snake anime japanese
BeatmapID:3011588
BeatmapSetID:1466437

[Difficulty]
HPDrainRate:6
CircleSize:4.2
OverallDifficulty:9.4
ApproachRate:9.4
SliderMultiplier:1.8
SliderTickRate:2

[Events]
//Background and Video events
Video,-1320,"vdo.mp4"
0,0,"BG.jpg",0,0
//Break Periods
//Storyboard Layer 0 (Background)
//Storyboard Layer 1 (Fail)
//Storyboard Layer 2 (Pass)
//Storyboard Layer 3 (Foreground)
//Storyboard Layer 4 (Overlay)
//Storyboard Sound Samples

[TimingPoints]
620,260.869565217391,4,2,1,70,1,0
7924,-90.9090909090909,4,2,1,70,0,0
16141,-90.9090909090909,4,3,1,70,0,0
26706,-100,4,2,1,60,0,0
34924,-90.9090909090909,4,3,1,65,0,0
46533,521.739130434783,4,2,2,60,1,0
46533,-43.4782608695652,4,2,2,60,0,0
47054,-40,4,2,2,60,0,0
47576,521.739130434783,4,2,2,60,1,0
47576,-55.5555555555556,4,2,2,60,0,0
47749,-55.5555555555556,4,2,2,10,0,0
47923,-55.5555555555556,4,2,2,60,0,0
48097,-55.5555555555556,4,2,2,60,0,0
48271,-55.5555555555556,4,2,2,10,0,0
48445,-55.5555555555556,4,2,2,60,0,0
48619,-55.5555555555556,4,2,2,60,0,0
48793,-55.5555555555556,4,2,2,10,0,0
48967,-55.5555555555556,4,2,2,60,0,0
49141,-55.5555555555556,4,2,2,60,0,0
49315,-55.5555555555556,4,2,2,10,0,0
49489,-55.5555555555556,4,2,2,60,0,0
49662,-55.5555555555556,4,2,2,60,0,0
49836,-55.5555555555556,4,2,2,10,0,0
50010,-55.5555555555556,4,2,2,60,0,0
50184,-55.5555555555556,4,2,2,60,0,0
50358,-55.5555555555556,4,2,2,10,0,0
50532,-55.5555555555556,4,2,2,60,0,0
50706,-55.5555555555556,4,2,2,60,0,0
50880,-55.5555555555556,4,2,2,10,0,0
51054,-55.5555555555556,4,2,2,60,0,0
51228,-55.5555555555556,4,2,2,60,0,0
51402,-55.5555555555556,4,2,2,10,0,0
51576,-55.5555555555556,4,2,2,60,0,0
51749,-55.5555555555556,4,2,2,60,0,0
51923,-55.5555555555556,4,2,2,10,0,0
52097,-55.5555555555556,4,2,2,60,0,0
52271,-55.5555555555556,4,2,2,60,0,0
52445,-55.5555555555556,4,2,2,10,0,0
52619,-55.5555555555556,4,2,2,60,0,0
52793,-55.5555555555556,4,2,2,60,0,0
53315,-55.5555555555556,4,2,2,60,0,0
53489,-55.5555555555556,4,2,2,10,0,0
53662,-55.5555555555556,4,2,2,60,0,0
54880,-55.5555555555556,4,2,2,60,0,0
55054,-55.5555555555556,4,2,2,10,0,0
55228,-55.5555555555556,4,2,2,60,0,0
55402,-55.5555555555556,4,2,2,60,0,0
55576,-55.5555555555556,4,2,2,10,0,0
55749,-55.5555555555556,4,2,2,60,0,0
55923,-55.5555555555556,4,2,2,60,0,0
56097,-55.5555555555556,4,2,2,10,0,0
56271,-55.5555555555556,4,2,2,60,0,0
56445,-55.5555555555556,4,2,2,60,0,0
56619,-55.5555555555556,4,2,2,10,0,0
56793,-55.5555555555556,4,2,2,60,0,0
56967,-55.5555555555556,4,2,2,60,0,0
57141,-55.5555555555556,4,2,2,10,0,0
57315,-55.5555555555556,4,2,2,60,0,0
57489,-55.5555555555556,4,2,2,60,0,0
57662,-55.5555555555556,4,2,2,10,0,0
57836,-55.5555555555556,4,2,2,60,0,0
58010,-55.5555555555556,4,2,2,60,0,0
58184,-55.5555555555556,4,2,2,10,0,0
58358,-55.5555555555556,4,2,2,60,0,0
59184,-55.5555555555556,4,2,2,20,0,0
60097,260.869565217391,4,2,1,70,1,0
60097,-90.9090909090909,4,2,1,70,0,0
69488,-90.9090909090909,4,3,1,85,0,1
77314,-90.9090909090909,4,2,1,85,0,0
77836,-90.9090909090909,4,3,1,85,0,1
82010,-100,4,2,1,85,0,0
82466,-100,4,2,1,5,0,0
82531,-100,4,2,1,85,0,0
82988,-100,4,2,1,5,0,0
83053,-100,4,2,1,85,0,0
85923,-100,4,2,1,5,0,0

[Colours]
Combo1 : 168,131,188
Combo2 : 143,245,114
Combo3 : 99,166,194
Combo4 : 235,213,109

[HitObjects]
484,192,620,6,0,L|296:192,2,180,2|2|2,0:0|0:0|0:0,0:0:0:0:
480,192,1402,1,2,0:0:0:0:
144,356,1663,6,0,P|32:236|188:128,1,360,4|0,3:2|0:0,0:0:0:0:
364,124,2446,1,2,0:0:0:0:
28,224,2706,5,4,3:2:0:0:
208,224,2967,2,0,L|208:32,1,180,2|2,0:0|0:0,0:0:0:0:
28,224,3489,1,2,0:0:0:0:
348,120,3750,6,0,L|140:120,1,180,6|0,3:2|3:2,0:0:0:0:
368,340,4141,2,0,P|420:280|348:224,1,180,8|0,3:2|3:2,0:0:0:0:
160,232,4533,1,2,3:2:0:0:
484,232,4793,6,0,L|484:48,1,180,6|2,3:2|0:2,0:0:0:0:
392,56,5185,1,0,0:2:0:0:
160,56,5315,2,0,L|84:56,2,60,10|8|8,0:2|0:2|0:2,0:0:0:0:
328,240,5576,1,2,3:2:0:0:
264,240,5662,1,0,3:2:0:0:
196,240,5749,1,0,3:2:0:0:
384,361,5837,6,0,P|406:261|199:157,1,360,6|2,3:2|0:2,0:0:0:0:
374,144,6619,1,0,0:0:0:0:
48,360,6880,6,0,L|48:148,1,180,6|0,3:2|3:2,0:0:0:0:
228,180,7402,1,0,3:2:0:0:
48,180,7662,1,2,3:2:0:0:
396,100,7924,5,6,3:2:0:0:
192,344,8054,1,0,3:2:0:0:
92,340,8185,2,0,L|92:212,1,99.0000030212403,2|0,0:2|0:2,0:0:0:0:
192,240,8446,1,2,0:2:0:0:
92,240,8576,1,2,0:2:0:0:
192,240,8706,2,0,L|324:240,1,99.0000030212403,0|0,0:2|0:2,0:0:0:0:
88,168,8967,5,2,3:2:0:0:
288,172,9098,2,0,L|408:172,1,99.0000030212403,0|0,3:2|0:2,0:0:0:0:
176,164,9359,2,0,L|176:44,1,99.0000030212403,2|0,3:2|0:2,0:0:0:0:
380,52,9619,1,0,3:2:0:0:
272,52,9750,1,2,0:2:0:0:
380,52,9880,1,2,0:2:0:0:
168,348,10011,5,2,3:2:0:0:
368,348,10141,1,0,3:2:0:0:
268,348,10272,2,0,L|268:212,1,99.0000030212403,2|0,0:2|0:2,0:0:0:0:
368,248,10533,1,2,0:2:0:0:
268,248,10663,1,2,0:2:0:0:
368,248,10793,2,0,L|468:248,1,99.0000030212403,0|0,0:2|0:2,0:0:0:0:
260,164,11054,5,2,3:2:0:0:
369,164,11185,2,0,L|301:164,1,49.5000015106202,2|0,3:2|3:2,0:0:0:0:
164,72,11315,1,2,3:2:0:0:
376,352,11446,2,0,P|440:288|348:236,1,198.000006042481,6|2,3:2|3:2,0:0:0:0:
268,232,11837,1,2,3:2:0:0:
160,232,11967,1,2,3:2:0:0:
396,200,12098,6,0,L|396:92,1,99.0000030212403,6|0,3:2|0:2,0:0:0:0:
276,196,12359,2,0,L|276:88,1,99.0000030212403,2|0,3:2|0:2,0:0:0:0:
396,101,12619,1,2,3:2:0:0:
276,97,12750,1,2,0:2:0:0:
396,101,12880,2,0,L|396:205,1,99.0000030212403,0|0,3:2|0:2,0:0:0:0:
272,204,13141,5,2,3:2:0:0:
476,320,13272,1,8,0:2:0:0:
376,320,13402,1,2,3:2:0:0:
176,320,13533,1,2,0:2:0:0:
427,255,13663,1,8,3:2:0:0:
305,315,13728,1,8,3:2:0:0:
184,256,13793,1,0,3:2:0:0:
184,256,13858,1,0,3:2:0:0:
328,256,13924,2,0,L|328:188,1,49.5000015106202,2|0,3:2|3:2,0:0:0:0:
184,172,14054,2,0,L|268:172,1,49.5000015106202,2|0,3:2|3:2,0:0:0:0:
392,180,14185,5,6,3:2:0:0:
160,296,14315,1,2,0:2:0:0:
280,296,14446,2,0,L|280:188,1,99.0000030212403,0|0,3:2|0:2,0:0:0:0:
76,192,14706,1,2,3:2:0:0:
284,136,14837,1,2,0:2:0:0:
164,140,14967,2,0,L|164:36,1,99.0000030212403,0|0,3:2|0:2,0:0:0:0:
380,336,15228,5,2,3:2:0:0:
428,336,15293,1,0,3:2:0:0:
448,289,15358,1,0,3:2:0:0:
428,336,15423,1,0,3:2:0:0:
276,332,15489,2,0,L|212:332,1,49.5000015106202,2|0,3:2|3:2,0:0:0:0:
376,264,15619,2,0,L|304:264,1,49.5000015106202,2|0,3:2|3:2,0:0:0:0:
128,260,15750,1,8,3:2:0:0:
326,264,15880,2,0,P|366:228|302:164,1,148.50000453186,8|0,3:2|0:2,0:0:0:0:
100,84,16141,6,0,L|100:212,1,99.0000030212403,4|0,0:2|0:2,0:0:0:0:
208,184,16402,1,2,0:2:0:0:
152,184,16467,1,0,0:2:0:0:
100,183,16533,1,10,0:2:0:0:
208,184,16663,1,2,0:2:0:0:
20,268,16793,1,2,0:2:0:0:
284,268,16924,2,0,L|168:268,1,99.0000030212403,2|10,0:2|0:2,0:0:0:0:
440,184,17185,1,2,0:2:0:0:
288,128,17446,5,2,0:2:0:0:
344,128,17511,1,0,0:2:0:0:
400,128,17576,1,10,0:2:0:0:
288,128,17706,1,2,0:2:0:0:
496,76,17837,1,2,0:2:0:0:
228,344,17967,1,2,0:2:0:0:
327,346,18098,1,10,0:2:0:0:
92,264,18228,1,6,0:2:0:0:
284,188,18489,5,2,0:2:0:0:
228,188,18554,1,0,0:2:0:0:
172,188,18619,1,10,0:2:0:0:
284,188,18750,1,2,0:2:0:0:
44,116,18880,1,2,0:2:0:0:
312,52,19011,2,0,L|204:52,1,99.0000030212403,2|10,0:2|0:2,0:0:0:0:
476,312,19272,6,0,L|256:312,1,198.000006042481,6|2,0:2|0:2,0:0:0:0:
476,312,19663,2,0,L|476:192,1,99.0000030212403,10|0,0:2|0:2,0:0:0:0:
252,224,19924,1,10,0:2:0:0:
360,224,20054,2,0,L|284:224,1,49.5000015106202,10|0,0:2|0:2,0:0:0:0:
164,224,20185,1,10,0:2:0:0:
428,344,20315,6,0,P|496:292|416:244,1,198.000006042481,6|2,0:2|0:2,0:0:0:0:
188,240,20706,1,10,0:2:0:0:
296,244,20837,2,0,L|296:180,1,49.5000015106202,2|0,0:2|0:2,0:0:0:0:
120,168,20967,2,0,L|232:168,1,99.0000030212403,2|2,0:2|0:2,0:0:0:0:
28,88,21228,1,10,0:2:0:0:
288,80,21359,1,2,0:2:0:0:
104,316,21619,6,0,L|172:316,1,49.5000015106202,2|0,0:2|0:2,0:0:0:0:
348,316,21750,2,0,L|348:192,1,99.0000030212403,10|2,0:2|0:2,0:0:0:0:
136,208,22011,2,0,L|260:208,1,99.0000030212403,2|2,0:2|0:2,0:0:0:0:
28,144,22272,1,10,0:2:0:0:
292,356,22402,6,0,P|360:296|280:248,1,198.000006042481,6|2,0:2|0:2,0:0:0:0:
240,244,22728,1,2,0:2:0:0:
72,240,22793,2,0,L|72:132,1,99.0000030212403,10|0,0:2|0:2,0:0:0:0:
180,140,23054,1,2,0:2:0:0:
72,144,23185,1,2,0:2:0:0:
300,300,23315,1,8,0:2:0:0:
192,300,23446,1,2,0:2:0:0:
472,304,23576,6,0,L|472:184,1,99.0000030212403,0|10,0:2|0:2,0:0:0:0:
416,208,23772,1,0,0:2:0:0:
216,168,23837,2,0,L|352:168,1,99.0000030212403,10|10,0:2|0:2,0:0:0:0:
96,168,24098,2,8,L|32:168,1,49.5000015106202,10|8,0:2|0:2,0:0:0:0:
208,112,24228,2,8,L|208:48,1,49.5000015106202,10|8,0:2|0:2,0:0:0:0:
56,76,24359,1,10,0:2:0:0:
292,352,24489,6,0,P|348:324|264:256,1,198.000006042481,6|0,0:2|0:2,0:0:0:0:
156,248,24880,2,0,L|156:120,1,99.0000030212403,0|0,0:2|0:2,0:0:0:0:
284,152,25141,2,0,L|160:152,1,99.0000030212403,0|0,0:2|0:2,0:0:0:0:
316,152,25402,1,8,0:2:0:0:
88,340,25533,6,0,L|320:340,1,198.000006042481,6|2,0:2|0:2,0:0:0:0:
48,276,25924,2,0,L|48:164,1,99.0000030212403,10|0,0:2|0:2,0:0:0:0:
288,176,26185,2,0,L|144:176,1,99.0000030212403,10|2,0:2|0:2,0:0:0:0:
428,176,26446,2,0,P|468:132|408:76,1,148.50000453186,10|0,0:2|0:2,0:0:0:0:
256,344,26706,6,0,L|256:224,1,90,4|0,3:2|0:2,0:0:0:0:
384,256,26967,2,0,L|384:140,1,90,2|0,3:2|0:2,0:0:0:0:
188,168,27228,2,0,P|146:113|228:42,1,180,2|0,3:2|3:0,0:0:0:0:
312,40,27619,1,2,0:2:0:0:
122,328,27750,5,2,3:2:0:0:
223,326,27880,2,0,L|223:206,1,90,2|0,0:2|3:2,0:0:0:0:
130,239,28141,2,0,L|38:239,1,90,2|0,0:2|3:2,0:0:0:0:
236,179,28402,1,10,0:2:0:0:
145,179,28533,1,2,3:2:0:0:
236,179,28663,1,10,0:2:0:0:
41,332,28793,6,0,L|161:332,1,90,6|0,3:2|0:2,0:0:0:0:
320,329,29054,2,0,L|320:209,1,90,2|0,3:2|0:2,0:0:0:0:
209,238,29315,1,2,3:2:0:0:
419,239,29446,2,0,L|419:107,1,90,2|0,0:2|3:2,0:0:0:0:
207,145,29706,5,2,0:2:0:0:
296,146,29836,1,0,3:2:0:0:
385,147,29966,1,0,0:2:0:0:
195,171,30098,2,0,L|195:67,1,90,2|0,3:2|0:2,0:0:0:0:
308,80,30359,1,2,3:2:0:0:
101,334,30489,2,0,L|221:334,1,90,10|0,0:2|3:2,0:0:0:0:
388,331,30750,1,10,0:2:0:0:
191,334,30880,6,0,L|191:210,1,90,4|0,3:2|0:2,0:0:0:0:
303,243,31141,1,2,3:2:0:0:
191,242,31272,1,2,0:2:0:0:
303,243,31402,1,2,3:2:0:0:
108,152,31533,1,2,0:2:0:0:
197,152,31663,1,0,3:2:0:0:
108,152,31793,1,2,0:2:0:0:
296,344,31924,5,6,3:2:0:0:
173,347,32054,2,0,L|105:347,2,45,2|0|0,3:2|3:2|3:2,3:0:0:0:
368,216,32315,2,0,L|484:216,1,90,2|0,3:2|3:2,0:0:0:0:
216,148,32576,1,2,3:2:0:0:
328,148,32706,1,2,3:2:0:0:
220,152,32837,1,2,3:2:0:0:
480,80,32967,5,10,3:2:0:0:
140,80,33489,1,8,3:2:0:0:
480,80,34011,6,0,L|372:80,1,90,8|0,3:2|0:2,0:0:0:0:
26,77,34272,2,0,L|130:77,1,90,8|0,3:2|0:2,0:0:0:0:
311,78,34533,1,8,3:2:0:0:
116,77,34663,1,8,3:2:0:0:
440,364,34924,6,0,P|500:296|412:260,1,198.000006042481,4|0,3:2|0:2,0:0:0:0:
230,254,35315,2,0,L|350:254,1,99.0000030212403,10|0,0:2|0:2,0:0:0:0:
129,192,35576,2,0,L|237:192,2,99.0000030212403,2|0|10,0:2|0:2|0:2,0:0:0:0:
329,118,35967,6,0,L|105:118,1,198.000006042481,2|2,0:2|0:2,0:0:0:0:
344,352,36359,2,0,L|344:244,1,99.0000030212403,10|0,0:2|0:2,0:0:0:0:
236,256,36619,1,2,0:2:0:0:
441,158,36750,2,0,L|329:158,1,99.0000030212403,2|8,0:2|0:2,0:0:0:0:
121,345,37011,6,0,P|69:309|141:213,1,198.000006042481,4|0,0:2|0:2,0:0:0:0:
330,211,37402,2,0,L|400:113,1,99.0000030212403,10|0,0:2|0:2,0:0:0:0:
184,156,37663,2,0,L|184:56,1,99.0000030212403,2|0,0:2|0:2,0:0:0:0:
292,58,37924,1,8,0:2:0:0:
80,328,38054,6,0,L|288:328,1,198.000006042481,6|0,0:2|0:2,0:0:0:0:
70,265,38446,2,0,L|70:161,1,99.0000030212403,10|0,0:2|0:2,0:0:0:0:
266,159,38706,2,0,L|354:159,1,49.5000015106202,2|0,0:2|0:2,0:0:0:0:
152,112,38837,2,0,L|152:48,1,49.5000015106202,2|0,0:2|0:2,0:0:0:0:
312,62,38967,1,8,0:2:0:0:
96,328,39098,6,0,L|304:328,1,198.000006042481,4|0,0:2|0:2,0:0:0:0:
87,222,39489,2,0,L|223:222,2,99.0000030212403,10|0|2,0:2|0:2|0:2,0:0:0:0:
292,151,39880,2,0,L|188:151,1,99.0000030212403,2|8,0:2|0:2,0:0:0:0:
432,344,40141,6,0,L|220:344,1,198.000006042481,2|2,0:2|0:2,0:0:0:0:
332,344,40533,1,10,0:2:0:0:
129,262,40663,2,0,L|253:262,1,99.0000030212403,0|2,0:2|0:2,0:0:0:0:
24,212,40924,2,0,L|24:144,1,49.5000015106202,2|0,0:2|0:2,0:0:0:0:
208,168,41054,2,0,L|340:168,1,99.0000030212403,8|0,0:2|0:2,0:0:0:0:
48,340,41315,6,0,P|48:264|168:228,1,198.000006042481,14|0,0:2|0:2,0:0:0:0:
350,168,41706,2,0,L|118:168,1,198.000006042481,10|0,0:2|0:2,0:0:0:0:
360,167,42098,2,0,P|420:111|336:59,1,198.000006042481,10|0,0:2|0:2,0:0:0:0:
147,283,42489,5,8,0:2:0:0:
280,287,42619,2,0,L|280:167,1,99.0000030212403,10|0,0:2|0:2,0:0:0:0:
85,147,42880,2,0,L|85:43,1,99.0000030212403,10|0,0:2|0:2,0:0:0:0:
285,47,43141,2,0,L|413:47,1,99.0000030212403,10|0,0:2|0:2,0:0:0:0:
184,361,43402,6,0,L|408:361,1,198.000006042481,14|0,0:2|0:2,0:0:0:0:
175,296,43793,2,0,P|107:248|195:196,1,198.000006042481,10|0,0:2|0:2,0:0:0:0:
377,180,44185,2,0,L|149:180,1,198.000006042481,10|0,0:2|0:2,0:0:0:0:
408,108,44576,5,8,0:2:0:0:
280,104,44706,2,0,L|280:240,1,99.0000030212403,10|0,0:2|0:2,0:0:0:0:
483,272,44967,2,0,L|351:272,1,99.0000030212403,10|0,0:2|0:2,0:0:0:0:
182,271,45228,2,0,L|306:271,1,99.0000030212403,10|0,0:2|0:2,0:0:0:0:
483,207,45489,5,10,0:2:0:0:
112,200,46011,1,8,0:2:0:0:
316,193,46533,6,0,L|462:105,2,138.000002632141,6|0|0,1:2|1:0|1:0,0:0:0:0:
159,194,47054,2,0,L|8:116,2,150,2|8|8,0:2|0:1|0:1,0:0:0:0:
395,348,47576,6,0,P|455:264|367:212,1,215.999993408203,6|0,1:2|0:2,0:0:0:0:
251,212,48097,2,0,L|487:212,1,215.999993408203,8|0,0:1|0:2,0:0:0:0:
232,328,48619,6,0,P|172:232|240:196,1,215.999993408203,2|0,1:2|0:2,0:0:0:0:
368,192,49141,2,0,P|432:104|340:72,1,215.999993408203,8|0,0:1|0:2,0:0:0:0:
100,344,49662,6,0,L|336:344,1,215.999993408203,2|0,1:2|0:2,0:0:0:0:
185,344,50184,2,0,P|125:248|205:208,1,215.999993408203,8|0,0:1|0:2,0:0:0:0:
426,205,50706,2,0,L|190:205,1,215.999993408203,2|0,1:2|0:2,0:0:0:0:
340,202,51228,2,0,P|404:110|324:74,1,215.999993408203,8|0,0:1|0:2,0:0:0:0:
51,362,51749,6,0,L|287:362,1,215.999993408203,6|0,1:2|0:2,0:0:0:0:
136,359,52271,2,0,P|58:273|135:219,1,215.999993408203,8|0,0:1|0:2,0:0:0:0:
242,213,52793,2,0,L|242:89,1,107.999996704102,2|0,1:2|1:2,0:0:0:0:
111,110,53141,1,0,1:2:0:0:
249,213,53315,2,0,P|330:135|232:98,1,215.999993408203,8|0,0:1|0:2,0:0:0:0:
31,361,53836,6,0,L|31:233,1,107.999996704102,2|0,1:2|1:2,0:0:0:0:
160,252,54184,1,0,1:2:0:0:
31,253,54358,2,0,L|155:253,1,107.999996704102,8|0,1:1|1:2,0:0:0:0:
269,251,54706,1,0,1:2:0:0:
35,195,54880,2,0,B|35:34|35:34|152:33,1,215.999993408203
341,352,55402,2,0,L|105:352,1,215.999993408203,2|0,1:2|0:2,0:0:0:0:
380,276,55923,6,0,P|380:144|284:140,1,215.999993408203,6|0,1:2|0:2,0:0:0:0:
189,129,56445,2,0,L|445:129,1,215.999993408203,8|0,0:1|0:2,0:0:0:0:
163,357,56967,2,0,P|99:257|179:229,1,215.999993408203,2|0,1:2|0:2,0:0:0:0:
286,227,57489,2,0,L|46:227,1,215.999993408203,8|0,0:1|0:2,0:0:0:0:
344,352,58010,6,0,P|408:260|336:224,1,215.999993408203,2|0,1:2|0:2,0:0:0:0:
211,223,58532,2,0,L|211:71,1,107.999996704102,8|0,1:1|1:2,0:0:0:0:
340,116,58880,1,0,1:2:0:0:
52,360,59054,2,0,P|164:328|24:88,1,485.999985168458,6|0,1:2|0:2,0:0:0:0:
376,80,60097,5,2,3:2:0:0:
179,331,60227,1,0,3:2:0:0:
131,331,60292,1,0,0:2:0:0:
179,331,60357,2,0,L|311:331,1,99.0000030212403,2|0,0:2|0:2,0:0:0:0:
179,235,60618,2,0,L|295:235,1,99.0000030212403,2|2,0:2|0:2,0:0:0:0:
179,235,60879,2,0,L|75:235,1,99.0000030212403,0|0,0:2|0:2,0:0:0:0:
280,141,61140,5,2,3:2:0:0:
90,148,61270,2,0,L|90:40,1,99.0000030212403,2|0,3:2|0:2,0:0:0:0:
299,39,61531,2,0,L|87:39,1,198.000006042481,2|2,3:2|3:2,0:0:0:0:
310,276,61923,2,0,L|450:276,1,99.0000030212403,2|2,3:2|3:2,0:0:0:0:
182,216,62183,5,2,3:2:0:0:
377,204,62314,2,0,L|465:204,1,49.5000015106202,0|0,3:2|0:2,0:0:0:0:
377,204,62444,2,0,L|257:204,1,99.0000030212403,2|0,0:2|0:2,0:0:0:0:
377,204,62705,2,0,L|377:88,1,99.0000030212403,2|2,0:2|0:2,0:0:0:0:
277,108,62966,2,0,L|277:220,1,99.0000030212403,0|0,0:2|0:2,0:0:0:0:
479,208,63227,5,2,3:2:0:0:
266,276,63357,2,0,L|138:276,1,99.0000030212403,2|0,3:2|0:2,0:0:0:0:
372,276,63618,2,0,P|428:248|360:164,1,198.000006042481,6|2,3:2|3:2,0:0:0:0:
164,166,64010,2,0,L|48:166,1,99.0000030212403,2|2,3:2|3:2,0:0:0:0:
284,348,64270,6,0,L|284:228,1,99.0000030212403,6|0,3:2|0:2,0:0:0:0:
144,252,64531,2,0,L|144:120,1,99.0000030212403,2|0,3:2|0:2,0:0:0:0:
339,148,64792,1,2,3:2:0:0:
140,144,64923,2,0,L|28:144,2,99.0000030212403,2|0|0,0:2|3:2|0:2,0:0:0:0:
344,336,65314,6,0,L|208:336,1,99.0000030212403,2|0,3:2|3:2,0:0:0:0:
196,336,65510,1,0,3:2:0:0:
148,336,65575,1,0,3:2:0:0:
348,248,65705,2,0,L|464:248,1,99.0000030212403,2|0,3:2|3:2,0:0:0:0:
348,248,65966,2,0,L|264:248,1,49.5000015106202,2|0,3:2|3:2,0:0:0:0:
472,184,66097,2,0,L|472:72,1,99.0000030212403,10|2,3:2|3:2,0:0:0:0:
168,60,66357,5,10,3:2:0:0:
472,84,66879,1,10,3:2:0:0:
144,72,67401,6,0,L|40:72,1,99.0000030212403,10|0,3:2|3:2,0:0:0:0:
297,73,67662,2,0,L|425:73,1,99.0000030212403,8|0,3:2|3:2,0:0:0:0:
144,72,67923,2,0,L|256:72,1,99.0000030212403,10|0,3:2|3:2,0:0:0:0:
490,70,68183,1,8,3:2:0:0:
377,73,68314,1,0,3:2:0:0:
264,340,68444,5,0,3:2:0:0:
216,320,68509,1,0,3:2:0:0:
215,272,68574,1,0,3:2:0:0:
263,250,68639,1,0,3:2:0:0:
424,256,68705,1,8,3:2:0:0:
184,176,68966,2,0,L|296:176,1,99.0000030212403,2|2,0:2|0:2,0:0:0:0:
184,176,69227,2,0,L|64:176,1,99.0000030212403,2|2,0:2|0:2,0:0:0:0:
376,176,69488,6,0,L|516:176,1,99.0000030212403,14|0,0:2|0:0,0:0:0:0:
264,88,69749,2,0,L|408:88,1,99.0000030212403,8|0,0:2|0:2,0:0:0:0:
156,312,70010,2,0,L|300:312,1,99.0000030212403,8|0,0:2|0:2,0:0:0:0:
40,300,70270,2,0,L|40:172,1,99.0000030212403,10|0,0:2|0:2,0:0:0:0:
296,348,70531,6,0,L|296:232,1,99.0000030212403,14|0,0:2|0:2,0:0:0:0:
164,240,70792,2,0,L|164:120,1,99.0000030212403,10|0,0:2|0:2,0:0:0:0:
376,124,71053,2,0,L|488:124,1,99.0000030212403,10|0,0:2|0:2,0:0:0:0:
248,124,71314,2,0,L|136:124,1,99.0000030212403,10|0,0:2|0:2,0:0:0:0:
380,340,71575,6,0,L|496:340,1,99.0000030212403,14|0,0:2|0:2,0:0:0:0:
260,292,71836,2,0,L|388:292,1,99.0000030212403,8|0,0:2|0:2,0:0:0:0:
148,224,72096,2,0,L|272:224,1,99.0000030212403,8|0,0:2|0:2,0:0:0:0:
476,228,72357,2,0,L|476:104,1,99.0000030212403,10|0,0:2|0:2,0:0:0:0:
168,348,72618,6,0,L|168:240,1,99.0000030212403,14|0,0:2|0:2,0:0:0:0:
276,244,72879,2,0,L|404:244,1,99.0000030212403,10|0,0:2|0:2,0:0:0:0:
124,240,73140,2,0,L|20:240,1,99.0000030212403,10|0,0:2|0:2,0:0:0:0:
276,172,73401,2,0,L|392:172,1,99.0000030212403,10|0,0:2|0:2,0:0:0:0:
120,80,73662,6,0,L|256:80,1,99.0000030212403,14|0,0:2|0:2,0:0:0:0:
464,72,73923,2,0,L|348:72,1,99.0000030212403,8|0,0:2|0:2,0:0:0:0:
120,204,74183,2,0,L|260:204,1,99.0000030212403,10|0,0:2|0:2,0:0:0:0:
318,204,74444,2,0,L|190:204,1,99.0000030212403,8|0,0:2|0:2,0:0:0:0:
480,340,74705,6,0,L|368:340,1,99.0000030212403,14|0,0:2|0:2,0:0:0:0:
160,260,74966,2,0,L|272:260,1,99.0000030212403,10|0,0:2|0:2,0:0:0:0:
48,324,75227,2,0,L|168:324,1,99.0000030212403,10|0,0:2|0:2,0:0:0:0:
376,352,75488,2,0,L|376:240,1,99.0000030212403,10|0,0:2|0:2,0:0:0:0:
36,212,75749,6,0,L|140:212,1,99.0000030212403,14|0,0:2|0:2,0:0:0:0:
368,212,76010,2,0,L|368:80,1,99.0000030212403,10|0,0:2|0:2,0:0:0:0:
148,216,76270,1,10,0:2:0:0:
368,212,76401,2,0,L|484:212,2,99.0000030212403,2|8|0,0:2|0:2|0:2,0:0:0:0:
144,340,76792,6,0,L|144:220,1,99.0000030212403,14|0,0:2|0:2,0:0:0:0:
364,220,77053,2,0,L|476:220,1,99.0000030212403,0|0,0:2|0:2,0:0:0:0:
240,124,77314,2,0,L|368:124,1,99.0000030212403,2|2,3:2|3:2,0:0:0:0:
128,40,77575,1,10,3:2:0:0:
344,124,77705,1,2,3:2:0:0:
136,352,77836,6,0,L|0:352,1,99.0000030212403,14|0,0:2|0:0,0:0:0:0:
256,260,78096,2,0,L|112:260,1,99.0000030212403,8|0,0:2|0:2,0:0:0:0:
368,196,78357,2,0,L|240:196,1,99.0000030212403,8|0,0:2|0:2,0:0:0:0:
484,172,78618,2,0,L|484:56,1,99.0000030212403,10|0,0:2|0:2,0:0:0:0:
192,156,78879,6,0,L|328:156,1,99.0000030212403,14|0,0:2|0:2,0:0:0:0:
390,156,79140,2,0,L|250:156,1,99.0000030212403,10|0,0:2|0:2,0:0:0:0:
72,216,79401,2,0,L|216:216,1,99.0000030212403,10|0,0:2|0:2,0:0:0:0:
408,224,79662,2,0,L|408:108,1,99.0000030212403,10|0,0:2|0:2,0:0:0:0:
136,164,79923,6,0,L|8:164,1,99.0000030212403,14|0,0:2|0:2,0:0:0:0:
236,88,80183,2,0,L|104:88,1,99.0000030212403,8|0,0:2|0:2,0:0:0:0:
340,168,80444,2,0,L|208:168,1,99.0000030212403,8|0,0:2|0:2,0:0:0:0:
456,176,80705,2,0,L|456:40,1,99.0000030212403,10|0,0:2|0:2,0:0:0:0:
196,360,80966,6,0,L|196:236,1,99.0000030212403,14|0,0:2|0:2,0:0:0:0:
316,248,81227,2,0,L|316:136,1,99.0000030212403,10|0,0:2|0:2,0:0:0:0:
40,176,81488,2,0,L|148:176,1,99.0000030212403,10|0,0:2|0:2,0:0:0:0:
460,172,81749,2,0,L|344:172,1,99.0000030212403,10|0,0:2|0:2,0:0:0:0:
136,376,82010,6,0,P|64:312|163:151,1,315,6|0,3:2|0:2,0:0:0:0:
210,146,82531,2,0,P|363:194|330:341,1,315,2|0,0:2|0:2,0:0:0:0:
144,352,83053,6,0,P|88:308|158:235,1,180,6|2,3:2|0:2,0:0:0:0:
356,197,83575,2,0,L|140:197,1,180,2|2,0:2|0:2,0:0:0:0:
85,198,83966,1,8,0:2:0:0:
308,360,84096,6,0,P|388:336|449:233,1,180,14|0,3:2|3:2,0:0:0:0:
215,251,84488,2,0,P|107:231|62:141,1,180,14|0,3:2|3:2,0:0:0:0:
295,152,84879,2,0,L|412:152,1,90,14|0,3:2|3:2,0:0:0:0:
160,340,85140,6,0,P|108:292|170:222,1,180,14|0,3:2|3:2,0:0:0:0:
261,220,85531,2,0,L|318:220,1,45,0|0,3:2|3:2,0:0:0:0:
56,156,85662,5,12,3:2:0:0:
256,192,85923,12,0,88010,0:0:0:0:
