osu file format v14

[General]
AudioFilename: audio.mp3
AudioLeadIn: 0
PreviewTime: 68886
Countdown: 0
SampleSet: Soft
StackLeniency: 0.7
Mode: 2
LetterboxInBreaks: 0
WidescreenStoryboard: 1

[Editor]
Bookmarks: 16844,17105,17887,18148,18931,19192
DistanceSpacing: 1
BeatDivisor: 4
GridSize: 8
TimelineZoom: 1.6

[Metadata]
Title:Anoko ni Drop Kick (TV Size)
TitleUnicode:あの娘にドロップキック (TV Size)
Artist:Jashin*Girls
ArtistUnicode:邪神★ガールズ
Creator:[_-Kukkai-_]
Version:Daletto's Royal Copenhagen
Source:邪神ちゃんドロップキック
Tags:wonjae Paranoid Grapes rew0825 NyalettOwO x3 Dropkick daletto On My Devil!! Jyashin-chan False God Aina Suzuki Nichika Oomori Miyu Kubota Yurie Kozakai Chiaki Omigawa Rico Sasaki Riho Iida snake anime japanese
BeatmapID:3011587
BeatmapSetID:1466437

[Difficulty]
HPDrainRate:6
CircleSize:4.5
OverallDifficulty:9.7
ApproachRate:9.7
SliderMultiplier:1.8
SliderTickRate:2

[Events]
//Background and Video events
0,0,"BG.jpg",0,0
Video,-1320,"vdo.mp4"
//Break Periods
//Storyboard Layer 0 (Background)
//Storyboard Layer 1 (Fail)
//Storyboard Layer 2 (Pass)
//Storyboard Layer 3 (Foreground)
//Storyboard Layer 4 (Overlay)
//Storyboard Sound Samples

[TimingPoints]
620,260.869565217391,4,2,1,70,1,0
7924,-90.9090909090909,4,2,1,70,0,0
16141,-90.9090909090909,4,3,1,70,0,0
26641,-90.9090909090909,4,3,1,70,0,0
26706,-100,4,2,1,60,0,0
34924,-90.9090909090909,4,3,1,65,0,0
46533,521.739130434783,4,2,2,60,1,0
46533,-43.4782608695652,4,2,2,60,0,0
47054,-40,4,2,2,60,0,0
47576,521.739130434783,4,2,2,60,1,0
47576,-55.5555555555556,4,2,2,60,0,0
47749,-55.5555555555556,4,2,2,10,0,0
47923,-55.5555555555556,4,2,2,60,0,0
48097,-55.5555555555556,4,2,2,60,0,0
48271,-55.5555555555556,4,2,2,10,0,0
48445,-55.5555555555556,4,2,2,60,0,0
49141,-55.5555555555556,4,2,2,60,0,0
49315,-55.5555555555556,4,2,2,10,0,0
49489,-55.5555555555556,4,2,2,60,0,0
49662,-55.5555555555556,4,2,2,60,0,0
49836,-55.5555555555556,4,2,2,10,0,0
50010,-55.5555555555556,4,2,2,60,0,0
50184,-55.5555555555556,4,2,2,60,0,0
50358,-55.5555555555556,4,2,2,10,0,0
50532,-55.5555555555556,4,2,2,60,0,0
51228,-55.5555555555556,4,2,2,60,0,0
51402,-55.5555555555556,4,2,2,10,0,0
51576,-55.5555555555556,4,2,2,60,0,0
51749,-55.5555555555556,4,2,2,60,0,0
51923,-55.5555555555556,4,2,2,10,0,0
52097,-55.5555555555556,4,2,2,60,0,0
52271,-55.5555555555556,4,2,2,60,0,0
52445,-55.5555555555556,4,2,2,10,0,0
52619,-55.5555555555556,4,2,2,60,0,0
53315,-55.5555555555556,4,2,2,60,0,0
53489,-55.5555555555556,4,2,2,10,0,0
53662,-55.5555555555556,4,2,2,60,0,0
55402,-55.5555555555556,4,2,2,60,0,0
55576,-55.5555555555556,4,2,2,10,0,0
55749,-55.5555555555556,4,2,2,60,0,0
55923,-55.5555555555556,4,2,2,60,0,0
56097,-55.5555555555556,4,2,2,10,0,0
56271,-55.5555555555556,4,2,2,60,0,0
56445,-55.5555555555556,4,2,2,60,0,0
56619,-55.5555555555556,4,2,2,10,0,0
56793,-55.5555555555556,4,2,2,60,0,0
57489,-55.5555555555556,4,2,2,60,0,0
57662,-55.5555555555556,4,2,2,10,0,0
57836,-55.5555555555556,4,2,2,60,0,0
58010,-55.5555555555556,4,2,2,60,0,0
58184,-55.5555555555556,4,2,2,10,0,0
58358,-55.5555555555556,4,2,2,60,0,0
58532,-55.5555555555556,4,2,2,60,0,0
58706,-55.5555555555556,4,2,2,10,0,0
58880,-55.5555555555556,4,2,2,60,0,0
59184,-100,4,2,2,20,0,0
60097,260.869565217391,4,2,1,70,1,0
60097,-90.9090909090909,4,2,1,70,0,0
69488,-83.3333333333333,4,3,1,85,0,1
77314,-83.3333333333333,4,2,1,85,0,0
77836,-83.3333333333333,4,3,1,85,0,1
82010,-83.3333333333333,4,2,1,85,0,0
82466,-83.3333333333333,4,2,1,5,0,0
82531,-83.3333333333333,4,2,1,85,0,0
82988,-83.3333333333333,4,2,1,5,0,0
83053,-83.3333333333333,4,2,1,85,0,0
85923,-83.3333333333333,4,2,1,5,0,0

[Colours]
Combo1 : 168,131,188
Combo2 : 143,245,114
Combo3 : 99,166,194
Combo4 : 235,213,109

[HitObjects]
264,304,620,6,0,P|264:256|176:168,1,180,2|2,0:0|0:0,0:0:0:0:
56,296,1141,2,0,P|56:248|144:160,1,180,2|2,0:0|0:0,0:0:0:0:
464,280,1663,6,0,P|464:232|256:24,1,360,4|0,3:2|0:0,0:0:0:0:
384,104,2446,1,2,0:0:0:0:
32,240,2706,6,0,L|160:112,1,180,4|2,3:2|0:0,0:0:0:0:
280,200,3228,2,0,L|144:64,1,180,2|2,0:0|0:0,0:0:0:0:
472,288,3750,6,0,P|472:240|384:152,1,180,6|0,3:2|3:2,0:0:0:0:
264,160,4141,2,0,L|448:160,1,180,8|0,3:2|3:2,0:0:0:0:
328,128,4533,2,0,L|320:24,1,90,2|0,3:2|3:0,3:0:0:0:
88,288,4793,6,0,P|56:256|136:176,1,180,6|2,3:2|0:2,0:0:0:0:
240,144,5185,1,0,3:2:0:0:
176,144,5250,1,0,3:0:0:0:
136,144,5315,2,0,L|128:80,2,60,10|8|8,0:2|0:2|0:2,0:0:0:0:
336,88,5576,1,2,3:2:0:0:
400,88,5663,2,0,L|408:152,1,60
160,304,5837,6,0,P|160:256|312:104,1,270,6|0,3:2|0:0,0:0:0:0:
416,280,6359,2,0,P|416:232|264:80,1,270,2|0,0:2|0:0,0:0:0:0:
464,232,6880,6,0,B|472:224|472:224|464:216|464:216|472:208|472:208|464:200|464:200|472:192|472:192|464:184|464:184|472:176|472:176|464:168|464:168|472:160|472:160|464:152|464:152|472:144|472:144|464:136|464:136|472:128|472:128|464:120|464:120|472:112|472:112|464:104|464:104,3,180,6|0|0|2,3:2|3:2|3:2|3:2,0:0:0:0:
80,192,7924,5,6,3:2:0:0:
376,200,8054,2,0,L|368:96,1,99.0000030212403,0|2,3:2|0:2,0:0:0:0:
256,152,8315,2,0,L|264:48,1,99.0000030212403,0|2,0:2|0:2,0:0:0:0:
152,168,8576,2,0,L|144:64,1,99.0000030212403,2|0,0:2|0:2,0:0:0:0:
32,112,8837,1,0,0:2:0:0:
336,120,8967,5,2,3:2:0:0:
152,120,9098,2,0,L|280:120,1,99.0000030212403,0|0,3:2|0:2,0:0:0:0:
64,200,9359,2,0,L|56:96,1,99.0000030212403,2|0,3:2|0:2,0:0:0:0:
280,104,9619,2,0,L|176:104,1,99.0000030212403,0|2,3:2|0:2,0:0:0:0:
416,112,9880,1,2,0:2:0:0:
120,256,10011,5,2,3:2:0:0:
376,208,10141,2,0,L|384:104,1,99.0000030212403,0|2,3:2|0:2,0:0:0:0:
272,160,10402,2,0,L|352:80,1,99.0000030212403,0|2,0:2|0:2,0:0:0:0:
224,168,10663,2,0,L|216:64,1,99.0000030212403,2|0,0:2|0:2,0:0:0:0:
328,80,10924,1,0,0:2:0:0:
104,136,11054,5,2,3:2:0:0:
304,144,11185,1,2,3:2:0:0:
312,136,11250,1,0,3:2:0:0:
320,128,11315,1,2,3:2:0:0:
64,208,11446,2,0,L|264:208,1,198.000006042481,6|2,3:2|3:2,0:0:0:0:
144,152,11837,1,2,3:2:0:0:
256,152,11967,1,2,3:2:0:0:
56,232,12098,6,0,L|48:128,1,99.0000030212403,6|0,3:2|0:2,0:0:0:0:
160,152,12359,2,0,L|232:80,1,99.0000030212403,2|0,3:2|0:2,0:0:0:0:
120,72,12619,1,2,3:2:0:0:
232,184,12750,2,0,L|240:80,1,99.0000030212403,2|0,0:2|3:2,0:0:0:0:
128,88,13011,1,0,0:2:0:0:
328,104,13141,6,0,L|216:104,1,99.0000030212403,2|8,3:2|0:2,0:0:0:0:
320,64,13402,1,2,3:2:0:0:
80,104,13533,1,2,0:2:0:0:
320,200,13663,2,0,L|328:144,1,49.5000015106202,8|8,3:2|3:2,0:0:0:0:
120,192,13793,2,0,L|48:192,1,49.5000015106202,0|0,3:2|3:2,0:0:0:0:
248,160,13924,2,0,L|304:160,1,49.5000015106202,2|0,3:2|3:2,0:0:0:0:
472,160,14054,2,0,L|416:160,1,49.5000015106202,2|0,3:2|3:2,0:0:0:0:
120,152,14185,5,6,3:2:0:0:
320,120,14315,1,2,0:2:0:0:
240,120,14446,1,0,3:2:0:0:
120,120,14576,1,0,0:2:0:0:
360,200,14706,5,2,3:2:0:0:
160,168,14836,1,2,0:2:0:0:
240,168,14967,1,0,3:2:0:0:
360,168,15097,1,0,0:2:0:0:
120,216,15228,5,2,3:2:0:0:
48,184,15293,1,0,3:2:0:0:
24,136,15359,1,0,3:2:0:0:
48,184,15424,1,0,3:2:0:0:
248,120,15489,2,0,L|304:120,1,49.5000015106202,2|0,3:2|3:2,0:0:0:0:
96,96,15619,2,0,L|88:48,1,49.5000015106202,2|0,3:2|3:2,0:0:0:0:
288,72,15750,1,8,3:2:0:0:
40,232,15880,2,0,L|32:80,1,148.50000453186,8|0,3:2|0:2,0:0:0:0:
272,192,16141,6,0,L|280:88,1,99.0000030212403,4|0,0:2|0:2,0:0:0:0:
168,112,16402,1,2,0:2:0:0:
232,112,16467,1,0,0:2:0:0:
272,104,16533,2,0,L|168:104,1,99.0000030212403,10|2,0:2|0:2,0:0:0:0:
376,96,16793,1,2,0:2:0:0:
168,64,16924,2,0,L|288:64,1,99.0000030212403,2|10,0:2|0:2,0:0:0:0:
64,152,17185,5,2,0:2:0:0:
272,152,17446,1,2,0:2:0:0:
280,144,17511,1,0,0:2:0:0:
288,136,17576,1,10,0:2:0:0:
168,128,17706,1,2,0:2:0:0:
288,96,17837,1,2,0:2:0:0:
248,96,17902,1,0,0:0:0:0:
184,96,17967,1,2,0:2:0:0:
392,80,18098,1,10,0:2:0:0:
144,240,18228,6,0,L|32:240,1,99.0000030212403,6|0,0:2|0:0,0:0:0:0:
168,176,18489,1,2,0:2:0:0:
232,176,18554,1,0,0:2:0:0:
272,176,18619,2,0,L|264:72,1,99.0000030212403,10|2,0:2|0:2,0:0:0:0:
72,112,18880,1,2,0:2:0:0:
264,77,19011,2,0,L|160:77,1,99.0000030212403,2|10,0:2|0:2,0:0:0:0:
464,232,19272,6,0,P|464:176|368:80,1,198.000006042481,6|2,0:2|0:2,0:0:0:0:
160,96,19663,2,0,L|304:96,1,99.0000030212403,10|0,0:2|0:2,0:0:0:0:
56,168,19924,1,10,0:2:0:0:
248,144,20054,2,0,L|304:144,1,49.5000015106202,10|0,0:2|0:2,0:0:0:0:
96,136,20185,1,10,0:2:0:0:
352,160,20315,6,0,L|472:160,1,99.0000030212403,6|0,0:2|0:0,0:0:0:0:
344,152,20576,1,2,0:2:0:0:
336,144,20641,1,0,0:0:0:0:
328,136,20706,2,0,L|432:136,1,99.0000030212403,10|2,0:2|0:2,0:0:0:0:
216,112,20967,1,2,0:2:0:0:
424,96,21098,2,0,L|312:96,1,99.0000030212403,2|10,0:2|0:2,0:0:0:0:
112,96,21359,5,2,0:2:0:0:
320,160,21620,1,2,0:2:0:0:
280,160,21685,1,0,0:2:0:0:
216,160,21750,1,10,0:2:0:0:
328,112,21880,1,2,0:2:0:0:
216,104,22011,1,2,0:2:0:0:
256,104,22076,1,0,0:0:0:0:
320,104,22141,1,2,0:2:0:0:
104,88,22272,1,10,0:2:0:0:
400,288,22402,6,0,P|400:232|304:136,1,198.000006042481,6|2,0:2|0:2,0:0:0:0:
240,136,22728,1,2,0:2:0:0:
176,136,22793,2,0,L|288:136,1,99.0000030212403,10|0,0:2|0:2,0:0:0:0:
72,112,23054,1,2,0:2:0:0:
272,88,23185,1,2,0:2:0:0:
168,96,23315,2,0,L|160:200,1,99.0000030212403,8|2,0:2|0:2,0:0:0:0:
376,184,23576,6,0,L|272:184,1,99.0000030212403,0|10,0:2|0:2,0:0:0:0:
344,152,23772,1,0,0:2:0:0:
408,160,23837,2,0,L|416:56,1,99.0000030212403,10|10,0:2|0:2,0:0:0:0:
216,112,24098,2,0,L|160:112,1,49.5000015106202,10|8,0:2|0:2,0:0:0:0:
328,112,24228,2,0,L|336:64,1,49.5000015106202,10|8,0:2|0:2,0:0:0:0:
176,96,24359,1,10,0:2:0:0:
400,264,24489,6,0,P|472:192|416:136,1,198.000006042481,6|0,0:2|0:2,0:0:0:0:
304,144,24880,2,0,L|376:72,1,99.0000030212403,0|0,0:2|0:2,0:0:0:0:
256,112,25141,2,0,L|248:216,1,99.0000030212403,0|0,0:2|0:2,0:0:0:0:
368,184,25402,1,8,0:2:0:0:
128,192,25533,6,0,L|352:192,1,198.000006042481,6|2,0:2|0:2,0:0:0:0:
136,184,25924,2,0,L|32:184,1,99.0000030212403,10|0,0:2|0:2,0:0:0:0:
232,136,26185,1,10,0:2:0:0:
40,136,26315,1,2,0:2:0:0:
240,128,26446,2,0,L|80:128,1,148.50000453186,10|0,0:2|0:2,0:0:0:0:
352,192,26706,6,0,L|448:192,1,90,4|0,3:2|0:2,0:0:0:0:
320,160,26967,2,0,L|312:64,1,90,2|0,3:2|0:2,0:0:0:0:
192,144,27228,2,0,P|192:96|280:8,1,180,2|0,3:2|3:0,0:0:0:0:
160,40,27619,1,2,0:2:0:0:
408,160,27750,5,2,3:2:0:0:
296,160,27880,1,2,0:2:0:0:
416,152,28011,1,0,3:2:0:0:
216,216,28141,2,0,L|408:216,1,180,2|10,0:2|0:2,0:0:0:0:
192,208,28533,2,0,L|96:208,1,90,2|10,3:2|0:2,0:0:0:0:
336,176,28793,6,0,L|344:80,1,90,6|0,3:2|0:2,0:0:0:0:
224,128,29054,2,0,L|216:32,1,90,2|0,3:2|0:2,0:0:0:0:
336,64,29315,1,2,3:2:0:0:
224,64,29446,1,0,3:2:0:0:
344,56,29576,1,0,3:2:0:0:
112,288,29706,6,0,P|72:248|144:176,1,180,2|0,0:2|0:2,0:0:0:0:
264,168,30098,2,0,L|272:72,1,90,2|0,3:2|0:2,0:0:0:0:
152,104,30359,1,2,3:2:0:0:
336,80,30489,2,0,L|440:80,1,90,10|0,0:2|3:2,0:0:0:0:
240,216,30750,6,0,L|432:216,1,180,10|0,0:2|0:2,0:0:0:0:
296,168,31141,2,0,L|216:88,1,90,2|2,3:2|0:2,0:0:0:0:
352,128,31402,1,2,3:2:0:0:
232,120,31533,2,0,L|224:24,1,90,2|0,0:2|3:2,0:0:0:0:
344,64,31793,1,2,0:2:0:0:
144,160,31924,5,6,3:2:0:0:
256,160,32054,1,2,3:2:0:0:
248,152,32119,1,0,3:2:0:0:
240,144,32185,1,0,3:2:0:0:
40,112,32315,2,0,L|160:112,1,90,2|0,3:2|3:2,0:0:0:0:
344,96,32576,2,0,L|240:96,1,90,2|2,3:2|3:2,0:0:0:0:
464,88,32837,1,2,3:2:0:0:
128,136,32967,5,10,3:2:0:0:
408,136,33489,1,8,3:2:0:0:
192,144,33880,1,0,0:0:0:0:
392,128,34011,6,0,L|400:32,1,90,8|0,3:2|0:2,0:0:0:0:
328,48,34206,1,0,0:0:0:0:
256,48,34272,2,0,L|368:48,1,90,8|0,3:2|0:2,0:0:0:0:
160,64,34533,1,8,3:2:0:0:
440,64,34663,1,8,3:2:0:0:
56,272,34924,6,0,P|56:216|152:120,1,198.000006042481,4|0,3:2|0:2,0:0:0:0:
352,112,35315,2,0,L|248:112,1,99.0000030212403,10|0,0:2|0:2,0:0:0:0:
456,104,35576,2,0,L|352:104,2,99.0000030212403,2|0|10,0:2|0:2|0:2,0:0:0:0:
216,272,35967,6,0,L|208:72,1,198.000006042481,2|2,0:2|0:2,0:0:0:0:
416,144,36359,2,0,L|408:40,1,99.0000030212403,10|0,0:2|0:2,0:0:0:0:
208,104,36619,1,2,0:2:0:0:
312,104,36750,2,0,L|320:208,1,99.0000030212403,2|8,0:2|0:2,0:0:0:0:
104,176,37011,6,0,L|304:176,1,198.000006042481,4|0,0:2|0:2,0:0:0:0:
296,160,37337,1,0,0:0:0:0:
136,136,37402,2,0,L|24:136,1,99.0000030212403,10|0,0:2|0:2,0:0:0:0:
256,80,37663,2,0,L|152:80,2,99.0000030212403,2|0|8,0:2|0:2|0:2,0:0:0:0:
472,200,38054,6,0,L|272:200,1,198.000006042481,6|0,0:2|0:2,0:0:0:0:
280,176,38380,1,0,0:0:0:0:
440,152,38446,2,0,L|448:48,1,99.0000030212403,10|0,0:2|0:2,0:0:0:0:
232,104,38706,2,0,L|224:48,1,49.5000015106202,2|0,0:2|0:2,0:0:0:0:
384,104,38837,2,0,L|328:104,1,49.5000015106202,2|0,0:2|0:2,0:0:0:0:
176,96,38967,1,8,0:2:0:0:
432,280,39098,6,0,P|472:240|392:160,1,198.000006042481,4|0,0:2|0:2,0:0:0:0:
208,160,39489,2,0,L|320:160,1,99.0000030212403,10|0,0:2|0:2,0:0:0:0:
120,128,39750,2,0,L|16:128,2,99.0000030212403,2|2|8,0:2|0:2|0:2,0:0:0:0:
336,152,40141,6,0,L|136:152,1,198.000006042481,2|2,0:2|0:2,0:0:0:0:
336,128,40533,1,10,0:2:0:0:
144,120,40663,2,0,L|256:120,1,99.0000030212403,0|2,0:2|0:2,0:0:0:0:
48,120,40924,1,2,0:2:0:0:
56,112,40989,1,0,0:2:0:0:
64,104,41054,2,0,L|176:104,1,99.0000030212403,8|0,0:2|0:2,0:0:0:0:
472,112,41315,6,0,L|368:112,2,99.0000030212403,14|0|0,0:2|0:0|0:2,0:0:0:0:
232,160,41706,1,10,0:2:0:0:
336,160,41837,2,0,L|344:56,1,99.0000030212403,0|0,0:0|0:2,0:0:0:0:
104,80,42098,5,10,0:2:0:0:
176,80,42228,1,0,0:0:0:0:
280,80,42359,1,0,0:2:0:0:
40,160,42489,2,0,L|144:160,2,99.0000030212403,8|10|0,0:2|0:2|0:2,0:0:0:0:
336,144,42880,6,0,L|448:144,1,99.0000030212403,10|0,0:2|0:2,0:0:0:0:
200,120,43141,2,0,L|88:120,1,99.0000030212403,10|0,0:2|0:2,0:0:0:0:
360,232,43402,5,14,0:2:0:0:
472,232,43533,2,0,L|464:128,1,99.0000030212403,0|0,0:0|0:2,0:0:0:0:
256,128,43793,2,0,L|368:128,2,99.0000030212403,10|0|0,0:2|0:0|0:2,0:0:0:0:
40,200,44185,6,0,L|48:96,1,99.0000030212403,10|0,0:2|0:0,0:0:0:0:
160,120,44446,1,0,0:2:0:0:
400,112,44576,2,0,L|200:112,1,198.000006042481,8|0,0:2|0:2,0:0:0:0:
448,192,44967,6,0,L|456:88,1,99.0000030212403,10|0,0:2|0:2,0:0:0:0:
160,104,45228,2,0,L|56:104,1,99.0000030212403,10|0,0:2|0:2,0:0:0:0:
360,128,45489,5,10,0:2:0:0:
64,160,46011,1,8,0:2:0:0:
360,144,46533,5,6,1:2:0:0:
216,272,46706,2,0,L|224:128,1,138.000002632141,0|0,1:0|1:0,0:0:0:0:
384,152,47054,2,0,L|224:152,2,150,2|8|8,0:2|0:1|0:1,0:0:0:0:
120,248,47576,6,0,P|40:168|96:112,1,215.999993408203,6|0,1:2|0:2,0:0:0:0:
208,120,48097,2,0,L|48:280,1,215.999993408203,8|0,0:1|0:2,0:0:0:0:
288,272,48619,6,0,L|400:272,2,107.999996704102,2|0|0,1:2|0:0|0:2,0:0:0:0:
176,296,49141,2,0,P|64:296|64:216,1,215.999993408203,8|0,0:1|0:2,0:0:0:0:
296,208,49662,6,0,L|456:48,1,215.999993408203,2|0,1:2|0:2,0:0:0:0:
328,256,50184,2,0,L|168:96,1,215.999993408203,8|0,0:1|0:2,0:0:0:0:
408,232,50706,6,0,L|416:120,1,107.999996704102,2|0,1:2|0:0,0:0:0:0:
296,128,51054,1,0,0:2:0:0:
416,312,51228,2,0,P|416:200|344:128,1,215.999993408203,8|0,0:1|0:2,0:0:0:0:
104,312,51749,6,0,P|24:232|80:176,1,215.999993408203,6|0,1:2|0:2,0:0:0:0:
208,240,52271,2,0,P|288:160|232:104,1,215.999993408203,8|0,0:1|0:2,0:0:0:0:
104,160,52793,6,0,L|112:48,1,107.999996704102,2|0,1:2|1:2,0:0:0:0:
240,96,53141,1,0,1:2:0:0:
112,304,53315,2,0,L|104:88,1,215.999993408203,8|0,0:1|0:2,0:0:0:0:
336,192,53836,5,2,1:2:0:0:
464,192,54010,2,0,L|472:80,1,107.999996704102,0|0,1:2|1:2,0:0:0:0:
344,112,54358,2,0,L|464:112,2,107.999996704102,8|0|0,1:1|1:2|1:2,0:0:0:0:
112,112,54880,5,0,0:0:0:0:
352,120,55228,1,0,0:0:0:0:
112,112,55402,2,0,P|112:224|184:296,1,215.999993408203,2|0,1:2|0:2,0:0:0:0:
416,248,55923,6,0,L|256:88,1,215.999993408203,6|0,1:2|0:2,0:0:0:0:
392,208,56445,2,0,P|472:128|416:72,1,215.999993408203,8|0,0:1|0:2,0:0:0:0:
184,208,56967,6,0,L|72:208,1,107.999996704102,2|0,1:2|0:0,0:0:0:0:
208,152,57315,1,0,0:2:0:0:
80,184,57489,2,0,L|240:24,1,215.999993408203,8|0,0:1|0:2,0:0:0:0:
464,224,58010,6,0,P|464:112|392:40,1,215.999993408203,2|0,1:2|0:2,0:0:0:0:
272,240,58532,2,0,L|432:80,1,215.999993408203,8|0,1:1|1:2,0:0:0:0:
192,368,59054,6,0,P|192:288|464:16,1,485.999985168458,6|0,1:2|0:2,0:0:0:0:
40,176,60097,5,2,3:2:0:0:
160,168,60227,1,0,3:2:0:0:
168,160,60292,1,0,3:2:0:0:
160,168,60357,2,0,L|40:168,1,99.0000030212403,2|0,0:2|0:2,0:0:0:0:
184,176,60618,2,0,L|192:72,1,99.0000030212403,2|2,0:2|0:2,0:0:0:0:
72,120,60879,2,0,L|64:224,1,99.0000030212403,0|0,0:2|0:2,0:0:0:0:
272,120,61140,6,0,L|168:120,2,99.0000030212403,2|2|0,3:2|3:2|0:2,0:0:0:0:
472,192,61531,2,0,L|272:192,1,198.000006042481,2|2,3:2|3:2,0:0:0:0:
56,200,61923,2,0,L|168:200,1,99.0000030212403,2|2,3:2|3:2,0:0:0:0:
456,128,62183,5,2,3:2:0:0:
336,128,62314,1,0,3:2:0:0:
328,120,62379,1,0,3:2:0:0:
320,112,62444,2,0,L|424:112,1,99.0000030212403,2|0,0:2|0:2,0:0:0:0:
296,216,62705,2,0,L|304:112,1,99.0000030212403,2|2,0:2|0:2,0:0:0:0:
432,168,62966,2,0,L|328:168,1,99.0000030212403,0|0,0:2|0:2,0:0:0:0:
88,160,63227,6,0,L|192:160,2,99.0000030212403,2|2|0,3:2|3:2|0:2,0:0:0:0:
328,104,63618,2,0,L|112:104,1,198.000006042481,6|2,3:2|3:2,0:0:0:0:
368,200,64010,2,0,L|480:200,1,99.0000030212403,2|2,3:2|3:2,0:0:0:0:
160,264,64270,6,0,L|240:184,1,99.0000030212403,6|0,3:2|0:2,0:0:0:0:
352,200,64531,2,0,L|280:128,1,99.0000030212403,2|0,3:2|0:2,0:0:0:0:
160,184,64792,2,0,L|88:112,1,99.0000030212403,2|2,3:2|0:2,0:0:0:0:
216,144,65053,2,0,L|296:64,1,99.0000030212403,0|0,3:2|0:2,0:0:0:0:
72,192,65314,5,2,3:2:0:0:
184,168,65444,1,0,3:2:0:0:
144,168,65509,1,0,3:2:0:0:
80,168,65574,1,0,3:2:0:0:
296,192,65705,2,0,P|352:192|352:72,1,198.000006042481,2|2,3:2|3:2,0:0:0:0:
296,120,66031,1,0,3:2:0:0:
144,104,66097,2,0,L|40:104,1,99.0000030212403,10|2,3:2|3:2,0:0:0:0:
440,144,66357,6,0,L|432:40,1,99.0000030212403,10|0,3:2|0:0,0:0:0:0:
192,144,66879,1,10,3:2:0:0:
464,144,67401,6,0,L|360:144,1,99.0000030212403,10|0,3:2|3:2,0:0:0:0:
152,144,67662,2,0,L|288:144,1,99.0000030212403,8|0,3:2|3:2,0:0:0:0:
40,208,67923,2,0,L|32:104,1,99.0000030212403,10|0,3:2|3:2,0:0:0:0:
248,96,68183,1,8,3:2:0:0:
32,96,68314,1,0,3:2:0:0:
272,184,68444,6,0,L|328:184,1,49.5000015106202,0|0,3:2|3:2,0:0:0:0:
248,168,68575,2,0,L|240:112,1,49.5000015106202,0|0,3:2|0:0,0:0:0:0:
312,120,68705,1,8,3:2:0:0:
168,144,68966,2,0,L|56:144,1,99.0000030212403,2|2,0:2|0:2,0:0:0:0:
280,80,69227,1,2,0:2:0:0:
72,88,69357,1,2,0:2:0:0:
456,216,69488,6,0,L|464:104,1,107.999996704102,14|0,0:2|0:0,0:0:0:0:
256,152,69749,2,0,L|392:152,1,107.999996704102,8|0,0:2|0:2,0:0:0:0:
152,152,70010,2,0,L|32:152,1,107.999996704102,8|0,0:2|0:2,0:0:0:0:
256,104,70270,1,10,0:2:0:0:
40,112,70401,1,0,0:2:0:0:
320,232,70531,6,0,L|440:232,1,107.999996704102,14|0,0:2|0:2,0:0:0:0:
216,208,70792,2,0,L|208:96,1,107.999996704102,10|0,0:2|0:2,0:0:0:0:
400,160,71053,2,0,L|288:160,1,107.999996704102,10|0,0:2|0:2,0:0:0:0:
480,192,71314,2,0,L|472:80,1,107.999996704102,10|0,0:2|0:2,0:0:0:0:
144,192,71575,6,0,L|264:192,1,107.999996704102,14|0,0:2|0:2,0:0:0:0:
256,168,71770,1,0,0:0:0:0:
56,160,71836,2,0,L|48:48,1,107.999996704102,8|0,0:2|0:2,0:0:0:0:
256,136,72096,2,0,L|376:136,1,107.999996704102,8|0,0:2|0:2,0:0:0:0:
152,96,72357,1,10,0:2:0:0:
368,96,72488,1,0,0:2:0:0:
88,272,72618,6,0,L|80:160,1,107.999996704102,14|0,0:2|0:2,0:0:0:0:
144,184,72814,1,0,0:0:0:0:
352,184,72879,1,10,0:2:0:0:
136,184,73010,1,0,0:2:0:0:
424,272,73140,2,0,L|432:160,1,107.999996704102,10|0,0:2|0:2,0:0:0:0:
368,184,73336,1,0,0:0:0:0:
160,184,73401,1,10,0:2:0:0:
376,184,73532,1,0,0:2:0:0:
120,288,73662,6,0,L|112:176,1,107.999996704102,14|0,0:2|0:2,0:0:0:0:
184,192,73857,1,0,0:0:0:0:
256,192,73923,2,0,L|264:80,1,107.999996704102,8|0,0:2|0:2,0:0:0:0:
48,128,74183,2,0,L|160:128,1,107.999996704102,10|0,0:2|0:2,0:0:0:0:
272,128,74444,2,0,L|160:128,1,107.999996704102,8|0,0:2|0:2,0:0:0:0:
456,240,74705,6,0,L|448:128,1,107.999996704102,14|0,0:2|0:2,0:0:0:0:
248,208,74966,2,0,L|256:96,1,107.999996704102,10|0,0:2|0:2,0:0:0:0:
56,184,75227,2,0,L|48:72,1,107.999996704102,10|0,0:2|0:2,0:0:0:0:
248,112,75488,2,0,L|128:112,1,107.999996704102,10|0,0:2|0:2,0:0:0:0:
352,160,75749,6,0,L|488:160,1,107.999996704102,14|0,0:2|0:2,0:0:0:0:
200,160,76010,2,0,L|88:160,1,107.999996704102,10|0,0:2|0:2,0:0:0:0:
352,112,76270,1,10,0:2:0:0:
88,112,76401,2,0,L|208:112,2,107.999996704102,2|8|0,0:2|0:2|0:2,0:0:0:0:
376,208,76792,6,0,L|488:208,1,107.999996704102,14|0,0:2|0:2,0:0:0:0:
152,216,77053,2,0,L|144:104,1,107.999996704102,0|0,0:2|0:2,0:0:0:0:
352,120,77314,1,2,3:2:0:0:
144,120,77444,1,2,3:2:0:0:
384,120,77575,1,10,3:2:0:0:
112,120,77705,1,2,3:2:0:0:
472,200,77836,6,0,L|464:88,1,107.999996704102,14|0,0:2|0:0,0:0:0:0:
240,128,78096,2,0,L|384:128,1,107.999996704102,8|0,0:2|0:2,0:0:0:0:
120,192,78357,2,0,L|112:80,1,107.999996704102,8|0,0:2|0:2,0:0:0:0:
336,96,78618,1,10,0:2:0:0:
112,96,78749,1,0,0:2:0:0:
376,208,78879,6,0,L|496:208,1,107.999996704102,14|0,0:2|0:2,0:0:0:0:
296,192,79140,2,0,L|432:192,1,107.999996704102,10|0,0:2|0:2,0:0:0:0:
216,256,79401,2,0,L|352:256,1,107.999996704102,10|0,0:2|0:2,0:0:0:0:
136,152,79662,2,0,L|256:152,1,107.999996704102,10|0,0:2|0:2,0:0:0:0:
40,232,79923,6,0,L|32:120,1,107.999996704102,14|0,0:2|0:2,0:0:0:0:
264,216,80183,2,0,L|272:104,1,107.999996704102,8|0,0:2|0:2,0:0:0:0:
40,144,80444,2,0,L|152:144,1,107.999996704102,8|0,0:2|0:2,0:0:0:0:
368,112,80705,1,10,0:2:0:0:
144,112,80836,1,0,0:2:0:0:
448,224,80966,6,0,L|456:112,1,107.999996704102,14|0,0:2|0:2,0:0:0:0:
256,200,81227,2,0,L|248:88,1,107.999996704102,10|0,0:2|0:2,0:0:0:0:
48,184,81488,2,0,L|56:72,1,107.999996704102,10|0,0:2|0:2,0:0:0:0:
256,112,81749,2,0,L|384:112,1,107.999996704102,10|0,0:2|0:0,0:0:0:0:
40,320,82010,6,0,P|40:264|256:48,1,377.999988464356,6|0,3:2|0:2,0:0:0:0:
304,312,82531,2,0,P|304:256|88:40,1,377.999988464356,2|0,0:2|0:2,0:0:0:0:
368,232,83053,6,0,L|376:120,1,107.999996704102,6|0,3:2|0:0,0:0:0:0:
256,144,83314,2,0,L|248:32,1,107.999996704102,2|0,0:2|0:0,0:0:0:0:
128,176,83575,2,0,L|136:64,1,107.999996704102,2|0,0:2|0:0,0:0:0:0:
256,80,83836,1,2,0:2:0:0:
136,88,83966,1,8,0:2:0:0:
360,136,84096,5,14,3:2:0:0:
240,144,84227,2,0,L|248:32,1,107.999996704102,0|0,0:0|3:2,0:0:0:0:
472,80,84488,2,0,L|360:80,2,107.999996704102,14|0|0,3:2|0:0|3:2,0:0:0:0:
248,184,84879,2,0,L|376:184,1,107.999996704102,14|0,3:2|3:2,0:0:0:0:
64,320,85140,6,0,P|64:264|176:152,1,215.999993408203,14|0,3:2|3:2,0:0:0:0:
48,160,85531,2,0,L|112:160,1,53.9999983520508,0|0,3:2|3:2,0:0:0:0:
432,120,85662,1,12,3:2:0:0:
256,192,85923,12,0,88010,0:0:0:0:
