osu file format v14

[General]
AudioFilename: audio.mp3
AudioLeadIn: 0
PreviewTime: 68886
Countdown: 0
SampleSet: Soft
StackLeniency: 0.7
Mode: 2
LetterboxInBreaks: 0
WidescreenStoryboard: 1

[Editor]
Bookmarks: 16844,17105,17887,18148,18931,19192
DistanceSpacing: 1
BeatDivisor: 4
GridSize: 4
TimelineZoom: 1.6

[Metadata]
Title:Anoko ni Drop Kick (TV Size)
TitleUnicode:あの娘にドロップキック (TV Size)
Artist:Jashin*Girls
ArtistUnicode:邪神★ガールズ
Creator:[_-Kukkai-_]
Version:Cup
Source:邪神ちゃんドロップキック
Tags:wonjae Paranoid Grapes rew0825 NyalettOwO x3 Dropkick daletto On My Devil!! Jyashin-chan False God Aina Suzuki Nichika Oomori Miyu Kubota Yurie Kozakai Chiaki Omigawa Rico Sasaki Riho Iida snake anime japanese
BeatmapID:3011586
BeatmapSetID:1466437

[Difficulty]
HPDrainRate:2
CircleSize:2.5
OverallDifficulty:6
ApproachRate:6
SliderMultiplier:1
SliderTickRate:0.5

[Events]
//Background and Video events
Video,-1320,"vdo.mp4"
0,0,"BG.jpg",0,0
//Break Periods
//Storyboard Layer 0 (Background)
//Storyboard Layer 1 (Fail)
//Storyboard Layer 2 (Pass)
//Storyboard Layer 3 (Foreground)
//Storyboard Layer 4 (Overlay)
//Storyboard Sound Samples

[TimingPoints]
620,260.869565217391,4,2,1,70,1,0
7924,-100,4,2,1,70,0,0
16141,-100,4,3,1,70,0,0
26706,-100,4,2,1,60,0,0
34924,-100,4,3,1,65,0,0
46533,521.739130434783,4,2,2,60,1,0
46533,-50,4,2,2,60,0,0
47054,-50,4,2,2,60,0,0
47576,521.739130434783,4,2,2,60,1,0
47576,-50,4,2,2,60,0,0
60097,260.869565217391,4,2,1,70,1,0
60097,-100,4,2,1,70,0,0
69488,-100,4,3,1,85,0,1
77314,-100,4,2,1,85,0,0
77836,-100,4,3,1,85,0,1
82010,-100,4,2,1,85,0,0
82466,-100,4,2,1,5,0,0
82531,-100,4,2,1,85,0,0
82988,-100,4,2,1,5,0,0
83053,-100,4,2,1,85,0,0
85923,-100,4,2,1,5,0,0

[Colours]
Combo1 : 168,131,188
Combo2 : 143,245,114
Combo3 : 99,166,194
Combo4 : 235,213,109

[HitObjects]
72,368,1663,6,0,P|16:320|84:228,1,200,4|0,3:2|0:0,0:0:0:0:
272,216,2706,2,0,L|56:216,1,200,4|2,3:2|0:0,0:0:0:0:
272,220,3750,6,0,L|440:220,2,150,6|8|2,3:2|3:2|3:2,0:0:0:0:
172,220,4793,2,0,P|128:172|196:60,1,200,6|10,3:2|0:2,0:0:0:0:
280,64,5576,1,2,3:2:0:0:
380,64,5837,6,0,L|380:272,1,200,6|2,3:2|0:2,0:0:0:0:
180,256,6880,1,6,3:2:0:0:
94,215,7140,1,0,3:2:0:0:
96,121,7401,1,0,3:2:0:0:
183,84,7662,1,2,3:2:0:0:
320,80,7924,6,0,L|388:80,1,50,6|0,3:2|3:2,0:0:0:0:
92,84,8967,6,0,L|92:176,1,50,2|0,3:2|3:2,0:0:0:0:
192,132,9359,2,0,L|356:132,1,150,2|2,3:2|0:2,0:0:0:0:
212,268,10011,6,0,L|156:268,1,50,2|0,3:2|3:2,0:0:0:0:
400,304,11054,6,0,L|272:304,1,100,2|2,3:2|3:2,0:0:0:0:
248,304,11446,1,6,3:2:0:0:
148,304,11706,1,2,3:2:0:0:
248,304,11967,1,2,3:2:0:0:
300,304,12098,6,0,P|360:232|276:180,1,200,6|2,3:2|3:2,0:0:0:0:
192,180,12880,1,0,3:2:0:0:
92,180,13141,2,0,L|92:300,1,100,2|2,3:2|3:2,0:0:0:0:
192,280,13663,2,0,L|296:280,1,100,8|2,3:2|3:2,0:0:0:0:
160,188,14185,5,6,3:2:0:0:
160,88,14315,1,2,0:2:0:0:
312,96,14706,1,2,3:2:0:0:
312,196,14837,1,2,0:2:0:0:
160,192,15228,5,2,3:2:0:0:
108,192,15359,1,0,3:2:0:0:
160,192,15489,1,2,3:2:0:0:
292,188,15750,2,0,L|368:188,1,50,8|8,3:2|3:2,0:0:0:0:
212,344,16141,6,0,L|212:176,1,150,4|10,0:2|0:2,0:0:0:0:
312,192,16793,2,0,L|492:192,1,150,2|2,0:2|0:2,0:0:0:0:
360,192,17446,2,0,L|144:192,1,200,2|2,0:2|0:2,0:0:0:0:
280,308,18228,6,0,P|312:252|260:172,1,150,6|10,0:2|0:2,0:0:0:0:
176,180,18880,2,0,L|176:24,1,150,2|6,0:2|0:2,0:0:0:0:
276,28,19533,2,0,L|364:28,1,50,2|10,0:2|0:2,0:0:0:0:
428,28,19924,2,0,L|496:28,2,50,10|10|10,0:2|0:2|0:2,0:0:0:0:
376,28,20315,6,0,L|204:28,1,150,6|10,0:2|0:2,0:0:0:0:
128,24,20967,2,0,L|126:216,1,150,2|2,0:2|0:2,0:0:0:0:
228,172,21619,2,0,L|436:172,1,200,2|2,0:2|0:2,0:0:0:0:
296,368,22402,6,0,L|296:200,1,150,6|10,0:2|0:2,0:0:0:0:
396,216,23054,2,0,L|232:216,1,150,2|2,0:2|0:2,0:0:0:0:
144,256,23706,2,0,L|144:151,1,100,10|10,0:2|0:2,0:0:0:0:
196,152,24098,2,0,L|312:152,1,100,10|10,0:2|0:2,0:0:0:0:
348,156,24489,1,6,0:2:0:0:
112,336,25533,6,0,P|76:280|140:208,1,150,6|10,0:2|0:2,0:0:0:0:
216,216,26185,1,10,0:2:0:0:
266,216,26315,1,2,0:2:0:0:
316,216,26445,1,10,0:2:0:0:
188,152,26706,6,0,L|188:36,1,100,4|2,3:2|3:2,0:0:0:0:
288,48,27228,2,0,L|400:48,1,100,2|0,3:2|3:0,0:0:0:0:
288,48,27750,2,0,L|180:48,1,100,2|0,3:2|3:2,0:0:0:0:
88,52,28272,2,0,L|88:132,1,50,0|10,3:2|0:2,0:0:0:0:
140,104,28533,1,2,3:2:0:0:
268,276,28793,6,0,L|392:276,1,100,6|2,3:2|3:2,0:0:0:0:
468,284,29315,2,0,L|468:140,1,100,2|0,3:2|3:2,0:0:0:0:
368,192,29837,2,0,L|256:192,1,100,0|2,3:2|3:2,0:0:0:0:
368,188,30359,2,0,L|440:188,2,50,2|10|0,3:2|0:2|3:2,0:0:0:0:
240,268,30880,5,4,3:2:0:0:
157,220,31140,1,2,3:2:0:0:
157,125,31401,1,2,3:2:0:0:
240,78,31662,1,0,3:2:0:0:
372,80,31924,2,0,P|408:136|372:264,1,200,6|0,3:2|3:2,0:0:0:0:
276,260,32706,1,2,3:2:0:0:
176,260,32967,5,10,3:2:0:0:
376,264,33489,1,8,3:2:0:0:
176,260,34011,2,0,L|52:260,2,100,8|8|8,3:2|3:2|3:2,0:0:0:0:
372,188,34924,6,0,P|412:144|340:76,1,150,4|10,3:2|0:2,0:0:0:0:
272,76,35576,2,0,L|112:76,1,150,2|2,0:2|0:2,0:0:0:0:
224,72,36228,2,0,L|368:72,2,100,2|0|2,0:2|0:2|0:2,0:0:0:0:
96,340,37011,6,0,P|56:292|116:220,1,150,4|10,0:2|0:2,0:0:0:0:
196,220,37663,1,2,0:2:0:0:
376,220,38054,2,0,P|416:176|348:104,1,150,6|10,0:2|0:2,0:0:0:0:
276,112,38706,2,0,L|192:112,1,50,2|2,0:2|0:2,0:0:0:0:
104,112,39098,6,0,L|260:112,1,150,4|10,0:2|0:2,0:0:0:0:
348,312,39750,2,0,P|388:264|344:192,1,150,2|2,0:2|0:2,0:0:0:0:
252,192,40402,2,0,L|120:192,2,100,2|0|2,0:2|0:2|0:2,0:0:0:0:
436,116,41315,6,0,L|248:116,2,150,14|10|10,0:2|0:2|0:2,0:0:0:0:
284,116,42489,1,8,0:2:0:0:
136,120,42880,1,10,0:2:0:0:
136,220,43141,1,10,0:2:0:0:
268,216,43402,6,0,L|448:216,2,150,14|10|10,0:2|0:2|0:2,0:0:0:0:
120,228,44576,2,0,P|88:176|140:96,1,150,8|10,0:2|0:2,0:0:0:0:
224,104,45228,1,10,0:2:0:0:
324,104,45489,5,10,0:2:0:0:
124,108,46011,1,8,0:2:0:0:
320,104,46533,6,0,P|376:204|304:272,1,200,6|2,1:2|0:2,0:0:0:0:
92,264,47576,6,0,L|316:264,1,200,6|8,1:2|0:1,0:0:0:0:
92,264,48619,2,0,P|56:176|116:72,1,200,2|8,1:2|0:1,0:0:0:0:
296,104,49662,6,0,L|76:104,1,200,2|8,1:2|0:1,0:0:0:0:
296,120,50706,2,0,P|344:184|288:296,1,200,2|8,1:2|0:1,0:0:0:0:
72,284,51749,6,0,L|296:284,1,200,6|8,1:2|0:1,0:0:0:0:
472,284,52793,2,0,L|256:284,1,200,2|8,1:2|0:1,0:0:0:0:
472,280,53836,6,0,L|472:140,1,133.333333333333,2|0,1:2|1:2,0:0:0:0:
404,148,54358,2,0,L|248:148,1,133.333333333333,8|0,1:1|1:2,0:0:0:0:
204,148,54880,1,0,0:0:0:0:
404,148,55402,1,2,1:2:0:0:
200,372,55923,6,0,P|156:308|228:200,1,200,6|8,1:2|0:1,0:0:0:0:
404,232,56967,2,0,P|448:168|384:64,1,200,2|8,1:2|0:1,0:0:0:0:
196,76,58010,6,0,L|412:76,1,200,2|8,1:2|1:1,0:0:0:0:
136,344,59054,1,6,1:2:0:0:
400,236,60097,6,0,L|468:236,1,50,2|0,3:2|3:2,0:0:0:0:
184,232,61140,6,0,L|112:232,1,50,2|2,3:2|3:2,0:0:0:0:
236,232,61531,2,0,L|400:232,1,150,2|2,3:2|3:2,0:0:0:0:
256,156,62183,6,0,L|256:88,1,50,2|0,3:2|3:2,0:0:0:0:
488,56,63227,6,0,L|412:56,1,50,2|2,3:2|3:2,0:0:0:0:
308,56,63618,2,0,L|152:56,1,150,6|2,3:2|3:2,0:0:0:0:
288,348,64270,5,6,3:2:0:0:
288,248,64530,1,2,3:2:0:0:
188,252,64792,1,2,3:2:0:0:
88,252,65052,1,0,0:0:0:0:
188,256,65314,1,2,3:2:0:0:
288,256,65574,1,0,3:2:0:0:
388,256,65836,1,0,3:2:0:0:
388,156,66096,1,10,3:2:0:0:
256,144,66357,5,10,3:2:0:0:
468,80,66879,1,10,3:2:0:0:
256,148,67401,2,0,L|256:44,1,100,10|8,3:2|3:2,0:0:0:0:
356,48,67923,2,0,L|356:168,1,100,10|8,3:2|3:2,0:0:0:0:
256,148,68444,1,0,3:2:0:0:
156,148,68704,1,8,3:2:0:0:
376,124,69488,6,0,P|436:184|364:276,1,200,14|8,0:2|0:2,0:0:0:0:
288,276,70270,1,10,0:2:0:0:
188,276,70531,2,0,L|76:276,2,100,14|10|10,0:2|0:2|0:2,0:0:0:0:
288,276,71314,1,10,0:2:0:0:
416,172,71575,6,0,L|192:172,1,200,14|8,0:2|0:2,0:0:0:0:
116,176,72357,1,10,0:2:0:0:
216,172,72618,2,0,L|336:172,1,100,14|10,0:2|0:2,0:0:0:0:
416,172,73140,2,0,L|292:172,1,100,10|10,0:2|0:2,0:0:0:0:
188,352,73662,6,0,P|140:304|220:200,1,200,14|10,0:2|0:2,0:0:0:0:
296,200,74444,1,8,0:2:0:0:
396,200,74705,2,0,L|268:200,1,100,14|10,0:2|0:2,0:0:0:0:
194,202,75227,2,0,L|195:80,1,100,10|10,0:2|0:2,0:0:0:0:
320,344,75749,6,0,L|320:216,1,100,14|10,0:2|0:2,0:0:0:0:
220,248,76270,2,0,L|144:248,2,50,10|2|8,0:2|0:2|0:2,0:0:0:0:
320,144,76792,2,0,L|444:144,1,100,14|0,0:2|0:2,0:0:0:0:
420,144,77314,1,2,3:2:0:0:
370,144,77444,1,2,3:2:0:0:
320,144,77574,1,10,3:2:0:0:
192,188,77836,6,0,P|132:244|208:332,1,200,14|8,0:2|0:2,0:0:0:0:
284,328,78618,1,10,0:2:0:0:
384,332,78879,2,0,L|384:212,1,100,14|10,0:2|0:2,0:0:0:0:
284,236,79401,2,0,L|168:236,1,100,10|10,0:2|0:2,0:0:0:0:
312,352,79923,6,0,P|368:300|280:216,1,200,14|8,0:2|0:2,0:0:0:0:
208,208,80705,1,10,0:2:0:0:
307,213,80966,2,0,L|411:213,1,100,14|10,0:2|0:2,0:0:0:0:
307,213,81488,2,0,L|195:213,1,100,10|10,0:2|0:2,0:0:0:0:
336,292,82010,6,0,P|392:244|296:168,1,200,6|2,3:2|0:2,0:0:0:0:
128,328,83053,1,6,3:2:0:0:
228,332,83313,1,2,0:2:0:0:
328,332,83574,1,2,0:2:0:0:
328,232,83835,1,2,0:2:0:0:
208,148,84096,6,0,L|36:148,2,150,14|14|14,3:2|3:2|3:2,0:0:0:0:
308,148,85140,1,14,3:2:0:0:
56,88,85662,5,12,3:2:0:0:
256,192,85923,12,0,88010,0:0:0:0:
