osu file format v14

[General]
AudioFilename: audio.mp3
AudioLeadIn: 0
PreviewTime: 48969
Countdown: 0
SampleSet: Soft
StackLeniency: 0.7
Mode: 0
LetterboxInBreaks: 0
WidescreenStoryboard: 1

[Editor]
DistanceSpacing: 0.9
BeatDivisor: 4
GridSize: 4
TimelineZoom: 2.3

[Metadata]
Title:Anoko ni Drop Kick
TitleUnicode:あの娘にドロップキック
Artist:Jashin*Girls
ArtistUnicode:邪神★ガールズ
Creator:Rin Desu
Version:Normal
Source:邪神ちゃんドロップキック
Tags:Dropkick On My Devil!! opening Bibbity Bill RVMathew apo11o Parachute Minorsonek
BeatmapID:1745438
BeatmapSetID:833265

[Difficulty]
HPDrainRate:3
CircleSize:3.4
OverallDifficulty:4
ApproachRate:5.5
SliderMultiplier:0.9
SliderTickRate:1

[Events]
//Background and Video events
0,0,"Jashin-chan.Dropkick.full.2350615.jpg",0,0
//Break Periods
2,18908,28073
//Storyboard Layer 0 (Background)
//Storyboard Layer 1 (Fail)
//Storyboard Layer 2 (Pass)
//Storyboard Layer 3 (Foreground)
//Storyboard Sound Samples

[TimingPoints]
3186,260.870729613734,4,2,2,60,1,0
4230,260.870729613734,4,2,2,60,1,0
6969,-100,4,2,1,60,0,0
7098,-100,4,2,1,60,0,0
7360,-100,4,2,2,60,0,0
8143,-100,4,2,1,60,0,0
8403,-100,4,2,2,60,0,0
12186,-100,4,2,1,60,0,0
12316,-100,4,2,2,60,0,0
14273,-100,4,2,1,60,0,0
14664,-100,4,2,2,60,0,0
16556,-100,4,2,1,60,0,0
16621,-100,4,2,2,60,0,0
29012,-100,4,2,1,60,0,0
29273,-100,4,2,2,60,0,0
31099,-100,4,2,1,60,0,0
31229,-100,4,2,1,60,0,0
31360,-100,4,2,2,60,0,0
35012,-100,4,2,1,60,0,0
35273,-100,4,2,1,60,0,0
35534,-100,4,2,2,60,0,0
44275,-100,4,2,1,60,0,0
44534,-100,4,2,2,60,0,0
46360,-100,4,2,1,60,0,0
46491,-100,4,2,2,60,0,0
46751,-100,4,2,1,60,0,0
47012,-100,4,2,2,60,0,0
47143,-100,4,2,1,60,0,0
47273,-100,4,2,2,60,0,0
48056,-100,4,2,1,60,0,0
49099,-100,4,2,2,60,0,0
49447,-100,4,2,2,40,0,0
49621,-100,4,2,2,45,0,0
49795,-100,4,2,2,50,0,0
49881,-100,4,2,2,50,0,0
49969,-100,4,2,2,55,0,0
50143,-100,4,2,2,60,0,0
54143,-100,4,2,1,60,0,0
54317,-100,4,2,2,60,0,0
56578,-100,4,2,2,35,0,0
56751,-100,4,2,2,40,0,0
56925,-100,4,2,2,45,0,0
57099,-100,4,2,2,50,0,0
57273,-100,4,2,2,55,0,0
57447,-100,4,2,2,60,0,0
71012,-100,4,2,1,60,0,0
71143,-100,4,2,2,60,0,0
72056,-100,4,2,2,80,0,1
84578,-100,4,2,2,60,0,0

[Colours]
Combo1 : 210,210,255
Combo2 : 255,255,210
Combo3 : 255,210,233
Combo4 : 210,233,255
Combo5 : 210,255,210
Combo6 : 255,225,210
Combo7 : 255,210,255
Combo8 : 210,255,255

[HitObjects]
113,102,4230,6,0,P|242:125|334:244,1,270,4|0,0:0|0:0,0:0:0:0:
244,258,5273,2,0,P|146:187|30:269,1,270,4|0,0:0|0:0,0:0:0:0:
5,337,6316,6,0,B|78:362|138:336|138:336|195:365|292:333,1,270,4|2,0:0|0:0,0:0:0:0:
350,302,7360,2,0,P|380:190|259:231,1,270,4|8,0:0|0:0,0:0:0:0:
184,237,8403,6,0,P|69:187|138:68,1,270,4|0,0:0|0:0,0:0:0:0:
198,50,9447,2,0,B|248:34|248:34|321:72|321:72|389:36|389:36|452:67,1,270
256,192,10490,12,8,12056,0:0:0:0:
256,192,12577,12,8,14143,0:0:0:0:
478,257,14664,6,0,L|388:251,1,90,4|0,0:0|0:0,0:0:0:0:
303,220,15186,2,0,L|213:230,1,90,0|0,0:0|0:0,0:0:0:0:
185,316,15708,2,0,P|139:280|136:186,1,135,0|0,0:0|0:0,0:0:0:0:
89,183,16230,2,0,L|31:169,2,45,0|0|0,0:0|0:0|0:0,0:0:0:0:
147,112,16751,5,4,0:0:0:0:
147,112,16882,1,0,0:0:0:0:
279,135,17273,1,0,0:0:0:0:
279,135,17404,1,0,0:0:0:0:
396,68,17795,2,0,P|410:118|409:159,1,90,0|8,0:0|0:0,0:0:0:0:
400,200,18186,2,0,P|399:264|346:234,1,135,0|0,0:0|0:0,0:0:0:0:
321,283,18708,1,4,0:0:0:0:
427,342,29273,5,4,0:0:0:0:
338,359,29534,1,0,0:0:0:0:
260,313,29795,2,0,P|212:310|166:320,1,90,0|0,0:0|0:0,0:0:0:0:
127,328,30186,2,0,P|106:289|107:226,1,90,0|0,0:0|0:0,0:0:0:0:
99,153,30708,2,0,P|60:130|-4:146,2,90,0|8|2,0:0|0:0|0:0,0:0:0:0:
144,153,31360,1,4,0:0:0:0:
205,219,31621,1,0,0:0:0:0:
291,193,31882,2,0,P|301:147|302:94,1,90,0|0,0:0|0:0,0:0:0:0:
302,59,32273,6,0,P|357:26|415:61,1,135,0|0,0:0|0:0,0:0:0:0:
392,145,32925,2,0,L|373:275,1,90,0|0,0:0|0:0,0:0:0:0:
412,265,33317,2,0,L|422:341,1,45,8|4,0:0|0:0,0:0:0:0:
353,372,33708,1,0,0:0:0:0:
277,323,33969,1,0,0:0:0:0:
192,353,34230,6,0,L|96:359,1,90,0|4,0:0|0:0,0:0:0:0:
70,327,34621,2,0,L|25:333,1,45,0|0,0:0|0:0,0:0:0:0:
18,288,34882,2,0,P|28:253|6:150,1,135,0|4,0:0|0:0,0:0:0:0:
100,160,35534,1,8,0:0:0:0:
269,189,36056,1,8,0:0:0:0:
235,11,36577,6,0,L|232:74,1,45,8|0,0:0|0:0,0:0:0:0:
195,81,36838,2,0,L|133:99,2,45,8|0|8,0:0|0:0|0:0,0:0:0:0:
234,103,37230,1,8,0:0:0:0:
269,189,37491,2,0,P|337:162|406:190,1,135,4|8,0:0|0:0,0:0:0:0:
336,256,38143,1,0,0:0:0:0:
351,344,38404,1,8,0:0:0:0:
351,344,38534,2,0,L|214:333,1,135,0|8,0:0|0:0,0:0:0:0:
136,377,39186,5,0,0:0:0:0:
94,296,39447,1,8,0:0:0:0:
94,296,39577,2,0,P|75:259|101:172,1,135,4|8,0:0|0:0,0:0:0:0:
37,104,40230,1,0,0:0:0:0:
124,83,40491,1,8,0:0:0:0:
124,83,40621,2,0,P|166:90|238:71,1,90,4|0,0:0|0:0,0:0:0:0:
252,102,41012,1,8,0:0:0:0:
254,192,41273,5,0,0:0:0:0:
315,257,41534,1,8,0:0:0:0:
315,257,41664,2,0,P|353:274|452:251,1,135,4|8,0:0|0:0,0:0:0:0:
496,185,42317,1,0,0:0:0:0:
445,110,42577,1,8,0:0:0:0:
445,110,42708,2,0,P|407:93|308:116,1,135,0|8,0:0|0:0,0:0:0:0:
229,125,43360,2,0,L|224:190,2,45,0|0|8,0:0|0:0|0:0,0:0:0:0:
212,36,43882,6,0,P|159:47|66:51,2,135,4|8|8,0:0|0:0|0:0,0:0:0:0:
296,66,44925,1,0,0:0:0:0:
229,126,45186,2,0,P|208:169|216:220,2,90,0|12|8,0:0|0:0|0:0,0:0:0:0:
316,149,45969,2,0,L|455:189,2,135,4|8|2,0:0|0:0|0:0,0:0:0:0:
295,236,47012,2,0,P|296:289|264:336,2,90,0|0|12,0:0|0:0|0:0,0:0:0:0:
208,263,47795,1,8,0:0:0:0:
135,209,48056,5,2,0:0:0:0:
135,209,48578,1,4,0:0:0:0:
187,37,49099,2,0,P|63:13|6:125,1,270,4|0,0:0|0:0,0:0:0:0:
18,214,50143,6,0,P|89:307|264:330,1,270,4|0,0:0|0:0,0:0:0:0:
207,251,51186,2,0,P|220:126|352:101,1,270,0|0,0:0|0:0,0:0:0:0:
423,53,52230,2,0,P|434:111|388:176,1,120,0|0,0:0|0:0,0:0:0:0:
350,185,52751,2,0,P|338:242|366:294,1,120
408,337,53273,2,0,P|279:319|128:353,1,270,0|0,0:0|0:0,0:0:0:0:
80,281,54317,6,0,P|23:159|92:7,1,300,4|0,0:0|0:0,0:0:0:0:
143,22,55360,2,0,P|283:42|445:9,1,300
448,71,56404,2,0,P|370:201|262:142,1,300,0|8,0:0|0:0,0:0:0:0:
204,147,57447,1,8,0:0:0:0:
70,268,57969,1,8,0:0:0:0:
223,361,58491,6,0,P|370:365|486:311,1,270,4|0,0:0|0:0,0:0:0:0:
465,226,59534,2,0,P|318:222|202:276,1,270,0|0,0:0|0:0,0:0:0:0:
139,330,60578,2,0,P|119:268|145:211,1,120,0|0,0:0|0:0,0:0:0:0:
183,179,61099,2,0,P|203:123|184:67,1,120
124,56,61621,2,0,P|45:69|30:247,1,270,4|0,0:0|0:0,0:0:0:0:
256,192,62665,12,8,64230,0:0:0:0:
256,192,64752,12,8,66317,0:0:0:0:
63,126,66838,6,0,L|167:138,1,90,0|0,0:0|0:0,0:0:0:0:
233,95,67360,2,0,L|322:84,1,90,0|0,0:0|0:0,0:0:0:0:
395,31,67882,2,0,P|412:73|406:121,1,90,0|0,0:0|0:0,0:0:0:0:
395,160,68273,2,0,L|336:175,2,45,0|0|0,0:0|0:0|0:0,0:0:0:0:
440,154,68665,1,8,0:0:0:0:
420,241,68925,5,8,0:0:0:0:
272,344,69447,1,8,0:0:0:0:
219,171,69969,2,0,L|206:124,2,45,8|0|8,0:0|0:0|0:0,0:0:0:0:
140,216,70491,1,8,0:0:0:0:
60,173,70752,1,8,0:0:0:0:
294,306,71534,2,0,P|234:306|148:327,1,135,0|0,0:0|0:0,0:0:0:0:
120,341,72056,6,0,P|85:374|31:266,1,225,4|0,0:0|0:0,0:0:0:0:
69,244,72839,1,8,0:0:0:0:
27,164,73099,1,8,0:0:0:0:
116,174,73360,1,8,0:0:0:0:
200,141,73621,1,8,0:0:0:0:
182,229,73882,1,8,0:0:0:0:
268,204,74143,6,0,P|288:112|231:53,1,180,8|0,0:0|0:0,0:0:0:0:
145,68,74925,1,8,0:0:0:0:
61,102,75186,1,8,0:0:0:0:
133,155,75447,1,8,0:0:0:0:
123,244,75708,1,8,0:0:0:0:
206,211,75969,1,8,0:0:0:0:
193,300,76230,6,0,P|240:294|283:259,1,90,8|0,0:0|0:0,0:0:0:0:
294,182,76752,2,0,P|330:157|375:152,1,90
365,241,77273,1,8,0:0:0:0:
449,209,77534,1,8,0:0:0:0:
434,297,77795,1,8,0:0:0:0:
350,331,78056,1,8,0:0:0:0:
365,241,78317,5,8,0:0:0:0:
449,209,78578,1,8,0:0:0:0:
475,123,78839,2,0,P|459:66|382:37,1,135,8|0,0:0|0:0,0:0:0:0:
349,34,79360,1,8,0:0:0:0:
266,69,79621,1,8,0:0:0:0:
178,45,79882,2,0,P|229:93|226:168,1,135,8|0,0:0|0:0,0:0:0:0:
214,196,80404,6,0,P|128:177|23:195,1,180,4|0,0:0|0:0,0:0:0:0:
69,274,81186,1,8,0:0:0:0:
34,357,81447,1,8,0:0:0:0:
123,349,81708,1,8,0:0:0:0:
209,373,81969,1,8,0:0:0:0:
186,285,82230,1,8,0:0:0:0:
271,313,82491,6,0,P|356:337|454:311,1,180,8|0,0:0|0:0,0:0:0:0:
487,238,83273,1,8,0:0:0:0:
436,159,83534,1,8,0:0:0:0:
396,240,83795,1,8,0:0:0:0:
345,160,84056,1,8,0:0:0:0:
390,82,84317,1,8,0:0:0:0:
436,159,84578,5,4,0:0:0:0:
436,159,85621,1,4,0:0:0:0:
436,159,86665,6,0,L|400:318,2,135,12|8|8,0:0|0:0|0:0,0:0:0:0:
367,73,87708,1,8,0:0:0:0:
