osu file format v14

[General]
AudioFilename: 01 - Beat Saber.mp3
AudioLeadIn: 0
PreviewTime: 26056
Countdown: 0
SampleSet: Normal
StackLeniency: 0.7
Mode: 1
LetterboxInBreaks: 0
WidescreenStoryboard: 1

[Editor]
DistanceSpacing: 0.8
BeatDivisor: 4
GridSize: 32
TimelineZoom: 1

[Metadata]
Title:Beat Saber
TitleUnicode:Beat Saber
Artist:Jaroslav Beck
ArtistUnicode:Jaroslav Beck
Creator:Lno
Version:Muzukashii
Source:Beat Saber
Tags:Midnaait Hyperbolic Magnetism Virtual Reality Rhythm Game VR lightsaber Indie Original Soundtrack OST
BeatmapID:1666281
BeatmapSetID:793455

[Difficulty]
HPDrainRate:6
CircleSize:5
OverallDifficulty:5.5
ApproachRate:5
SliderMultiplier:1.4
SliderTickRate:1

[Events]
//Background and Video events
0,0,"bg.png",0,0
//Break Periods
//Storyboard Layer 0 (Background)
//Storyboard Layer 1 (Fail)
//Storyboard Layer 2 (Pass)
//Storyboard Layer 3 (Foreground)
//Storyboard Sound Samples

[TimingPoints]
14490,361.44578313253,4,1,0,100,1,0
26056,-100,4,1,0,100,0,1
49188,-100,4,1,0,100,0,0
72321,-100,4,1,0,100,0,1
95453,-100,4,1,0,100,0,0

[HitObjects]
256,192,14489,5,0,0:0:0:0:
256,192,15212,1,0,0:0:0:0:
256,192,15935,1,0,0:0:0:0:
256,192,16658,1,0,0:0:0:0:
256,192,17381,1,8,0:0:0:0:
256,192,18104,1,8,0:0:0:0:
256,192,18827,1,0,0:0:0:0:
256,192,20273,1,0,0:0:0:0:
256,192,20634,1,0,0:0:0:0:
256,192,20996,1,0,0:0:0:0:
256,192,21357,1,0,0:0:0:0:
256,192,21718,1,0,0:0:0:0:
256,192,22080,1,0,0:0:0:0:
256,192,22441,1,8,0:0:0:0:
256,192,23164,1,0,0:0:0:0:
256,192,23345,1,0,0:0:0:0:
256,192,23526,1,0,0:0:0:0:
256,192,23706,1,0,0:0:0:0:
256,192,23887,1,8,0:0:0:0:
256,192,24068,1,8,0:0:0:0:
256,192,24249,1,8,0:0:0:0:
256,192,24429,1,8,0:0:0:0:
256,128,26056,1,4,0:0:0:0:
256,192,26417,1,8,0:0:0:0:
256,192,26598,1,0,0:0:0:0:
256,192,26779,1,8,0:0:0:0:
256,192,27140,1,8,0:0:0:0:
256,192,27502,1,0,0:0:0:0:
256,192,27863,1,8,0:0:0:0:
256,192,28044,1,0,0:0:0:0:
256,192,28224,1,8,0:0:0:0:
256,192,28586,1,8,0:0:0:0:
256,192,28947,1,0,0:0:0:0:
256,192,29670,1,8,0:0:0:0:
256,192,30032,1,8,0:0:0:0:
256,192,30212,1,8,0:0:0:0:
256,192,30393,1,0,0:0:0:0:
256,192,30755,1,0,0:0:0:0:
256,192,30935,1,8,0:0:0:0:
256,192,31297,1,0,0:0:0:0:
256,192,31477,1,8,0:0:0:0:
256,192,31568,1,8,0:0:0:0:
256,192,31658,1,8,0:0:0:0:
256,192,31839,1,0,0:0:0:0:
256,192,32200,1,8,0:0:0:0:
256,192,32381,1,0,0:0:0:0:
256,192,32562,1,8,0:0:0:0:
256,192,32923,1,8,0:0:0:0:
256,192,33285,1,0,0:0:0:0:
256,192,33646,1,8,0:0:0:0:
256,192,33827,1,0,0:0:0:0:
256,192,34008,1,8,0:0:0:0:
256,192,34369,1,8,0:0:0:0:
256,192,34730,1,8,0:0:0:0:
256,192,35273,1,8,0:0:0:0:
256,192,35634,1,0,0:0:0:0:
256,192,35815,1,8,0:0:0:0:
256,192,35996,1,0,0:0:0:0:
256,192,36176,1,8,0:0:0:0:
256,192,36899,1,0,0:0:0:0:
256,192,37080,1,0,0:0:0:0:
256,192,37261,1,0,0:0:0:0:
256,192,37351,1,0,0:0:0:0:
256,192,37441,1,0,0:0:0:0:
256,192,37532,1,0,0:0:0:0:
256,192,37622,1,0,0:0:0:0:
256,192,37983,1,8,0:0:0:0:
256,192,38164,1,0,0:0:0:0:
256,192,38345,1,8,0:0:0:0:
256,192,38706,1,8,0:0:0:0:
256,192,39068,1,0,0:0:0:0:
256,192,39429,1,8,0:0:0:0:
256,192,39610,1,0,0:0:0:0:
256,192,39791,1,8,0:0:0:0:
256,192,40152,1,8,0:0:0:0:
256,192,40514,1,0,0:0:0:0:
256,192,41236,1,8,0:0:0:0:
256,192,41598,1,8,0:0:0:0:
256,192,41779,1,8,0:0:0:0:
256,192,41959,1,0,0:0:0:0:
256,192,42321,1,0,0:0:0:0:
256,192,42502,1,8,0:0:0:0:
256,192,42863,1,0,0:0:0:0:
256,192,43044,1,8,0:0:0:0:
256,192,43134,1,8,0:0:0:0:
256,192,43224,1,8,0:0:0:0:
256,192,43405,1,0,0:0:0:0:
256,192,43767,1,8,0:0:0:0:
256,192,43947,1,0,0:0:0:0:
256,192,44128,1,8,0:0:0:0:
256,192,44489,1,8,0:0:0:0:
256,192,44851,1,0,0:0:0:0:
256,192,45212,1,8,0:0:0:0:
256,192,45393,1,0,0:0:0:0:
256,192,45574,1,8,0:0:0:0:
256,192,45935,1,8,0:0:0:0:
256,192,46297,1,8,0:0:0:0:
256,192,46839,1,8,0:0:0:0:
256,192,47200,1,0,0:0:0:0:
256,192,47381,1,8,0:0:0:0:
256,192,47562,1,0,0:0:0:0:
256,192,47743,1,8,0:0:0:0:
256,192,48646,1,0,0:0:0:0:
256,192,48827,1,8,0:0:0:0:
256,128,49188,1,4,0:0:0:0:
256,192,49550,1,0,0:0:0:0:
256,192,49911,1,8,0:0:0:0:
256,192,50273,1,0,0:0:0:0:
256,192,50996,1,0,0:0:0:0:
256,192,51718,1,8,0:0:0:0:
256,192,52080,1,0,0:0:0:0:
256,192,52261,1,8,0:0:0:0:
256,192,52351,1,8,0:0:0:0:
256,192,52441,1,8,0:0:0:0:
256,192,52622,1,0,0:0:0:0:
256,192,52803,1,8,0:0:0:0:
256,192,52983,1,8,0:0:0:0:
256,192,53074,1,8,0:0:0:0:
256,192,53164,1,8,0:0:0:0:
256,192,53345,1,0,0:0:0:0:
256,192,53526,1,0,0:0:0:0:
256,192,53887,1,8,0:0:0:0:
256,192,54249,1,8,0:0:0:0:
256,192,54610,1,8,0:0:0:0:
256,128,54971,1,4,0:0:0:0:
256,192,55333,1,0,0:0:0:0:
256,192,55694,1,8,0:0:0:0:
256,192,56056,1,0,0:0:0:0:
256,192,56779,1,0,0:0:0:0:
256,192,57140,1,8,0:0:0:0:
256,192,57502,1,8,0:0:0:0:
256,192,57863,1,0,0:0:0:0:
256,192,58224,1,8,0:0:0:0:
256,192,58405,1,0,0:0:0:0:
256,192,58586,1,8,0:0:0:0:
256,192,58947,1,8,0:0:0:0:
256,192,59309,1,8,0:0:0:0:
256,192,59670,1,0,0:0:0:0:
256,192,59851,1,8,0:0:0:0:
256,192,60393,1,8,0:0:0:0:
256,192,60574,1,8,0:0:0:0:
256,128,60755,1,4,0:0:0:0:
256,192,61116,1,8,0:0:0:0:
256,192,61297,1,0,0:0:0:0:
256,192,61477,1,8,0:0:0:0:
256,192,61839,1,8,0:0:0:0:
256,192,62020,1,8,0:0:0:0:
256,192,62200,1,0,0:0:0:0:
256,192,62562,1,0,0:0:0:0:
256,192,62923,1,8,0:0:0:0:
256,192,63646,1,0,0:0:0:0:
256,192,64008,1,8,0:0:0:0:
256,192,64188,1,0,0:0:0:0:
256,192,64369,1,8,0:0:0:0:
256,192,64730,1,8,0:0:0:0:
256,192,64911,1,8,0:0:0:0:
256,192,65092,1,0,0:0:0:0:
256,192,65453,1,0,0:0:0:0:
256,192,65815,1,8,0:0:0:0:
256,128,66538,1,4,0:0:0:0:
256,192,66899,1,8,0:0:0:0:
256,192,67080,1,0,0:0:0:0:
256,192,67261,1,8,0:0:0:0:
256,192,67622,1,0,0:0:0:0:
256,192,67983,1,0,0:0:0:0:
256,192,68345,1,8,0:0:0:0:
256,192,68526,1,0,0:0:0:0:
256,192,68706,1,8,0:0:0:0:
256,192,69429,1,0,0:0:0:0:
256,192,69791,1,8,0:0:0:0:
256,192,70152,1,8,0:0:0:0:
256,192,70514,1,0,0:0:0:0:
256,192,70694,1,0,0:0:0:0:
256,192,71056,1,8,0:0:0:0:
256,192,71236,1,8,0:0:0:0:
256,192,71598,1,8,0:0:0:0:
256,192,71779,1,0,0:0:0:0:
256,192,71959,1,8,0:0:0:0:
256,128,72321,1,4,0:0:0:0:
256,192,72682,1,8,0:0:0:0:
256,192,73224,1,0,0:0:0:0:
256,192,73405,1,8,0:0:0:0:
256,192,73586,1,8,0:0:0:0:
256,192,73767,1,0,0:0:0:0:
256,192,74128,1,8,0:0:0:0:
256,192,74851,1,8,0:0:0:0:
256,192,75212,1,0,0:0:0:0:
256,192,75574,1,8,0:0:0:0:
256,192,76116,1,8,0:0:0:0:
256,192,76297,1,8,0:0:0:0:
256,192,76477,1,8,0:0:0:0:
256,192,76658,1,0,0:0:0:0:
256,192,77020,1,8,0:0:0:0:
256,192,77743,1,8,0:0:0:0:
256,192,78104,1,0,0:0:0:0:
256,192,78465,1,8,0:0:0:0:
256,192,79008,1,0,0:0:0:0:
256,192,79188,1,8,0:0:0:0:
256,192,79369,1,8,0:0:0:0:
256,192,79550,1,0,0:0:0:0:
256,192,79911,1,8,0:0:0:0:
256,192,80634,1,8,0:0:0:0:
256,192,80996,1,8,0:0:0:0:
256,192,81357,1,0,0:0:0:0:
256,192,81538,1,8,0:0:0:0:
256,192,81899,1,0,0:0:0:0:
256,192,82080,1,8,0:0:0:0:
256,192,82441,1,8,0:0:0:0:
256,192,82622,1,0,0:0:0:0:
256,192,82803,1,8,0:0:0:0:
256,192,82983,1,0,0:0:0:0:
256,192,83345,1,0,0:0:0:0:
256,192,83435,1,0,0:0:0:0:
256,192,83526,1,0,0:0:0:0:
256,192,83706,1,8,0:0:0:0:
256,128,83887,1,4,0:0:0:0:
256,192,84248,1,8,0:0:0:0:
256,192,84429,1,0,0:0:0:0:
256,192,84610,1,8,0:0:0:0:
256,192,84971,1,8,0:0:0:0:
256,192,85333,1,0,0:0:0:0:
256,192,85694,1,8,0:0:0:0:
256,192,85875,1,0,0:0:0:0:
256,192,86055,1,8,0:0:0:0:
256,192,86417,1,8,0:0:0:0:
256,192,86778,1,0,0:0:0:0:
256,192,87501,1,8,0:0:0:0:
256,192,87863,1,8,0:0:0:0:
256,192,88043,1,8,0:0:0:0:
256,192,88224,1,0,0:0:0:0:
256,192,88586,1,0,0:0:0:0:
256,192,88766,1,8,0:0:0:0:
256,192,89128,1,0,0:0:0:0:
256,192,89308,1,8,0:0:0:0:
256,192,89399,1,8,0:0:0:0:
256,192,89489,1,8,0:0:0:0:
256,192,89670,1,0,0:0:0:0:
256,192,90031,1,8,0:0:0:0:
256,192,90212,1,0,0:0:0:0:
256,192,90393,1,8,0:0:0:0:
256,192,90754,1,8,0:0:0:0:
256,192,91116,1,0,0:0:0:0:
256,192,91477,1,8,0:0:0:0:
256,192,91658,1,0,0:0:0:0:
256,192,91838,1,8,0:0:0:0:
256,192,92200,1,8,0:0:0:0:
256,192,92562,1,8,0:0:0:0:
256,192,93465,1,0,0:0:0:0:
256,192,93646,1,8,0:0:0:0:
256,192,93827,1,0,0:0:0:0:
256,192,94008,1,8,0:0:0:0:
256,192,94369,1,0,0:0:0:0:
256,192,94550,1,8,0:0:0:0:
256,192,94911,1,0,0:0:0:0:
256,192,95092,1,8,0:0:0:0:
256,192,95273,1,8,0:0:0:0:
256,128,95453,1,4,0:0:0:0:
256,192,96176,1,8,0:0:0:0:
256,192,96357,1,0,0:0:0:0:
256,192,96538,1,8,0:0:0:0:
256,192,96899,1,0,0:0:0:0:
256,192,97261,1,8,0:0:0:0:
256,192,97622,1,8,0:0:0:0:
256,192,97803,1,0,0:0:0:0:
256,192,97983,1,8,0:0:0:0:
256,128,98345,1,4,0:0:0:0:
256,192,98706,1,0,0:0:0:0:
256,192,99068,1,8,0:0:0:0:
256,192,99249,1,0,0:0:0:0:
256,192,99429,1,8,0:0:0:0:
256,192,99791,1,0,0:0:0:0:
256,192,100152,1,0,0:0:0:0:
256,192,100514,1,8,0:0:0:0:
256,192,100694,1,0,0:0:0:0:
256,192,100875,1,8,0:0:0:0:
256,192,101056,1,8,0:0:0:0:
256,128,101236,1,4,0:0:0:0:
256,192,101959,1,8,0:0:0:0:
256,192,102140,1,0,0:0:0:0:
256,192,102321,1,8,0:0:0:0:
256,192,102682,1,0,0:0:0:0:
256,192,103044,1,8,0:0:0:0:
256,192,103405,1,8,0:0:0:0:
256,192,103586,1,0,0:0:0:0:
256,192,103767,1,8,0:0:0:0:
256,128,104128,1,4,0:0:0:0:
256,192,104489,1,0,0:0:0:0:
256,192,104851,1,8,0:0:0:0:
256,192,105032,1,0,0:0:0:0:
256,192,105212,1,8,0:0:0:0:
256,192,105574,1,0,0:0:0:0:
256,192,105935,1,8,0:0:0:0:
256,192,106297,1,8,0:0:0:0:
256,192,106477,1,0,0:0:0:0:
256,192,106658,1,8,0:0:0:0:
256,192,106839,1,8,0:0:0:0:
256,128,107020,1,4,0:0:0:0:
