osu file format v14

[General]
AudioFilename: audio.mp3
AudioLeadIn: 0
PreviewTime: 20143
Countdown: 0
SampleSet: None
StackLeniency: 0.2
Mode: 1
LetterboxInBreaks: 0
WidescreenStoryboard: 1

[Editor]
DistanceSpacing: 1
BeatDivisor: 4
GridSize: 8
TimelineZoom: 2.7

[Metadata]
Title:$100 Bills
TitleUnicode:$100 Bills
Artist:Jaroslav Beck
ArtistUnicode:Jaroslav Beck
Creator:Rygno
Version:Old Oni
Source:Beat Saber
Tags:beat games vr virtual reality hyperbolic magnetism dnb
BeatmapID:1884897
BeatmapSetID:896115

[Difficulty]
HPDrainRate:7
CircleSize:5
OverallDifficulty:6.5
ApproachRate:5
SliderMultiplier:1.4
SliderTickRate:1

[Events]
//Background and Video events
0,0,"beat-saber-key-art-normal-2-9025-resized.jpg",0,0
//Break Periods
//Storyboard Layer 0 (Background)
//Storyboard Layer 1 (Fail)
//Storyboard Layer 2 (Pass)
//Storyboard Layer 3 (Foreground)
//Storyboard Sound Samples

[TimingPoints]
2286,571.428571428571,4,1,0,20,1,0
2286,-83.3333333333333,4,1,0,20,0,0
6857,-62.5,4,1,0,35,0,0
11428,-50,4,1,0,55,0,0
16000,-41.6666666666667,4,1,0,70,0,0
20571,-50,4,1,0,70,0,0
38857,-57.1428571428571,4,1,0,50,0,0
43428,-50,4,1,0,70,0,0
61714,-62.5,4,1,0,50,0,0
70856,-50,4,1,0,60,0,0
75428,-41.6666666666667,4,1,0,70,0,0
79999,-40,4,1,0,70,0,0
82285,-50,4,1,0,70,0,0

[HitObjects]
256,192,2286,5,8,0:0:0:0:
256,192,2857,1,0,0:0:0:0:
256,192,3428,1,0,0:0:0:0:
256,192,4000,1,0,0:0:0:0:
256,192,4571,5,8,0:0:0:0:
256,192,5143,1,0,0:0:0:0:
256,192,5714,1,0,0:0:0:0:
256,192,6285,1,0,0:0:0:0:
256,192,6857,5,8,0:0:0:0:
256,192,7000,1,0,0:0:0:0:
256,192,7285,1,8,0:0:0:0:
256,192,7428,1,0,0:0:0:0:
264,192,7714,1,8,0:0:0:0:
256,192,8000,1,8,0:0:0:0:
256,192,8143,1,0,0:0:0:0:
256,192,8428,1,8,0:0:0:0:
256,192,8571,1,0,0:0:0:0:
256,192,8857,1,8,0:0:0:0:
256,192,9143,5,8,0:0:0:0:
256,192,9285,1,0,0:0:0:0:
256,192,9571,1,8,0:0:0:0:
256,192,9714,1,0,0:0:0:0:
256,192,10000,1,8,0:0:0:0:
256,192,10285,1,8,0:0:0:0:
256,192,10428,1,0,0:0:0:0:
256,192,10714,1,8,0:0:0:0:
256,192,10857,1,0,0:0:0:0:
256,192,11143,1,8,0:0:0:0:
256,192,11428,5,8,0:0:0:0:
256,192,11571,1,0,0:0:0:0:
256,192,11857,1,8,0:0:0:0:
256,192,12000,1,0,0:0:0:0:
256,192,12285,1,8,0:0:0:0:
256,192,12428,1,0,0:0:0:0:
256,192,12571,1,8,0:0:0:0:
256,192,12714,1,0,0:0:0:0:
256,192,13000,1,8,0:0:0:0:
256,192,13143,1,0,0:0:0:0:
256,192,13428,1,0,0:0:0:0:
256,192,13500,1,0,0:0:0:0:
256,192,13571,1,0,0:0:0:0:
256,192,13643,1,0,0:0:0:0:
256,192,13714,5,8,0:0:0:0:
256,192,13857,1,0,0:0:0:0:
256,192,14143,1,8,0:0:0:0:
256,192,14285,1,0,0:0:0:0:
256,192,14571,1,8,0:0:0:0:
256,192,14714,1,0,0:0:0:0:
256,192,14857,1,8,0:0:0:0:
256,192,15000,1,0,0:0:0:0:
256,192,15285,1,8,0:0:0:0:
256,192,15428,1,0,0:0:0:0:
256,200,15714,1,8,0:0:0:0:
256,192,16000,5,8,0:0:0:0:
256,192,16285,1,8,0:0:0:0:
256,192,16428,1,8,0:0:0:0:
256,192,16571,1,8,0:0:0:0:
256,192,16857,1,8,0:0:0:0:
256,192,17000,1,8,0:0:0:0:
256,192,17142,1,8,0:0:0:0:
256,192,17285,1,8,0:0:0:0:
256,192,17357,1,8,0:0:0:0:
256,192,17428,1,8,0:0:0:0:
256,192,17571,1,8,0:0:0:0:
256,192,17714,1,8,0:0:0:0:
256,192,18000,1,8,0:0:0:0:
256,192,18285,5,8,0:0:0:0:
256,192,18428,1,8,0:0:0:0:
256,192,18571,1,8,0:0:0:0:
256,192,18714,1,8,0:0:0:0:
256,192,18857,1,8,0:0:0:0:
256,192,19000,1,8,0:0:0:0:
256,192,19142,1,8,0:0:0:0:
256,192,19285,1,8,0:0:0:0:
256,192,19428,1,8,0:0:0:0:
256,192,19571,1,8,0:0:0:0:
256,192,19642,1,8,0:0:0:0:
256,192,19714,1,8,0:0:0:0:
256,192,19857,1,8,0:0:0:0:
256,192,20000,1,8,0:0:0:0:
256,192,20285,1,8,0:0:0:0:
256,192,20571,5,4,0:0:0:0:
256,192,20856,1,0,0:0:0:0:
256,192,21142,1,8,0:0:0:0:
256,192,21428,1,8,0:0:0:0:
256,192,21713,1,0,0:0:0:0:
256,192,21999,1,8,0:0:0:0:
256,192,22142,1,8,0:0:0:0:
256,192,22285,1,0,0:0:0:0:
256,192,22428,1,0,0:0:0:0:
256,192,22571,1,8,0:0:0:0:
256,192,22856,1,8,0:0:0:0:
256,192,23142,1,8,0:0:0:0:
256,192,23428,1,0,0:0:0:0:
256,192,23714,1,8,0:0:0:0:
256,192,23999,1,8,0:0:0:0:
256,192,24285,1,0,0:0:0:0:
256,192,24570,1,12,0:0:0:0:
256,192,25142,5,4,0:0:0:0:
256,192,25428,1,0,0:0:0:0:
256,192,25713,1,8,0:0:0:0:
256,192,25999,1,8,0:0:0:0:
256,192,26285,1,0,0:0:0:0:
256,192,26570,1,8,0:0:0:0:
256,192,26713,1,0,0:0:0:0:
256,192,26856,1,8,0:0:0:0:
256,192,26999,1,0,0:0:0:0:
256,192,27142,1,8,0:0:0:0:
256,192,27428,1,12,0:0:0:0:
256,192,27713,1,12,0:0:0:0:
256,192,27999,1,0,0:0:0:0:
256,192,28285,1,0,0:0:0:0:
256,192,28570,1,8,0:0:0:0:
256,192,28856,1,0,0:0:0:0:
256,192,29142,1,12,0:0:0:0:
256,192,29713,5,12,0:0:0:0:
256,192,29999,1,8,0:0:0:0:
256,192,30285,1,0,0:0:0:0:
256,192,30570,1,0,0:0:0:0:
256,192,30856,1,0,0:0:0:0:
256,192,31142,1,8,0:0:0:0:
256,192,31285,1,0,0:0:0:0:
256,192,31428,1,0,0:0:0:0:
256,192,31713,1,8,0:0:0:0:
256,192,31999,1,4,0:0:0:0:
256,192,32285,1,0,0:0:0:0:
256,192,32570,1,8,0:0:0:0:
256,192,32856,1,4,0:0:0:0:
256,192,33142,1,8,0:0:0:0:
256,192,33428,1,0,0:0:0:0:
256,192,33713,1,12,0:0:0:0:
256,192,34285,5,12,0:0:0:0:
256,192,34570,1,8,0:0:0:0:
256,192,34856,1,0,0:0:0:0:
256,192,35142,1,8,0:0:0:0:
256,192,35428,1,0,0:0:0:0:
256,192,35713,1,8,0:0:0:0:
256,192,35856,1,0,0:0:0:0:
256,192,35999,1,8,0:0:0:0:
256,192,36142,1,0,0:0:0:0:
256,192,36285,1,8,0:0:0:0:
256,192,36570,1,4,0:0:0:0:
256,192,36856,1,4,0:0:0:0:
256,192,37142,1,8,0:0:0:0:
256,192,37428,1,0,0:0:0:0:
256,192,37713,1,8,0:0:0:0:
256,192,37999,1,0,0:0:0:0:
256,192,38285,1,12,0:0:0:0:
256,192,38857,5,8,0:0:0:0:
256,192,38999,1,0,0:0:0:0:
256,192,39142,1,8,0:0:0:0:
256,192,39428,1,8,0:0:0:0:
256,192,39571,1,0,0:0:0:0:
256,192,39714,1,0,0:0:0:0:
256,192,39999,1,8,0:0:0:0:
256,192,40142,1,0,0:0:0:0:
256,192,40285,1,8,0:0:0:0:
256,192,40571,1,8,0:0:0:0:
256,192,40714,1,0,0:0:0:0:
256,192,40857,1,0,0:0:0:0:
256,192,41142,1,8,0:0:0:0:
256,192,41285,1,0,0:0:0:0:
256,192,41428,1,8,0:0:0:0:
256,192,41714,1,8,0:0:0:0:
256,192,41857,1,0,0:0:0:0:
256,192,41999,1,0,0:0:0:0:
256,192,42285,1,8,0:0:0:0:
256,192,42571,1,0,0:0:0:0:
256,192,42857,1,0,0:0:0:0:
256,192,43142,1,0,0:0:0:0:
256,192,43428,5,4,0:0:0:0:
256,192,43713,1,8,0:0:0:0:
256,192,43856,1,8,0:0:0:0:
256,192,43999,1,0,0:0:0:0:
256,192,44285,1,8,0:0:0:0:
256,192,44570,1,0,0:0:0:0:
256,192,44857,1,0,0:0:0:0:
256,192,45000,1,8,0:0:0:0:
256,192,45143,1,0,0:0:0:0:
256,192,45428,1,8,0:0:0:0:
256,192,45713,1,0,0:0:0:0:
256,192,45856,1,0,0:0:0:0:
256,192,45999,1,8,0:0:0:0:
256,192,46142,1,8,0:0:0:0:
256,192,46285,1,0,0:0:0:0:
256,192,46570,1,8,0:0:0:0:
256,192,46713,1,8,0:0:0:0:
256,192,46856,1,0,0:0:0:0:
248,192,47142,1,8,0:0:0:0:
256,192,47428,1,4,0:0:0:0:
256,192,47999,5,4,0:0:0:0:
256,192,48285,1,8,0:0:0:0:
256,192,48428,1,8,0:0:0:0:
256,192,48570,1,0,0:0:0:0:
256,192,48856,1,8,0:0:0:0:
256,192,49142,1,0,0:0:0:0:
256,192,49427,1,8,0:0:0:0:
256,192,49570,1,8,0:0:0:0:
256,192,49713,1,0,0:0:0:0:
256,192,49999,1,8,0:0:0:0:
256,192,50285,1,0,0:0:0:0:
256,192,50570,1,8,0:0:0:0:
256,192,50713,1,0,0:0:0:0:
256,192,50999,1,8,0:0:0:0:
256,192,51142,1,0,0:0:0:0:
256,192,51427,1,8,0:0:0:0:
256,192,51570,1,0,0:0:0:0:
256,192,51713,1,0,0:0:0:0:
256,192,51999,1,12,0:0:0:0:
256,192,52570,5,0,0:0:0:0:
256,192,52856,1,8,0:0:0:0:
256,192,53142,1,0,0:0:0:0:
256,192,53285,1,8,0:0:0:0:
256,192,53427,1,8,0:0:0:0:
256,192,53570,1,8,0:0:0:0:
256,192,53713,1,0,0:0:0:0:
256,192,53856,1,8,0:0:0:0:
256,192,53999,1,8,0:0:0:0:
256,192,54142,1,8,0:0:0:0:
256,192,54285,1,0,0:0:0:0:
256,192,54427,1,8,0:0:0:0:
256,192,54570,1,8,0:0:0:0:
256,192,54856,1,0,0:0:0:0:
256,192,55142,1,8,0:0:0:0:
256,192,55427,1,0,0:0:0:0:
256,192,55570,1,8,0:0:0:0:
256,192,55713,1,8,0:0:0:0:
256,192,55856,1,8,0:0:0:0:
256,192,55999,1,0,0:0:0:0:
256,192,56142,1,8,0:0:0:0:
256,192,56285,1,8,0:0:0:0:
256,192,56427,1,8,0:0:0:0:
256,192,56570,1,12,0:0:0:0:
256,192,57142,5,4,0:0:0:0:
256,192,57427,1,8,0:0:0:0:
256,192,57713,1,0,0:0:0:0:
256,192,57856,1,8,0:0:0:0:
256,192,57999,1,8,0:0:0:0:
256,192,58285,1,0,0:0:0:0:
256,192,58427,1,8,0:0:0:0:
256,192,58570,1,8,0:0:0:0:
256,192,58856,1,0,0:0:0:0:
256,192,58999,1,8,0:0:0:0:
256,192,59142,1,0,0:0:0:0:
256,192,59427,1,0,0:0:0:0:
256,192,59713,1,8,0:0:0:0:
256,192,59999,1,0,0:0:0:0:
256,192,60142,1,8,0:0:0:0:
256,192,60285,1,0,0:0:0:0:
256,192,60570,1,4,0:0:0:0:
256,192,60856,1,0,0:0:0:0:
256,192,61142,1,12,0:0:0:0:
256,192,61714,5,0,0:0:0:0:
256,192,61999,1,8,0:0:0:0:
256,192,62142,1,0,0:0:0:0:
256,192,62285,1,8,0:0:0:0:
256,192,62571,1,0,0:0:0:0:
256,192,62857,1,0,0:0:0:0:
256,192,63285,1,8,0:0:0:0:
256,192,63714,1,8,0:0:0:0:
256,192,63999,1,0,0:0:0:0:
256,192,64285,5,0,0:0:0:0:
256,192,64428,1,0,0:0:0:0:
256,192,64571,1,8,0:0:0:0:
256,192,64856,1,0,0:0:0:0:
256,192,65142,1,8,0:0:0:0:
256,192,65571,1,8,0:0:0:0:
256,192,65999,1,8,0:0:0:0:
256,192,66285,1,0,0:0:0:0:
256,192,66571,1,8,0:0:0:0:
256,192,66714,1,0,0:0:0:0:
256,192,66856,1,8,0:0:0:0:
256,192,67142,1,8,0:0:0:0:
256,192,67428,5,0,0:0:0:0:
256,192,67571,1,8,0:0:0:0:
256,192,67714,1,8,0:0:0:0:
256,192,67856,1,0,0:0:0:0:
256,192,67999,1,8,0:0:0:0:
256,192,68285,1,0,0:0:0:0:
256,192,68571,1,0,0:0:0:0:
256,192,68857,1,8,0:0:0:0:
256,192,69000,1,0,0:0:0:0:
256,192,69142,1,0,0:0:0:0:
256,192,69428,1,0,0:0:0:0:
256,192,69714,5,0,0:0:0:0:
256,192,69856,1,0,0:0:0:0:
256,192,69999,1,8,0:0:0:0:
256,192,70285,1,8,0:0:0:0:
256,192,70428,1,0,0:0:0:0:
256,192,70571,1,8,0:0:0:0:
256,192,70856,5,8,0:0:0:0:
256,192,71142,1,8,0:0:0:0:
264,192,71285,1,0,0:0:0:0:
264,192,71428,1,8,0:0:0:0:
264,192,71714,1,8,0:0:0:0:
264,192,71856,1,0,0:0:0:0:
264,192,71999,1,8,0:0:0:0:
264,192,72285,1,8,0:0:0:0:
264,192,72428,1,0,0:0:0:0:
264,192,72571,1,8,0:0:0:0:
264,192,72856,1,8,0:0:0:0:
264,192,72999,1,0,0:0:0:0:
264,192,73142,1,8,0:0:0:0:
264,192,73285,1,8,0:0:0:0:
264,192,73428,1,0,0:0:0:0:
264,192,73571,1,0,0:0:0:0:
264,192,73714,1,8,0:0:0:0:
264,192,73856,1,8,0:0:0:0:
264,192,73999,1,0,0:0:0:0:
264,192,74142,1,0,0:0:0:0:
264,192,74285,1,8,0:0:0:0:
264,192,74428,1,0,0:0:0:0:
264,192,74571,1,8,0:0:0:0:
264,192,74714,1,0,0:0:0:0:
264,192,74856,1,8,0:0:0:0:
264,192,75142,1,0,0:0:0:0:
264,192,75428,5,8,0:0:0:0:
264,192,75571,1,8,0:0:0:0:
264,192,75714,1,0,0:0:0:0:
264,192,75856,1,0,0:0:0:0:
264,192,75999,1,8,0:0:0:0:
264,192,76142,1,0,0:0:0:0:
264,192,76285,1,0,0:0:0:0:
264,192,76428,1,0,0:0:0:0:
264,192,76571,1,8,0:0:0:0:
264,192,76714,1,8,0:0:0:0:
264,192,76856,1,8,0:0:0:0:
264,192,76999,1,8,0:0:0:0:
264,192,77142,1,8,0:0:0:0:
264,192,77285,1,0,0:0:0:0:
264,192,77428,1,8,0:0:0:0:
266,197,77571,1,0,0:0:0:0:
264,192,77714,1,8,0:0:0:0:
264,192,77856,1,0,0:0:0:0:
264,192,77999,1,8,0:0:0:0:
264,192,78142,1,0,0:0:0:0:
264,192,78285,1,8,0:0:0:0:
264,192,78428,1,0,0:0:0:0:
256,192,78571,1,8,0:0:0:0:
256,192,78714,1,0,0:0:0:0:
264,192,78856,1,8,0:0:0:0:
264,192,78928,1,8,0:0:0:0:
264,192,78999,1,8,0:0:0:0:
264,192,79071,1,8,0:0:0:0:
264,192,79142,1,8,0:0:0:0:
264,192,79214,1,8,0:0:0:0:
264,192,79285,1,8,0:0:0:0:
264,192,79356,1,8,0:0:0:0:
272,192,79428,1,8,0:0:0:0:
264,192,79714,1,0,0:0:0:0:
256,192,79999,5,8,0:0:0:0:
256,192,80142,1,8,0:0:0:0:
256,192,80214,1,0,0:0:0:0:
256,192,80285,1,8,0:0:0:0:
256,192,80428,1,8,0:0:0:0:
256,192,80571,1,8,0:0:0:0:
256,192,80714,1,8,0:0:0:0:
256,192,80785,1,0,0:0:0:0:
256,192,80856,1,8,0:0:0:0:
256,192,80999,1,8,0:0:0:0:
256,192,81142,1,8,0:0:0:0:
256,192,81285,1,8,0:0:0:0:
256,192,81356,1,0,0:0:0:0:
256,192,81428,1,8,0:0:0:0:
256,192,81571,1,8,0:0:0:0:
256,192,81714,1,8,0:0:0:0:
256,192,81999,1,4,0:0:0:0:
256,192,82285,5,4,0:0:0:0:
256,192,82570,1,8,0:0:0:0:
256,192,82713,1,8,0:0:0:0:
256,192,82856,1,0,0:0:0:0:
256,192,82999,1,0,0:0:0:0:
256,192,83142,1,8,0:0:0:0:
256,192,83285,1,8,0:0:0:0:
256,192,83427,1,0,0:0:0:0:
256,192,83570,1,0,0:0:0:0:
256,192,83713,1,8,0:0:0:0:
256,192,83856,1,0,0:0:0:0:
256,192,83999,1,0,0:0:0:0:
256,192,84285,1,8,0:0:0:0:
256,192,84571,1,0,0:0:0:0:
256,192,84714,1,0,0:0:0:0:
256,192,84856,1,8,0:0:0:0:
256,192,84999,1,8,0:0:0:0:
256,192,85070,1,8,0:0:0:0:
256,192,85142,1,0,0:0:0:0:
256,192,85285,1,0,0:0:0:0:
256,192,85356,1,0,0:0:0:0:
256,192,85427,1,8,0:0:0:0:
256,192,85570,1,8,0:0:0:0:
256,192,85713,1,0,0:0:0:0:
256,192,85856,1,0,0:0:0:0:
256,192,85999,1,8,0:0:0:0:
256,192,86142,1,0,0:0:0:0:
256,192,86285,5,0,0:0:0:0:
256,192,86570,1,8,0:0:0:0:
256,192,86713,1,8,0:0:0:0:
256,192,86857,1,4,0:0:0:0:
256,192,87142,1,8,0:0:0:0:
256,192,87285,1,4,0:0:0:0:
256,192,87570,1,0,0:0:0:0:
256,192,87714,1,4,0:0:0:0:
256,192,88000,1,4,0:0:0:0:
256,192,88285,1,8,0:0:0:0:
256,192,88428,1,4,0:0:0:0:
256,192,88571,1,4,0:0:0:0:
256,192,88715,1,4,0:0:0:0:
256,192,88857,1,4,0:0:0:0:
256,192,89000,1,4,0:0:0:0:
256,192,89142,1,8,0:0:0:0:
256,192,89285,1,0,0:0:0:0:
256,192,89356,1,0,0:0:0:0:
256,192,89427,1,8,0:0:0:0:
256,192,89570,1,8,0:0:0:0:
256,192,89713,1,0,0:0:0:0:
256,192,89785,1,0,0:0:0:0:
256,192,89856,1,8,0:0:0:0:
256,192,89999,1,8,0:0:0:0:
256,192,90142,1,8,0:0:0:0:
256,192,90285,1,0,0:0:0:0:
256,192,90427,1,0,0:0:0:0:
256,192,90570,1,8,0:0:0:0:
256,192,90856,1,12,0:0:0:0:
256,192,91427,5,4,0:0:0:0:
256,192,91570,1,0,0:0:0:0:
256,192,91713,1,8,0:0:0:0:
256,192,91999,1,12,0:0:0:0:
256,192,92570,1,4,0:0:0:0:
256,192,92713,1,0,0:0:0:0:
256,192,92856,1,8,0:0:0:0:
256,192,93142,1,12,0:0:0:0:
256,192,93713,1,8,0:0:0:0:
256,192,93856,1,8,0:0:0:0:
256,192,93999,1,0,0:0:0:0:
256,192,94142,1,8,0:0:0:0:
256,192,94284,1,8,0:0:0:0:
256,192,94427,1,8,0:0:0:0:
264,192,94499,1,8,0:0:0:0:
264,192,94570,1,0,0:0:0:0:
256,192,94856,1,4,0:0:0:0:
256,192,94999,1,0,0:0:0:0:
256,192,95142,1,8,0:0:0:0:
256,192,95427,1,12,0:0:0:0:
256,192,95999,5,4,0:0:0:0:
256,192,96142,1,0,0:0:0:0:
256,192,96284,1,8,0:0:0:0:
256,192,96570,1,12,0:0:0:0:
256,192,97142,1,4,0:0:0:0:
256,192,97284,1,0,0:0:0:0:
256,192,97427,1,8,0:0:0:0:
256,192,97713,1,12,0:0:0:0:
256,192,98284,1,0,0:0:0:0:
256,192,98427,1,8,0:0:0:0:
256,192,98499,1,8,0:0:0:0:
256,192,98570,1,8,0:0:0:0:
256,192,98713,1,0,0:0:0:0:
256,192,98856,1,8,0:0:0:0:
256,192,98927,1,8,0:0:0:0:
256,192,98999,1,8,0:0:0:0:
256,192,99142,1,0,0:0:0:0:
256,192,99284,1,8,0:0:0:0:
256,192,99427,1,0,0:0:0:0:
256,192,99570,1,8,0:0:0:0:
256,192,99642,1,8,0:0:0:0:
256,192,99713,1,0,0:0:0:0:
256,192,99999,1,12,0:0:0:0:
256,192,100570,5,4,0:0:0:0:
256,192,100856,1,8,0:0:0:0:
256,192,100999,1,8,0:0:0:0:
256,192,101142,1,0,0:0:0:0:
256,192,101284,1,8,0:0:0:0:
256,192,101427,1,8,0:0:0:0:
256,192,101570,1,0,0:0:0:0:
256,192,101713,1,8,0:0:0:0:
256,192,101856,1,8,0:0:0:0:
256,192,101999,1,0,0:0:0:0:
256,192,102142,1,8,0:0:0:0:
256,192,102284,1,0,0:0:0:0:
256,192,102570,1,8,0:0:0:0:
256,192,102714,1,0,0:0:0:0:
256,192,102856,1,0,0:0:0:0:
256,192,102999,1,8,0:0:0:0:
256,192,103142,1,0,0:0:0:0:
256,192,103284,1,0,0:0:0:0:
256,192,103427,1,0,0:0:0:0:
256,192,103570,1,8,0:0:0:0:
256,192,103642,1,8,0:0:0:0:
256,192,103713,1,0,0:0:0:0:
256,192,103856,1,0,0:0:0:0:
256,192,103999,1,8,0:0:0:0:
256,192,104142,1,0,0:0:0:0:
256,192,104284,1,8,0:0:0:0:
256,192,104427,1,0,0:0:0:0:
256,192,104570,1,0,0:0:0:0:
256,192,104856,1,8,0:0:0:0:
256,192,104999,1,8,0:0:0:0:
256,192,105143,5,4,0:0:0:0:
256,192,105427,1,8,0:0:0:0:
256,192,105571,1,4,0:0:0:0:
256,192,105856,1,8,0:0:0:0:
256,192,106001,1,4,0:0:0:0:
256,192,106285,1,4,0:0:0:0:
256,192,106571,1,0,0:0:0:0:
256,192,106713,1,8,0:0:0:0:
256,192,106784,1,8,0:0:0:0:
256,192,106856,1,0,0:0:0:0:
256,192,107001,1,4,0:0:0:0:
256,192,107144,1,4,0:0:0:0:
256,192,107285,1,4,0:0:0:0:
256,192,107427,1,8,0:0:0:0:
256,192,107570,1,0,0:0:0:0:
256,192,107642,1,0,0:0:0:0:
256,192,107713,1,8,0:0:0:0:
256,192,107856,1,8,0:0:0:0:
256,192,107999,1,0,0:0:0:0:
256,192,108070,1,0,0:0:0:0:
256,192,108142,1,8,0:0:0:0:
256,192,108284,1,8,0:0:0:0:
256,192,108427,1,8,0:0:0:0:
256,192,108570,1,0,0:0:0:0:
256,192,108713,1,0,0:0:0:0:
256,192,108856,1,0,0:0:0:0:
256,192,109142,1,12,0:0:0:0:
256,192,109713,5,4,0:0:0:0:
256,192,109856,1,8,0:0:0:0:
256,192,109927,1,8,0:0:0:0:
256,192,109999,1,0,0:0:0:0:
256,192,110284,1,12,0:0:0:0:
256,192,110856,1,4,0:0:0:0:
256,192,110999,1,8,0:0:0:0:
256,192,111070,1,8,0:0:0:0:
256,192,111142,1,0,0:0:0:0:
256,192,111427,1,12,0:0:0:0:
256,192,111999,1,0,0:0:0:0:
256,192,112142,1,0,0:0:0:0:
256,192,112284,1,8,0:0:0:0:
256,192,112427,1,8,0:0:0:0:
256,192,112499,1,0,0:0:0:0:
256,192,112570,1,8,0:0:0:0:
256,192,112713,1,8,0:0:0:0:
256,192,112856,1,0,0:0:0:0:
256,192,113142,1,4,0:0:0:0:
256,192,113284,1,8,0:0:0:0:
256,192,113356,1,8,0:0:0:0:
256,192,113427,1,0,0:0:0:0:
256,192,113713,1,12,0:0:0:0:
256,192,114284,1,4,0:0:0:0:
256,192,114427,1,8,0:0:0:0:
256,192,114499,1,8,0:0:0:0:
256,192,114570,1,0,0:0:0:0:
256,192,114856,1,12,0:0:0:0:
256,192,115142,1,0,0:0:0:0:
256,192,115427,1,4,0:0:0:0:
256,192,115570,1,8,0:0:0:0:
256,192,115642,1,8,0:0:0:0:
256,192,115713,1,0,0:0:0:0:
256,192,115999,1,12,0:0:0:0:
256,192,116284,1,0,0:0:0:0:
256,192,116570,5,0,0:0:0:0:
256,192,116713,1,8,0:0:0:0:
256,192,116784,1,8,0:0:0:0:
256,192,116856,1,0,0:0:0:0:
256,192,116999,1,0,0:0:0:0:
256,192,117142,1,8,0:0:0:0:
256,192,117213,1,8,0:0:0:0:
256,192,117284,1,0,0:0:0:0:
256,192,117427,1,0,0:0:0:0:
256,192,117570,1,8,0:0:0:0:
256,192,117713,1,0,0:0:0:0:
256,192,117856,1,0,0:0:0:0:
256,192,117999,1,8,0:0:0:0:
256,192,118284,1,12,0:0:0:0:
256,192,118856,5,4,0:0:0:0:
256,192,119142,1,0,0:0:0:0:
256,192,119427,1,8,0:0:0:0:
256,200,119713,1,8,0:0:0:0:
256,200,119999,1,0,0:0:0:0:
256,200,120284,1,8,0:0:0:0:
256,200,120427,1,0,0:0:0:0:
256,200,120499,1,0,0:0:0:0:
256,200,120570,1,8,0:0:0:0:
256,200,120713,1,0,0:0:0:0:
256,200,120856,1,0,0:0:0:0:
256,200,121142,1,4,0:0:0:0:
256,200,121427,1,8,0:0:0:0:
256,200,121713,1,8,0:0:0:0:
256,200,121999,1,0,0:0:0:0:
256,200,122284,1,8,0:0:0:0:
256,200,122570,1,0,0:0:0:0:
256,200,122856,1,12,0:0:0:0:
256,200,123427,5,4,0:0:0:0:
256,200,123713,1,8,0:0:0:0:
256,200,123999,1,0,0:0:0:0:
256,200,124284,1,8,0:0:0:0:
256,200,124570,1,12,0:0:0:0:
256,200,124856,1,8,0:0:0:0:
256,200,124999,1,8,0:0:0:0:
256,200,125070,1,8,0:0:0:0:
256,200,125142,1,0,0:0:0:0:
256,200,125284,1,8,0:0:0:0:
256,200,125427,1,0,0:0:0:0:
256,200,125713,1,12,0:0:0:0:
256,200,125999,1,12,0:0:0:0:
256,200,126284,1,0,0:0:0:0:
256,200,126570,1,0,0:0:0:0:
256,200,126856,1,8,0:0:0:0:
256,200,127142,1,0,0:0:0:0:
256,200,127427,1,12,0:0:0:0:
256,200,127999,5,4,0:0:0:0:
256,200,128284,1,0,0:0:0:0:
256,200,128570,1,8,0:0:0:0:
256,200,128856,1,8,0:0:0:0:
256,200,129142,1,0,0:0:0:0:
256,200,129427,1,8,0:0:0:0:
256,200,129570,1,0,0:0:0:0:
256,200,129713,1,0,0:0:0:0:
256,200,129856,1,8,0:0:0:0:
256,200,129999,1,0,0:0:0:0:
256,200,130284,1,0,0:0:0:0:
256,200,130570,1,8,0:0:0:0:
256,200,130856,1,8,0:0:0:0:
256,200,131142,1,0,0:0:0:0:
256,200,131427,1,8,0:0:0:0:
256,200,131713,1,0,0:0:0:0:
256,200,131999,1,12,0:0:0:0:
256,200,132570,5,4,0:0:0:0:
256,192,132856,1,8,0:0:0:0:
256,192,133142,1,0,0:0:0:0:
256,192,133427,1,8,0:0:0:0:
256,192,133713,1,12,0:0:0:0:
256,192,133999,1,8,0:0:0:0:
256,192,134142,1,8,0:0:0:0:
256,192,134284,1,0,0:0:0:0:
256,192,134427,1,0,0:0:0:0:
256,192,134570,1,8,0:0:0:0:
256,192,134856,1,4,0:0:0:0:
256,192,135142,1,4,0:0:0:0:
256,192,135427,1,8,0:0:0:0:
256,192,135713,1,8,0:0:0:0:
256,192,135999,1,0,0:0:0:0:
256,192,136284,1,0,0:0:0:0:
256,192,136570,1,12,0:0:0:0:
256,192,137143,1,4,0:0:0:0:
