osu file format v14

[General]
AudioFilename: audio.mp3
AudioLeadIn: 0
PreviewTime: 20143
Countdown: 0
SampleSet: Normal
StackLeniency: 0.2
Mode: 1
LetterboxInBreaks: 0
WidescreenStoryboard: 1

[Editor]
DistanceSpacing: 1
BeatDivisor: 4
GridSize: 8
TimelineZoom: 2.2

[Metadata]
Title:$100 Bills
TitleUnicode:$100 Bills
Artist:Jaroslav Beck
ArtistUnicode:Jaroslav Beck
Creator:Rygno
Version:Futsuu
Source:Beat Saber
Tags:beat games vr virtual reality hyperbolic magnetism dnb
BeatmapID:1872308
BeatmapSetID:896115

[Difficulty]
HPDrainRate:5
CircleSize:5
OverallDifficulty:5
ApproachRate:5
SliderMultiplier:1.4
SliderTickRate:1

[Events]
//Background and Video events
0,0,"beat-saber-key-art-normal-2-9025-resized.jpg",0,0
//Break Periods
//Storyboard Layer 0 (Background)
//Storyboard Layer 1 (Fail)
//Storyboard Layer 2 (Pass)
//Storyboard Layer 3 (Foreground)
//Storyboard Sound Samples

[TimingPoints]
2286,571.428571428571,4,1,0,20,1,0
2286,-90.9090909090909,4,1,0,20,0,0
6857,-76.9230769230769,4,1,0,35,0,0
11428,-66.6666666666667,4,1,0,55,0,0
16000,-58.8235294117647,4,1,0,70,0,0
20571,-66.6666666666667,4,1,0,70,0,0
38857,-71.4285714285714,4,1,0,50,0,0
43428,-66.6666666666667,4,1,0,70,0,0
61714,-76.9230769230769,4,1,0,50,0,0
70856,-66.6666666666667,4,1,0,60,0,0
75428,-58.8235294117647,4,1,0,70,0,0
79999,-57.1428571428571,4,1,0,70,0,0
82285,-66.6666666666667,4,1,0,70,0,0

[HitObjects]
256,192,2286,5,8,0:0:0:0:
256,192,2857,1,0,0:0:0:0:
256,192,3428,1,0,0:0:0:0:
256,192,4000,1,0,0:0:0:0:
256,192,4571,5,8,0:0:0:0:
256,192,5143,1,0,0:0:0:0:
256,192,5714,1,0,0:0:0:0:
256,192,6285,1,0,0:0:0:0:
256,192,6857,5,8,0:0:0:0:
256,192,7285,1,0,0:0:0:0:
264,192,7714,1,8,0:0:0:0:
256,192,8000,1,8,0:0:0:0:
256,192,8571,1,0,0:0:0:0:
256,192,9143,5,8,0:0:0:0:
256,192,9571,1,0,0:0:0:0:
256,192,10000,1,8,0:0:0:0:
256,192,10285,1,8,0:0:0:0:
256,192,10857,1,0,0:0:0:0:
256,192,11428,5,8,0:0:0:0:
256,192,11857,1,0,0:0:0:0:
256,192,12285,1,8,0:0:0:0:
256,192,12571,1,8,0:0:0:0:
256,192,13143,1,0,0:0:0:0:
256,192,13714,5,8,0:0:0:0:
256,192,14143,1,0,0:0:0:0:
256,192,14571,1,8,0:0:0:0:
256,192,14857,1,8,0:0:0:0:
256,192,15428,1,0,0:0:0:0:
256,192,16000,5,8,0:0:0:0:
256,192,16285,1,8,0:0:0:0:
256,192,16428,1,8,0:0:0:0:
256,192,16571,1,8,0:0:0:0:
256,192,16857,1,8,0:0:0:0:
256,192,17142,1,8,0:0:0:0:
256,192,17428,1,8,0:0:0:0:
256,192,17714,1,8,0:0:0:0:
256,192,18285,5,8,0:0:0:0:
256,192,18571,1,8,0:0:0:0:
256,192,18857,1,8,0:0:0:0:
256,192,19142,1,8,0:0:0:0:
256,192,19428,1,8,0:0:0:0:
256,192,19714,1,8,0:0:0:0:
256,192,20000,1,8,0:0:0:0:
256,192,20571,5,4,0:0:0:0:
256,192,20856,1,0,0:0:0:0:
256,192,21142,1,8,0:0:0:0:
256,192,21713,1,0,0:0:0:0:
256,192,21999,1,8,0:0:0:0:
256,192,22285,1,0,0:0:0:0:
256,192,22571,1,0,0:0:0:0:
256,192,22856,1,8,0:0:0:0:
256,192,23428,1,0,0:0:0:0:
256,192,23713,1,0,0:0:0:0:
256,192,23999,1,8,0:0:0:0:
256,192,24285,1,0,0:0:0:0:
256,192,24570,1,12,0:0:0:0:
256,192,25142,5,4,0:0:0:0:
256,192,25428,1,0,0:0:0:0:
256,192,25713,1,8,0:0:0:0:
256,192,26285,1,0,0:0:0:0:
256,192,26570,1,8,0:0:0:0:
256,192,26856,1,0,0:0:0:0:
256,192,27142,1,0,0:0:0:0:
256,192,27428,1,12,0:0:0:0:
256,192,27999,1,0,0:0:0:0:
256,192,28285,1,0,0:0:0:0:
256,192,28570,1,8,0:0:0:0:
256,192,28856,1,0,0:0:0:0:
256,192,29142,1,12,0:0:0:0:
256,192,29713,5,12,0:0:0:0:
256,192,29999,1,8,0:0:0:0:
256,192,30285,1,0,0:0:0:0:
256,192,30856,1,0,0:0:0:0:
256,192,31142,1,8,0:0:0:0:
256,192,31428,1,0,0:0:0:0:
256,192,31713,1,8,0:0:0:0:
256,192,31999,1,4,0:0:0:0:
256,192,32570,1,8,0:0:0:0:
256,192,32856,1,4,0:0:0:0:
256,192,33142,1,8,0:0:0:0:
256,192,33428,1,0,0:0:0:0:
256,192,33713,1,12,0:0:0:0:
256,192,34285,5,12,0:0:0:0:
256,192,34570,1,8,0:0:0:0:
256,192,34856,1,0,0:0:0:0:
256,192,35428,1,0,0:0:0:0:
256,192,35713,1,8,0:0:0:0:
256,192,35999,1,0,0:0:0:0:
256,192,36285,1,8,0:0:0:0:
256,192,36570,1,4,0:0:0:0:
256,192,37142,1,8,0:0:0:0:
256,192,37428,1,0,0:0:0:0:
256,192,37713,1,8,0:0:0:0:
256,192,37999,1,0,0:0:0:0:
256,192,38285,1,12,0:0:0:0:
256,192,38857,5,8,0:0:0:0:
256,192,39142,1,0,0:0:0:0:
256,192,39428,1,8,0:0:0:0:
256,192,39999,1,8,0:0:0:0:
256,192,40285,1,0,0:0:0:0:
256,192,40571,1,8,0:0:0:0:
256,192,41142,1,8,0:0:0:0:
256,192,41428,1,0,0:0:0:0:
256,192,41714,1,8,0:0:0:0:
256,192,41999,1,0,0:0:0:0:
256,192,42285,1,8,0:0:0:0:
256,192,42857,1,0,0:0:0:0:
256,192,43428,5,4,0:0:0:0:
256,192,43713,1,8,0:0:0:0:
256,192,43999,1,0,0:0:0:0:
256,192,44570,1,0,0:0:0:0:
256,192,45142,1,0,0:0:0:0:
256,192,45713,1,0,0:0:0:0:
256,192,45999,1,8,0:0:0:0:
256,192,46285,1,0,0:0:0:0:
256,192,46570,1,8,0:0:0:0:
256,192,46856,1,0,0:0:0:0:
256,192,47428,1,12,0:0:0:0:
256,192,47999,5,4,0:0:0:0:
256,192,48285,1,8,0:0:0:0:
256,192,48570,1,0,0:0:0:0:
256,192,49142,1,0,0:0:0:0:
256,192,49427,1,8,0:0:0:0:
256,192,49713,1,0,0:0:0:0:
256,192,50285,1,0,0:0:0:0:
256,192,50713,1,0,0:0:0:0:
256,192,51142,1,0,0:0:0:0:
256,192,51427,1,8,0:0:0:0:
256,192,51713,1,0,0:0:0:0:
256,192,51999,1,12,0:0:0:0:
256,192,52570,5,0,0:0:0:0:
256,192,52856,1,8,0:0:0:0:
256,192,53285,1,8,0:0:0:0:
256,192,53857,1,8,0:0:0:0:
256,192,54427,1,8,0:0:0:0:
256,192,54856,1,0,0:0:0:0:
256,192,55142,1,8,0:0:0:0:
256,192,55571,1,8,0:0:0:0:
256,192,56143,1,8,0:0:0:0:
256,192,57142,5,4,0:0:0:0:
256,192,57427,1,8,0:0:0:0:
256,192,57856,1,0,0:0:0:0:
256,192,58427,1,0,0:0:0:0:
256,192,58999,1,0,0:0:0:0:
256,192,59427,1,0,0:0:0:0:
256,192,59713,1,8,0:0:0:0:
256,192,60142,1,0,0:0:0:0:
256,192,60570,1,4,0:0:0:0:
256,192,60856,1,0,0:0:0:0:
256,192,61142,1,12,0:0:0:0:
256,192,61714,5,0,0:0:0:0:
256,192,62285,1,8,0:0:0:0:
256,192,62856,1,0,0:0:0:0:
256,192,63285,1,8,0:0:0:0:
256,192,63999,1,0,0:0:0:0:
256,192,64571,1,8,0:0:0:0:
256,192,65142,1,0,0:0:0:0:
256,192,65571,1,8,0:0:0:0:
256,192,65999,1,0,0:0:0:0:
256,192,66285,1,0,0:0:0:0:
256,192,66571,1,8,0:0:0:0:
256,192,66856,1,8,0:0:0:0:
256,192,67428,5,0,0:0:0:0:
256,192,67856,1,8,0:0:0:0:
256,192,68285,1,0,0:0:0:0:
256,192,68571,1,0,0:0:0:0:
256,192,69142,1,8,0:0:0:0:
256,192,69714,1,0,0:0:0:0:
256,192,70285,1,8,0:0:0:0:
256,192,70856,5,8,0:0:0:0:
256,192,71142,1,8,0:0:0:0:
264,192,71428,1,8,0:0:0:0:
264,192,71999,1,8,0:0:0:0:
264,192,72285,1,8,0:0:0:0:
264,192,72571,1,8,0:0:0:0:
264,192,73142,1,8,0:0:0:0:
264,192,73428,1,0,0:0:0:0:
264,192,73714,1,8,0:0:0:0:
264,192,73999,1,0,0:0:0:0:
264,192,74285,1,8,0:0:0:0:
264,192,74571,1,0,0:0:0:0:
264,192,74856,1,8,0:0:0:0:
264,192,75428,5,8,0:0:0:0:
264,192,75714,1,8,0:0:0:0:
264,192,75999,1,8,0:0:0:0:
264,192,76571,1,8,0:0:0:0:
264,192,76856,1,8,0:0:0:0:
264,192,77142,1,8,0:0:0:0:
264,192,77714,1,8,0:0:0:0:
264,192,77999,1,8,0:0:0:0:
264,192,78285,1,8,0:0:0:0:
264,192,78856,1,8,0:0:0:0:
264,192,78999,1,8,0:0:0:0:
264,192,79142,1,8,0:0:0:0:
264,192,79285,1,8,0:0:0:0:
272,192,79428,1,8,0:0:0:0:
256,192,79999,5,8,0:0:0:0:
256,192,80285,1,8,0:0:0:0:
256,192,80571,1,8,0:0:0:0:
256,192,80856,1,8,0:0:0:0:
256,192,81142,1,8,0:0:0:0:
256,192,81428,1,8,0:0:0:0:
256,192,81714,1,8,0:0:0:0:
256,192,82285,5,4,0:0:0:0:
256,192,82856,1,0,0:0:0:0:
256,192,83142,1,8,0:0:0:0:
256,192,83427,1,0,0:0:0:0:
256,192,83999,1,8,0:0:0:0:
256,192,84570,1,0,0:0:0:0:
256,192,84856,1,0,0:0:0:0:
256,192,85142,1,8,0:0:0:0:
256,192,85427,1,0,0:0:0:0:
256,192,85713,1,0,0:0:0:0:
256,192,86142,1,8,0:0:0:0:
256,192,86285,1,0,0:0:0:0:
256,192,86570,1,8,0:0:0:0:
256,192,86856,1,0,0:0:0:0:
256,192,87285,1,0,0:0:0:0:
256,192,87713,1,0,0:0:0:0:
256,192,87999,1,0,0:0:0:0:
256,192,88427,1,0,0:0:0:0:
256,192,88570,1,0,0:0:0:0:
256,192,88856,1,0,0:0:0:0:
256,192,89142,1,8,0:0:0:0:
256,192,89570,1,8,0:0:0:0:
256,192,89999,1,8,0:0:0:0:
256,192,90285,1,0,0:0:0:0:
256,192,90570,1,0,0:0:0:0:
256,192,90856,1,12,0:0:0:0:
256,192,91427,5,0,0:0:0:0:
256,192,91713,1,8,0:0:0:0:
256,192,91999,1,12,0:0:0:0:
256,192,92570,1,0,0:0:0:0:
256,192,92856,1,8,0:0:0:0:
256,192,93142,1,12,0:0:0:0:
256,192,93713,1,8,0:0:0:0:
256,192,93856,1,8,0:0:0:0:
256,192,94284,1,8,0:0:0:0:
256,192,94570,1,8,0:0:0:0:
256,192,94856,1,0,0:0:0:0:
256,192,95142,1,0,0:0:0:0:
256,192,95427,1,12,0:0:0:0:
256,192,95999,5,0,0:0:0:0:
256,192,96284,1,8,0:0:0:0:
256,192,96570,1,12,0:0:0:0:
256,192,97142,1,0,0:0:0:0:
256,192,97427,1,8,0:0:0:0:
256,192,97713,1,12,0:0:0:0:
256,192,98284,1,0,0:0:0:0:
256,192,98570,1,8,0:0:0:0:
256,192,98713,1,0,0:0:0:0:
256,192,99142,1,0,0:0:0:0:
256,192,99427,1,0,0:0:0:0:
256,192,99713,1,0,0:0:0:0:
256,192,99999,1,12,0:0:0:0:
256,192,100570,5,4,0:0:0:0:
256,192,100856,1,8,0:0:0:0:
256,192,101142,1,0,0:0:0:0:
256,192,101427,1,8,0:0:0:0:
256,192,101713,1,0,0:0:0:0:
256,192,101999,1,8,0:0:0:0:
256,192,102142,1,0,0:0:0:0:
256,192,102856,1,0,0:0:0:0:
256,192,103142,1,8,0:0:0:0:
256,192,103427,1,0,0:0:0:0:
256,192,103713,1,8,0:0:0:0:
256,192,103999,1,8,0:0:0:0:
256,192,104427,1,8,0:0:0:0:
256,192,104856,1,8,0:0:0:0:
256,192,105142,5,4,0:0:0:0:
256,192,105570,1,0,0:0:0:0:
256,192,105999,1,0,0:0:0:0:
256,192,106284,1,0,0:0:0:0:
256,192,106713,1,0,0:0:0:0:
256,192,106856,1,0,0:0:0:0:
256,192,107427,1,8,0:0:0:0:
256,192,107856,1,8,0:0:0:0:
256,192,108284,1,8,0:0:0:0:
256,192,108570,1,0,0:0:0:0:
256,192,108856,1,0,0:0:0:0:
256,192,109142,1,12,0:0:0:0:
256,192,109713,5,0,0:0:0:0:
256,192,109999,1,0,0:0:0:0:
256,192,110284,1,12,0:0:0:0:
256,192,110856,1,0,0:0:0:0:
256,192,111142,1,0,0:0:0:0:
256,192,111427,1,12,0:0:0:0:
256,192,111999,1,0,0:0:0:0:
256,192,112142,1,0,0:0:0:0:
256,192,112570,1,8,0:0:0:0:
256,192,112856,1,0,0:0:0:0:
256,192,113142,1,0,0:0:0:0:
256,192,113427,1,0,0:0:0:0:
256,192,113713,1,12,0:0:0:0:
256,192,114284,1,0,0:0:0:0:
256,192,114570,1,0,0:0:0:0:
256,192,114856,1,12,0:0:0:0:
256,192,115427,1,0,0:0:0:0:
256,192,115713,1,0,0:0:0:0:
256,192,115999,1,12,0:0:0:0:
256,192,116570,5,0,0:0:0:0:
256,192,116856,1,8,0:0:0:0:
256,192,116999,1,0,0:0:0:0:
256,192,117427,1,0,0:0:0:0:
256,192,117713,1,0,0:0:0:0:
256,192,117999,1,8,0:0:0:0:
256,192,118284,1,12,0:0:0:0:
256,192,118856,5,4,0:0:0:0:
256,192,119142,1,0,0:0:0:0:
256,192,119427,1,8,0:0:0:0:
256,200,119713,1,8,0:0:0:0:
256,200,119999,1,0,0:0:0:0:
256,200,120284,1,8,0:0:0:0:
256,200,120570,1,8,0:0:0:0:
256,200,121142,1,4,0:0:0:0:
256,200,121427,1,8,0:0:0:0:
256,200,121713,1,8,0:0:0:0:
256,200,121999,1,0,0:0:0:0:
256,200,122284,1,8,0:0:0:0:
256,200,122570,1,0,0:0:0:0:
256,200,122856,1,12,0:0:0:0:
256,200,123427,5,4,0:0:0:0:
256,200,123713,1,8,0:0:0:0:
256,200,123999,1,0,0:0:0:0:
256,200,124570,1,12,0:0:0:0:
256,200,124857,1,8,0:0:0:0:
256,200,125142,1,0,0:0:0:0:
256,200,125427,1,0,0:0:0:0:
256,200,125713,1,12,0:0:0:0:
256,200,125999,1,12,0:0:0:0:
256,200,126284,1,0,0:0:0:0:
256,200,126856,1,8,0:0:0:0:
256,200,127142,1,0,0:0:0:0:
256,200,127427,1,12,0:0:0:0:
256,200,127999,5,4,0:0:0:0:
256,200,128284,1,0,0:0:0:0:
256,200,128570,1,8,0:0:0:0:
256,200,129142,1,0,0:0:0:0:
256,200,129427,1,8,0:0:0:0:
256,200,129713,1,0,0:0:0:0:
256,200,129999,1,0,0:0:0:0:
256,200,130284,1,0,0:0:0:0:
256,200,130856,1,8,0:0:0:0:
256,200,131142,1,0,0:0:0:0:
256,200,131427,1,8,0:0:0:0:
256,200,131713,1,0,0:0:0:0:
256,200,131999,1,12,0:0:0:0:
256,200,132570,5,4,0:0:0:0:
256,192,132856,1,8,0:0:0:0:
256,192,133142,1,0,0:0:0:0:
256,192,133713,1,12,0:0:0:0:
256,192,133999,1,8,0:0:0:0:
256,192,134284,1,0,0:0:0:0:
256,192,134570,1,8,0:0:0:0:
256,192,134856,1,4,0:0:0:0:
256,192,135142,1,4,0:0:0:0:
256,192,135427,1,8,0:0:0:0:
256,192,135999,1,0,0:0:0:0:
256,192,136284,1,0,0:0:0:0:
256,192,136570,1,12,0:0:0:0:
256,192,137143,1,4,0:0:0:0:
