osu file format v14

[General]
AudioFilename: audio.mp3
AudioLeadIn: 0
PreviewTime: 122813
Countdown: 0
SampleSet: Normal
StackLeniency: 0.7
Mode: 3
LetterboxInBreaks: 0
SpecialStyle: 0
WidescreenStoryboard: 0

[Editor]
Bookmarks: 99784
DistanceSpacing: 0.8
BeatDivisor: 3
GridSize: 8
TimelineZoom: 2.739999

[Metadata]
Title:$100 Bills (Camellia's "215$-Step" Remix)
TitleUnicode:$100 Bills (Camellia's "215$-Step" Remix)
Artist:Jaroslav Beck
ArtistUnicode:Jaroslav Beck
Creator:Nezu-
Version:ONE MILLION DOLLAH
Source:Beat Saber
Tags:camellia cametek kamelcamellia かめりあ beat saber fourth anniversary asherz007 Ashy hybrid ln electronic instrumental beatsaber OST vol. I volume 1 original game soundtrack
BeatmapID:4016349
BeatmapSetID:1941767

[Difficulty]
HPDrainRate:8.8
CircleSize:4
OverallDifficulty:8
ApproachRate:5
SliderMultiplier:1.4
SliderTickRate:1

[Events]
//Background and Video events
0,0,"maxresdefault (9)_waifu2x_art_noise3_scale.jpg",0,0
//Break Periods
//Storyboard Layer 0 (Background)
//Storyboard Layer 1 (Fail)
//Storyboard Layer 2 (Pass)
//Storyboard Layer 3 (Foreground)
//Storyboard Layer 4 (Overlay)
//Storyboard Sound Samples

[TimingPoints]
2303,279.06976744186,4,1,1,50,1,0
38023,-100,4,1,1,50,0,1
55884,-100,4,1,1,50,0,0
64814,-100,4,1,1,50,0,1
82675,-100,4,1,1,50,0,0
122861,-100,4,1,1,50,0,1
140721,-100,4,1,1,50,0,0
158582,-100,4,1,1,50,0,1
176442,-100,4,1,1,50,0,0

[HitObjects]
192,192,1186,128,0,2303:0:0:0:0:
320,192,2303,5,0,0:0:0:0:
64,192,2303,128,0,2582:0:0:0:0:
448,192,2442,1,0,0:0:0:0:
320,192,2442,128,0,2721:0:0:0:0:
192,192,2582,128,0,2861:0:0:0:0:
64,192,2721,128,0,3140:0:0:0:0:
192,192,3140,1,0,0:0:0:0:
320,192,3140,128,0,3279:0:0:0:0:
192,192,3279,1,0,0:0:0:0:
448,192,3279,128,0,3489:0:0:0:0:
64,192,3419,1,0,0:0:0:0:
448,192,3558,1,0,0:0:0:0:
320,192,3698,1,0,0:0:0:0:
448,192,3837,1,0,0:0:0:0:
64,192,3977,1,0,0:0:0:0:
192,192,4116,1,0,0:0:0:0:
64,192,4256,1,0,0:0:0:0:
448,192,4396,128,0,4814:0:0:0:0:
320,192,4396,1,0,0:0:0:0:
64,192,4535,1,0,0:0:0:0:
192,192,4675,1,0,0:0:0:0:
320,192,4814,1,0,0:0:0:0:
448,192,4954,1,0,0:0:0:0:
320,192,5093,1,0,0:0:0:0:
192,192,5163,1,0,0:0:0:0:
448,192,5233,1,0,0:0:0:0:
64,192,5372,1,0,0:0:0:0:
192,192,5512,128,0,5791:0:0:0:0:
448,192,5512,1,0,0:0:0:0:
320,192,5651,1,0,0:0:0:0:
64,192,5791,1,0,0:0:0:0:
192,192,5930,1,0,0:0:0:0:
320,192,6070,1,0,0:0:0:0:
192,192,6209,1,0,0:0:0:0:
320,192,6279,1,0,0:0:0:0:
64,192,6349,128,0,6489:0:0:0:0:
448,192,6349,1,0,0:0:0:0:
192,192,6489,1,0,0:0:0:0:
320,192,6558,128,0,6698:0:0:0:0:
448,192,6558,1,0,0:0:0:0:
64,192,6628,1,0,0:0:0:0:
64,192,6768,128,0,6907:0:0:0:0:
320,192,6837,128,0,7116:0:0:0:0:
192,192,6907,1,0,0:0:0:0:
448,192,6907,128,0,7186:0:0:0:0:
64,192,7047,128,0,7326:0:0:0:0:
320,192,7186,1,0,0:0:0:0:
192,192,7326,1,0,0:0:0:0:
448,192,7465,1,0,0:0:0:0:
64,192,7605,1,0,0:0:0:0:
320,192,7744,128,0,8023:0:0:0:0:
64,192,7744,1,0,0:0:0:0:
192,192,7884,1,0,0:0:0:0:
192,192,8023,128,0,8093:0:0:0:0:
448,192,8093,128,0,8163:0:0:0:0:
320,192,8163,128,0,8233:0:0:0:0:
64,192,8233,128,0,8302:0:0:0:0:
320,192,8302,1,0,0:0:0:0:
192,192,8302,1,0,0:0:0:0:
192,192,8442,1,0,0:0:0:0:
320,192,8582,1,0,0:0:0:0:
448,192,8721,1,0,0:0:0:0:
320,192,8791,1,0,0:0:0:0:
64,192,8861,128,0,9070:0:0:0:0:
192,192,8861,1,0,0:0:0:0:
320,192,9000,1,0,0:0:0:0:
64,192,9140,1,0,0:0:0:0:
192,192,9279,1,0,0:0:0:0:
448,192,9419,1,0,0:0:0:0:
320,192,9558,1,0,0:0:0:0:
448,192,9698,1,0,0:0:0:0:
192,192,9837,1,0,0:0:0:0:
64,192,9907,128,0,9977:0:0:0:0:
320,192,9907,1,0,0:0:0:0:
448,192,9977,128,0,10116:0:0:0:0:
192,192,10047,128,0,10186:0:0:0:0:
320,192,10116,128,0,10396:0:0:0:0:
64,192,10256,1,0,0:0:0:0:
448,192,10396,1,0,0:0:0:0:
448,192,10535,1,0,0:0:0:0:
192,192,10675,1,0,0:0:0:0:
320,192,10814,1,0,0:0:0:0:
448,192,10954,1,0,0:0:0:0:
64,192,10954,1,0,0:0:0:0:
192,192,11000,1,0,0:0:0:0:
320,192,11047,1,0,0:0:0:0:
448,192,11093,1,0,0:0:0:0:
192,192,11140,1,0,0:0:0:0:
320,192,11186,1,0,0:0:0:0:
192,192,11233,128,0,11442:0:0:0:0:
64,192,11233,128,0,11721:0:0:0:0:
320,192,11372,1,0,0:0:0:0:
192,192,11512,1,0,0:0:0:0:
448,192,11651,1,0,0:0:0:0:
64,192,11791,1,0,0:0:0:0:
320,192,11930,1,0,0:0:0:0:
64,192,12070,1,0,0:0:0:0:
320,192,12209,128,0,12349:0:0:0:0:
448,192,12209,1,0,0:0:0:0:
192,192,12349,128,0,12628:0:0:0:0:
64,192,12489,128,0,12768:0:0:0:0:
448,192,12628,1,0,0:0:0:0:
320,192,12768,1,0,0:0:0:0:
192,192,12837,1,0,0:0:0:0:
64,192,12907,1,0,0:0:0:0:
64,192,13047,1,0,0:0:0:0:
320,192,13186,1,0,0:0:0:0:
448,192,13256,1,0,0:0:0:0:
192,192,13326,1,0,0:0:0:0:
320,192,13326,128,0,13465:0:0:0:0:
64,192,13465,1,0,0:0:0:0:
192,192,13535,1,0,0:0:0:0:
320,192,13605,1,0,0:0:0:0:
448,192,13744,1,0,0:0:0:0:
320,192,13814,1,0,0:0:0:0:
448,192,13884,1,0,0:0:0:0:
64,192,14023,1,0,0:0:0:0:
192,192,14023,128,0,14093:0:0:0:0:
320,192,14093,128,0,14163:0:0:0:0:
448,192,14163,128,0,14233:0:0:0:0:
192,192,14233,128,0,14302:0:0:0:0:
64,192,14302,1,0,0:0:0:0:
320,192,14302,128,0,14512:0:0:0:0:
64,192,14442,1,0,0:0:0:0:
448,192,14442,128,0,14582:0:0:0:0:
320,192,14582,1,0,0:0:0:0:
192,192,14651,1,0,0:0:0:0:
320,192,14721,1,0,0:0:0:0:
448,192,14861,1,0,0:0:0:0:
192,192,14930,1,0,0:0:0:0:
448,192,15000,1,0,0:0:0:0:
64,192,15140,1,0,0:0:0:0:
320,192,15209,1,0,0:0:0:0:
64,192,15279,1,0,0:0:0:0:
192,192,15279,128,0,15419:0:0:0:0:
320,192,15349,1,0,0:0:0:0:
448,192,15419,1,0,0:0:0:0:
192,192,15489,1,0,0:0:0:0:
64,192,15489,128,0,15628:0:0:0:0:
448,192,15558,1,0,0:0:0:0:
320,192,15628,1,0,0:0:0:0:
64,192,15698,1,0,0:0:0:0:
448,192,15698,128,0,15837:0:0:0:0:
192,192,15768,128,0,16047:0:0:0:0:
320,192,15837,1,0,0:0:0:0:
64,192,15977,1,0,0:0:0:0:
448,192,16116,1,0,0:0:0:0:
192,192,16256,1,0,0:0:0:0:
64,192,16256,1,0,0:0:0:0:
320,192,16396,1,0,0:0:0:0:
448,192,16465,1,0,0:0:0:0:
192,192,16535,1,0,0:0:0:0:
320,192,16675,1,0,0:0:0:0:
448,192,16814,1,0,0:0:0:0:
64,192,16814,128,0,17093:0:0:0:0:
192,192,16954,1,0,0:0:0:0:
320,192,17023,1,0,0:0:0:0:
192,192,17093,128,0,17233:0:0:0:0:
448,192,17233,128,0,17372:0:0:0:0:
192,192,17302,1,0,0:0:0:0:
64,192,17372,128,0,17512:0:0:0:0:
320,192,17372,1,0,0:0:0:0:
192,192,17512,128,0,17651:0:0:0:0:
448,192,17582,1,0,0:0:0:0:
320,192,17651,128,0,17791:0:0:0:0:
448,192,17791,128,0,17930:0:0:0:0:
192,192,17930,1,0,0:0:0:0:
64,192,17930,128,0,18140:0:0:0:0:
192,192,18070,128,0,18279:0:0:0:0:
320,192,18209,128,0,18419:0:0:0:0:
448,192,18349,128,0,18698:0:0:0:0:
320,192,18489,1,0,0:0:0:0:
64,192,18489,128,0,18675:0:0:0:0:
192,192,18582,128,0,18768:0:0:0:0:
320,192,18675,128,0,18861:0:0:0:0:
448,192,18768,128,0,18954:0:0:0:0:
192,192,18861,128,0,18954:0:0:0:0:
320,192,18954,128,0,19047:0:0:0:0:
64,192,19047,1,0,0:0:0:0:
192,192,19047,128,0,19186:0:0:0:0:
448,192,19116,128,0,19256:0:0:0:0:
64,192,19186,128,0,19372:0:0:0:0:
192,192,19256,128,0,19419:0:0:0:0:
320,192,19326,128,0,19465:0:0:0:0:
448,192,19396,128,0,19512:0:0:0:0:
64,192,19465,1,0,0:0:0:0:
192,192,19512,1,0,0:0:0:0:
320,192,19558,1,0,0:0:0:0:
64,192,19605,128,0,19744:0:0:0:0:
448,192,19605,128,0,19954:0:0:0:0:
192,192,19675,128,0,19814:0:0:0:0:
320,192,19744,128,0,19977:0:0:0:0:
64,192,19814,128,0,20070:0:0:0:0:
192,192,19884,128,0,20023:0:0:0:0:
448,192,20023,1,0,0:0:0:0:
320,192,20070,1,0,0:0:0:0:
192,192,20116,1,0,0:0:0:0:
448,192,20163,128,0,20233:0:0:0:0:
320,192,20163,128,0,20233:0:0:0:0:
64,192,20163,128,0,20233:0:0:0:0:
320,192,20302,128,0,20861:0:0:0:0:
64,192,20302,128,0,20930:0:0:0:0:
192,192,20302,1,0,0:0:0:0:
320,192,20954,1,0,0:0:0:0:
64,192,21000,1,0,0:0:0:0:
192,192,21000,128,0,21070:0:0:0:0:
448,192,21000,128,0,21070:0:0:0:0:
448,192,21140,1,0,0:0:0:0:
320,192,21140,128,0,21279:0:0:0:0:
192,192,21140,128,0,21349:0:0:0:0:
64,192,21349,1,0,0:0:0:0:
320,192,21419,1,0,0:0:0:0:
448,192,21489,1,0,0:0:0:0:
64,192,21558,1,0,0:0:0:0:
192,192,21558,128,0,21628:0:0:0:0:
320,192,21698,128,0,21768:0:0:0:0:
448,192,21837,128,0,21907:0:0:0:0:
192,192,21977,1,0,0:0:0:0:
64,192,21977,128,0,22047:0:0:0:0:
320,192,22116,1,0,0:0:0:0:
448,192,22116,128,0,22186:0:0:0:0:
320,192,22256,128,0,22326:0:0:0:0:
192,192,22396,128,0,22465:0:0:0:0:
448,192,22535,128,0,22605:0:0:0:0:
320,192,22675,128,0,22744:0:0:0:0:
448,192,22814,1,0,0:0:0:0:
64,192,22814,128,0,22884:0:0:0:0:
192,192,22954,128,0,23023:0:0:0:0:
320,192,23093,128,0,23163:0:0:0:0:
64,192,23233,128,0,23302:0:0:0:0:
320,192,23372,128,0,23442:0:0:0:0:
192,192,23512,128,0,23582:0:0:0:0:
448,192,23651,128,0,23721:0:0:0:0:
320,192,23651,1,0,0:0:0:0:
192,192,23791,1,0,0:0:0:0:
448,192,23930,128,0,24116:0:0:0:0:
64,192,23977,128,0,24070:0:0:0:0:
192,192,24023,128,0,24116:0:0:0:0:
320,192,24070,128,0,24209:0:0:0:0:
448,192,24209,128,0,24489:0:0:0:0:
192,192,24209,128,0,24442:0:0:0:0:
64,192,24209,128,0,24442:0:0:0:0:
320,192,24489,128,0,24535:0:0:0:0:
64,192,24535,128,0,24628:0:0:0:0:
192,192,24582,128,0,24675:0:0:0:0:
448,192,24628,1,0,0:0:0:0:
320,192,24628,128,0,24768:0:0:0:0:
64,192,24768,1,0,0:0:0:0:
192,192,24768,128,0,25396:0:0:0:0:
448,192,24768,128,0,25186:0:0:0:0:
320,192,25419,1,0,0:0:0:0:
448,192,25465,1,0,0:0:0:0:
64,192,25465,128,0,25535:0:0:0:0:
192,192,25465,128,0,25605:0:0:0:0:
320,192,25605,1,0,0:0:0:0:
448,192,25605,128,0,25814:0:0:0:0:
64,192,25605,128,0,25744:0:0:0:0:
192,192,25814,1,0,0:0:0:0:
320,192,25884,1,0,0:0:0:0:
320,192,26023,1,0,0:0:0:0:
64,192,26023,128,0,26093:0:0:0:0:
448,192,26163,128,0,26512:0:0:0:0:
192,192,26302,128,0,26372:0:0:0:0:
192,192,26442,1,0,0:0:0:0:
320,192,26442,128,0,26512:0:0:0:0:
64,192,26582,128,0,26930:0:0:0:0:
448,192,26582,128,0,26651:0:0:0:0:
320,192,26721,128,0,26791:0:0:0:0:
192,192,26861,128,0,26930:0:0:0:0:
64,192,27000,128,0,27070:0:0:0:0:
320,192,27140,128,0,27209:0:0:0:0:
448,192,27279,128,0,27349:0:0:0:0:
64,192,27419,128,0,27489:0:0:0:0:
192,192,27558,128,0,27628:0:0:0:0:
320,192,27698,128,0,27768:0:0:0:0:
448,192,27837,128,0,27907:0:0:0:0:
192,192,27977,128,0,28047:0:0:0:0:
448,192,28116,128,0,28186:0:0:0:0:
64,192,28256,128,0,28396:0:0:0:0:
448,192,28256,128,0,28396:0:0:0:0:
192,192,28256,1,0,0:0:0:0:
320,192,28396,1,0,0:0:0:0:
192,192,28465,1,0,0:0:0:0:
448,192,28465,128,0,28605:0:0:0:0:
64,192,28465,128,0,28605:0:0:0:0:
192,192,28605,1,0,0:0:0:0:
64,192,28675,1,0,0:0:0:0:
320,192,28675,128,0,28814:0:0:0:0:
448,192,28675,128,0,28814:0:0:0:0:
64,192,28814,1,0,0:0:0:0:
448,192,28884,1,0,0:0:0:0:
192,192,28884,128,0,29023:0:0:0:0:
320,192,28884,128,0,29023:0:0:0:0:
448,192,29023,1,0,0:0:0:0:
320,192,29093,1,0,0:0:0:0:
64,192,29093,128,0,29163:0:0:0:0:
192,192,29093,128,0,29233:0:0:0:0:
448,192,29233,128,0,29930:0:0:0:0:
64,192,29233,128,0,29861:0:0:0:0:
320,192,29233,128,0,29791:0:0:0:0:
64,192,29930,1,0,0:0:0:0:
192,192,29930,128,0,30000:0:0:0:0:
320,192,29930,128,0,30000:0:0:0:0:
192,192,30070,1,0,0:0:0:0:
448,192,30070,128,0,30209:0:0:0:0:
320,192,30070,128,0,30209:0:0:0:0:
64,192,30209,128,0,30349:0:0:0:0:
320,192,30349,128,0,30489:0:0:0:0:
192,192,30489,128,0,30628:0:0:0:0:
448,192,30628,1,0,0:0:0:0:
64,192,30628,1,0,0:0:0:0:
320,192,30768,128,0,30907:0:0:0:0:
192,192,30907,128,0,31047:0:0:0:0:
64,192,31047,1,0,0:0:0:0:
320,192,31082,1,0,0:0:0:0:
448,192,31116,1,0,0:0:0:0:
64,192,31186,1,0,0:0:0:0:
192,192,31186,1,0,0:0:0:0:
448,192,31256,1,0,0:0:0:0:
320,192,31256,1,0,0:0:0:0:
192,192,31326,128,0,31465:0:0:0:0:
64,192,31326,1,0,0:0:0:0:
448,192,31465,128,0,31605:0:0:0:0:
192,192,31605,128,0,31744:0:0:0:0:
320,192,31744,1,0,0:0:0:0:
448,192,31744,128,0,31884:0:0:0:0:
64,192,31884,128,0,32023:0:0:0:0:
192,192,32023,128,0,32163:0:0:0:0:
320,192,32163,1,0,0:0:0:0:
64,192,32163,128,0,32302:0:0:0:0:
192,192,32302,1,0,0:0:0:0:
320,192,32302,128,0,32442:0:0:0:0:
448,192,32442,128,0,32582:0:0:0:0:
192,192,32582,128,0,32721:0:0:0:0:
64,192,32721,128,0,32861:0:0:0:0:
192,192,32861,1,0,0:0:0:0:
320,192,32907,1,0,0:0:0:0:
448,192,32954,1,0,0:0:0:0:
192,192,33000,1,0,0:0:0:0:
320,192,33140,1,0,0:0:0:0:
64,192,33140,128,0,33279:0:0:0:0:
448,192,33140,128,0,33279:0:0:0:0:
192,192,33209,128,0,33349:0:0:0:0:
320,192,33279,128,0,33419:0:0:0:0:
448,192,33349,128,0,33489:0:0:0:0:
64,192,33419,128,0,33489:0:0:0:0:
192,192,33489,128,0,33558:0:0:0:0:
64,192,33558,1,0,0:0:0:0:
320,192,33558,128,0,33698:0:0:0:0:
448,192,33558,128,0,33628:0:0:0:0:
448,192,33698,1,0,0:0:0:0:
192,192,33698,128,0,34326:0:0:0:0:
64,192,33698,128,0,34256:0:0:0:0:
320,192,34349,1,0,0:0:0:0:
192,192,34396,1,0,0:0:0:0:
64,192,34396,128,0,34535:0:0:0:0:
448,192,34396,128,0,34465:0:0:0:0:
320,192,34535,1,0,0:0:0:0:
192,192,34535,128,0,34675:0:0:0:0:
448,192,34535,128,0,34675:0:0:0:0:
320,192,34675,1,0,0:0:0:0:
64,192,34744,1,0,0:0:0:0:
448,192,34814,1,0,0:0:0:0:
320,192,34884,1,0,0:0:0:0:
192,192,34954,1,0,0:0:0:0:
64,192,35023,1,0,0:0:0:0:
320,192,35093,1,0,0:0:0:0:
192,192,35163,1,0,0:0:0:0:
448,192,35233,1,0,0:0:0:0:
320,192,35268,1,0,0:0:0:0:
64,192,35302,1,0,0:0:0:0:
192,192,35337,1,0,0:0:0:0:
320,192,35372,1,0,0:0:0:0:
448,192,35407,1,0,0:0:0:0:
192,192,35442,1,0,0:0:0:0:
64,192,35477,1,0,0:0:0:0:
448,192,35512,1,0,0:0:0:0:
320,192,35512,128,0,35721:0:0:0:0:
192,192,35651,128,0,35791:0:0:0:0:
64,192,35791,1,0,0:0:0:0:
320,192,35791,1,0,0:0:0:0:
448,192,35791,128,0,35861:0:0:0:0:
448,192,35930,128,0,36209:0:0:0:0:
64,192,36070,128,0,36140:0:0:0:0:
64,192,36209,128,0,36768:0:0:0:0:
320,192,36349,128,0,36419:0:0:0:0:
320,192,36489,128,0,36768:0:0:0:0:
192,192,36628,128,0,36698:0:0:0:0:
192,192,36768,128,0,36907:0:0:0:0:
64,192,36907,1,0,0:0:0:0:
320,192,36907,1,0,0:0:0:0:
448,192,36925,1,0,0:0:0:0:
192,192,37047,1,0,0:0:0:0:
448,192,37186,1,0,0:0:0:0:
192,192,37186,1,0,0:0:0:0:
64,192,37204,1,0,0:0:0:0:
320,192,37326,128,0,37605:0:0:0:0:
448,192,37465,128,0,37605:0:0:0:0:
64,192,37605,128,0,37744:0:0:0:0:
192,192,37744,1,0,0:0:0:0:
320,192,37744,128,0,37884:0:0:0:0:
64,192,37884,1,0,0:0:0:0:
192,192,37884,1,0,0:0:0:0:
64,192,38023,1,0,0:0:0:0:
448,192,38023,1,0,0:0:0:0:
320,192,38023,1,0,0:0:0:0:
448,192,38163,1,0,0:0:0:0:
192,192,38163,1,0,0:0:0:0:
64,192,38209,1,0,0:0:0:0:
320,192,38256,1,0,0:0:0:0:
192,192,38302,1,0,0:0:0:0:
448,192,38349,1,0,0:0:0:0:
320,192,38396,128,0,38582:0:0:0:0:
64,192,38442,128,0,38582:0:0:0:0:
192,192,38582,1,0,0:0:0:0:
448,192,38582,1,0,0:0:0:0:
448,192,38651,1,0,0:0:0:0:
192,192,38721,1,0,0:0:0:0:
192,192,38791,1,0,0:0:0:0:
320,192,38861,128,0,39000:0:0:0:0:
448,192,38907,128,0,39047:0:0:0:0:
192,192,39047,128,0,39186:0:0:0:0:
320,192,39093,128,0,39233:0:0:0:0:
64,192,39279,128,0,39419:0:0:0:0:
448,192,39326,128,0,39419:0:0:0:0:
320,192,39419,128,0,39465:0:0:0:0:
192,192,39465,1,0,0:0:0:0:
64,192,39558,1,0,0:0:0:0:
192,192,39558,1,0,0:0:0:0:
320,192,39628,1,0,0:0:0:0:
448,192,39628,1,0,0:0:0:0:
64,192,39698,1,0,0:0:0:0:
448,192,39698,128,0,39837:0:0:0:0:
192,192,39698,128,0,39837:0:0:0:0:
320,192,39837,128,0,39907:0:0:0:0:
64,192,39837,128,0,39907:0:0:0:0:
192,192,39977,1,0,0:0:0:0:
448,192,40116,128,0,40256:0:0:0:0:
320,192,40116,128,0,40186:0:0:0:0:
320,192,40256,128,0,40396:0:0:0:0:
192,192,40256,128,0,40326:0:0:0:0:
64,192,40396,128,0,40465:0:0:0:0:
192,192,40396,128,0,40535:0:0:0:0:
448,192,40535,1,0,0:0:0:0:
448,192,40605,1,0,0:0:0:0:
64,192,40675,1,0,0:0:0:0:
64,192,40744,1,0,0:0:0:0:
448,192,40814,128,0,40919:0:0:0:0:
320,192,40849,128,0,40954:0:0:0:0:
192,192,40884,128,0,40954:0:0:0:0:
448,192,41023,128,0,41128:0:0:0:0:
192,192,41058,128,0,41128:0:0:0:0:
64,192,41093,128,0,41163:0:0:0:0:
320,192,41233,128,0,41337:0:0:0:0:
192,192,41268,128,0,41337:0:0:0:0:
64,192,41302,128,0,41372:0:0:0:0:
192,192,41442,128,0,41547:0:0:0:0:
320,192,41477,128,0,41582:0:0:0:0:
448,192,41512,128,0,41582:0:0:0:0:
64,192,41651,128,0,41721:0:0:0:0:
192,192,41686,128,0,41756:0:0:0:0:
448,192,41721,128,0,41791:0:0:0:0:
64,192,41791,1,0,0:0:0:0:
320,192,41791,1,0,0:0:0:0:
192,192,41861,1,0,0:0:0:0:
448,192,41861,1,0,0:0:0:0:
192,192,41930,1,0,0:0:0:0:
320,192,41930,128,0,42070:0:0:0:0:
64,192,41930,128,0,42000:0:0:0:0:
64,192,42070,1,0,0:0:0:0:
192,192,42070,128,0,42209:0:0:0:0:
448,192,42070,128,0,42140:0:0:0:0:
320,192,42279,128,0,42419:0:0:0:0:
64,192,42279,128,0,42349:0:0:0:0:
448,192,42279,1,0,0:0:0:0:
192,192,42489,128,0,42558:0:0:0:0:
320,192,42489,128,0,42628:0:0:0:0:
192,192,42628,1,0,0:0:0:0:
64,192,42628,128,0,42907:0:0:0:0:
448,192,42628,128,0,42768:0:0:0:0:
320,192,42698,128,0,42837:0:0:0:0:
192,192,42768,128,0,43047:0:0:0:0:
448,192,43047,1,0,0:0:0:0:
64,192,43047,1,0,0:0:0:0:
192,192,43326,128,0,43396:0:0:0:0:
320,192,43396,128,0,43465:0:0:0:0:
192,192,43465,128,0,43535:0:0:0:0:
320,192,43535,128,0,43605:0:0:0:0:
192,192,43605,128,0,43744:0:0:0:0:
448,192,43744,128,0,43814:0:0:0:0:
64,192,43814,128,0,43884:0:0:0:0:
448,192,43884,128,0,43954:0:0:0:0:
192,192,43954,128,0,44023:0:0:0:0:
320,192,44023,1,0,0:0:0:0:
448,192,44023,1,0,0:0:0:0:
192,192,44093,1,0,0:0:0:0:
64,192,44093,1,0,0:0:0:0:
448,192,44163,1,0,0:0:0:0:
320,192,44163,1,0,0:0:0:0:
64,192,44163,1,0,0:0:0:0:
192,192,44233,128,0,44302:0:0:0:0:
448,192,44302,1,0,0:0:0:0:
64,192,44302,128,0,44372:0:0:0:0:
320,192,44372,128,0,44442:0:0:0:0:
448,192,44442,128,0,44512:0:0:0:0:
320,192,44721,128,0,44861:0:0:0:0:
192,192,44721,128,0,44791:0:0:0:0:
192,192,44861,128,0,44930:0:0:0:0:
448,192,44861,1,0,0:0:0:0:
64,192,44907,128,0,45000:0:0:0:0:
320,192,44954,128,0,45047:0:0:0:0:
192,192,45000,128,0,45093:0:0:0:0:
448,192,45070,128,0,45140:0:0:0:0:
320,192,45140,128,0,45279:0:0:0:0:
64,192,45279,1,0,0:0:0:0:
448,192,45279,1,0,0:0:0:0:
320,192,45419,128,0,45489:0:0:0:0:
192,192,45419,128,0,45454:0:0:0:0:
64,192,45558,128,0,45628:0:0:0:0:
192,192,45558,128,0,45593:0:0:0:0:
448,192,45837,128,0,45977:0:0:0:0:
320,192,45861,128,0,46186:0:0:0:0:
64,192,45861,128,0,46256:0:0:0:0:
192,192,46116,128,0,46256:0:0:0:0:
320,192,46256,128,0,46396:0:0:0:0:
64,192,46396,128,0,46535:0:0:0:0:
192,192,46419,128,0,46675:0:0:0:0:
448,192,46419,128,0,46675:0:0:0:0:
64,192,46675,128,0,46814:0:0:0:0:
448,192,46814,1,0,0:0:0:0:
192,192,46814,1,0,0:0:0:0:
320,192,46884,1,0,0:0:0:0:
64,192,46954,1,0,0:0:0:0:
192,192,46954,128,0,47023:0:0:0:0:
448,192,46954,128,0,47093:0:0:0:0:
320,192,47093,128,0,47512:0:0:0:0:
192,192,47093,128,0,47442:0:0:0:0:
64,192,47093,128,0,47372:0:0:0:0:
448,192,47512,1,0,0:0:0:0:
64,192,47512,1,0,0:0:0:0:
64,192,47582,1,0,0:0:0:0:
320,192,47651,1,0,0:0:0:0:
320,192,47721,1,0,0:0:0:0:
192,192,47791,128,0,47930:0:0:0:0:
64,192,47814,128,0,47954:0:0:0:0:
320,192,48000,128,0,48140:0:0:0:0:
192,192,48023,128,0,48163:0:0:0:0:
448,192,48209,128,0,48349:0:0:0:0:
64,192,48233,128,0,48372:0:0:0:0:
320,192,48349,128,0,48489:0:0:0:0:
64,192,48489,1,0,0:0:0:0:
192,192,48489,1,0,0:0:0:0:
320,192,48558,1,0,0:0:0:0:
448,192,48558,1,0,0:0:0:0:
448,192,48628,1,0,0:0:0:0:
192,192,48628,128,0,48768:0:0:0:0:
64,192,48628,128,0,48768:0:0:0:0:
320,192,48768,128,0,48837:0:0:0:0:
448,192,48768,128,0,48837:0:0:0:0:
320,192,48907,1,0,0:0:0:0:
192,192,49047,128,0,49116:0:0:0:0:
64,192,49047,128,0,49186:0:0:0:0:
192,192,49186,128,0,49326:0:0:0:0:
320,192,49186,128,0,49256:0:0:0:0:
448,192,49326,128,0,49396:0:0:0:0:
320,192,49326,128,0,49465:0:0:0:0:
64,192,49465,1,0,0:0:0:0:
64,192,49535,1,0,0:0:0:0:
448,192,49605,1,0,0:0:0:0:
448,192,49675,1,0,0:0:0:0:
64,192,49744,128,0,49849:0:0:0:0:
192,192,49768,128,0,49861:0:0:0:0:
320,192,49791,128,0,49861:0:0:0:0:
64,192,49954,128,0,50058:0:0:0:0:
320,192,49977,128,0,50070:0:0:0:0:
448,192,50000,128,0,50070:0:0:0:0:
192,192,50163,128,0,50268:0:0:0:0:
320,192,50186,128,0,50279:0:0:0:0:
448,192,50209,128,0,50279:0:0:0:0:
320,192,50372,128,0,50477:0:0:0:0:
192,192,50396,128,0,50489:0:0:0:0:
64,192,50419,128,0,50489:0:0:0:0:
448,192,50582,128,0,50651:0:0:0:0:
320,192,50605,128,0,50675:0:0:0:0:
64,192,50628,128,0,50721:0:0:0:0:
192,192,50721,1,0,0:0:0:0:
448,192,50721,1,0,0:0:0:0:
192,192,50791,1,0,0:0:0:0:
320,192,50791,1,0,0:0:0:0:
64,192,50861,1,0,0:0:0:0:
320,192,50861,1,0,0:0:0:0:
448,192,50861,1,0,0:0:0:0:
192,192,50930,1,0,0:0:0:0:
448,192,51000,1,0,0:0:0:0:
320,192,51000,1,0,0:0:0:0:
64,192,51070,1,0,0:0:0:0:
320,192,51140,1,0,0:0:0:0:
448,192,51140,1,0,0:0:0:0:
192,192,51209,1,0,0:0:0:0:
64,192,51279,1,0,0:0:0:0:
448,192,51279,1,0,0:0:0:0:
320,192,51349,1,0,0:0:0:0:
64,192,51419,1,0,0:0:0:0:
192,192,51419,1,0,0:0:0:0:
320,192,51489,128,0,51558:0:0:0:0:
448,192,51512,1,0,0:0:0:0:
64,192,51558,1,0,0:0:0:0:
192,192,51558,128,0,51628:0:0:0:0:
448,192,51628,1,0,0:0:0:0:
320,192,51675,1,0,0:0:0:0:
64,192,51698,128,0,51768:0:0:0:0:
192,192,51744,1,0,0:0:0:0:
320,192,51814,1,0,0:0:0:0:
448,192,51837,1,0,0:0:0:0:
64,192,51907,1,0,0:0:0:0:
192,192,51977,128,0,52116:0:0:0:0:
320,192,51977,128,0,52256:0:0:0:0:
448,192,51977,128,0,52256:0:0:0:0:
64,192,52256,1,0,0:0:0:0:
192,192,52256,1,0,0:0:0:0:
320,192,52326,1,0,0:0:0:0:
448,192,52326,1,0,0:0:0:0:
192,192,52396,1,0,0:0:0:0:
64,192,52396,1,0,0:0:0:0:
448,192,52465,1,0,0:0:0:0:
320,192,52465,1,0,0:0:0:0:
192,192,52535,128,0,52675:0:0:0:0:
64,192,52535,1,0,0:0:0:0:
448,192,52675,1,0,0:0:0:0:
64,192,52675,1,0,0:0:0:0:
192,192,52744,1,0,0:0:0:0:
320,192,52744,1,0,0:0:0:0:
64,192,52814,1,0,0:0:0:0:
448,192,52814,1,0,0:0:0:0:
320,192,52884,1,0,0:0:0:0:
192,192,52884,1,0,0:0:0:0:
64,192,52954,128,0,53093:0:0:0:0:
448,192,52954,1,0,0:0:0:0:
448,192,53093,1,0,0:0:0:0:
320,192,53093,1,0,0:0:0:0:
64,192,53163,1,0,0:0:0:0:
192,192,53163,1,0,0:0:0:0:
448,192,53233,1,0,0:0:0:0:
320,192,53233,1,0,0:0:0:0:
64,192,53302,1,0,0:0:0:0:
192,192,53302,1,0,0:0:0:0:
448,192,53372,1,0,0:0:0:0:
320,192,53372,128,0,53512:0:0:0:0:
64,192,53512,1,0,0:0:0:0:
448,192,53512,1,0,0:0:0:0:
192,192,53582,1,0,0:0:0:0:
320,192,53582,1,0,0:0:0:0:
448,192,53651,1,0,0:0:0:0:
64,192,53651,1,0,0:0:0:0:
192,192,53721,1,0,0:0:0:0:
320,192,53721,1,0,0:0:0:0:
448,192,53791,128,0,53930:0:0:0:0:
64,192,53791,1,0,0:0:0:0:
192,192,53930,1,0,0:0:0:0:
320,192,53930,1,0,0:0:0:0:
448,192,54000,1,0,0:0:0:0:
64,192,54000,1,0,0:0:0:0:
320,192,54070,1,0,0:0:0:0:
192,192,54070,1,0,0:0:0:0:
64,192,54140,1,0,0:0:0:0:
448,192,54140,1,0,0:0:0:0:
320,192,54209,128,0,54349:0:0:0:0:
192,192,54209,1,0,0:0:0:0:
64,192,54349,1,0,0:0:0:0:
192,192,54349,1,0,0:0:0:0:
320,192,54419,1,0,0:0:0:0:
448,192,54419,1,0,0:0:0:0:
192,192,54489,1,0,0:0:0:0:
64,192,54489,1,0,0:0:0:0:
448,192,54558,1,0,0:0:0:0:
320,192,54558,1,0,0:0:0:0:
192,192,54628,128,0,54768:0:0:0:0:
64,192,54628,1,0,0:0:0:0:
448,192,54768,1,0,0:0:0:0:
320,192,54768,1,0,0:0:0:0:
64,192,54837,1,0,0:0:0:0:
192,192,54837,1,0,0:0:0:0:
320,192,54907,1,0,0:0:0:0:
448,192,54907,1,0,0:0:0:0:
192,192,54977,1,0,0:0:0:0:
64,192,54977,1,0,0:0:0:0:
320,192,55047,128,0,55186:0:0:0:0:
448,192,55047,1,0,0:0:0:0:
448,192,55186,1,0,0:0:0:0:
64,192,55186,1,0,0:0:0:0:
192,192,55233,1,0,0:0:0:0:
320,192,55279,1,0,0:0:0:0:
64,192,55326,1,0,0:0:0:0:
192,192,55326,1,0,0:0:0:0:
448,192,55326,128,0,55605:0:0:0:0:
320,192,55465,128,0,55605:0:0:0:0:
192,192,55605,128,0,55698:0:0:0:0:
64,192,55651,128,0,55814:0:0:0:0:
448,192,55698,128,0,55814:0:0:0:0:
320,192,55744,128,0,55884:0:0:0:0:
192,192,55814,128,0,55884:0:0:0:0:
448,192,55884,128,0,56163:0:0:0:0:
64,192,55884,128,0,56093:0:0:0:0:
64,192,56163,1,0,0:0:0:0:
320,192,56163,128,0,56721:0:0:0:0:
192,192,56302,128,0,56372:0:0:0:0:
64,192,56442,128,0,56512:0:0:0:0:
192,192,56582,128,0,56651:0:0:0:0:
448,192,56721,128,0,56791:0:0:0:0:
64,192,56814,1,0,0:0:0:0:
192,192,56861,1,0,0:0:0:0:
320,192,56907,1,0,0:0:0:0:
64,192,56954,1,0,0:0:0:0:
448,192,57000,128,0,57209:0:0:0:0:
320,192,57000,128,0,57140:0:0:0:0:
192,192,57140,1,0,0:0:0:0:
64,192,57279,1,0,0:0:0:0:
320,192,57419,1,0,0:0:0:0:
448,192,57558,1,0,0:0:0:0:
320,192,57698,128,0,58047:0:0:0:0:
192,192,57698,1,0,0:0:0:0:
64,192,57837,1,0,0:0:0:0:
192,192,57977,1,0,0:0:0:0:
320,192,58116,1,0,0:0:0:0:
448,192,58116,128,0,58326:0:0:0:0:
192,192,58396,1,0,0:0:0:0:
64,192,58396,128,0,59093:0:0:0:0:
192,192,58535,128,0,58605:0:0:0:0:
448,192,58675,128,0,58744:0:0:0:0:
448,192,58814,128,0,58884:0:0:0:0:
192,192,58954,128,0,59023:0:0:0:0:
448,192,59093,1,0,0:0:0:0:
320,192,59140,1,0,0:0:0:0:
192,192,59186,1,0,0:0:0:0:
64,192,59233,1,0,0:0:0:0:
448,192,59233,1,0,0:0:0:0:
64,192,59372,128,0,59582:0:0:0:0:
192,192,59512,128,0,59721:0:0:0:0:
320,192,59651,128,0,59861:0:0:0:0:
64,192,59791,128,0,60000:0:0:0:0:
448,192,59930,128,0,60070:0:0:0:0:
64,192,60070,1,0,0:0:0:0:
320,192,60070,1,0,0:0:0:0:
192,192,60140,1,0,0:0:0:0:
448,192,60209,1,0,0:0:0:0:
320,192,60209,1,0,0:0:0:0:
192,192,60279,1,0,0:0:0:0:
448,192,60349,1,0,0:0:0:0:
320,192,60349,1,0,0:0:0:0:
64,192,60349,1,0,0:0:0:0:
192,192,60489,128,0,60558:0:0:0:0:
320,192,60628,128,0,60698:0:0:0:0:
448,192,60768,1,0,0:0:0:0:
192,192,60768,1,0,0:0:0:0:
64,192,60907,128,0,60977:0:0:0:0:
320,192,61047,128,0,61116:0:0:0:0:
192,192,61186,1,0,0:0:0:0:
64,192,61186,1,0,0:0:0:0:
192,192,61326,1,0,0:0:0:0:
320,192,61326,1,0,0:0:0:0:
320,192,61465,1,0,0:0:0:0:
448,192,61465,1,0,0:0:0:0:
64,192,61605,128,0,61675:0:0:0:0:
320,192,61744,128,0,61814:0:0:0:0:
448,192,61884,1,0,0:0:0:0:
192,192,61884,1,0,0:0:0:0:
320,192,62023,128,0,62093:0:0:0:0:
64,192,62163,128,0,62233:0:0:0:0:
192,192,62302,1,0,0:0:0:0:
320,192,62337,1,0,0:0:0:0:
448,192,62372,1,0,0:0:0:0:
64,192,62442,1,0,0:0:0:0:
192,192,62442,1,0,0:0:0:0:
320,192,62512,1,0,0:0:0:0:
448,192,62512,1,0,0:0:0:0:
64,192,62582,1,0,0:0:0:0:
192,192,62582,128,0,62721:0:0:0:0:
448,192,62721,1,0,0:0:0:0:
320,192,62721,128,0,62861:0:0:0:0:
448,192,62861,128,0,63000:0:0:0:0:
64,192,63000,128,0,63140:0:0:0:0:
320,192,63140,1,0,0:0:0:0:
192,192,63140,128,0,63279:0:0:0:0:
448,192,63279,1,0,0:0:0:0:
320,192,63279,128,0,63419:0:0:0:0:
448,192,63419,1,0,0:0:0:0:
64,192,63419,128,0,63512:0:0:0:0:
192,192,63465,128,0,63558:0:0:0:0:
320,192,63512,128,0,63605:0:0:0:0:
448,192,63558,128,0,63651:0:0:0:0:
64,192,63698,1,0,0:0:0:0:
192,192,63698,1,0,0:0:0:0:
320,192,63768,1,0,0:0:0:0:
448,192,63768,1,0,0:0:0:0:
64,192,63837,1,0,0:0:0:0:
192,192,63837,1,0,0:0:0:0:
320,192,63907,1,0,0:0:0:0:
448,192,63977,1,0,0:0:0:0:
64,192,63977,1,0,0:0:0:0:
192,192,64047,1,0,0:0:0:0:
320,192,64047,1,0,0:0:0:0:
64,192,64116,1,0,0:0:0:0:
448,192,64116,1,0,0:0:0:0:
192,192,64186,1,0,0:0:0:0:
320,192,64186,128,0,64535:0:0:0:0:
448,192,64535,1,0,0:0:0:0:
192,192,64535,1,0,0:0:0:0:
64,192,64675,1,0,0:0:0:0:
320,192,64675,1,0,0:0:0:0:
64,192,64814,1,0,0:0:0:0:
192,192,64814,1,0,0:0:0:0:
320,192,64814,128,0,65279:0:0:0:0:
448,192,64907,128,0,65186:0:0:0:0:
64,192,65000,128,0,65186:0:0:0:0:
192,192,65093,128,0,65372:0:0:0:0:
64,192,65372,1,0,0:0:0:0:
448,192,65372,1,0,0:0:0:0:
320,192,65465,128,0,65558:0:0:0:0:
448,192,65465,128,0,65558:0:0:0:0:
192,192,65558,128,0,65651:0:0:0:0:
64,192,65558,128,0,65651:0:0:0:0:
448,192,65651,1,0,0:0:0:0:
64,192,65744,1,0,0:0:0:0:
320,192,65744,1,0,0:0:0:0:
64,192,65837,128,0,65930:0:0:0:0:
448,192,65837,128,0,65930:0:0:0:0:
192,192,65930,128,0,66023:0:0:0:0:
320,192,65930,128,0,66023:0:0:0:0:
448,192,66023,1,0,0:0:0:0:
64,192,66116,1,0,0:0:0:0:
192,192,66116,1,0,0:0:0:0:
64,192,66209,128,0,66302:0:0:0:0:
320,192,66209,128,0,66302:0:0:0:0:
192,192,66302,128,0,66396:0:0:0:0:
448,192,66302,128,0,66396:0:0:0:0:
320,192,66396,1,0,0:0:0:0:
64,192,66489,1,0,0:0:0:0:
192,192,66489,1,0,0:0:0:0:
448,192,66489,1,0,0:0:0:0:
448,192,66628,128,0,66768:0:0:0:0:
320,192,66628,128,0,66698:0:0:0:0:
192,192,66675,1,0,0:0:0:0:
64,192,66721,1,0,0:0:0:0:
320,192,66768,1,0,0:0:0:0:
448,192,66837,1,0,0:0:0:0:
64,192,66907,128,0,67047:0:0:0:0:
192,192,66907,128,0,66977:0:0:0:0:
320,192,66954,1,0,0:0:0:0:
448,192,67000,1,0,0:0:0:0:
192,192,67047,1,0,0:0:0:0:
320,192,67116,1,0,0:0:0:0:
192,192,67186,128,0,67372:0:0:0:0:
64,192,67186,128,0,67512:0:0:0:0:
448,192,67279,128,0,67512:0:0:0:0:
320,192,67372,128,0,67512:0:0:0:0:
192,192,67465,128,0,67605:0:0:0:0:
448,192,67605,128,0,67744:0:0:0:0:
64,192,67605,128,0,67744:0:0:0:0:
320,192,67605,128,0,67698:0:0:0:0:
192,192,67884,128,0,67954:0:0:0:0:
320,192,67884,128,0,67954:0:0:0:0:
448,192,68023,128,0,68093:0:0:0:0:
192,192,68023,128,0,68093:0:0:0:0:
320,192,68163,128,0,68233:0:0:0:0:
192,192,68163,128,0,68233:0:0:0:0:
64,192,68302,128,0,68372:0:0:0:0:
320,192,68302,128,0,68372:0:0:0:0:
192,192,68442,128,0,68512:0:0:0:0:
320,192,68442,128,0,68512:0:0:0:0:
448,192,68582,1,0,0:0:0:0:
192,192,68582,1,0,0:0:0:0:
320,192,68651,1,0,0:0:0:0:
64,192,68651,1,0,0:0:0:0:
64,192,68721,1,0,0:0:0:0:
448,192,68721,1,0,0:0:0:0:
192,192,68721,1,0,0:0:0:0:
192,192,68861,128,0,69000:0:0:0:0:
320,192,68861,128,0,68930:0:0:0:0:
448,192,68930,1,0,0:0:0:0:
64,192,69000,1,0,0:0:0:0:
320,192,69070,128,0,69140:0:0:0:0:
192,192,69070,128,0,69209:0:0:0:0:
448,192,69140,1,0,0:0:0:0:
64,192,69209,1,0,0:0:0:0:
320,192,69279,128,0,69698:0:0:0:0:
448,192,69279,128,0,69558:0:0:0:0:
192,192,69279,128,0,69419:0:0:0:0:
192,192,69768,1,0,0:0:0:0:
320,192,69837,1,0,0:0:0:0:
448,192,69837,1,0,0:0:0:0:
192,192,69930,128,0,70023:0:0:0:0:
320,192,69930,128,0,70023:0:0:0:0:
448,192,70023,128,0,70116:0:0:0:0:
64,192,70023,128,0,70116:0:0:0:0:
320,192,70116,1,0,0:0:0:0:
64,192,70209,1,0,0:0:0:0:
192,192,70209,1,0,0:0:0:0:
64,192,70302,128,0,70396:0:0:0:0:
320,192,70302,128,0,70396:0:0:0:0:
192,192,70396,128,0,70489:0:0:0:0:
448,192,70396,128,0,70489:0:0:0:0:
64,192,70489,1,0,0:0:0:0:
320,192,70582,1,0,0:0:0:0:
192,192,70582,1,0,0:0:0:0:
448,192,70675,1,0,0:0:0:0:
320,192,70675,128,0,70768:0:0:0:0:
64,192,70768,1,0,0:0:0:0:
192,192,70768,1,0,0:0:0:0:
448,192,70814,1,0,0:0:0:0:
320,192,70884,1,0,0:0:0:0:
64,192,70954,1,0,0:0:0:0:
192,192,70954,1,0,0:0:0:0:
448,192,70954,1,0,0:0:0:0:
448,192,71093,128,0,71163:0:0:0:0:
64,192,71093,128,0,71233:0:0:0:0:
320,192,71140,1,0,0:0:0:0:
192,192,71186,128,0,71279:0:0:0:0:
320,192,71372,128,0,71512:0:0:0:0:
448,192,71372,128,0,71442:0:0:0:0:
64,192,71419,1,0,0:0:0:0:
192,192,71465,128,0,71558:0:0:0:0:
64,192,71651,128,0,71837:0:0:0:0:
448,192,71651,128,0,71837:0:0:0:0:
192,192,71698,128,0,71930:0:0:0:0:
320,192,71744,128,0,72070:0:0:0:0:
448,192,72070,1,0,0:0:0:0:
64,192,72070,128,0,72163:0:0:0:0:
192,192,72163,128,0,72209:0:0:0:0:
448,192,72256,1,0,0:0:0:0:
320,192,72256,128,0,72349:0:0:0:0:
64,192,72349,1,0,0:0:0:0:
448,192,72349,128,0,72396:0:0:0:0:
192,192,72442,128,0,72535:0:0:0:0:
64,192,72535,1,0,0:0:0:0:
448,192,72535,128,0,72582:0:0:0:0:
64,192,72628,128,0,72768:0:0:0:0:
320,192,72628,128,0,73047:0:0:0:0:
192,192,72698,128,0,72907:0:0:0:0:
448,192,72768,128,0,72907:0:0:0:0:
64,192,72907,128,0,72977:0:0:0:0:
448,192,73047,1,0,0:0:0:0:
192,192,73047,1,0,0:0:0:0:
320,192,73116,1,0,0:0:0:0:
64,192,73186,1,0,0:0:0:0:
192,192,73186,1,0,0:0:0:0:
448,192,73186,1,0,0:0:0:0:
192,192,73326,128,0,73465:0:0:0:0:
320,192,73326,128,0,73396:0:0:0:0:
448,192,73396,1,0,0:0:0:0:
64,192,73465,1,0,0:0:0:0:
320,192,73535,128,0,73605:0:0:0:0:
448,192,73535,128,0,73675:0:0:0:0:
192,192,73605,1,0,0:0:0:0:
64,192,73675,128,0,73744:0:0:0:0:
448,192,73744,1,0,0:0:0:0:
192,192,73744,1,0,0:0:0:0:
320,192,73744,128,0,74093:0:0:0:0:
64,192,73884,128,0,74163:0:0:0:0:
192,192,74023,128,0,74163:0:0:0:0:
448,192,74163,1,0,0:0:0:0:
320,192,74209,1,0,0:0:0:0:
192,192,74256,1,0,0:0:0:0:
64,192,74302,1,0,0:0:0:0:
448,192,74302,1,0,0:0:0:0:
320,192,74302,1,0,0:0:0:0:
192,192,74396,128,0,74489:0:0:0:0:
64,192,74396,128,0,74489:0:0:0:0:
320,192,74489,128,0,74582:0:0:0:0:
448,192,74489,128,0,74582:0:0:0:0:
64,192,74582,1,0,0:0:0:0:
192,192,74675,1,0,0:0:0:0:
448,192,74675,1,0,0:0:0:0:
320,192,74675,1,0,0:0:0:0:
64,192,74768,128,0,74861:0:0:0:0:
320,192,74768,128,0,74861:0:0:0:0:
448,192,74861,128,0,74954:0:0:0:0:
192,192,74861,128,0,74954:0:0:0:0:
320,192,74954,1,0,0:0:0:0:
64,192,75047,1,0,0:0:0:0:
192,192,75047,1,0,0:0:0:0:
448,192,75047,1,0,0:0:0:0:
320,192,75140,128,0,75233:0:0:0:0:
192,192,75140,128,0,75233:0:0:0:0:
64,192,75233,128,0,75326:0:0:0:0:
448,192,75233,128,0,75326:0:0:0:0:
320,192,75326,1,0,0:0:0:0:
192,192,75419,1,0,0:0:0:0:
64,192,75419,1,0,0:0:0:0:
448,192,75465,1,0,0:0:0:0:
320,192,75512,1,0,0:0:0:0:
64,192,75558,1,0,0:0:0:0:
192,192,75593,1,0,0:0:0:0:
320,192,75628,1,0,0:0:0:0:
448,192,75663,1,0,0:0:0:0:
64,192,75698,1,0,0:0:0:0:
192,192,75744,1,0,0:0:0:0:
448,192,75791,1,0,0:0:0:0:
64,192,75837,1,0,0:0:0:0:
320,192,75884,1,0,0:0:0:0:
448,192,75930,1,0,0:0:0:0:
192,192,75977,1,0,0:0:0:0:
320,192,76047,1,0,0:0:0:0:
448,192,76116,1,0,0:0:0:0:
192,192,76186,1,0,0:0:0:0:
64,192,76256,1,0,0:0:0:0:
320,192,76326,1,0,0:0:0:0:
64,192,76396,1,0,0:0:0:0:
448,192,76396,1,0,0:0:0:0:
192,192,76442,1,0,0:0:0:0:
320,192,76489,1,0,0:0:0:0:
448,192,76535,128,0,77093:0:0:0:0:
192,192,76535,128,0,76954:0:0:0:0:
64,192,76535,128,0,76814:0:0:0:0:
320,192,77093,128,0,77233:0:0:0:0:
192,192,77233,1,0,0:0:0:0:
64,192,77302,1,0,0:0:0:0:
192,192,77372,128,0,77512:0:0:0:0:
320,192,77512,1,0,0:0:0:0:
448,192,77512,1,0,0:0:0:0:
192,192,77582,1,0,0:0:0:0:
64,192,77651,1,0,0:0:0:0:
320,192,77651,1,0,0:0:0:0:
448,192,77651,1,0,0:0:0:0:
448,192,77791,1,0,0:0:0:0:
192,192,77791,128,0,77861:0:0:0:0:
64,192,77791,128,0,77930:0:0:0:0:
320,192,77930,1,0,0:0:0:0:
64,192,78000,1,0,0:0:0:0:
192,192,78000,128,0,78140:0:0:0:0:
448,192,78000,128,0,78070:0:0:0:0:
192,192,78209,128,0,78628:0:0:0:0:
64,192,78209,128,0,78489:0:0:0:0:
448,192,78209,128,0,78768:0:0:0:0:
64,192,78628,1,0,0:0:0:0:
320,192,78768,1,0,0:0:0:0:
192,192,78768,128,0,79047:0:0:0:0:
320,192,78907,128,0,79047:0:0:0:0:
64,192,78907,128,0,79116:0:0:0:0:
448,192,79047,128,0,79186:0:0:0:0:
320,192,79186,1,0,0:0:0:0:
448,192,79326,1,0,0:0:0:0:
64,192,79326,128,0,79605:0:0:0:0:
320,192,79465,128,0,79605:0:0:0:0:
192,192,79465,128,0,79675:0:0:0:0:
448,192,79605,128,0,79744:0:0:0:0:
320,192,79744,1,0,0:0:0:0:
192,192,79744,1,0,0:0:0:0:
64,192,79814,1,0,0:0:0:0:
448,192,79814,1,0,0:0:0:0:
64,192,79884,1,0,0:0:0:0:
320,192,79884,1,0,0:0:0:0:
192,192,79884,1,0,0:0:0:0:
320,192,80023,128,0,80233:0:0:0:0:
64,192,80023,128,0,80163:0:0:0:0:
448,192,80023,1,0,0:0:0:0:
448,192,80163,128,0,80302:0:0:0:0:
192,192,80302,1,0,0:0:0:0:
320,192,80302,1,0,0:0:0:0:
64,192,80302,1,0,0:0:0:0:
448,192,80442,128,0,80721:0:0:0:0:
320,192,80582,1,0,0:0:0:0:
192,192,80582,128,0,80721:0:0:0:0:
64,192,80582,128,0,80791:0:0:0:0:
320,192,80721,128,0,80861:0:0:0:0:
192,192,80861,1,0,0:0:0:0:
320,192,81000,1,0,0:0:0:0:
64,192,81000,128,0,81279:0:0:0:0:
448,192,81000,1,0,0:0:0:0:
192,192,81140,128,0,81279:0:0:0:0:
320,192,81140,128,0,81349:0:0:0:0:
448,192,81279,128,0,81419:0:0:0:0:
192,192,81419,1,0,0:0:0:0:
320,192,81558,1,0,0:0:0:0:
64,192,81558,128,0,81837:0:0:0:0:
192,192,81698,128,0,81837:0:0:0:0:
448,192,81698,128,0,81907:0:0:0:0:
320,192,81837,128,0,81977:0:0:0:0:
192,192,81977,1,0,0:0:0:0:
64,192,81977,1,0,0:0:0:0:
448,192,82047,1,0,0:0:0:0:
320,192,82047,1,0,0:0:0:0:
64,192,82116,1,0,0:0:0:0:
448,192,82116,128,0,82396:0:0:0:0:
192,192,82116,1,0,0:0:0:0:
320,192,82256,128,0,82396:0:0:0:0:
192,192,82396,128,0,82535:0:0:0:0:
64,192,82465,128,0,82605:0:0:0:0:
448,192,82535,128,0,82605:0:0:0:0:
192,192,82675,1,0,0:0:0:0:
448,192,82675,1,0,0:0:0:0:
64,192,82675,128,0,82954:0:0:0:0:
448,192,82814,1,0,0:0:0:0:
320,192,82814,128,0,83093:0:0:0:0:
192,192,82954,128,0,83233:0:0:0:0:
64,192,83093,128,0,83512:0:0:0:0:
192,192,83512,1,0,0:0:0:0:
320,192,83512,128,0,83651:0:0:0:0:
192,192,83651,1,0,0:0:0:0:
448,192,83651,128,0,83861:0:0:0:0:
64,192,83791,1,0,0:0:0:0:
448,192,83930,1,0,0:0:0:0:
320,192,84070,1,0,0:0:0:0:
448,192,84209,1,0,0:0:0:0:
64,192,84349,1,0,0:0:0:0:
192,192,84489,1,0,0:0:0:0:
64,192,84628,1,0,0:0:0:0:
448,192,84768,128,0,85256:0:0:0:0:
320,192,84768,1,0,0:0:0:0:
64,192,84907,1,0,0:0:0:0:
192,192,85047,1,0,0:0:0:0:
320,192,85186,1,0,0:0:0:0:
448,192,85326,1,0,0:0:0:0:
320,192,85465,1,0,0:0:0:0:
448,192,85605,1,0,0:0:0:0:
64,192,85675,1,0,0:0:0:0:
192,192,85744,1,0,0:0:0:0:
192,192,85884,128,0,86233:0:0:0:0:
448,192,85884,1,0,0:0:0:0:
320,192,86023,1,0,0:0:0:0:
64,192,86163,1,0,0:0:0:0:
192,192,86302,1,0,0:0:0:0:
320,192,86442,1,0,0:0:0:0:
192,192,86582,1,0,0:0:0:0:
320,192,86651,1,0,0:0:0:0:
64,192,86721,128,0,86861:0:0:0:0:
448,192,86721,1,0,0:0:0:0:
192,192,86861,1,0,0:0:0:0:
320,192,86930,128,0,87070:0:0:0:0:
448,192,86930,1,0,0:0:0:0:
64,192,87000,1,0,0:0:0:0:
64,192,87140,128,0,87279:0:0:0:0:
320,192,87209,128,0,87489:0:0:0:0:
192,192,87279,1,0,0:0:0:0:
448,192,87279,128,0,87558:0:0:0:0:
64,192,87419,128,0,87698:0:0:0:0:
320,192,87558,1,0,0:0:0:0:
192,192,87698,1,0,0:0:0:0:
448,192,87837,1,0,0:0:0:0:
64,192,87977,1,0,0:0:0:0:
320,192,88116,128,0,88396:0:0:0:0:
64,192,88116,1,0,0:0:0:0:
192,192,88256,1,0,0:0:0:0:
192,192,88396,128,0,88465:0:0:0:0:
448,192,88465,128,0,88535:0:0:0:0:
320,192,88535,128,0,88605:0:0:0:0:
64,192,88605,128,0,88675:0:0:0:0:
320,192,88675,1,0,0:0:0:0:
192,192,88675,1,0,0:0:0:0:
192,192,88814,1,0,0:0:0:0:
320,192,88954,1,0,0:0:0:0:
448,192,89093,1,0,0:0:0:0:
320,192,89163,1,0,0:0:0:0:
64,192,89233,128,0,89442:0:0:0:0:
192,192,89233,1,0,0:0:0:0:
320,192,89372,1,0,0:0:0:0:
64,192,89512,1,0,0:0:0:0:
192,192,89651,1,0,0:0:0:0:
448,192,89791,1,0,0:0:0:0:
320,192,89930,1,0,0:0:0:0:
448,192,90070,1,0,0:0:0:0:
192,192,90209,1,0,0:0:0:0:
64,192,90279,128,0,90349:0:0:0:0:
320,192,90279,1,0,0:0:0:0:
448,192,90349,128,0,90489:0:0:0:0:
192,192,90419,128,0,90558:0:0:0:0:
320,192,90489,128,0,90768:0:0:0:0:
64,192,90628,128,0,90907:0:0:0:0:
448,192,90768,1,0,0:0:0:0:
320,192,90907,1,0,0:0:0:0:
192,192,90977,1,0,0:0:0:0:
448,192,91047,1,0,0:0:0:0:
64,192,91047,1,0,0:0:0:0:
320,192,91093,1,0,0:0:0:0:
192,192,91140,1,0,0:0:0:0:
64,192,91186,1,0,0:0:0:0:
320,192,91256,1,0,0:0:0:0:
192,192,91273,1,0,0:0:0:0:
448,192,91326,1,0,0:0:0:0:
64,192,91326,1,0,0:0:0:0:
192,192,91372,1,0,0:0:0:0:
320,192,91419,1,0,0:0:0:0:
448,192,91465,1,0,0:0:0:0:
64,192,91512,1,0,0:0:0:0:
192,192,91558,1,0,0:0:0:0:
448,192,91605,1,0,0:0:0:0:
320,192,91605,128,0,91814:0:0:0:0:
64,192,91605,128,0,91884:0:0:0:0:
192,192,91744,1,0,0:0:0:0:
320,192,91884,1,0,0:0:0:0:
64,192,92023,1,0,0:0:0:0:
192,192,92023,128,0,92233:0:0:0:0:
448,192,92023,128,0,92302:0:0:0:0:
320,192,92163,1,0,0:0:0:0:
192,192,92302,1,0,0:0:0:0:
64,192,92442,1,0,0:0:0:0:
320,192,92582,128,0,93070:0:0:0:0:
448,192,92582,1,0,0:0:0:0:
192,192,92721,128,0,92861:0:0:0:0:
64,192,92861,128,0,93140:0:0:0:0:
448,192,93000,1,0,0:0:0:0:
320,192,93140,1,0,0:0:0:0:
192,192,93209,1,0,0:0:0:0:
64,192,93279,1,0,0:0:0:0:
64,192,93419,1,0,0:0:0:0:
320,192,93558,1,0,0:0:0:0:
448,192,93628,1,0,0:0:0:0:
192,192,93698,1,0,0:0:0:0:
320,192,93698,128,0,93907:0:0:0:0:
64,192,93837,1,0,0:0:0:0:
192,192,93977,1,0,0:0:0:0:
320,192,93977,1,0,0:0:0:0:
448,192,94116,1,0,0:0:0:0:
320,192,94186,1,0,0:0:0:0:
448,192,94256,1,0,0:0:0:0:
320,192,94326,1,0,0:0:0:0:
64,192,94396,1,0,0:0:0:0:
192,192,94396,128,0,94465:0:0:0:0:
320,192,94465,128,0,94535:0:0:0:0:
448,192,94535,128,0,94605:0:0:0:0:
192,192,94605,128,0,94675:0:0:0:0:
64,192,94675,1,0,0:0:0:0:
320,192,94675,128,0,94814:0:0:0:0:
192,192,94814,1,0,0:0:0:0:
448,192,94814,1,0,0:0:0:0:
64,192,94861,1,0,0:0:0:0:
320,192,94907,1,0,0:0:0:0:
448,192,94954,1,0,0:0:0:0:
192,192,94954,1,0,0:0:0:0:
64,192,94954,1,0,0:0:0:0:
320,192,95093,1,0,0:0:0:0:
448,192,95233,1,0,0:0:0:0:
192,192,95302,1,0,0:0:0:0:
448,192,95372,1,0,0:0:0:0:
64,192,95372,1,0,0:0:0:0:
192,192,95512,1,0,0:0:0:0:
320,192,95512,1,0,0:0:0:0:
320,192,95651,128,0,95930:0:0:0:0:
64,192,95651,128,0,95791:0:0:0:0:
448,192,95651,128,0,95791:0:0:0:0:
192,192,95930,1,0,0:0:0:0:
64,192,95930,1,0,0:0:0:0:
320,192,96000,1,0,0:0:0:0:
448,192,96000,1,0,0:0:0:0:
64,192,96070,1,0,0:0:0:0:
192,192,96070,128,0,96349:0:0:0:0:
448,192,96070,128,0,96209:0:0:0:0:
320,192,96209,1,0,0:0:0:0:
64,192,96349,1,0,0:0:0:0:
448,192,96489,1,0,0:0:0:0:
192,192,96489,128,0,96768:0:0:0:0:
320,192,96489,128,0,96628:0:0:0:0:
64,192,96628,1,0,0:0:0:0:
320,192,96768,1,0,0:0:0:0:
448,192,96837,1,0,0:0:0:0:
192,192,96907,1,0,0:0:0:0:
320,192,97047,1,0,0:0:0:0:
448,192,97186,1,0,0:0:0:0:
64,192,97186,128,0,97465:0:0:0:0:
192,192,97326,1,0,0:0:0:0:
320,192,97396,1,0,0:0:0:0:
192,192,97465,128,0,97605:0:0:0:0:
448,192,97605,128,0,97744:0:0:0:0:
192,192,97675,1,0,0:0:0:0:
64,192,97744,128,0,97814:0:0:0:0:
320,192,97744,1,0,0:0:0:0:
192,192,97884,128,0,97954:0:0:0:0:
448,192,97954,1,0,0:0:0:0:
320,192,98023,128,0,98163:0:0:0:0:
448,192,98163,128,0,98302:0:0:0:0:
192,192,98302,1,0,0:0:0:0:
64,192,98302,1,0,0:0:0:0:
64,192,98372,1,0,0:0:0:0:
192,192,98372,1,0,0:0:0:0:
320,192,98442,1,0,0:0:0:0:
448,192,98512,1,0,0:0:0:0:
192,192,98582,1,0,0:0:0:0:
64,192,98651,1,0,0:0:0:0:
320,192,98721,1,0,0:0:0:0:
448,192,98721,1,0,0:0:0:0:
320,192,98791,1,0,0:0:0:0:
448,192,98791,1,0,0:0:0:0:
192,192,98861,1,0,0:0:0:0:
64,192,98930,1,0,0:0:0:0:
320,192,99000,1,0,0:0:0:0:
192,192,99070,1,0,0:0:0:0:
448,192,99140,1,0,0:0:0:0:
64,192,99140,1,0,0:0:0:0:
192,192,99209,1,0,0:0:0:0:
320,192,99209,1,0,0:0:0:0:
64,192,99279,1,0,0:0:0:0:
192,192,99349,1,0,0:0:0:0:
448,192,99419,1,0,0:0:0:0:
320,192,99419,1,0,0:0:0:0:
64,192,99489,1,0,0:0:0:0:
448,192,99558,128,0,99628:0:0:0:0:
320,192,99628,128,0,99698:0:0:0:0:
192,192,99698,128,0,99768:0:0:0:0:
64,192,99768,128,0,99837:0:0:0:0:
448,192,99837,1,0,0:0:0:0:
320,192,99884,1,0,0:0:0:0:
192,192,99930,1,0,0:0:0:0:
448,192,99977,128,0,100116:0:0:0:0:
64,192,99977,128,0,100326:0:0:0:0:
320,192,100047,128,0,100186:0:0:0:0:
192,192,100116,128,0,100372:0:0:0:0:
448,192,100186,128,0,100256:0:0:0:0:
320,192,100256,128,0,100419:0:0:0:0:
448,192,100326,128,0,100465:0:0:0:0:
64,192,100396,1,0,0:0:0:0:
192,192,100442,1,0,0:0:0:0:
320,192,100489,1,0,0:0:0:0:
448,192,100535,1,0,0:0:0:0:
64,192,100535,128,0,100605:0:0:0:0:
192,192,100535,128,0,100605:0:0:0:0:
448,192,100675,128,0,101302:0:0:0:0:
192,192,100675,128,0,100954:0:0:0:0:
64,192,100814,1,0,0:0:0:0:
320,192,100954,1,0,0:0:0:0:
64,192,101093,1,0,0:0:0:0:
192,192,101093,1,0,0:0:0:0:
320,192,101302,1,0,0:0:0:0:
64,192,101372,1,0,0:0:0:0:
192,192,101372,128,0,101442:0:0:0:0:
448,192,101372,128,0,101442:0:0:0:0:
448,192,101512,1,0,0:0:0:0:
320,192,101512,128,0,101651:0:0:0:0:
192,192,101512,128,0,101721:0:0:0:0:
64,192,101721,1,0,0:0:0:0:
320,192,101791,1,0,0:0:0:0:
448,192,101861,1,0,0:0:0:0:
64,192,101930,1,0,0:0:0:0:
192,192,101930,128,0,102000:0:0:0:0:
448,192,102000,1,0,0:0:0:0:
320,192,102070,128,0,102140:0:0:0:0:
192,192,102070,1,0,0:0:0:0:
448,192,102209,128,0,102279:0:0:0:0:
64,192,102209,1,0,0:0:0:0:
192,192,102349,1,0,0:0:0:0:
64,192,102349,128,0,102419:0:0:0:0:
320,192,102489,1,0,0:0:0:0:
448,192,102489,128,0,102558:0:0:0:0:
192,192,102628,128,0,102698:0:0:0:0:
64,192,102663,1,0,0:0:0:0:
320,192,102698,1,0,0:0:0:0:
448,192,102733,1,0,0:0:0:0:
64,192,102768,128,0,102837:0:0:0:0:
192,192,102907,128,0,102977:0:0:0:0:
448,192,102977,1,0,0:0:0:0:
320,192,103047,128,0,103116:0:0:0:0:
192,192,103047,1,0,0:0:0:0:
448,192,103186,1,0,0:0:0:0:
64,192,103186,128,0,103256:0:0:0:0:
320,192,103256,1,0,0:0:0:0:
192,192,103326,128,0,103396:0:0:0:0:
448,192,103396,1,0,0:0:0:0:
320,192,103465,128,0,103535:0:0:0:0:
192,192,103535,1,0,0:0:0:0:
64,192,103605,128,0,103675:0:0:0:0:
448,192,103605,1,0,0:0:0:0:
320,192,103744,128,0,103814:0:0:0:0:
448,192,103814,1,0,0:0:0:0:
192,192,103884,128,0,103954:0:0:0:0:
64,192,103884,1,0,0:0:0:0:
448,192,104023,128,0,104093:0:0:0:0:
320,192,104023,1,0,0:0:0:0:
64,192,104093,1,0,0:0:0:0:
192,192,104163,1,0,0:0:0:0:
320,192,104233,1,0,0:0:0:0:
64,192,104302,1,0,0:0:0:0:
192,192,104349,1,0,0:0:0:0:
320,192,104396,1,0,0:0:0:0:
448,192,104442,1,0,0:0:0:0:
320,192,104512,1,0,0:0:0:0:
448,192,104582,128,0,104791:0:0:0:0:
192,192,104582,128,0,104884:0:0:0:0:
64,192,104582,128,0,104930:0:0:0:0:
448,192,104861,1,0,0:0:0:0:
320,192,104907,1,0,0:0:0:0:
192,192,104954,1,0,0:0:0:0:
448,192,105000,1,0,0:0:0:0:
320,192,105000,128,0,105070:0:0:0:0:
64,192,105000,128,0,105070:0:0:0:0:
64,192,105140,1,0,0:0:0:0:
448,192,105140,128,0,105558:0:0:0:0:
192,192,105140,128,0,105419:0:0:0:0:
320,192,105279,1,0,0:0:0:0:
64,192,105419,1,0,0:0:0:0:
64,192,105558,1,0,0:0:0:0:
320,192,105558,1,0,0:0:0:0:
320,192,105791,1,0,0:0:0:0:
448,192,105837,1,0,0:0:0:0:
64,192,105837,128,0,105907:0:0:0:0:
192,192,105837,128,0,105977:0:0:0:0:
320,192,105977,1,0,0:0:0:0:
448,192,105977,128,0,106186:0:0:0:0:
64,192,105977,128,0,106116:0:0:0:0:
192,192,106186,1,0,0:0:0:0:
320,192,106256,1,0,0:0:0:0:
448,192,106326,1,0,0:0:0:0:
192,192,106326,1,0,0:0:0:0:
64,192,106396,128,0,106465:0:0:0:0:
320,192,106465,1,0,0:0:0:0:
448,192,106535,128,0,106884:0:0:0:0:
192,192,106535,1,0,0:0:0:0:
192,192,106675,128,0,106744:0:0:0:0:
64,192,106675,1,0,0:0:0:0:
192,192,106814,1,0,0:0:0:0:
320,192,106814,128,0,106884:0:0:0:0:
64,192,106954,128,0,107302:0:0:0:0:
448,192,106954,128,0,107047:0:0:0:0:
192,192,107047,128,0,107140:0:0:0:0:
448,192,107140,128,0,107233:0:0:0:0:
320,192,107233,128,0,107302:0:0:0:0:
192,192,107233,1,0,0:0:0:0:
64,192,107372,128,0,107442:0:0:0:0:
448,192,107442,1,0,0:0:0:0:
320,192,107512,128,0,107582:0:0:0:0:
192,192,107512,1,0,0:0:0:0:
448,192,107651,128,0,107721:0:0:0:0:
320,192,107721,1,0,0:0:0:0:
192,192,107791,1,0,0:0:0:0:
64,192,107791,128,0,107861:0:0:0:0:
320,192,107861,1,0,0:0:0:0:
192,192,107930,128,0,108000:0:0:0:0:
448,192,108000,1,0,0:0:0:0:
320,192,108070,128,0,108140:0:0:0:0:
64,192,108070,1,0,0:0:0:0:
448,192,108209,128,0,108279:0:0:0:0:
320,192,108256,1,0,0:0:0:0:
64,192,108302,1,0,0:0:0:0:
192,192,108349,128,0,108419:0:0:0:0:
448,192,108489,128,0,108558:0:0:0:0:
320,192,108558,1,0,0:0:0:0:
64,192,108628,128,0,108768:0:0:0:0:
448,192,108628,128,0,108768:0:0:0:0:
192,192,108628,1,0,0:0:0:0:
320,192,108768,1,0,0:0:0:0:
192,192,108837,1,0,0:0:0:0:
448,192,108837,128,0,108977:0:0:0:0:
64,192,108837,128,0,108977:0:0:0:0:
192,192,108977,1,0,0:0:0:0:
64,192,109047,1,0,0:0:0:0:
320,192,109047,128,0,109186:0:0:0:0:
448,192,109047,128,0,109186:0:0:0:0:
64,192,109186,1,0,0:0:0:0:
448,192,109256,1,0,0:0:0:0:
192,192,109256,128,0,109396:0:0:0:0:
320,192,109256,128,0,109396:0:0:0:0:
448,192,109465,1,0,0:0:0:0:
64,192,109465,128,0,109535:0:0:0:0:
192,192,109465,128,0,109605:0:0:0:0:
448,192,109605,128,0,110302:0:0:0:0:
64,192,109605,128,0,110233:0:0:0:0:
320,192,109605,128,0,110023:0:0:0:0:
192,192,110023,1,0,0:0:0:0:
64,192,110302,1,0,0:0:0:0:
192,192,110302,128,0,110372:0:0:0:0:
320,192,110302,128,0,110372:0:0:0:0:
192,192,110442,1,0,0:0:0:0:
448,192,110442,128,0,110582:0:0:0:0:
320,192,110442,128,0,110582:0:0:0:0:
64,192,110582,128,0,110721:0:0:0:0:
448,192,110721,1,0,0:0:0:0:
320,192,110756,1,0,0:0:0:0:
64,192,110791,1,0,0:0:0:0:
192,192,110826,1,0,0:0:0:0:
320,192,110861,128,0,111000:0:0:0:0:
64,192,111000,128,0,111070:0:0:0:0:
448,192,111000,128,0,111140:0:0:0:0:
320,192,111140,128,0,111279:0:0:0:0:
192,192,111279,128,0,111419:0:0:0:0:
64,192,111419,1,0,0:0:0:0:
320,192,111454,1,0,0:0:0:0:
448,192,111489,1,0,0:0:0:0:
64,192,111558,1,0,0:0:0:0:
192,192,111558,1,0,0:0:0:0:
320,192,111628,1,0,0:0:0:0:
448,192,111628,1,0,0:0:0:0:
64,192,111698,128,0,111837:0:0:0:0:
192,192,111698,1,0,0:0:0:0:
448,192,111837,128,0,111977:0:0:0:0:
320,192,111907,1,0,0:0:0:0:
192,192,111977,128,0,112116:0:0:0:0:
64,192,112047,1,0,0:0:0:0:
320,192,112116,1,0,0:0:0:0:
448,192,112116,128,0,112256:0:0:0:0:
64,192,112256,128,0,112396:0:0:0:0:
192,192,112396,128,0,112535:0:0:0:0:
448,192,112465,1,0,0:0:0:0:
320,192,112535,1,0,0:0:0:0:
64,192,112535,128,0,112675:0:0:0:0:
192,192,112675,1,0,0:0:0:0:
320,192,112675,128,0,112814:0:0:0:0:
448,192,112814,128,0,112954:0:0:0:0:
64,192,112884,1,0,0:0:0:0:
192,192,112954,128,0,113093:0:0:0:0:
320,192,113023,1,0,0:0:0:0:
64,192,113093,128,0,113233:0:0:0:0:
448,192,113093,1,0,0:0:0:0:
320,192,113233,128,0,113372:0:0:0:0:
448,192,113302,1,0,0:0:0:0:
192,192,113372,128,0,113512:0:0:0:0:
320,192,113512,1,0,0:0:0:0:
64,192,113512,128,0,113651:0:0:0:0:
448,192,113512,128,0,113651:0:0:0:0:
192,192,113582,128,0,113721:0:0:0:0:
320,192,113651,128,0,113791:0:0:0:0:
448,192,113721,128,0,113861:0:0:0:0:
64,192,113791,128,0,113861:0:0:0:0:
192,192,113861,128,0,113930:0:0:0:0:
64,192,113930,1,0,0:0:0:0:
320,192,113930,128,0,114070:0:0:0:0:
448,192,113930,128,0,114000:0:0:0:0:
64,192,114070,128,0,114628:0:0:0:0:
448,192,114070,128,0,114489:0:0:0:0:
320,192,114140,1,0,0:0:0:0:
192,192,114209,1,0,0:0:0:0:
320,192,114279,1,0,0:0:0:0:
192,192,114349,1,0,0:0:0:0:
320,192,114419,1,0,0:0:0:0:
192,192,114489,1,0,0:0:0:0:
320,192,114558,1,0,0:0:0:0:
448,192,114628,1,0,0:0:0:0:
64,192,114698,1,0,0:0:0:0:
192,192,114733,1,0,0:0:0:0:
320,192,114768,128,0,114907:0:0:0:0:
192,192,114907,128,0,115047:0:0:0:0:
448,192,115047,1,0,0:0:0:0:
64,192,115047,1,0,0:0:0:0:
320,192,115047,1,0,0:0:0:0:
192,192,115186,1,0,0:0:0:0:
448,192,115186,1,0,0:0:0:0:
64,192,115186,128,0,115605:0:0:0:0:
320,192,115256,1,0,0:0:0:0:
448,192,115326,1,0,0:0:0:0:
320,192,115396,1,0,0:0:0:0:
448,192,115465,1,0,0:0:0:0:
192,192,115535,1,0,0:0:0:0:
320,192,115605,1,0,0:0:0:0:
64,192,115675,1,0,0:0:0:0:
192,192,115709,1,0,0:0:0:0:
320,192,115744,1,0,0:0:0:0:
448,192,115779,1,0,0:0:0:0:
64,192,115814,1,0,0:0:0:0:
192,192,115849,1,0,0:0:0:0:
320,192,115884,128,0,116023:0:0:0:0:
192,192,116023,128,0,116163:0:0:0:0:
64,192,116163,1,0,0:0:0:0:
320,192,116163,1,0,0:0:0:0:
448,192,116163,1,0,0:0:0:0:
192,192,116233,1,0,0:0:0:0:
320,192,116302,1,0,0:0:0:0:
448,192,116302,128,0,116791:0:0:0:0:
64,192,116372,1,0,0:0:0:0:
192,192,116442,1,0,0:0:0:0:
64,192,116512,1,0,0:0:0:0:
192,192,116582,1,0,0:0:0:0:
64,192,116651,1,0,0:0:0:0:
320,192,116721,1,0,0:0:0:0:
192,192,116756,1,0,0:0:0:0:
64,192,116791,1,0,0:0:0:0:
320,192,116826,1,0,0:0:0:0:
448,192,116861,1,0,0:0:0:0:
64,192,116896,1,0,0:0:0:0:
192,192,116930,1,0,0:0:0:0:
320,192,116965,1,0,0:0:0:0:
448,192,117000,128,0,117140:0:0:0:0:
64,192,117140,128,0,117279:0:0:0:0:
320,192,117279,1,0,0:0:0:0:
192,192,117279,1,0,0:0:0:0:
448,192,117279,1,0,0:0:0:0:
192,192,117419,1,0,0:0:0:0:
320,192,117419,1,0,0:0:0:0:
64,192,117419,128,0,117698:0:0:0:0:
448,192,117489,1,0,0:0:0:0:
320,192,117558,1,0,0:0:0:0:
192,192,117628,1,0,0:0:0:0:
448,192,117698,1,0,0:0:0:0:
64,192,117768,1,0,0:0:0:0:
448,192,117837,1,0,0:0:0:0:
320,192,117872,1,0,0:0:0:0:
192,192,117907,1,0,0:0:0:0:
64,192,117942,1,0,0:0:0:0:
448,192,117977,1,0,0:0:0:0:
320,192,118012,1,0,0:0:0:0:
192,192,118047,1,0,0:0:0:0:
64,192,118082,1,0,0:0:0:0:
448,192,118116,1,0,0:0:0:0:
448,192,118186,1,0,0:0:0:0:
192,192,118256,1,0,0:0:0:0:
192,192,118326,1,0,0:0:0:0:
320,192,118396,128,0,118465:0:0:0:0:
64,192,118396,128,0,118535:0:0:0:0:
320,192,118535,128,0,118675:0:0:0:0:
192,192,118675,128,0,118954:0:0:0:0:
64,192,118675,128,0,118744:0:0:0:0:
64,192,118814,128,0,118954:0:0:0:0:
320,192,118954,128,0,119023:0:0:0:0:
448,192,118954,128,0,119163:0:0:0:0:
320,192,119093,128,0,119233:0:0:0:0:
64,192,119233,128,0,119302:0:0:0:0:
448,192,119233,128,0,119372:0:0:0:0:
64,192,119372,128,0,119512:0:0:0:0:
192,192,119512,128,0,119721:0:0:0:0:
448,192,119512,128,0,119582:0:0:0:0:
448,192,119651,128,0,119791:0:0:0:0:
320,192,119791,128,0,119930:0:0:0:0:
192,192,119791,128,0,119861:0:0:0:0:
192,192,119930,128,0,120070:0:0:0:0:
320,192,120070,128,0,120209:0:0:0:0:
192,192,120140,128,0,120209:0:0:0:0:
64,192,120209,1,0,0:0:0:0:
448,192,120209,1,0,0:0:0:0:
192,192,120279,1,0,0:0:0:0:
320,192,120349,1,0,0:0:0:0:
448,192,120349,1,0,0:0:0:0:
320,192,120419,1,0,0:0:0:0:
448,192,120419,1,0,0:0:0:0:
64,192,120489,1,0,0:0:0:0:
192,192,120558,1,0,0:0:0:0:
448,192,120628,1,0,0:0:0:0:
64,192,120628,1,0,0:0:0:0:
320,192,120698,1,0,0:0:0:0:
192,192,120698,1,0,0:0:0:0:
448,192,120768,1,0,0:0:0:0:
64,192,120768,1,0,0:0:0:0:
320,192,120837,1,0,0:0:0:0:
64,192,120907,1,0,0:0:0:0:
192,192,120907,1,0,0:0:0:0:
320,192,120977,1,0,0:0:0:0:
448,192,120977,1,0,0:0:0:0:
192,192,121047,1,0,0:0:0:0:
64,192,121047,1,0,0:0:0:0:
448,192,121116,1,0,0:0:0:0:
320,192,121186,1,0,0:0:0:0:
64,192,121186,1,0,0:0:0:0:
192,192,121256,1,0,0:0:0:0:
448,192,121256,1,0,0:0:0:0:
320,192,121326,1,0,0:0:0:0:
64,192,121326,1,0,0:0:0:0:
448,192,121396,1,0,0:0:0:0:
64,192,121465,1,0,0:0:0:0:
192,192,121465,1,0,0:0:0:0:
320,192,121535,1,0,0:0:0:0:
448,192,121535,1,0,0:0:0:0:
64,192,121605,1,0,0:0:0:0:
192,192,121605,1,0,0:0:0:0:
320,192,121675,1,0,0:0:0:0:
448,192,121744,1,0,0:0:0:0:
192,192,121744,1,0,0:0:0:0:
64,192,121744,1,0,0:0:0:0:
192,192,121884,1,0,0:0:0:0:
320,192,121884,1,0,0:0:0:0:
448,192,121884,1,0,0:0:0:0:
64,192,122023,1,0,0:0:0:0:
192,192,122023,1,0,0:0:0:0:
448,192,122023,1,0,0:0:0:0:
64,192,122163,1,0,0:0:0:0:
320,192,122163,128,0,122302:0:0:0:0:
192,192,122233,128,0,122442:0:0:0:0:
448,192,122302,128,0,122442:0:0:0:0:
64,192,122442,1,0,0:0:0:0:
320,192,122442,1,0,0:0:0:0:
192,192,122582,1,0,0:0:0:0:
64,192,122582,1,0,0:0:0:0:
448,192,122582,1,0,0:0:0:0:
320,192,122721,1,0,0:0:0:0:
192,192,122721,1,0,0:0:0:0:
320,192,122861,1,0,0:0:0:0:
64,192,122861,128,0,123000:0:0:0:0:
448,192,122861,128,0,122930:0:0:0:0:
192,192,122930,128,0,123070:0:0:0:0:
320,192,123000,128,0,123140:0:0:0:0:
448,192,123070,128,0,123140:0:0:0:0:
64,192,123140,1,0,0:0:0:0:
192,192,123140,128,0,123349:0:0:0:0:
448,192,123349,1,0,0:0:0:0:
64,192,123349,128,0,123419:0:0:0:0:
320,192,123419,128,0,123489:0:0:0:0:
64,192,123489,128,0,123558:0:0:0:0:
320,192,123558,128,0,123628:0:0:0:0:
192,192,123628,128,0,123698:0:0:0:0:
64,192,123698,1,0,0:0:0:0:
448,192,123698,1,0,0:0:0:0:
320,192,123698,1,0,0:0:0:0:
192,192,123768,1,0,0:0:0:0:
448,192,123837,1,0,0:0:0:0:
320,192,123837,128,0,123907:0:0:0:0:
192,192,123907,128,0,123977:0:0:0:0:
320,192,123977,128,0,124047:0:0:0:0:
64,192,123977,128,0,124047:0:0:0:0:
64,192,124116,1,0,0:0:0:0:
192,192,124116,1,0,0:0:0:0:
448,192,124116,128,0,124186:0:0:0:0:
448,192,124256,1,0,0:0:0:0:
192,192,124256,128,0,124396:0:0:0:0:
320,192,124256,128,0,124326:0:0:0:0:
64,192,124396,1,0,0:0:0:0:
320,192,124465,1,0,0:0:0:0:
448,192,124465,1,0,0:0:0:0:
192,192,124535,128,0,124675:0:0:0:0:
64,192,124535,128,0,124605:0:0:0:0:
320,192,124605,1,0,0:0:0:0:
448,192,124675,1,0,0:0:0:0:
64,192,124744,1,0,0:0:0:0:
320,192,124814,1,0,0:0:0:0:
448,192,124814,1,0,0:0:0:0:
320,192,124884,1,0,0:0:0:0:
64,192,124954,1,0,0:0:0:0:
192,192,124954,1,0,0:0:0:0:
192,192,125023,1,0,0:0:0:0:
448,192,125093,1,0,0:0:0:0:
320,192,125093,1,0,0:0:0:0:
64,192,125093,1,0,0:0:0:0:
192,192,125233,1,0,0:0:0:0:
320,192,125250,1,0,0:0:0:0:
448,192,125372,1,0,0:0:0:0:
64,192,125372,1,0,0:0:0:0:
192,192,125372,1,0,0:0:0:0:
320,192,125512,1,0,0:0:0:0:
192,192,125529,1,0,0:0:0:0:
64,192,125582,1,0,0:0:0:0:
448,192,125582,1,0,0:0:0:0:
192,192,125651,128,0,125721:0:0:0:0:
320,192,125651,128,0,125721:0:0:0:0:
448,192,125791,128,0,125861:0:0:0:0:
64,192,125861,128,0,125930:0:0:0:0:
448,192,125930,1,0,0:0:0:0:
320,192,125930,1,0,0:0:0:0:
192,192,125930,1,0,0:0:0:0:
64,192,126070,1,0,0:0:0:0:
320,192,126070,1,0,0:0:0:0:
192,192,126070,128,0,126140:0:0:0:0:
448,192,126140,128,0,126209:0:0:0:0:
192,192,126209,128,0,126279:0:0:0:0:
448,192,126279,128,0,126349:0:0:0:0:
192,192,126349,1,0,0:0:0:0:
64,192,126349,1,0,0:0:0:0:
320,192,126419,128,0,126489:0:0:0:0:
64,192,126489,128,0,126558:0:0:0:0:
320,192,126558,128,0,126628:0:0:0:0:
64,192,126628,128,0,126698:0:0:0:0:
192,192,126698,128,0,126768:0:0:0:0:
448,192,126768,1,0,0:0:0:0:
320,192,126768,1,0,0:0:0:0:
192,192,126837,1,0,0:0:0:0:
64,192,126837,1,0,0:0:0:0:
320,192,126907,1,0,0:0:0:0:
448,192,126907,1,0,0:0:0:0:
192,192,126977,1,0,0:0:0:0:
64,192,127047,128,0,127186:0:0:0:0:
448,192,127047,128,0,127186:0:0:0:0:
192,192,127093,128,0,127233:0:0:0:0:
320,192,127140,128,0,127326:0:0:0:0:
192,192,127326,1,0,0:0:0:0:
448,192,127326,128,0,127535:0:0:0:0:
64,192,127326,128,0,127535:0:0:0:0:
192,192,127465,128,0,127605:0:0:0:0:
320,192,127605,1,0,0:0:0:0:
448,192,127605,1,0,0:0:0:0:
320,192,127744,1,0,0:0:0:0:
448,192,127744,1,0,0:0:0:0:
64,192,127744,1,0,0:0:0:0:
192,192,127814,128,0,127884:0:0:0:0:
320,192,127884,128,0,127954:0:0:0:0:
448,192,127954,128,0,128093:0:0:0:0:
192,192,128023,128,0,128093:0:0:0:0:
320,192,128093,1,0,0:0:0:0:
64,192,128093,1,0,0:0:0:0:
192,192,128163,1,0,0:0:0:0:
64,192,128163,1,0,0:0:0:0:
448,192,128163,128,0,128233:0:0:0:0:
320,192,128233,128,0,128302:0:0:0:0:
192,192,128302,128,0,128372:0:0:0:0:
448,192,128442,1,0,0:0:0:0:
64,192,128442,1,0,0:0:0:0:
320,192,128442,128,0,128512:0:0:0:0:
192,192,128512,128,0,128582:0:0:0:0:
64,192,128582,128,0,128651:0:0:0:0:
192,192,128721,1,0,0:0:0:0:
64,192,128721,1,0,0:0:0:0:
448,192,128721,1,0,0:0:0:0:
64,192,128861,128,0,128930:0:0:0:0:
320,192,128861,128,0,128930:0:0:0:0:
192,192,128930,128,0,129000:0:0:0:0:
448,192,129000,128,0,129070:0:0:0:0:
320,192,129000,128,0,129070:0:0:0:0:
64,192,129070,128,0,129140:0:0:0:0:
320,192,129140,128,0,129209:0:0:0:0:
192,192,129140,128,0,129209:0:0:0:0:
64,192,129209,1,0,0:0:0:0:
448,192,129279,128,0,129349:0:0:0:0:
192,192,129279,128,0,129349:0:0:0:0:
320,192,129279,1,0,0:0:0:0:
64,192,129349,128,0,129419:0:0:0:0:
320,192,129419,128,0,129489:0:0:0:0:
448,192,129419,128,0,129489:0:0:0:0:
192,192,129489,128,0,129558:0:0:0:0:
448,192,129558,128,0,129768:0:0:0:0:
64,192,129558,128,0,129628:0:0:0:0:
320,192,129558,128,0,129837:0:0:0:0:
192,192,129698,1,0,0:0:0:0:
64,192,129837,1,0,0:0:0:0:
192,192,129837,1,0,0:0:0:0:
448,192,129837,1,0,0:0:0:0:
320,192,129977,128,0,130116:0:0:0:0:
192,192,129977,128,0,130047:0:0:0:0:
192,192,130116,128,0,130256:0:0:0:0:
64,192,130116,128,0,130186:0:0:0:0:
320,192,130256,128,0,130396:0:0:0:0:
448,192,130256,128,0,130326:0:0:0:0:
64,192,130326,1,0,0:0:0:0:
448,192,130396,128,0,130535:0:0:0:0:
192,192,130396,128,0,130465:0:0:0:0:
64,192,130396,1,0,0:0:0:0:
64,192,130535,128,0,130605:0:0:0:0:
320,192,130535,128,0,130675:0:0:0:0:
192,192,130675,128,0,130954:0:0:0:0:
448,192,130675,128,0,130884:0:0:0:0:
64,192,130675,128,0,130814:0:0:0:0:
320,192,130954,1,0,0:0:0:0:
448,192,130954,1,0,0:0:0:0:
192,192,131093,1,0,0:0:0:0:
64,192,131093,128,0,131163:0:0:0:0:
320,192,131093,128,0,131163:0:0:0:0:
448,192,131233,128,0,131372:0:0:0:0:
192,192,131233,128,0,131372:0:0:0:0:
64,192,131372,1,0,0:0:0:0:
192,192,131442,1,0,0:0:0:0:
320,192,131442,1,0,0:0:0:0:
64,192,131512,1,0,0:0:0:0:
448,192,131512,128,0,131634:0:0:0:0:
320,192,131529,128,0,131651:0:0:0:0:
64,192,131651,1,0,0:0:0:0:
192,192,131721,1,0,0:0:0:0:
64,192,131791,1,0,0:0:0:0:
320,192,131791,1,0,0:0:0:0:
448,192,131791,1,0,0:0:0:0:
192,192,131930,1,0,0:0:0:0:
448,192,131930,1,0,0:0:0:0:
64,192,131930,128,0,132349:0:0:0:0:
320,192,132070,128,0,132209:0:0:0:0:
192,192,132070,128,0,132279:0:0:0:0:
320,192,132349,128,0,132628:0:0:0:0:
448,192,132372,128,0,132698:0:0:0:0:
192,192,132396,128,0,132558:0:0:0:0:
64,192,132489,1,0,0:0:0:0:
192,192,132628,1,0,0:0:0:0:
320,192,132768,1,0,0:0:0:0:
192,192,132837,1,0,0:0:0:0:
64,192,132837,1,0,0:0:0:0:
320,192,132907,1,0,0:0:0:0:
448,192,132907,1,0,0:0:0:0:
64,192,133047,1,0,0:0:0:0:
320,192,133047,128,0,133116:0:0:0:0:
192,192,133116,128,0,133186:0:0:0:0:
448,192,133186,1,0,0:0:0:0:
320,192,133186,1,0,0:0:0:0:
64,192,133186,128,0,133256:0:0:0:0:
192,192,133326,128,0,133396:0:0:0:0:
320,192,133396,128,0,133465:0:0:0:0:
448,192,133465,128,0,133744:0:0:0:0:
64,192,133489,128,0,133675:0:0:0:0:
192,192,133512,128,0,133814:0:0:0:0:
320,192,133605,1,0,0:0:0:0:
64,192,133744,1,0,0:0:0:0:
192,192,133884,1,0,0:0:0:0:
320,192,133954,1,0,0:0:0:0:
448,192,133954,1,0,0:0:0:0:
192,192,134023,128,0,134093:0:0:0:0:
64,192,134023,128,0,134093:0:0:0:0:
448,192,134093,1,0,0:0:0:0:
192,192,134163,128,0,134233:0:0:0:0:
320,192,134163,128,0,134233:0:0:0:0:
64,192,134233,1,0,0:0:0:0:
192,192,134302,1,0,0:0:0:0:
320,192,134302,128,0,134372:0:0:0:0:
448,192,134302,128,0,134372:0:0:0:0:
64,192,134442,1,0,0:0:0:0:
192,192,134442,1,0,0:0:0:0:
192,192,134512,1,0,0:0:0:0:
320,192,134582,1,0,0:0:0:0:
448,192,134582,128,0,134651:0:0:0:0:
64,192,134582,128,0,134651:0:0:0:0:
192,192,134651,1,0,0:0:0:0:
320,192,134721,1,0,0:0:0:0:
192,192,134791,1,0,0:0:0:0:
64,192,134791,128,0,134861:0:0:0:0:
448,192,134791,128,0,134930:0:0:0:0:
320,192,134861,128,0,134930:0:0:0:0:
192,192,134930,1,0,0:0:0:0:
64,192,135000,1,0,0:0:0:0:
448,192,135000,128,0,135070:0:0:0:0:
320,192,135000,128,0,135140:0:0:0:0:
192,192,135070,128,0,135140:0:0:0:0:
64,192,135140,1,0,0:0:0:0:
320,192,135209,128,0,135279:0:0:0:0:
448,192,135209,128,0,135349:0:0:0:0:
192,192,135279,128,0,135349:0:0:0:0:
64,192,135349,1,0,0:0:0:0:
320,192,135419,128,0,135558:0:0:0:0:
448,192,135489,128,0,135558:0:0:0:0:
192,192,135558,1,0,0:0:0:0:
64,192,135558,128,0,135698:0:0:0:0:
448,192,135698,1,0,0:0:0:0:
192,192,135698,1,0,0:0:0:0:
320,192,135698,128,0,135837:0:0:0:0:
448,192,135837,1,0,0:0:0:0:
192,192,135837,1,0,0:0:0:0:
64,192,135837,1,0,0:0:0:0:
448,192,135977,128,0,136186:0:0:0:0:
192,192,135977,128,0,136186:0:0:0:0:
320,192,135977,128,0,136186:0:0:0:0:
64,192,135977,128,0,136186:0:0:0:0:
448,192,136256,1,0,0:0:0:0:
192,192,136256,1,0,0:0:0:0:
64,192,136256,1,0,0:0:0:0:
320,192,136256,1,0,0:0:0:0:
320,192,136396,1,0,0:0:0:0:
192,192,136396,1,0,0:0:0:0:
64,192,136465,1,0,0:0:0:0:
448,192,136535,1,0,0:0:0:0:
320,192,136535,1,0,0:0:0:0:
192,192,136535,1,0,0:0:0:0:
64,192,136605,1,0,0:0:0:0:
320,192,136675,1,0,0:0:0:0:
192,192,136744,1,0,0:0:0:0:
448,192,136814,1,0,0:0:0:0:
320,192,136814,1,0,0:0:0:0:
192,192,136884,1,0,0:0:0:0:
448,192,136954,1,0,0:0:0:0:
64,192,136954,1,0,0:0:0:0:
320,192,137023,1,0,0:0:0:0:
64,192,137093,1,0,0:0:0:0:
448,192,137093,1,0,0:0:0:0:
192,192,137093,1,0,0:0:0:0:
320,192,137163,1,0,0:0:0:0:
192,192,137233,1,0,0:0:0:0:
64,192,137302,1,0,0:0:0:0:
448,192,137302,1,0,0:0:0:0:
192,192,137372,1,0,0:0:0:0:
320,192,137372,1,0,0:0:0:0:
448,192,137442,1,0,0:0:0:0:
64,192,137512,1,0,0:0:0:0:
320,192,137512,1,0,0:0:0:0:
192,192,137582,1,0,0:0:0:0:
448,192,137651,128,0,137930:0:0:0:0:
320,192,137651,128,0,137791:0:0:0:0:
64,192,137651,128,0,137861:0:0:0:0:
192,192,137791,1,0,0:0:0:0:
192,192,137930,1,0,0:0:0:0:
320,192,137930,1,0,0:0:0:0:
64,192,138000,1,0,0:0:0:0:
448,192,138070,1,0,0:0:0:0:
320,192,138070,1,0,0:0:0:0:
192,192,138140,1,0,0:0:0:0:
64,192,138209,1,0,0:0:0:0:
320,192,138209,1,0,0:0:0:0:
448,192,138209,1,0,0:0:0:0:
192,192,138279,1,0,0:0:0:0:
448,192,138349,1,0,0:0:0:0:
320,192,138419,1,0,0:0:0:0:
192,192,138489,1,0,0:0:0:0:
64,192,138489,1,0,0:0:0:0:
448,192,138489,1,0,0:0:0:0:
320,192,138628,1,0,0:0:0:0:
192,192,138628,1,0,0:0:0:0:
192,192,138698,1,0,0:0:0:0:
64,192,138768,128,0,138907:0:0:0:0:
448,192,138768,128,0,138837:0:0:0:0:
320,192,138907,1,0,0:0:0:0:
192,192,138907,1,0,0:0:0:0:
448,192,138907,1,0,0:0:0:0:
64,192,139047,1,0,0:0:0:0:
320,192,139047,1,0,0:0:0:0:
64,192,139116,1,0,0:0:0:0:
192,192,139186,128,0,139326:0:0:0:0:
448,192,139186,128,0,139256:0:0:0:0:
448,192,139326,1,0,0:0:0:0:
320,192,139326,1,0,0:0:0:0:
64,192,139326,1,0,0:0:0:0:
192,192,139465,1,0,0:0:0:0:
320,192,139465,1,0,0:0:0:0:
320,192,139535,1,0,0:0:0:0:
64,192,139605,1,0,0:0:0:0:
192,192,139605,1,0,0:0:0:0:
448,192,139605,1,0,0:0:0:0:
320,192,139744,1,0,0:0:0:0:
448,192,139814,1,0,0:0:0:0:
320,192,139884,128,0,140023:0:0:0:0:
448,192,139884,128,0,139954:0:0:0:0:
64,192,140023,1,0,0:0:0:0:
192,192,140023,1,0,0:0:0:0:
320,192,140163,1,0,0:0:0:0:
448,192,140163,128,0,140233:0:0:0:0:
64,192,140163,128,0,140302:0:0:0:0:
192,192,140302,128,0,140372:0:0:0:0:
320,192,140302,128,0,140442:0:0:0:0:
192,192,140442,128,0,141186:0:0:0:0:
448,192,140512,1,0,0:0:0:0:
320,192,140582,1,0,0:0:0:0:
64,192,140651,1,0,0:0:0:0:
320,192,140721,128,0,141279:0:0:0:0:
64,192,140721,128,0,141093:0:0:0:0:
448,192,140721,128,0,141000:0:0:0:0:
448,192,141279,128,0,141419:0:0:0:0:
192,192,141302,128,0,141419:0:0:0:0:
64,192,141326,128,0,141419:0:0:0:0:
320,192,141419,1,0,0:0:0:0:
64,192,141558,128,0,141698:0:0:0:0:
320,192,141582,128,0,141698:0:0:0:0:
448,192,141605,128,0,141698:0:0:0:0:
192,192,141698,1,0,0:0:0:0:
64,192,141837,128,0,141977:0:0:0:0:
192,192,141861,128,0,141977:0:0:0:0:
320,192,141884,128,0,141977:0:0:0:0:
448,192,141977,1,0,0:0:0:0:
448,192,142116,128,0,142256:0:0:0:0:
320,192,142140,128,0,142256:0:0:0:0:
192,192,142163,128,0,142256:0:0:0:0:
64,192,142256,1,0,0:0:0:0:
192,192,142326,1,0,0:0:0:0:
64,192,142396,1,0,0:0:0:0:
448,192,142396,128,0,142535:0:0:0:0:
320,192,142396,128,0,142465:0:0:0:0:
320,192,142535,128,0,142675:0:0:0:0:
192,192,142535,128,0,142605:0:0:0:0:
192,192,142675,128,0,142744:0:0:0:0:
64,192,142814,128,0,142884:0:0:0:0:
448,192,142814,1,0,0:0:0:0:
192,192,142954,128,0,143093:0:0:0:0:
320,192,142977,128,0,143093:0:0:0:0:
448,192,143000,128,0,143093:0:0:0:0:
64,192,143093,1,0,0:0:0:0:
448,192,143233,128,0,143372:0:0:0:0:
64,192,143256,128,0,143372:0:0:0:0:
320,192,143279,128,0,143372:0:0:0:0:
192,192,143372,128,0,143442:0:0:0:0:
320,192,143442,128,0,143512:0:0:0:0:
64,192,143512,1,0,0:0:0:0:
192,192,143512,1,0,0:0:0:0:
448,192,143512,1,0,0:0:0:0:
320,192,143651,128,0,143721:0:0:0:0:
64,192,143651,128,0,143721:0:0:0:0:
192,192,143721,128,0,143791:0:0:0:0:
64,192,143791,1,0,0:0:0:0:
320,192,143791,128,0,143930:0:0:0:0:
448,192,143791,128,0,143861:0:0:0:0:
448,192,143930,128,0,144070:0:0:0:0:
192,192,143930,128,0,144070:0:0:0:0:
320,192,144070,128,0,144140:0:0:0:0:
64,192,144070,128,0,144209:0:0:0:0:
320,192,144209,128,0,144349:0:0:0:0:
192,192,144209,128,0,144279:0:0:0:0:
64,192,144349,128,0,144489:0:0:0:0:
448,192,144349,128,0,144489:0:0:0:0:
192,192,144489,1,0,0:0:0:0:
320,192,144489,1,0,0:0:0:0:
320,192,144558,1,0,0:0:0:0:
64,192,144628,1,0,0:0:0:0:
192,192,144628,1,0,0:0:0:0:
448,192,144628,1,0,0:0:0:0:
320,192,144675,1,0,0:0:0:0:
192,192,144721,1,0,0:0:0:0:
448,192,144768,1,0,0:0:0:0:
192,192,144814,1,0,0:0:0:0:
64,192,144861,1,0,0:0:0:0:
320,192,144884,1,0,0:0:0:0:
448,192,144907,128,0,145047:0:0:0:0:
192,192,145047,128,0,145116:0:0:0:0:
320,192,145116,1,0,0:0:0:0:
448,192,145186,1,0,0:0:0:0:
64,192,145186,128,0,145396:0:0:0:0:
192,192,145256,128,0,145465:0:0:0:0:
320,192,145326,128,0,145465:0:0:0:0:
448,192,145396,128,0,145465:0:0:0:0:
64,192,145465,1,0,0:0:0:0:
320,192,145535,1,0,0:0:0:0:
64,192,145605,1,0,0:0:0:0:
448,192,145605,128,0,145814:0:0:0:0:
320,192,145675,128,0,145884:0:0:0:0:
192,192,145744,128,0,145884:0:0:0:0:
64,192,145814,128,0,145884:0:0:0:0:
448,192,145884,1,0,0:0:0:0:
320,192,145954,1,0,0:0:0:0:
192,192,146023,128,0,146302:0:0:0:0:
64,192,146023,128,0,146163:0:0:0:0:
448,192,146093,1,0,0:0:0:0:
320,192,146163,1,0,0:0:0:0:
320,192,146302,128,0,146512:0:0:0:0:
448,192,146302,1,0,0:0:0:0:
64,192,146372,128,0,146651:0:0:0:0:
192,192,146442,128,0,146651:0:0:0:0:
448,192,146512,128,0,146582:0:0:0:0:
320,192,146582,1,0,0:0:0:0:
320,192,146721,128,0,146930:0:0:0:0:
448,192,146721,1,0,0:0:0:0:
192,192,146791,128,0,147000:0:0:0:0:
64,192,146861,128,0,147000:0:0:0:0:
448,192,146930,128,0,147000:0:0:0:0:
320,192,147000,128,0,147140:0:0:0:0:
192,192,147140,1,0,0:0:0:0:
64,192,147140,128,0,147186:0:0:0:0:
448,192,147186,128,0,147233:0:0:0:0:
320,192,147233,128,0,147279:0:0:0:0:
192,192,147279,128,0,147326:0:0:0:0:
64,192,147326,128,0,147372:0:0:0:0:
448,192,147372,128,0,147419:0:0:0:0:
320,192,147419,1,0,0:0:0:0:
192,192,147419,128,0,147628:0:0:0:0:
64,192,147489,128,0,147698:0:0:0:0:
448,192,147558,128,0,147698:0:0:0:0:
320,192,147628,128,0,147698:0:0:0:0:
192,192,147698,1,0,0:0:0:0:
320,192,147768,1,0,0:0:0:0:
448,192,147837,1,0,0:0:0:0:
64,192,147837,128,0,148047:0:0:0:0:
192,192,147907,128,0,148116:0:0:0:0:
448,192,147977,128,0,148116:0:0:0:0:
320,192,148047,128,0,148116:0:0:0:0:
64,192,148116,1,0,0:0:0:0:
192,192,148186,1,0,0:0:0:0:
320,192,148256,128,0,148430:0:0:0:0:
448,192,148256,128,0,148396:0:0:0:0:
64,192,148326,1,0,0:0:0:0:
192,192,148396,128,0,148465:0:0:0:0:
64,192,148535,1,0,0:0:0:0:
192,192,148535,128,0,148744:0:0:0:0:
320,192,148605,128,0,148814:0:0:0:0:
448,192,148675,128,0,148814:0:0:0:0:
64,192,148744,128,0,148814:0:0:0:0:
192,192,148814,1,0,0:0:0:0:
320,192,148884,1,0,0:0:0:0:
448,192,148954,1,0,0:0:0:0:
64,192,148954,1,0,0:0:0:0:
192,192,149023,1,0,0:0:0:0:
320,192,149023,1,0,0:0:0:0:
192,192,149093,128,0,149465:0:0:0:0:
64,192,149093,128,0,149558:0:0:0:0:
448,192,149093,128,0,149651:0:0:0:0:
320,192,149372,128,0,149465:0:0:0:0:
320,192,149651,128,0,150070:0:0:0:0:
64,192,149651,128,0,149930:0:0:0:0:
192,192,149651,128,0,150209:0:0:0:0:
64,192,150209,128,0,150349:0:0:0:0:
320,192,150233,128,0,150349:0:0:0:0:
448,192,150256,128,0,150349:0:0:0:0:
192,192,150349,1,0,0:0:0:0:
448,192,150489,128,0,150628:0:0:0:0:
192,192,150512,128,0,150628:0:0:0:0:
64,192,150535,128,0,150628:0:0:0:0:
320,192,150628,1,0,0:0:0:0:
448,192,150768,128,0,150907:0:0:0:0:
320,192,150791,128,0,150907:0:0:0:0:
192,192,150814,128,0,150907:0:0:0:0:
64,192,150907,1,0,0:0:0:0:
64,192,151047,128,0,151186:0:0:0:0:
192,192,151070,128,0,151186:0:0:0:0:
320,192,151093,128,0,151186:0:0:0:0:
448,192,151186,1,0,0:0:0:0:
320,192,151256,1,0,0:0:0:0:
448,192,151326,1,0,0:0:0:0:
64,192,151326,128,0,151465:0:0:0:0:
192,192,151326,128,0,151396:0:0:0:0:
192,192,151465,128,0,151605:0:0:0:0:
320,192,151465,128,0,151535:0:0:0:0:
320,192,151605,128,0,151675:0:0:0:0:
64,192,151744,128,0,151884:0:0:0:0:
448,192,151744,128,0,151884:0:0:0:0:
320,192,151884,128,0,152023:0:0:0:0:
192,192,151919,128,0,152023:0:0:0:0:
64,192,151954,128,0,152023:0:0:0:0:
448,192,152023,1,0,0:0:0:0:
64,192,152163,128,0,152302:0:0:0:0:
448,192,152186,128,0,152279:0:0:0:0:
192,192,152209,128,0,152302:0:0:0:0:
320,192,152302,128,0,152372:0:0:0:0:
192,192,152372,128,0,152442:0:0:0:0:
448,192,152442,1,0,0:0:0:0:
320,192,152442,1,0,0:0:0:0:
64,192,152442,1,0,0:0:0:0:
192,192,152582,128,0,152651:0:0:0:0:
448,192,152582,128,0,152651:0:0:0:0:
320,192,152651,128,0,152721:0:0:0:0:
448,192,152721,1,0,0:0:0:0:
192,192,152721,128,0,152861:0:0:0:0:
64,192,152721,128,0,152791:0:0:0:0:
64,192,152861,128,0,153000:0:0:0:0:
320,192,152861,128,0,153000:0:0:0:0:
192,192,153000,128,0,153070:0:0:0:0:
448,192,153000,128,0,153140:0:0:0:0:
192,192,153140,128,0,153279:0:0:0:0:
320,192,153140,128,0,153209:0:0:0:0:
448,192,153279,128,0,153419:0:0:0:0:
64,192,153279,128,0,153419:0:0:0:0:
320,192,153419,1,0,0:0:0:0:
192,192,153419,1,0,0:0:0:0:
192,192,153489,1,0,0:0:0:0:
448,192,153558,1,0,0:0:0:0:
320,192,153558,1,0,0:0:0:0:
64,192,153558,1,0,0:0:0:0:
192,192,153605,1,0,0:0:0:0:
320,192,153651,1,0,0:0:0:0:
448,192,153698,1,0,0:0:0:0:
192,192,153744,1,0,0:0:0:0:
320,192,153791,1,0,0:0:0:0:
64,192,153837,128,0,153977:0:0:0:0:
448,192,153907,128,0,154047:0:0:0:0:
320,192,153977,128,0,154116:0:0:0:0:
192,192,154047,128,0,154116:0:0:0:0:
64,192,154116,1,0,0:0:0:0:
448,192,154116,1,0,0:0:0:0:
448,192,154256,1,0,0:0:0:0:
320,192,154256,1,0,0:0:0:0:
192,192,154396,1,0,0:0:0:0:
320,192,154396,1,0,0:0:0:0:
64,192,154535,1,0,0:0:0:0:
192,192,154535,1,0,0:0:0:0:
64,192,154675,1,0,0:0:0:0:
448,192,154675,1,0,0:0:0:0:
448,192,154814,1,0,0:0:0:0:
320,192,154814,1,0,0:0:0:0:
64,192,154954,1,0,0:0:0:0:
192,192,154954,1,0,0:0:0:0:
448,192,155023,1,0,0:0:0:0:
320,192,155093,1,0,0:0:0:0:
192,192,155093,1,0,0:0:0:0:
64,192,155163,1,0,0:0:0:0:
448,192,155233,1,0,0:0:0:0:
320,192,155233,1,0,0:0:0:0:
192,192,155302,1,0,0:0:0:0:
64,192,155372,1,0,0:0:0:0:
448,192,155372,1,0,0:0:0:0:
320,192,155442,1,0,0:0:0:0:
64,192,155512,1,0,0:0:0:0:
192,192,155512,1,0,0:0:0:0:
448,192,155582,1,0,0:0:0:0:
64,192,155651,1,0,0:0:0:0:
320,192,155651,1,0,0:0:0:0:
192,192,155721,1,0,0:0:0:0:
448,192,155791,1,0,0:0:0:0:
320,192,155791,1,0,0:0:0:0:
64,192,155861,1,0,0:0:0:0:
192,192,155930,1,0,0:0:0:0:
448,192,155930,1,0,0:0:0:0:
320,192,156000,1,0,0:0:0:0:
448,192,156070,128,0,156209:0:0:0:0:
64,192,156070,128,0,156209:0:0:0:0:
192,192,156209,128,0,156349:0:0:0:0:
64,192,156279,128,0,156349:0:0:0:0:
320,192,156349,1,0,0:0:0:0:
448,192,156349,1,0,0:0:0:0:
64,192,156419,1,0,0:0:0:0:
192,192,156419,1,0,0:0:0:0:
320,192,156489,1,0,0:0:0:0:
448,192,156489,1,0,0:0:0:0:
192,192,156558,1,0,0:0:0:0:
64,192,156558,1,0,0:0:0:0:
320,192,156628,1,0,0:0:0:0:
448,192,156628,1,0,0:0:0:0:
64,192,156698,1,0,0:0:0:0:
192,192,156698,1,0,0:0:0:0:
320,192,156768,1,0,0:0:0:0:
448,192,156768,1,0,0:0:0:0:
192,192,156837,1,0,0:0:0:0:
448,192,156907,1,0,0:0:0:0:
64,192,156907,1,0,0:0:0:0:
192,192,156977,1,0,0:0:0:0:
320,192,156977,1,0,0:0:0:0:
448,192,157047,1,0,0:0:0:0:
64,192,157047,1,0,0:0:0:0:
192,192,157116,1,0,0:0:0:0:
320,192,157116,1,0,0:0:0:0:
64,192,157186,1,0,0:0:0:0:
448,192,157186,1,0,0:0:0:0:
192,192,157256,1,0,0:0:0:0:
320,192,157256,1,0,0:0:0:0:
64,192,157326,1,0,0:0:0:0:
448,192,157326,1,0,0:0:0:0:
320,192,157396,1,0,0:0:0:0:
448,192,157465,1,0,0:0:0:0:
64,192,157465,1,0,0:0:0:0:
192,192,157465,128,0,158023:0:0:0:0:
64,192,157884,128,0,158023:0:0:0:0:
320,192,157954,128,0,158093:0:0:0:0:
448,192,158023,128,0,158442:0:0:0:0:
320,192,158442,128,0,158512:0:0:0:0:
192,192,158512,128,0,158582:0:0:0:0:
64,192,158582,128,0,158721:0:0:0:0:
448,192,158582,1,0,0:0:0:0:
320,192,158582,1,0,0:0:0:0:
192,192,158651,1,0,0:0:0:0:
320,192,158721,1,0,0:0:0:0:
448,192,158791,1,0,0:0:0:0:
320,192,158861,1,0,0:0:0:0:
64,192,158861,128,0,159000:0:0:0:0:
192,192,158930,128,0,159070:0:0:0:0:
320,192,159000,128,0,159140:0:0:0:0:
448,192,159070,128,0,159209:0:0:0:0:
64,192,159140,128,0,159279:0:0:0:0:
192,192,159209,128,0,159349:0:0:0:0:
320,192,159279,128,0,159419:0:0:0:0:
448,192,159349,128,0,159489:0:0:0:0:
64,192,159419,1,0,0:0:0:0:
192,192,159419,1,0,0:0:0:0:
320,192,159489,1,0,0:0:0:0:
448,192,159558,1,0,0:0:0:0:
192,192,159628,1,0,0:0:0:0:
64,192,159698,1,0,0:0:0:0:
320,192,159698,1,0,0:0:0:0:
448,192,159768,1,0,0:0:0:0:
320,192,159837,128,0,159977:0:0:0:0:
64,192,159907,128,0,160047:0:0:0:0:
448,192,159977,128,0,160116:0:0:0:0:
192,192,159977,1,0,0:0:0:0:
320,192,160047,128,0,160186:0:0:0:0:
192,192,160116,128,0,160256:0:0:0:0:
64,192,160186,128,0,160256:0:0:0:0:
448,192,160256,1,0,0:0:0:0:
320,192,160256,128,0,160396:0:0:0:0:
64,192,160326,128,0,160465:0:0:0:0:
448,192,160396,128,0,160465:0:0:0:0:
192,192,160465,128,0,160535:0:0:0:0:
448,192,160535,1,0,0:0:0:0:
320,192,160535,128,0,160675:0:0:0:0:
64,192,160605,128,0,160744:0:0:0:0:
192,192,160675,128,0,160744:0:0:0:0:
448,192,160744,128,0,160814:0:0:0:0:
64,192,160814,1,0,0:0:0:0:
192,192,160814,128,0,160954:0:0:0:0:
320,192,160884,128,0,161023:0:0:0:0:
64,192,160954,128,0,161093:0:0:0:0:
448,192,161023,128,0,161093:0:0:0:0:
192,192,161093,1,0,0:0:0:0:
320,192,161093,128,0,161233:0:0:0:0:
64,192,161163,128,0,161302:0:0:0:0:
192,192,161233,128,0,161372:0:0:0:0:
320,192,161302,1,0,0:0:0:0:
448,192,161372,1,0,0:0:0:0:
64,192,161372,128,0,161512:0:0:0:0:
320,192,161442,128,0,161582:0:0:0:0:
192,192,161512,128,0,161651:0:0:0:0:
448,192,161582,128,0,161721:0:0:0:0:
64,192,161651,128,0,161791:0:0:0:0:
320,192,161651,1,0,0:0:0:0:
192,192,161721,128,0,161861:0:0:0:0:
320,192,161791,128,0,161930:0:0:0:0:
448,192,161861,128,0,162000:0:0:0:0:
192,192,161930,128,0,162070:0:0:0:0:
64,192,161930,128,0,162419:0:0:0:0:
448,192,162070,128,0,162279:0:0:0:0:
320,192,162209,128,0,162326:0:0:0:0:
192,192,162209,128,0,162372:0:0:0:0:
448,192,162349,1,0,0:0:0:0:
320,192,162396,1,0,0:0:0:0:
192,192,162442,1,0,0:0:0:0:
448,192,162489,128,0,162558:0:0:0:0:
64,192,162489,1,0,0:0:0:0:
192,192,162558,1,0,0:0:0:0:
320,192,162628,1,0,0:0:0:0:
448,192,162698,1,0,0:0:0:0:
192,192,162768,1,0,0:0:0:0:
64,192,162768,1,0,0:0:0:0:
320,192,162837,1,0,0:0:0:0:
64,192,162907,1,0,0:0:0:0:
192,192,162954,1,0,0:0:0:0:
320,192,163000,1,0,0:0:0:0:
448,192,163047,1,0,0:0:0:0:
64,192,163047,128,0,163116:0:0:0:0:
192,192,163116,1,0,0:0:0:0:
64,192,163186,1,0,0:0:0:0:
448,192,163256,1,0,0:0:0:0:
64,192,163326,1,0,0:0:0:0:
192,192,163326,128,0,163465:0:0:0:0:
320,192,163396,128,0,163535:0:0:0:0:
448,192,163465,128,0,163605:0:0:0:0:
64,192,163535,128,0,163675:0:0:0:0:
320,192,163605,128,0,163744:0:0:0:0:
192,192,163605,1,0,0:0:0:0:
448,192,163675,128,0,163814:0:0:0:0:
64,192,163744,128,0,163814:0:0:0:0:
192,192,163814,128,0,163884:0:0:0:0:
64,192,163884,1,0,0:0:0:0:
448,192,163884,1,0,0:0:0:0:
320,192,163954,1,0,0:0:0:0:
192,192,164023,1,0,0:0:0:0:
64,192,164093,1,0,0:0:0:0:
192,192,164163,1,0,0:0:0:0:
448,192,164163,1,0,0:0:0:0:
320,192,164233,128,0,164372:0:0:0:0:
192,192,164302,128,0,164442:0:0:0:0:
64,192,164372,128,0,164442:0:0:0:0:
320,192,164442,1,0,0:0:0:0:
448,192,164442,128,0,164582:0:0:0:0:
64,192,164512,128,0,164651:0:0:0:0:
320,192,164582,128,0,164721:0:0:0:0:
192,192,164651,128,0,164791:0:0:0:0:
64,192,164721,1,0,0:0:0:0:
448,192,164721,128,0,164861:0:0:0:0:
320,192,164791,128,0,164861:0:0:0:0:
192,192,164861,128,0,164930:0:0:0:0:
320,192,164930,128,0,165070:0:0:0:0:
192,192,165000,1,0,0:0:0:0:
64,192,165000,128,0,165140:0:0:0:0:
448,192,165070,128,0,165209:0:0:0:0:
192,192,165140,128,0,165279:0:0:0:0:
320,192,165209,128,0,165349:0:0:0:0:
448,192,165279,1,0,0:0:0:0:
64,192,165279,128,0,165419:0:0:0:0:
192,192,165349,128,0,165489:0:0:0:0:
448,192,165419,128,0,165558:0:0:0:0:
320,192,165489,128,0,165628:0:0:0:0:
192,192,165558,1,0,0:0:0:0:
64,192,165558,128,0,165698:0:0:0:0:
448,192,165628,128,0,165768:0:0:0:0:
192,192,165698,128,0,165837:0:0:0:0:
320,192,165768,128,0,165837:0:0:0:0:
64,192,165837,1,0,0:0:0:0:
448,192,165837,128,0,166047:0:0:0:0:
320,192,165907,128,0,166047:0:0:0:0:
192,192,165977,128,0,166116:0:0:0:0:
64,192,166047,128,0,166116:0:0:0:0:
320,192,166116,1,0,0:0:0:0:
448,192,166116,128,0,166326:0:0:0:0:
64,192,166186,128,0,166326:0:0:0:0:
192,192,166256,128,0,166326:0:0:0:0:
320,192,166326,128,0,166396:0:0:0:0:
448,192,166396,128,0,166535:0:0:0:0:
192,192,166396,128,0,166535:0:0:0:0:
320,192,166535,128,0,166675:0:0:0:0:
448,192,166605,128,0,166675:0:0:0:0:
192,192,166675,1,0,0:0:0:0:
64,192,166675,128,0,166744:0:0:0:0:
320,192,166744,128,0,166814:0:0:0:0:
192,192,166814,128,0,166884:0:0:0:0:
64,192,166884,1,0,0:0:0:0:
320,192,166884,1,0,0:0:0:0:
448,192,166884,128,0,166954:0:0:0:0:
192,192,166954,128,0,167023:0:0:0:0:
320,192,167023,128,0,167093:0:0:0:0:
448,192,167093,1,0,0:0:0:0:
192,192,167093,1,0,0:0:0:0:
64,192,167093,128,0,167163:0:0:0:0:
320,192,167163,128,0,167233:0:0:0:0:
192,192,167233,128,0,167302:0:0:0:0:
64,192,167302,1,0,0:0:0:0:
320,192,167302,1,0,0:0:0:0:
448,192,167302,128,0,167372:0:0:0:0:
192,192,167372,128,0,167442:0:0:0:0:
320,192,167442,128,0,167512:0:0:0:0:
448,192,167512,128,0,167791:0:0:0:0:
64,192,167512,128,0,167721:0:0:0:0:
192,192,167512,1,0,0:0:0:0:
320,192,167791,1,0,0:0:0:0:
64,192,167791,128,0,167930:0:0:0:0:
192,192,167861,128,0,168000:0:0:0:0:
320,192,167930,128,0,168070:0:0:0:0:
448,192,168000,128,0,168140:0:0:0:0:
192,192,168070,1,0,0:0:0:0:
64,192,168070,128,0,168209:0:0:0:0:
320,192,168140,128,0,168279:0:0:0:0:
448,192,168209,128,0,168349:0:0:0:0:
192,192,168279,128,0,168349:0:0:0:0:
320,192,168349,128,0,168489:0:0:0:0:
64,192,168349,128,0,168489:0:0:0:0:
448,192,168419,1,0,0:0:0:0:
192,192,168489,1,0,0:0:0:0:
64,192,168558,1,0,0:0:0:0:
448,192,168628,128,0,168768:0:0:0:0:
192,192,168628,128,0,168768:0:0:0:0:
320,192,168698,1,0,0:0:0:0:
64,192,168768,128,0,168977:0:0:0:0:
448,192,168837,128,0,169047:0:0:0:0:
192,192,168907,128,0,169116:0:0:0:0:
320,192,168977,128,0,169186:0:0:0:0:
64,192,169047,128,0,169256:0:0:0:0:
448,192,169116,128,0,169326:0:0:0:0:
192,192,169186,128,0,169396:0:0:0:0:
320,192,169256,128,0,169326:0:0:0:0:
64,192,169326,128,0,169535:0:0:0:0:
320,192,169396,128,0,169605:0:0:0:0:
192,192,169465,128,0,169675:0:0:0:0:
448,192,169535,128,0,169675:0:0:0:0:
64,192,169605,128,0,169675:0:0:0:0:
320,192,169675,128,0,169744:0:0:0:0:
448,192,169744,1,0,0:0:0:0:
64,192,169744,128,0,169884:0:0:0:0:
192,192,169814,128,0,169954:0:0:0:0:
448,192,169884,128,0,170023:0:0:0:0:
320,192,169954,128,0,170093:0:0:0:0:
64,192,170023,1,0,0:0:0:0:
192,192,170023,128,0,170163:0:0:0:0:
448,192,170093,128,0,170233:0:0:0:0:
64,192,170163,128,0,170302:0:0:0:0:
192,192,170233,128,0,170372:0:0:0:0:
320,192,170302,128,0,170372:0:0:0:0:
448,192,170372,128,0,170442:0:0:0:0:
192,192,170442,128,0,170582:0:0:0:0:
448,192,170512,128,0,170651:0:0:0:0:
64,192,170582,128,0,170721:0:0:0:0:
320,192,170582,128,0,170721:0:0:0:0:
192,192,170651,128,0,170791:0:0:0:0:
448,192,170721,128,0,170791:0:0:0:0:
320,192,170791,128,0,170861:0:0:0:0:
192,192,170861,128,0,171000:0:0:0:0:
64,192,170861,128,0,170930:0:0:0:0:
320,192,170930,128,0,171000:0:0:0:0:
448,192,171000,128,0,171140:0:0:0:0:
64,192,171000,128,0,171140:0:0:0:0:
320,192,171140,128,0,171279:0:0:0:0:
192,192,171140,1,0,0:0:0:0:
448,192,171209,128,0,171279:0:0:0:0:
64,192,171279,1,0,0:0:0:0:
192,192,171326,1,0,0:0:0:0:
320,192,171372,1,0,0:0:0:0:
64,192,171419,128,0,171489:0:0:0:0:
448,192,171419,128,0,171489:0:0:0:0:
192,192,171489,1,0,0:0:0:0:
320,192,171558,128,0,171698:0:0:0:0:
192,192,171628,128,0,171698:0:0:0:0:
64,192,171698,1,0,0:0:0:0:
448,192,171698,1,0,0:0:0:0:
192,192,171768,128,0,171837:0:0:0:0:
64,192,171837,1,0,0:0:0:0:
448,192,171884,1,0,0:0:0:0:
320,192,171930,1,0,0:0:0:0:
192,192,171977,1,0,0:0:0:0:
64,192,171977,1,0,0:0:0:0:
320,192,172047,1,0,0:0:0:0:
448,192,172116,1,0,0:0:0:0:
192,192,172186,1,0,0:0:0:0:
64,192,172256,1,0,0:0:0:0:
320,192,172256,1,0,0:0:0:0:
448,192,172326,1,0,0:0:0:0:
192,192,172396,128,0,172535:0:0:0:0:
320,192,172465,128,0,172605:0:0:0:0:
448,192,172535,128,0,172675:0:0:0:0:
64,192,172535,128,0,172675:0:0:0:0:
192,192,172605,128,0,172744:0:0:0:0:
320,192,172675,128,0,172814:0:0:0:0:
448,192,172744,128,0,172814:0:0:0:0:
192,192,172814,1,0,0:0:0:0:
64,192,172814,1,0,0:0:0:0:
320,192,172884,1,0,0:0:0:0:
448,192,172954,1,0,0:0:0:0:
192,192,173023,1,0,0:0:0:0:
64,192,173093,1,0,0:0:0:0:
320,192,173093,1,0,0:0:0:0:
448,192,173163,1,0,0:0:0:0:
192,192,173233,128,0,173372:0:0:0:0:
64,192,173302,128,0,173442:0:0:0:0:
320,192,173372,1,0,0:0:0:0:
448,192,173372,128,0,173512:0:0:0:0:
192,192,173442,128,0,173582:0:0:0:0:
64,192,173512,128,0,173582:0:0:0:0:
320,192,173582,128,0,173721:0:0:0:0:
64,192,173651,1,0,0:0:0:0:
192,192,173651,128,0,173791:0:0:0:0:
448,192,173721,128,0,173930:0:0:0:0:
320,192,173791,128,0,173861:0:0:0:0:
64,192,173861,128,0,174070:0:0:0:0:
320,192,173930,128,0,174070:0:0:0:0:
192,192,174000,128,0,174209:0:0:0:0:
448,192,174070,128,0,174140:0:0:0:0:
320,192,174140,128,0,174209:0:0:0:0:
64,192,174209,1,0,0:0:0:0:
448,192,174209,1,0,0:0:0:0:
64,192,174349,128,0,174419:0:0:0:0:
320,192,174349,128,0,174419:0:0:0:0:
320,192,174489,128,0,174628:0:0:0:0:
192,192,174489,128,0,174698:0:0:0:0:
64,192,174558,128,0,174698:0:0:0:0:
448,192,174628,128,0,174768:0:0:0:0:
320,192,174698,128,0,174768:0:0:0:0:
192,192,174768,1,0,0:0:0:0:
64,192,174768,1,0,0:0:0:0:
192,192,174907,128,0,174977:0:0:0:0:
448,192,174907,128,0,174977:0:0:0:0:
448,192,175047,128,0,175186:0:0:0:0:
64,192,175047,128,0,175256:0:0:0:0:
192,192,175116,128,0,175256:0:0:0:0:
320,192,175186,128,0,175326:0:0:0:0:
448,192,175256,128,0,175326:0:0:0:0:
64,192,175326,1,0,0:0:0:0:
192,192,175326,1,0,0:0:0:0:
320,192,175396,128,0,175535:0:0:0:0:
448,192,175465,128,0,175535:0:0:0:0:
64,192,175535,1,0,0:0:0:0:
192,192,175535,1,0,0:0:0:0:
448,192,175605,128,0,175744:0:0:0:0:
320,192,175675,128,0,175744:0:0:0:0:
64,192,175744,1,0,0:0:0:0:
192,192,175744,1,0,0:0:0:0:
448,192,175884,1,0,0:0:0:0:
320,192,175884,1,0,0:0:0:0:
64,192,175884,128,0,175977:0:0:0:0:
192,192,175930,128,0,176023:0:0:0:0:
320,192,175977,128,0,176070:0:0:0:0:
448,192,176023,128,0,176116:0:0:0:0:
64,192,176070,128,0,176116:0:0:0:0:
192,192,176116,128,0,176163:0:0:0:0:
320,192,176163,128,0,176209:0:0:0:0:
448,192,176209,128,0,176256:0:0:0:0:
64,192,176256,128,0,176302:0:0:0:0:
320,192,176302,1,0,0:0:0:0:
192,192,176337,1,0,0:0:0:0:
64,192,176372,1,0,0:0:0:0:
320,192,176407,1,0,0:0:0:0:
192,192,176442,1,0,0:0:0:0:
64,192,176442,1,0,0:0:0:0:
448,192,176442,1,0,0:0:0:0:
448,192,176582,1,0,0:0:0:0:
320,192,176582,128,0,176861:0:0:0:0:
64,192,176582,128,0,176791:0:0:0:0:
64,192,176861,1,0,0:0:0:0:
192,192,176861,1,0,0:0:0:0:
192,192,176930,1,0,0:0:0:0:
320,192,177000,1,0,0:0:0:0:
448,192,177000,128,0,177140:0:0:0:0:
64,192,177000,128,0,177140:0:0:0:0:
320,192,177140,1,0,0:0:0:0:
448,192,177279,1,0,0:0:0:0:
192,192,177279,128,0,177349:0:0:0:0:
192,192,177419,1,0,0:0:0:0:
64,192,177419,1,0,0:0:0:0:
320,192,177419,128,0,177558:0:0:0:0:
192,192,177698,1,0,0:0:0:0:
448,192,177698,1,0,0:0:0:0:
448,192,177768,1,0,0:0:0:0:
64,192,177837,1,0,0:0:0:0:
192,192,177837,128,0,178116:0:0:0:0:
320,192,177907,128,0,178116:0:0:0:0:
448,192,177977,128,0,178047:0:0:0:0:
64,192,178116,1,0,0:0:0:0:
448,192,178116,1,0,0:0:0:0:
192,192,178186,1,0,0:0:0:0:
64,192,178256,128,0,178396:0:0:0:0:
320,192,178256,128,0,178396:0:0:0:0:
448,192,178256,128,0,178465:0:0:0:0:
64,192,178535,128,0,178675:0:0:0:0:
192,192,178535,128,0,178744:0:0:0:0:
320,192,178535,128,0,178675:0:0:0:0:
448,192,178814,1,0,0:0:0:0:
320,192,178814,128,0,178884:0:0:0:0:
64,192,178814,128,0,178884:0:0:0:0:
448,192,178954,128,0,179023:0:0:0:0:
192,192,178954,128,0,179233:0:0:0:0:
64,192,178954,128,0,179163:0:0:0:0:
64,192,179233,1,0,0:0:0:0:
448,192,179233,128,0,179326:0:0:0:0:
320,192,179279,128,0,179372:0:0:0:0:
192,192,179326,128,0,179419:0:0:0:0:
64,192,179372,128,0,179465:0:0:0:0:
320,192,179442,1,0,0:0:0:0:
448,192,179512,128,0,179605:0:0:0:0:
320,192,179512,128,0,179605:0:0:0:0:
192,192,179605,1,0,0:0:0:0:
64,192,179605,1,0,0:0:0:0:
64,192,179698,128,0,179791:0:0:0:0:
192,192,179698,128,0,179791:0:0:0:0:
320,192,179791,128,0,179977:0:0:0:0:
448,192,179791,128,0,179884:0:0:0:0:
448,192,179977,1,0,0:0:0:0:
64,192,179977,128,0,180070:0:0:0:0:
448,192,180070,1,0,0:0:0:0:
192,192,180070,128,0,180163:0:0:0:0:
64,192,180209,1,0,0:0:0:0:
320,192,180209,1,0,0:0:0:0:
192,192,180279,1,0,0:0:0:0:
448,192,180279,1,0,0:0:0:0:
64,192,180349,1,0,0:0:0:0:
320,192,180349,1,0,0:0:0:0:
448,192,180349,1,0,0:0:0:0:
192,192,180489,1,0,0:0:0:0:
64,192,180489,1,0,0:0:0:0:
320,192,180489,128,0,180628:0:0:0:0:
448,192,180558,128,0,180628:0:0:0:0:
192,192,180628,1,0,0:0:0:0:
320,192,180698,1,0,0:0:0:0:
64,192,180698,128,0,180837:0:0:0:0:
448,192,180698,1,0,0:0:0:0:
192,192,180768,128,0,180837:0:0:0:0:
320,192,180837,128,0,180907:0:0:0:0:
64,192,180907,1,0,0:0:0:0:
192,192,180907,1,0,0:0:0:0:
448,192,180907,1,0,0:0:0:0:
320,192,180977,128,0,181047:0:0:0:0:
448,192,181047,128,0,181116:0:0:0:0:
192,192,181116,128,0,181186:0:0:0:0:
64,192,181186,1,0,0:0:0:0:
320,192,181186,1,0,0:0:0:0:
64,192,181326,1,0,0:0:0:0:
448,192,181326,128,0,181396:0:0:0:0:
320,192,181396,128,0,181465:0:0:0:0:
64,192,181465,128,0,181535:0:0:0:0:
192,192,181465,128,0,181535:0:0:0:0:
320,192,181535,128,0,181605:0:0:0:0:
448,192,181535,128,0,181605:0:0:0:0:
64,192,181605,128,0,181675:0:0:0:0:
192,192,181675,128,0,181744:0:0:0:0:
448,192,181744,1,0,0:0:0:0:
64,192,181744,128,0,181814:0:0:0:0:
320,192,181744,128,0,181814:0:0:0:0:
320,192,181884,1,0,0:0:0:0:
192,192,181884,128,0,182023:0:0:0:0:
448,192,181884,128,0,182163:0:0:0:0:
64,192,182163,1,0,0:0:0:0:
320,192,182163,1,0,0:0:0:0:
320,192,182233,1,0,0:0:0:0:
64,192,182302,1,0,0:0:0:0:
448,192,182302,1,0,0:0:0:0:
192,192,182302,128,0,182512:0:0:0:0:
448,192,182442,1,0,0:0:0:0:
320,192,182442,128,0,182512:0:0:0:0:
320,192,182582,1,0,0:0:0:0:
64,192,182582,128,0,182721:0:0:0:0:
192,192,182582,128,0,182651:0:0:0:0:
448,192,182651,128,0,182721:0:0:0:0:
320,192,182721,128,0,182791:0:0:0:0:
64,192,182861,1,0,0:0:0:0:
448,192,182861,128,0,182930:0:0:0:0:
320,192,182930,128,0,183000:0:0:0:0:
192,192,183000,1,0,0:0:0:0:
64,192,183000,1,0,0:0:0:0:
320,192,183070,1,0,0:0:0:0:
448,192,183070,1,0,0:0:0:0:
192,192,183140,1,0,0:0:0:0:
64,192,183140,128,0,183279:0:0:0:0:
448,192,183140,128,0,183279:0:0:0:0:
192,192,183279,128,0,183419:0:0:0:0:
320,192,183279,128,0,183419:0:0:0:0:
448,192,183349,128,0,183419:0:0:0:0:
64,192,183419,128,0,183489:0:0:0:0:
192,192,183489,128,0,183628:0:0:0:0:
320,192,183489,128,0,183628:0:0:0:0:
448,192,183558,128,0,183628:0:0:0:0:
64,192,183628,128,0,183698:0:0:0:0:
192,192,183698,128,0,183837:0:0:0:0:
320,192,183698,128,0,183837:0:0:0:0:
448,192,183768,128,0,183837:0:0:0:0:
64,192,183837,128,0,183977:0:0:0:0:
320,192,183907,128,0,183977:0:0:0:0:
192,192,183907,128,0,184047:0:0:0:0:
448,192,183977,128,0,184047:0:0:0:0:
320,192,184047,128,0,184116:0:0:0:0:
192,192,184116,128,0,184465:0:0:0:0:
64,192,184116,128,0,184535:0:0:0:0:
448,192,184116,128,0,184535:0:0:0:0:
320,192,184256,128,0,184465:0:0:0:0:
320,192,184535,128,0,184675:0:0:0:0:
192,192,184535,128,0,184675:0:0:0:0:
64,192,184605,128,0,184675:0:0:0:0:
448,192,184675,128,0,184744:0:0:0:0:
320,192,184744,128,0,184884:0:0:0:0:
192,192,184744,128,0,184884:0:0:0:0:
64,192,184814,128,0,184884:0:0:0:0:
448,192,184884,128,0,184954:0:0:0:0:
320,192,184954,128,0,185093:0:0:0:0:
192,192,184954,128,0,185093:0:0:0:0:
64,192,185023,128,0,185093:0:0:0:0:
448,192,185093,128,0,185163:0:0:0:0:
320,192,185163,128,0,185302:0:0:0:0:
192,192,185163,128,0,185302:0:0:0:0:
64,192,185233,128,0,185302:0:0:0:0:
448,192,185302,128,0,185372:0:0:0:0:
320,192,185372,1,0,0:0:0:0:
64,192,185372,1,0,0:0:0:0:
192,192,185372,1,0,0:0:0:0:
320,192,185512,128,0,185791:0:0:0:0:
448,192,185512,128,0,185721:0:0:0:0:
192,192,185512,128,0,185861:0:0:0:0:
64,192,185791,128,0,185930:0:0:0:0:
320,192,185861,128,0,186140:0:0:0:0:
448,192,185930,128,0,186209:0:0:0:0:
192,192,185930,128,0,186140:0:0:0:0:
64,192,186209,1,0,0:0:0:0:
320,192,186209,1,0,0:0:0:0:
192,192,186209,128,0,186349:0:0:0:0:
448,192,186349,1,0,0:0:0:0:
64,192,186349,1,0,0:0:0:0:
320,192,186349,128,0,186628:0:0:0:0:
192,192,186628,1,0,0:0:0:0:
64,192,186628,1,0,0:0:0:0:
320,192,186698,1,0,0:0:0:0:
320,192,186768,128,0,187047:0:0:0:0:
64,192,186768,128,0,187047:0:0:0:0:
448,192,186768,128,0,186977:0:0:0:0:
192,192,187047,1,0,0:0:0:0:
448,192,187047,1,0,0:0:0:0:
64,192,187116,1,0,0:0:0:0:
64,192,187186,128,0,187465:0:0:0:0:
192,192,187186,128,0,187396:0:0:0:0:
320,192,187186,128,0,187396:0:0:0:0:
192,192,187465,1,0,0:0:0:0:
320,192,187465,1,0,0:0:0:0:
448,192,187535,1,0,0:0:0:0:
448,192,187605,1,0,0:0:0:0:
64,192,187605,128,0,187744:0:0:0:0:
320,192,187605,128,0,187675:0:0:0:0:
192,192,187744,128,0,187814:0:0:0:0:
320,192,187744,128,0,187884:0:0:0:0:
192,192,187884,128,0,188023:0:0:0:0:
448,192,187884,128,0,187954:0:0:0:0:
448,192,188023,1,0,0:0:0:0:
320,192,188023,128,0,188093:0:0:0:0:
64,192,188093,1,0,0:0:0:0:
192,192,188093,128,0,188163:0:0:0:0:
320,192,188163,1,0,0:0:0:0:
448,192,188163,128,0,188302:0:0:0:0:
64,192,188163,128,0,188302:0:0:0:0:
320,192,188302,128,0,188442:0:0:0:0:
192,192,188302,128,0,188372:0:0:0:0:
192,192,188442,128,0,188814:0:0:0:0:
64,192,188442,128,0,188907:0:0:0:0:
448,192,188442,128,0,188907:0:0:0:0:
64,192,189000,1,0,0:0:0:0:
448,192,189000,128,0,189140:0:0:0:0:
320,192,189000,128,0,189070:0:0:0:0:
192,192,189140,1,0,0:0:0:0:
320,192,189209,1,0,0:0:0:0:
64,192,189209,1,0,0:0:0:0:
192,192,189279,1,0,0:0:0:0:
448,192,189279,1,0,0:0:0:0:
64,192,189279,1,0,0:0:0:0:
320,192,189419,1,0,0:0:0:0:
64,192,189419,128,0,189558:0:0:0:0:
448,192,189419,128,0,189489:0:0:0:0:
192,192,189628,1,0,0:0:0:0:
448,192,189628,128,0,189768:0:0:0:0:
64,192,189628,128,0,189698:0:0:0:0:
320,192,189837,128,0,189907:0:0:0:0:
448,192,189837,128,0,189907:0:0:0:0:
64,192,189837,128,0,189907:0:0:0:0:
192,192,189977,128,0,190047:0:0:0:0:
320,192,189977,128,0,190047:0:0:0:0:
64,192,190116,1,0,0:0:0:0:
448,192,190116,1,0,0:0:0:0:
448,192,190256,128,0,190326:0:0:0:0:
320,192,190256,128,0,190326:0:0:0:0:
192,192,190326,1,0,0:0:0:0:
448,192,190396,128,0,190465:0:0:0:0:
320,192,190396,128,0,190535:0:0:0:0:
192,192,190535,1,0,0:0:0:0:
64,192,190535,1,0,0:0:0:0:
448,192,190675,1,0,0:0:0:0:
320,192,190675,128,0,190814:0:0:0:0:
64,192,190675,128,0,190814:0:0:0:0:
448,192,190814,128,0,190954:0:0:0:0:
64,192,190954,128,0,191023:0:0:0:0:
192,192,190954,128,0,191023:0:0:0:0:
320,192,190954,128,0,191023:0:0:0:0:
192,192,191093,128,0,191163:0:0:0:0:
448,192,191093,128,0,191163:0:0:0:0:
192,192,191233,1,0,0:0:0:0:
64,192,191233,1,0,0:0:0:0:
320,192,191372,128,0,191442:0:0:0:0:
64,192,191372,128,0,191442:0:0:0:0:
448,192,191442,1,0,0:0:0:0:
64,192,191512,128,0,191582:0:0:0:0:
192,192,191512,128,0,191651:0:0:0:0:
320,192,191651,1,0,0:0:0:0:
448,192,191651,1,0,0:0:0:0:
64,192,191791,128,0,192000:0:0:0:0:
448,192,191826,128,0,192000:0:0:0:0:
192,192,191861,128,0,192000:0:0:0:0:
320,192,191930,128,0,192070:0:0:0:0:
64,192,192070,128,0,192140:0:0:0:0:
192,192,192070,128,0,192140:0:0:0:0:
448,192,192070,128,0,192140:0:0:0:0:
192,192,192209,128,0,192279:0:0:0:0:
320,192,192209,128,0,192279:0:0:0:0:
320,192,192349,1,0,0:0:0:0:
448,192,192349,1,0,0:0:0:0:
64,192,192489,128,0,192558:0:0:0:0:
448,192,192489,128,0,192558:0:0:0:0:
192,192,192558,1,0,0:0:0:0:
320,192,192628,128,0,192768:0:0:0:0:
64,192,192628,128,0,192698:0:0:0:0:
448,192,192768,1,0,0:0:0:0:
192,192,192768,1,0,0:0:0:0:
64,192,192907,1,0,0:0:0:0:
320,192,192907,1,0,0:0:0:0:
448,192,192907,1,0,0:0:0:0:
192,192,193000,1,0,0:0:0:0:
320,192,193000,1,0,0:0:0:0:
64,192,193093,1,0,0:0:0:0:
192,192,193093,1,0,0:0:0:0:
64,192,193186,1,0,0:0:0:0:
320,192,193186,128,0,193465:0:0:0:0:
448,192,193186,128,0,193396:0:0:0:0:
192,192,193326,1,0,0:0:0:0:
64,192,193396,1,0,0:0:0:0:
192,192,193465,1,0,0:0:0:0:
448,192,193465,1,0,0:0:0:0:
448,192,193605,1,0,0:0:0:0:
64,192,193605,128,0,193884:0:0:0:0:
320,192,193605,128,0,193814:0:0:0:0:
192,192,193744,1,0,0:0:0:0:
448,192,193814,1,0,0:0:0:0:
192,192,193884,1,0,0:0:0:0:
320,192,193884,1,0,0:0:0:0:
448,192,194023,1,0,0:0:0:0:
320,192,194093,1,0,0:0:0:0:
192,192,194163,1,0,0:0:0:0:
64,192,194233,1,0,0:0:0:0:
320,192,194302,1,0,0:0:0:0:
448,192,194302,1,0,0:0:0:0:
192,192,194372,1,0,0:0:0:0:
64,192,194372,1,0,0:0:0:0:
320,192,194442,1,0,0:0:0:0:
448,192,194442,1,0,0:0:0:0:
192,192,194512,1,0,0:0:0:0:
448,192,194582,1,0,0:0:0:0:
64,192,194582,1,0,0:0:0:0:
192,192,194651,1,0,0:0:0:0:
320,192,194651,1,0,0:0:0:0:
448,192,194721,1,0,0:0:0:0:
64,192,194721,1,0,0:0:0:0:
320,192,194791,1,0,0:0:0:0:
64,192,194861,1,0,0:0:0:0:
192,192,194861,1,0,0:0:0:0:
448,192,194930,1,0,0:0:0:0:
320,192,194930,1,0,0:0:0:0:
64,192,195000,1,0,0:0:0:0:
192,192,195000,1,0,0:0:0:0:
320,192,195070,1,0,0:0:0:0:
448,192,195070,1,0,0:0:0:0:
64,192,195140,1,0,0:0:0:0:
64,192,195209,1,0,0:0:0:0:
448,192,195279,1,0,0:0:0:0:
448,192,195349,1,0,0:0:0:0:
64,192,195419,1,0,0:0:0:0:
192,192,195419,1,0,0:0:0:0:
320,192,195489,1,0,0:0:0:0:
448,192,195489,1,0,0:0:0:0:
192,192,195558,1,0,0:0:0:0:
64,192,195558,1,0,0:0:0:0:
320,192,195628,1,0,0:0:0:0:
64,192,195698,1,0,0:0:0:0:
448,192,195698,1,0,0:0:0:0:
192,192,195768,1,0,0:0:0:0:
320,192,195768,1,0,0:0:0:0:
64,192,195837,1,0,0:0:0:0:
448,192,195837,1,0,0:0:0:0:
192,192,195907,1,0,0:0:0:0:
320,192,195977,1,0,0:0:0:0:
448,192,195977,1,0,0:0:0:0:
64,192,196047,1,0,0:0:0:0:
192,192,196047,1,0,0:0:0:0:
320,192,196116,1,0,0:0:0:0:
448,192,196116,1,0,0:0:0:0:
64,192,196186,1,0,0:0:0:0:
192,192,196186,1,0,0:0:0:0:
320,192,196256,128,0,196535:0:0:0:0:
192,192,196396,128,0,196535:0:0:0:0:
64,192,196535,1,0,0:0:0:0:
448,192,196535,128,0,196744:0:0:0:0:
320,192,196605,128,0,196675:0:0:0:0:
192,192,196675,128,0,196814:0:0:0:0:
64,192,196744,128,0,196884:0:0:0:0:
320,192,196744,1,0,0:0:0:0:
448,192,196814,128,0,196884:0:0:0:0:
192,192,196884,128,0,197093:0:0:0:0:
64,192,196954,1,0,0:0:0:0:
448,192,196954,128,0,197163:0:0:0:0:
320,192,197023,128,0,197093:0:0:0:0:
64,192,197093,128,0,197233:0:0:0:0:
192,192,197163,1,0,0:0:0:0:
320,192,197163,128,0,197372:0:0:0:0:
448,192,197233,128,0,197302:0:0:0:0:
64,192,197302,128,0,197372:0:0:0:0:
192,192,197372,128,0,197442:0:0:0:0:
448,192,197372,128,0,197442:0:0:0:0:
64,192,197512,128,0,197651:0:0:0:0:
192,192,197512,128,0,197651:0:0:0:0:
448,192,197651,1,0,0:0:0:0:
320,192,197686,1,0,0:0:0:0:
192,192,197721,1,0,0:0:0:0:
64,192,197756,1,0,0:0:0:0:
320,192,197791,1,0,0:0:0:0:
448,192,197826,1,0,0:0:0:0:
64,192,197861,1,0,0:0:0:0:
192,192,197896,1,0,0:0:0:0:
320,192,197930,1,0,0:0:0:0:
448,192,197965,1,0,0:0:0:0:
64,192,198000,1,0,0:0:0:0:
192,192,198035,1,0,0:0:0:0:
320,192,198070,1,0,0:0:0:0:
448,192,198105,1,0,0:0:0:0:
64,192,198140,1,0,0:0:0:0:
192,192,198175,1,0,0:0:0:0:
448,192,198209,1,0,0:0:0:0:
320,192,198209,128,0,198628:0:0:0:0:
192,192,198349,128,0,198558:0:0:0:0:
448,192,198489,128,0,198628:0:0:0:0:
64,192,198489,128,0,198628:0:0:0:0:
192,192,198628,1,0,0:0:0:0:
320,192,198768,5,0,0:0:0:0:
448,192,198768,1,0,0:0:0:0:
192,192,198768,1,0,0:0:0:0:
64,192,198768,128,0,199047:0:0:0:0:
448,192,198907,1,0,0:0:0:0:
320,192,198907,128,0,199186:0:0:0:0:
192,192,199047,128,0,199326:0:0:0:0:
64,192,199186,128,0,199605:0:0:0:0:
320,192,199326,1,0,0:0:0:0:
448,192,199465,1,0,0:0:0:0:
192,192,199605,1,0,0:0:0:0:
320,192,199605,128,0,199744:0:0:0:0:
192,192,199744,1,0,0:0:0:0:
448,192,199744,128,0,199954:0:0:0:0:
64,192,199884,1,0,0:0:0:0:
448,192,200023,1,0,0:0:0:0:
320,192,200163,1,0,0:0:0:0:
448,192,200302,1,0,0:0:0:0:
64,192,200442,1,0,0:0:0:0:
192,192,200582,1,0,0:0:0:0:
64,192,200721,1,0,0:0:0:0:
448,192,200861,128,0,201279:0:0:0:0:
320,192,200861,1,0,0:0:0:0:
64,192,201000,1,0,0:0:0:0:
192,192,201140,1,0,0:0:0:0:
320,192,201279,1,0,0:0:0:0:
448,192,201419,1,0,0:0:0:0:
320,192,201558,1,0,0:0:0:0:
448,192,201698,1,0,0:0:0:0:
64,192,201768,1,0,0:0:0:0:
192,192,201837,1,0,0:0:0:0:
192,192,201977,128,0,202256:0:0:0:0:
448,192,201977,1,0,0:0:0:0:
320,192,202116,1,0,0:0:0:0:
64,192,202256,1,0,0:0:0:0:
192,192,202396,1,0,0:0:0:0:
320,192,202535,1,0,0:0:0:0:
192,192,202675,1,0,0:0:0:0:
320,192,202744,1,0,0:0:0:0:
448,192,202814,1,0,0:0:0:0:
64,192,202814,128,0,203093:0:0:0:0:
192,192,202954,128,0,203093:0:0:0:0:
448,192,203093,128,0,208814:0:0:0:0:
