osu file format v14

[General]
AudioFilename: audio.mp3
AudioLeadIn: 0
PreviewTime: 36990
Countdown: 1
SampleSet: Soft
StackLeniency: 0.7
Mode: 0
LetterboxInBreaks: 0
WidescreenStoryboard: 0

[Editor]
Bookmarks: 37333,79847
DistanceSpacing: 1
BeatDivisor: 4
GridSize: 32
TimelineZoom: 1.8

[Metadata]
Title:Escape
TitleUnicode:Escape
Artist:Jaroslav Beck (ft. Summer Haze)
ArtistUnicode:Jaroslav Beck (ft. Summer Haze)
Creator:Jeempje
Version:Expert
Source:Beat Saber
Tags:official electronic video game escape Jaroslav Beck soundtrack short ver
BeatmapID:2113670
BeatmapSetID:1009689

[Difficulty]
HPDrainRate:6
CircleSize:4.2
OverallDifficulty:8.6
ApproachRate:9.5
SliderMultiplier:1.9
SliderTickRate:1

[Events]
//Background and Video events
0,0,"D7WXtxrLBug (1).jpg",0,0
//Break Periods
//Storyboard Layer 0 (Background)
//Storyboard Layer 1 (Fail)
//Storyboard Layer 2 (Pass)
//Storyboard Layer 3 (Foreground)
//Storyboard Layer 4 (Overlay)
//Storyboard Sound Samples

[TimingPoints]
1696,342.857142857143,4,2,1,50,1,0
1696,-83.3333333333333,4,2,1,50,0,0
12667,-142.857142857143,4,2,1,50,0,0
36667,-285.714285714286,4,2,1,50,0,0
37010,-35.7142857142857,4,2,1,50,0,0
37353,-71.4285714285714,4,2,2,50,0,1
45581,-71.4285714285714,4,2,2,50,0,1
45924,-71.4285714285714,4,2,3,50,0,1
46096,-71.4285714285714,4,2,2,50,0,1
48153,-71.4285714285714,4,2,2,5,0,1
48324,-71.4285714285714,4,2,2,50,0,1
56553,-71.4285714285714,4,2,2,50,0,1
56896,-71.4285714285714,4,2,3,50,0,1
57067,-71.4285714285714,4,2,2,50,0,1
59124,-71.4285714285714,4,2,2,5,0,1
59296,-83.3333333333333,4,2,2,50,0,0
59467,-83.3333333333333,4,2,2,5,0,0
59638,-83.3333333333333,4,2,2,50,0,0
60496,-83.3333333333333,4,2,2,5,0,0
60667,-83.3333333333333,4,2,2,50,0,0
61867,-83.3333333333333,4,2,2,5,0,0
62038,-83.3333333333333,4,2,2,50,0,0
62210,-83.3333333333333,4,2,2,5,0,0
62381,-83.3333333333333,4,2,2,50,0,0
63238,-83.3333333333333,4,2,2,5,0,0
63410,-83.3333333333333,4,2,2,50,0,0
63924,-83.3333333333333,4,2,2,5,0,0
64096,-83.3333333333333,4,2,2,50,0,0
64610,-83.3333333333333,4,2,2,5,0,0
64781,-83.3333333333333,4,2,2,50,0,0
64953,-83.3333333333333,4,2,2,5,0,0
65124,-83.3333333333333,4,2,2,50,0,0
65981,-83.3333333333333,4,2,2,5,0,0
66153,-83.3333333333333,4,2,2,50,0,0
67353,-83.3333333333333,4,2,2,5,0,0
67524,-83.3333333333333,4,2,2,50,0,0
67696,-83.3333333333333,4,2,2,5,0,0
67867,-83.3333333333333,4,2,2,50,0,0
68724,-83.3333333333333,4,2,2,5,0,0
68896,-83.3333333333333,4,2,2,50,0,0
70438,-83.3333333333333,4,2,2,5,0,0
70610,-83.3333333333333,4,2,2,50,0,0
72838,-83.3333333333333,4,2,2,5,0,0
73010,-83.3333333333333,4,2,2,50,0,0
73181,-83.3333333333333,4,2,2,5,0,0
73353,-83.3333333333333,4,2,2,50,0,0
74210,-83.3333333333333,4,2,2,5,0,0
74381,-83.3333333333333,4,2,2,50,0,0
74896,-83.3333333333333,4,2,2,5,0,0
75067,-83.3333333333333,4,2,2,50,0,0
75581,-83.3333333333333,4,2,2,5,0,0
75753,-83.3333333333333,4,2,2,50,0,0
75924,-83.3333333333333,4,2,2,5,0,0
76096,-83.3333333333333,4,2,2,50,0,0
76953,-83.3333333333333,4,2,2,5,0,0
77124,-83.3333333333333,4,2,2,50,0,0
78324,-83.3333333333333,4,2,2,5,0,0
78496,-83.3333333333333,4,2,2,50,0,0
78667,-83.3333333333333,4,2,2,5,0,0
78838,-83.3333333333333,4,2,2,50,0,0
79696,-83.3333333333333,4,2,2,5,0,0
79867,-83.3333333333333,4,2,2,50,0,0
80038,-83.3333333333333,4,2,2,45,0,0
80210,-83.3333333333333,4,2,2,40,0,0
80381,-83.3333333333333,4,2,2,35,0,0
80553,-83.3333333333333,4,2,2,30,0,0
80724,-83.3333333333333,4,2,2,25,0,0
80896,-83.3333333333333,4,2,2,20,0,0
81067,-83.3333333333333,4,2,2,15,0,0
81238,-83.3333333333333,4,2,2,10,0,0

[Colours]
Combo1 : 128,255,255
Combo2 : 0,0,128
Combo3 : 128,128,255
Combo4 : 255,128,192

[HitObjects]
36,114,1696,5,0,0:0:0:0:
214,48,1867,1,0,0:0:0:0:
1,173,2038,1,0,0:0:0:0:
168,203,2210,1,0,0:0:0:0:
195,235,2381,2,0,P|228:153|237:92,1,113.999996520996
285,2,2724,2,0,P|307:142|320:275,1,227.999993041992
440,353,3410,5,0,0:0:0:0:
394,222,3581,1,0,0:0:0:0:
490,280,3753,2,0,B|509:114|423:211|443:28,1,227.999993041992
287,293,4438,5,0,0:0:0:0:
77,237,4610,1,0,0:0:0:0:
296,241,4781,1,0,0:0:0:0:
104,110,4953,1,0,0:0:0:0:
29,115,5124,2,0,P|95:59|145:38,1,113.999996520996
212,144,5467,2,0,B|205:122|203:100|233:99|237:107|242:125|230:161|146:214|213:327,1,227.999993041992
296,356,6153,6,0,B|285:318|285:318|334:225,1,113.999996520996
417,159,6495,1,0,0:0:0:0:
380,327,6667,1,0,0:0:0:0:
512,211,6838,1,0,0:0:0:0:
439,82,7181,6,0,B|299:65|381:185|211:152,1,227.999993041992
248,29,7695,1,0,0:0:0:0:
103,125,7867,2,0,P|91:205|84:274,1,113.999996520996
31,329,8210,2,0,B|75:338|122:323|122:323|153:351|153:351|206:334|267:351,1,227.999993041992
273,163,8896,6,0,B|287:96|287:96|274:52,1,113.999996520996
308,284,9238,1,0,0:0:0:0:
339,32,9410,1,0,0:0:0:0:
194,149,9581,1,0,0:0:0:0:
381,222,9924,6,0,B|407:153|329:138|364:33|474:27|503:90|492:117,1,227.999993041992
506,201,10438,1,0,0:0:0:0:
280,120,10610,1,0,0:0:0:0:
442,130,10781,1,0,0:0:0:0:
479,266,10953,2,0,B|399:275|399:275|327:315|327:315|250:320,1,227.999993041992
104,337,11638,2,0,B|78:266|78:266|82:180,1,113.999996520996
162,104,11981,5,0,0:0:0:0:
324,63,12153,1,0,0:0:0:0:
437,204,12324,1,0,0:0:0:0:
275,163,12496,1,0,0:0:0:0:
128,285,12667,2,0,P|173:289|213:274,1,66.4999979705811
206,324,13010,2,0,B|263:301|317:326|317:326|360:295|353:226|353:226,1,199.499993911743
274,229,13696,1,0,0:0:0:0:
428,152,14038,6,0,L|419:228,1,66.4999979705811
420,218,14381,2,0,L|428:152,1,66.4999979705811
413,52,14724,5,0,0:0:0:0:
270,127,14896,1,0,0:0:0:0:
116,144,15067,1,0,0:0:0:0:
259,219,15239,1,0,0:0:0:0:
362,323,15410,2,0,P|314:326|291:336,1,66.4999979705811
271,282,15753,2,0,P|208:302|110:315,1,132.999995941162
66,320,16267,1,0,0:0:0:0:
138,203,16438,1,0,0:0:0:0:
82,43,16781,6,0,L|61:121,1,66.4999979705811
64,107,17124,2,0,L|82:43,1,66.4999979705811
120,163,17467,5,0,0:0:0:0:
220,10,17638,1,0,0:0:0:0:
256,140,17810,1,0,0:0:0:0:
384,213,17981,1,0,0:0:0:0:
468,103,18153,6,0,P|472:159|470:197,1,66.4999979705811
459,267,18496,1,0,0:0:0:0:
453,306,18667,2,0,P|408:316|358:330,1,66.4999979705811
188,300,19010,1,0,0:0:0:0:
194,335,19181,2,0,P|239:345|289:359,1,66.4999979705811
340,380,19524,2,0,P|327:303|308:234,1,132.999995941162
120,189,20210,5,0,0:0:0:0:
268,255,20381,1,0,0:0:0:0:
387,68,20553,1,0,0:0:0:0:
236,129,20724,1,0,0:0:0:0:
111,21,20896,2,0,P|106:64|106:106,1,66.4999979705811
45,113,21238,2,0,P|43:184|35:271,1,132.999995941162
28,345,21753,1,0,0:0:0:0:
49,360,21924,2,0,P|88:350|132:353,1,66.4999979705811
224,308,22267,1,0,0:0:0:0:
422,279,22610,5,0,0:0:0:0:
428,286,22781,1,0,0:0:0:0:
283,110,22953,1,0,0:0:0:0:
279,117,23124,1,0,0:0:0:0:
177,218,23296,2,0,P|233:202|261:197,1,66.4999979705811
242,240,23638,2,0,P|314:226|373:197,1,132.999995941162
424,114,24153,1,0,0:0:0:0:
512,177,24324,2,0,P|509:223|509:272,1,66.4999979705811
512,355,24667,2,0,P|459:346|360:345,1,132.999995941162
158,320,25353,5,0,0:0:0:0:
143,331,25524,1,0,0:0:0:0:
73,169,25696,1,0,0:0:0:0:
57,170,25867,1,0,0:0:0:0:
208,42,26038,1,0,0:0:0:0:
204,28,26210,1,0,0:0:0:0:
182,217,26381,2,0,P|146:164|126:142,1,66.4999979705811
223,183,26724,2,0,P|256:218|308:285,1,132.999995941162
339,157,27238,1,0,0:0:0:0:
300,124,27410,2,0,P|356:131|392:143,1,66.4999979705811
466,114,27753,2,0,P|394:90|317:73,1,132.999995941162
239,186,28267,5,0,0:0:0:0:
198,14,28438,1,0,0:0:0:0:
57,92,28610,1,0,0:0:0:0:
238,77,28781,1,0,0:0:0:0:
170,241,28953,1,0,0:0:0:0:
301,136,29124,2,0,P|344:144|389:154,1,66.4999979705811
446,192,29467,1,0,0:0:0:0:
483,187,29638,2,0,P|475:256|454:339,1,132.999995941162
367,346,30153,2,0,B|271:324|303:367|177:344,1,132.999995941162
133,264,30838,5,0,0:0:0:0:
165,237,31010,1,0,0:0:0:0:
218,58,31181,1,0,0:0:0:0:
191,25,31353,1,0,0:0:0:0:
32,161,31524,2,0,P|75:166|127:171,1,66.4999979705811
114,127,31867,2,0,P|182:128|252:133,1,132.999995941162
336,79,32896,5,2,0:0:0:0:
385,23,33238,2,2,P|378:101|372:174,1,132.999995941162
403,141,33753,1,2,0:0:0:0:
462,265,34096,5,0,0:0:0:0:
168,197,34267,1,2,0:0:0:0:
228,94,34610,5,2,0:0:0:0:
374,235,34781,1,0,0:0:0:0:
334,53,34953,5,2,0:0:0:0:
187,189,35124,1,0,0:0:0:0:
228,94,35296,5,2,0:0:0:0:
374,235,35467,1,0,0:0:0:0:
334,53,35638,5,2,0:0:0:0:
187,189,35809,1,0,0:0:0:0:
228,94,35981,5,2,0:0:0:0:
374,235,36152,1,0,0:0:0:0:
334,53,36324,5,2,0:0:0:0:
187,189,36495,1,0,0:0:0:0:
132,107,36667,6,2,L|119:142,1,33.2499989852906
41,275,37010,2,0,P|175:273|329:257,1,265.999991882324
408,74,37353,5,4,0:0:0:0:
186,173,37524,1,0,0:0:0:0:
120,9,37696,1,8,0:0:0:0:
297,144,37867,1,0,0:0:0:0:
449,56,38038,2,0,P|435:151|426:238,1,132.999995941162
503,278,38381,5,8,0:0:0:0:
128,347,38553,1,0,0:0:0:0:
352,354,38724,6,0,P|347:279|329:198,1,132.999995941162
249,38,39067,1,8,0:0:0:0:
175,242,39238,1,0,0:0:0:0:
342,104,39410,1,0,0:0:0:0:
459,295,39581,1,0,0:0:0:0:
222,111,39753,5,0,0:0:0:0:
155,112,39838,1,0,0:0:0:0:
95,139,39924,1,0,0:0:0:0:
52,188,40010,1,0,0:0:0:0:
31,251,40096,5,4,0:0:0:0:
216,323,40267,1,0,0:0:0:0:
316,141,40438,1,8,0:0:0:0:
200,294,40610,1,0,0:0:0:0:
420,249,40781,2,0,L|263:232,1,132.999995941162
97,136,41124,5,8,0:0:0:0:
434,55,41296,1,0,0:0:0:0:
245,13,41467,6,0,P|255:90|265:166,1,132.999995941162
194,311,41810,1,8,0:0:0:0:
147,67,41981,1,0,0:0:0:0:
332,204,42153,1,0,0:0:0:0:
233,233,42324,1,0,0:0:0:0:
71,342,42496,5,8,0:0:0:0:
54,277,42581,1,0,0:0:0:0:
44,211,42667,1,0,0:0:0:0:
42,145,42753,1,0,0:0:0:0:
47,79,42838,5,4,0:0:0:0:
207,49,43010,1,0,0:0:0:0:
386,129,43181,1,8,0:0:0:0:
274,47,43353,1,0,0:0:0:0:
506,28,43524,2,0,P|493:117|482:181,1,132.999995941162
465,330,43867,5,8,0:0:0:0:
172,153,44038,1,0,0:0:0:0:
317,353,44210,6,0,P|320:276|330:177,1,132.999995941162
352,84,44553,1,8,0:0:0:0:
219,293,44724,1,0,0:0:0:0:
211,135,44896,1,0,0:0:0:0:
20,213,45067,1,0,0:0:0:0:
98,11,45238,5,8,0:0:0:0:
94,77,45323,1,0,0:0:0:0:
93,143,45409,1,0,0:0:0:0:
93,210,45495,1,0,0:0:0:0:
95,276,45581,6,4,B|262:232|173:360|368:319,1,265.999991882324
437,329,46096,1,0,0:0:0:0:
368,244,46267,1,0,0:0:0:0:
288,236,46438,2,0,L|260:170,1,66.4999979705811
169,192,46610,1,8,0:0:0:0:
230,60,46781,1,0,0:0:0:0:
445,50,46953,5,0,0:0:0:0:
445,50,47124,1,0,0:0:0:0:
445,50,47296,1,8,0:0:0:0:
41,51,47638,5,0,0:0:0:0:
330,108,47810,1,0,0:0:0:0:
190,52,47981,2,8,P|179:159|180:219,1,132.999995941162
111,318,48324,5,4,0:0:0:0:
292,208,48496,1,0,0:0:0:0:
388,362,48667,1,8,0:0:0:0:
305,157,48838,1,0,0:0:0:0:
454,281,49010,2,0,P|460:197|459:112,1,132.999995941162
512,42,49353,5,8,0:0:0:0:
256,280,49524,1,0,0:0:0:0:
384,231,49696,6,0,P|349:154|304:99,1,132.999995941162
170,19,50038,1,8,0:0:0:0:
101,218,50210,1,0,0:0:0:0:
208,118,50381,1,0,0:0:0:0:
333,334,50553,1,0,0:0:0:0:
30,334,50724,5,8,0:0:0:0:
96,332,50809,1,0,0:0:0:0:
160,313,50895,1,0,0:0:0:0:
217,280,50981,1,0,0:0:0:0:
264,234,51066,5,4,0:0:0:0:
415,330,51238,1,0,0:0:0:0:
495,122,51410,1,8,0:0:0:0:
390,251,51581,1,0,0:0:0:0:
360,64,51753,2,0,P|259:73|188:96,1,132.999995941162
39,36,52096,5,8,0:0:0:0:
319,188,52267,1,0,0:0:0:0:
151,16,52438,6,0,P|130:96|119:170,1,132.999995941162
93,312,52781,1,8,0:0:0:0:
43,85,52953,1,0,0:0:0:0:
205,210,53124,1,0,0:0:0:0:
398,186,53296,1,0,0:0:0:0:
505,299,53467,5,8,0:0:0:0:
438,292,53552,1,0,0:0:0:0:
372,289,53638,1,0,0:0:0:0:
305,291,53724,1,0,0:0:0:0:
239,296,53809,5,4,0:0:0:0:
62,226,53981,1,0,0:0:0:0:
343,199,54153,1,8,0:0:0:0:
120,135,54324,1,0,0:0:0:0:
304,35,54496,2,0,P|286:115|276:207,1,132.999995941162
220,320,54838,5,8,0:0:0:0:
443,102,55010,1,0,0:0:0:0:
472,311,55181,6,0,P|375:295|322:294,1,132.999995941162
141,339,55524,1,8,0:0:0:0:
374,251,55696,1,0,0:0:0:0:
174,160,55867,1,0,0:0:0:0:
329,109,56038,1,0,0:0:0:0:
176,34,56210,5,8,0:0:0:0:
116,61,56295,1,0,0:0:0:0:
71,110,56381,1,0,0:0:0:0:
50,173,56467,1,0,0:0:0:0:
54,239,56553,6,4,B|145:247|145:247|212:297|212:297|319:307,1,265.999991882324
456,289,57067,1,0,0:0:0:0:
284,200,57238,1,0,0:0:0:0:
406,174,57410,2,0,L|453:90,1,66.4999979705811
493,27,57581,1,8,0:0:0:0:
328,102,57753,1,0,0:0:0:0:
77,30,57924,5,0,0:0:0:0:
77,30,58096,1,0,0:0:0:0:
77,30,58267,1,8,0:0:0:0:
18,159,58610,5,0,0:0:0:0:
393,262,58781,1,0,0:0:0:0:
131,258,58953,2,8,P|148:200|186:122,1,132.999995941162
293,36,59296,6,4,P|298:86|293:174,1,113.999996520996
236,281,59638,1,8,0:0:0:0:
370,162,59810,1,0,0:0:0:0:
431,300,59981,1,0,0:0:0:0:
409,93,60153,1,0,0:0:0:0:
509,36,60324,2,8,L|481:156,1,113.999996520996
501,296,60667,6,0,L|347:307,1,113.999996520996
284,384,61010,1,8,0:0:0:0:
311,213,61181,1,0,0:0:0:0:
213,300,61353,1,0,0:0:0:0:
93,153,61524,1,0,0:0:0:0:
141,266,61696,2,8,P|170:197|190:136,1,113.999996520996
240,20,62038,6,4,P|314:47|364:94,1,113.999996520996
427,193,62381,1,8,0:0:0:0:
482,72,62553,1,0,0:0:0:0:
512,260,62724,1,0,0:0:0:0:
338,218,62896,1,0,0:0:0:0:
398,341,63067,2,8,P|335:334|239:328,1,113.999996520996
120,344,63410,6,0,L|59:223,1,113.999996520996
198,280,63753,2,8,L|227:137,1,113.999996520996
272,147,64096,1,0,0:0:0:0:
34,163,64267,1,0,0:0:0:0:
160,104,64438,2,8,P|204:57|259:29,1,113.999996520996
403,37,64781,6,4,P|391:120|379:195,1,113.999996520996
370,268,65124,1,8,0:0:0:0:
469,171,65296,1,0,0:0:0:0:
400,354,65467,1,0,0:0:0:0:
270,205,65638,1,0,0:0:0:0:
231,338,65810,2,8,P|121:331|63:332,1,113.999996520996
17,274,66153,2,0,P|88:263|174:263,1,113.999996520996
264,267,66496,5,8,0:0:0:0:
159,138,66667,1,0,0:0:0:0:
47,199,66838,1,0,0:0:0:0:
121,21,67010,1,0,0:0:0:0:
287,203,67181,2,8,P|284:139|291:65,1,113.999996520996
377,16,67524,2,4,P|378:83|372:156,1,113.999996520996
491,225,67867,5,8,0:0:0:0:
364,350,68038,1,0,0:0:0:0:
251,173,68210,1,0,0:0:0:0:
199,361,68381,1,0,0:0:0:0:
347,281,68553,2,8,L|218:226,1,113.999996520996
16,105,68896,5,0,0:0:0:0:
98,277,69067,1,0,0:0:0:0:
184,80,69238,1,8,0:0:0:0:
303,230,69410,1,0,0:0:0:0:
107,162,69581,1,0,0:0:0:0:
308,25,69753,1,0,0:0:0:0:
209,256,69924,1,8,0:0:0:0:
442,176,70096,1,0,0:0:0:0:
355,103,70267,6,4,P|351:163|351:260,1,113.999996520996
306,366,70610,1,8,0:0:0:0:
259,199,70781,1,0,0:0:0:0:
55,306,70953,1,0,0:0:0:0:
136,166,71124,1,0,0:0:0:0:
215,348,71296,1,8,0:0:0:0:
242,128,71467,1,0,0:0:0:0:
358,239,71638,6,0,P|358:146|364:82,1,113.999996520996
317,186,71981,1,8,0:0:0:0:
498,74,72153,1,0,0:0:0:0:
281,98,72324,1,0,0:0:0:0:
482,220,72496,1,0,0:0:0:0:
343,306,72667,2,8,P|267:312|194:327,1,113.999996520996
227,231,73010,6,4,P|180:197|138:159,1,113.999996520996,12|4,0:0|0:0,0:0:0:0:
166,225,73353,1,8,0:0:0:0:
109,34,73524,1,0,0:0:0:0:
34,170,73696,1,0,0:0:0:0:
228,44,73867,1,0,0:0:0:0:
369,129,74038,2,8,P|375:214|387:281,1,113.999996520996
455,347,74381,6,0,L|499:213,1,113.999996520996
318,337,74724,2,0,L|204:350,1,113.999996520996,8|0,0:0|0:0,0:0:0:0:
295,262,75067,1,0,0:0:0:0:
107,151,75238,1,0,0:0:0:0:
175,240,75410,2,8,P|180:159|176:82,1,113.999996520996
262,23,75753,6,4,P|259:102|262:183,1,113.999996520996
292,268,76096,1,8,0:0:0:0:
327,90,76267,1,0,0:0:0:0:
482,276,76438,1,0,0:0:0:0:
275,149,76610,1,0,0:0:0:0:
458,102,76781,2,8,P|442:168|431:241,1,113.999996520996
344,347,77124,2,0,P|312:290|259:254,1,113.999996520996
51,206,77467,5,8,0:0:0:0:
223,340,77638,1,0,0:0:0:0:
223,194,77810,1,0,0:0:0:0:
11,221,77981,1,0,0:0:0:0:
50,82,78153,2,8,P|113:55|192:27,1,113.999996520996
284,72,78496,2,4,P|221:99|142:127,1,113.999996520996
171,225,78838,5,8,0:0:0:0:
324,143,79010,1,0,0:0:0:0:
285,264,79181,1,0,0:0:0:0:
428,68,79353,1,0,0:0:0:0:
478,207,79524,2,8,P|465:293|463:361,1,113.999996520996
327,347,79867,5,0,0:0:0:0:
162,244,80038,1,0,0:0:0:0:
113,354,80210,1,8,0:0:0:0:
246,215,80381,1,0,0:0:0:0:
5,164,80553,2,0,B|57:196|82:266|82:266|82:172|117:97|180:70|180:70|131:109|122:172,1,455.999986083985
