osu file format v14

[General]
AudioFilename: audio.mp3
AudioLeadIn: 0
PreviewTime: 36864
Countdown: 0
SampleSet: Soft
StackLeniency: 0.7
Mode: 3
LetterboxInBreaks: 0
SpecialStyle: 0
WidescreenStoryboard: 0

[Editor]
DistanceSpacing: 1.4
BeatDivisor: 2
GridSize: 8
TimelineZoom: 0.9

[Metadata]
Title:Catch You Catch Me (TV Size)
TitleUnicode:캐치 유 캐치 미 (TV Size)
Artist:Jang Sukhui, Jeong Yeojin
ArtistUnicode:장숙희, 정여진
Creator:Seulgi
Version:Cocoa's 4K NM
Source:카드캡터 체리
Tags:anime pop Hoto Cocoa Lude Interlude- Cardcaptor Sakura Bang Yongseok Bae Sukhyeon Kim Juhee korean opening OP カードキャプターさくら clamp kinomoto
BeatmapID:1086550
BeatmapSetID:511125

[Difficulty]
HPDrainRate:7.5
CircleSize:4
OverallDifficulty:7.5
ApproachRate:5
SliderMultiplier:1.4
SliderTickRate:1

[Events]
//Background and Video events
0,0,"Cardcaptor.Sakura.full.1991054.jpg",0,0
//Break Periods
//Storyboard Layer 0 (Background)
//Storyboard Layer 1 (Fail)
//Storyboard Layer 2 (Pass)
//Storyboard Layer 3 (Foreground)
//Storyboard Layer 4 (Overlay)
//Storyboard Sound Samples

[TimingPoints]
688,441.176470588235,4,2,1,30,1,0
37746,-100,4,2,1,30,0,1
65982,-100,4,2,1,30,0,0

[HitObjects]
448,192,1570,5,0,0:0:0:0:
320,192,2011,1,0,0:0:0:0:
64,192,2452,1,0,0:0:0:70:whistle.wav
448,192,2452,1,0,0:0:0:0:
192,192,3114,1,0,0:0:0:0:
448,192,3335,1,0,0:0:0:70:whistle.wav
64,192,3335,1,0,0:0:0:0:
320,192,3776,1,0,0:0:0:0:
192,192,4217,1,0,0:0:0:70:whistle.wav
448,192,4217,1,0,0:0:0:0:
320,192,4879,1,0,0:0:0:0:
64,192,5099,1,0,0:0:0:70:whistle.wav
192,192,5099,1,0,0:0:0:0:
320,192,5540,1,0,0:0:0:0:
192,192,5761,1,0,0:0:0:70:whistle.wav
448,192,5982,1,0,0:0:0:70:whistle.wav
64,192,6202,1,0,0:0:0:0:
320,192,6423,1,0,0:0:0:0:
64,192,6643,1,0,0:0:0:0:
192,192,6864,1,0,0:0:0:70:whistle.wav
64,192,7085,1,0,0:0:0:0:
320,192,7305,1,0,0:0:0:0:
192,192,7526,1,0,0:0:0:0:
448,192,7746,1,0,0:0:0:70:whistle.wav
64,192,7967,1,0,0:0:0:0:
320,192,8187,1,0,0:0:0:70:whistle.wav
192,192,8408,1,0,0:0:0:0:
448,192,8629,1,0,0:0:0:70:whistle.wav
320,192,8849,1,0,0:0:0:0:
448,192,9070,1,0,0:0:0:70:whistle.wav
64,192,9290,1,0,0:0:0:70:whistle.wav
320,192,9401,1,0,0:0:0:70:whistle.wav
192,192,9511,128,0,11717:0:0:0:70:whistle.wav
64,192,11717,1,0,0:0:0:0:
320,192,11717,128,0,13040:0:0:0:0:
192,192,11937,1,0,0:0:0:0:
448,192,12158,1,0,0:0:0:0:
192,192,12599,1,0,0:0:0:0:
64,192,13040,1,2,0:0:0:0:
448,192,13040,1,0,0:0:0:70:whistle.wav
320,192,13261,1,0,0:0:0:0:
64,192,13482,1,0,0:0:0:0:
192,192,13702,128,0,13923:0:0:0:0:
320,192,14143,128,0,14585:0:0:0:0:
192,192,14585,1,2,0:0:0:0:
64,192,14805,1,2,0:0:0:0:
448,192,14805,1,0,0:0:0:70:whistle.wav
320,192,15026,1,0,0:0:0:0:
320,192,15246,1,0,0:0:0:0:
64,192,15467,128,0,15687:0:0:0:0:
64,192,15908,1,0,0:0:0:0:
192,192,16129,1,0,0:0:0:0:
320,192,16349,1,0,0:0:0:0:
192,192,16570,1,2,0:0:0:0:
448,192,16570,1,0,0:0:0:70:whistle.wav
64,192,16790,1,0,0:0:0:0:
320,192,17011,1,0,0:0:0:0:
320,192,17232,1,0,0:0:0:0:
192,192,17452,1,0,0:0:0:0:
64,192,17673,1,0,0:0:0:0:
192,192,17893,1,0,0:0:0:0:
320,192,18114,1,2,0:0:0:0:
64,192,18335,1,2,0:0:0:0:
448,192,18335,128,0,18776:0:0:0:70:whistle.wav
320,192,18776,128,0,19217:0:0:0:0:
192,192,19217,128,0,19658:0:0:0:0:
64,192,19658,128,0,20099:0:0:0:0:
192,192,20099,1,2,0:0:0:0:
448,192,20099,1,0,0:0:0:70:whistle.wav
320,192,20320,1,0,0:0:0:0:
64,192,20540,1,0,0:0:0:0:
448,192,20761,128,0,20982:0:0:0:0:
320,192,21202,128,0,21643:0:0:0:0:
192,192,21643,1,2,0:0:0:0:
64,192,21864,1,2,0:0:0:0:
448,192,21864,1,0,0:0:0:70:whistle.wav
320,192,22085,1,0,0:0:0:0:
192,192,22305,1,0,0:0:0:0:
320,192,22526,128,0,22746:0:0:0:0:
64,192,22967,1,0,0:0:0:0:
192,192,23187,1,0,0:0:0:0:
320,192,23408,1,0,0:0:0:0:
64,192,23629,1,2,0:0:0:0:
448,192,23629,1,0,0:0:0:70:whistle.wav
448,192,23849,1,0,0:0:0:0:
192,192,24070,1,0,0:0:0:0:
320,192,24290,1,0,0:0:0:0:
64,192,24511,1,0,0:0:0:0:
448,192,24732,1,0,0:0:0:0:
192,192,24952,1,0,0:0:0:0:
320,192,25173,1,2,0:0:0:0:
448,192,25393,1,2,0:0:0:0:
64,192,25393,128,0,25835:0:0:0:70:whistle.wav
192,192,25835,128,0,26055:0:0:0:0:
320,192,26055,128,0,26496:0:0:0:0:
192,192,26496,1,0,0:0:0:70:whistle.wav
64,192,26607,1,0,0:0:0:70:whistle.wav
448,192,26717,128,0,27158:0:0:0:70:whistle.wav
64,192,27158,1,2,0:0:0:0:
192,192,27158,1,0,0:0:0:0:
320,192,27379,1,0,0:0:0:0:
64,192,27599,1,8,0:0:0:0:
448,192,27599,1,0,0:0:0:0:
320,192,27820,1,2,0:0:0:0:
192,192,28040,1,0,0:0:0:0:
320,192,28261,1,0,0:0:0:0:
64,192,28482,1,8,0:0:0:0:
448,192,28482,1,0,0:0:0:0:
320,192,28702,1,0,0:0:0:0:
64,192,28923,1,2,0:0:0:0:
192,192,28923,1,0,0:0:0:0:
320,192,29143,1,0,0:0:0:0:
64,192,29364,1,8,0:0:0:0:
448,192,29364,1,0,0:0:0:0:
192,192,29585,1,2,0:0:0:0:
320,192,29805,1,0,0:0:0:0:
448,192,30026,1,0,0:0:0:0:
64,192,30246,1,8,0:0:0:0:
192,192,30246,1,0,0:0:0:0:
320,192,30467,1,0,0:0:0:0:
64,192,30687,1,2,0:0:0:0:
448,192,30687,1,0,0:0:0:0:
192,192,30908,1,0,0:0:0:0:
320,192,31129,1,8,0:0:0:0:
448,192,31129,1,0,0:0:0:0:
64,192,31349,1,2,0:0:0:0:
320,192,31570,1,0,0:0:0:0:
192,192,31790,1,0,0:0:0:0:
448,192,32011,1,8,0:0:0:0:
64,192,32011,1,0,0:0:0:0:
320,192,32232,1,0,0:0:0:0:
192,192,32452,1,2,0:0:0:0:
64,192,32452,1,0,0:0:0:0:
320,192,32673,1,0,0:0:0:0:
64,192,32893,1,8,0:0:0:0:
448,192,32893,1,0,0:0:0:0:
320,192,33114,1,2,0:0:0:0:
64,192,33335,1,0,0:0:0:0:
192,192,33555,1,0,0:0:0:0:
320,192,33776,1,8,0:0:0:0:
448,192,33776,1,0,0:0:0:0:
448,192,33996,1,8,0:0:0:0:
320,192,33996,1,0,0:0:0:0:
64,192,34217,1,2,0:0:0:0:
192,192,34217,1,4,0:0:0:0:
320,192,34437,1,2,0:0:0:0:
64,192,34658,1,2,0:0:0:0:
448,192,34658,1,0,0:0:0:0:
320,192,34879,1,2,0:0:0:0:
64,192,35099,1,2,0:0:0:0:
448,192,35099,1,0,0:0:0:0:
192,192,35320,1,2,0:0:0:0:
64,192,35540,1,2,0:0:0:0:
448,192,35540,1,0,0:0:0:0:
320,192,35761,1,2,0:0:0:0:
64,192,35982,1,8,0:0:0:0:
192,192,35982,1,0,0:0:0:0:
448,192,36202,1,8,0:0:0:0:
320,192,36202,1,0,0:0:0:0:
448,192,36864,128,0,37085:0:0:0:0:
192,192,37305,128,8,37526:0:0:0:0:
64,192,37526,128,0,38187:0:0:0:0:
320,192,37746,1,4,0:0:0:0:
448,192,37746,1,2,0:0:0:0:
192,192,38187,1,8,0:0:0:0:
448,192,38187,1,0,0:0:0:0:
320,192,38408,1,2,0:0:0:0:
64,192,38629,128,0,38849:0:0:0:0:
320,192,38849,1,0,0:0:0:0:
192,192,39070,128,8,39290:0:0:0:0:
448,192,39070,1,0,0:0:0:0:
320,192,39290,128,0,39952:0:0:0:0:
64,192,39511,1,2,0:0:0:0:
64,192,39952,1,8,0:0:0:0:
448,192,39952,1,0,0:0:0:0:
320,192,40173,1,2,0:0:0:0:
192,192,40393,128,0,40614:0:0:0:0:
320,192,40614,1,2,0:0:0:0:
448,192,40835,128,8,41055:0:0:0:0:
64,192,40835,1,0,0:0:0:0:
320,192,41055,128,0,41717:0:0:0:0:
64,192,41276,1,2,0:0:0:0:
448,192,41717,1,8,0:0:0:0:
192,192,41717,1,0,0:0:0:0:
64,192,41937,1,2,0:0:0:0:
448,192,42158,128,0,42379:0:0:0:0:
192,192,42379,1,0,0:0:0:0:
64,192,42599,128,8,42820:0:0:0:0:
320,192,42599,1,0,0:0:0:0:
192,192,42820,128,0,43482:0:0:0:0:
448,192,43040,1,2,0:0:0:0:
320,192,43261,1,0,0:0:0:0:
64,192,43482,1,8,0:0:0:0:
448,192,43482,1,0,0:0:0:0:
320,192,43702,1,2,0:0:0:0:
192,192,43923,1,0,0:0:0:0:
64,192,44143,1,2,0:0:0:0:
448,192,44364,1,8,0:0:0:0:
320,192,44364,1,0,0:0:0:0:
320,192,44585,1,8,0:0:0:0:
448,192,44585,1,0,0:0:0:0:
192,192,44805,1,4,0:0:0:0:
64,192,44805,1,2,0:0:0:0:
448,192,45246,1,8,0:0:0:0:
192,192,45246,1,0,0:0:0:0:
64,192,45467,1,2,0:0:0:0:
192,192,45687,1,0,0:0:0:0:
320,192,45908,1,0,0:0:0:0:
64,192,46129,1,0,0:0:0:0:
448,192,46129,128,8,46349:0:0:0:0:
320,192,46349,128,0,47011:0:0:0:0:
192,192,46570,1,2,0:0:0:0:
64,192,47011,128,8,47232:0:0:0:0:
448,192,47011,1,0,0:0:0:0:
192,192,47232,128,2,47893:0:0:0:0:
448,192,47452,1,0,0:0:0:0:
320,192,47673,1,2,0:0:0:0:
64,192,47893,1,8,0:0:0:0:
448,192,47893,1,0,0:0:0:0:
192,192,48114,1,0,0:0:0:0:
320,192,48335,128,2,48776:0:0:0:0:
192,192,48776,1,8,0:0:0:0:
448,192,48776,1,0,0:0:0:0:
320,192,48996,1,2,0:0:0:0:
192,192,49217,1,0,0:0:0:0:
64,192,49437,1,0,0:0:0:0:
320,192,49658,1,8,0:0:0:0:
448,192,49658,1,0,0:0:0:0:
192,192,49879,1,0,0:0:0:0:
64,192,50099,1,2,0:0:0:0:
320,192,50320,1,0,0:0:0:0:
192,192,50540,1,8,0:0:0:0:
448,192,50540,1,0,0:0:0:0:
320,192,50761,128,2,51202:0:0:0:0:
192,192,51202,1,2,0:0:0:0:
64,192,51423,1,8,0:0:0:0:
448,192,51423,1,0,0:0:0:0:
64,192,51643,1,8,0:0:0:0:
448,192,51643,1,0,0:0:0:0:
320,192,51864,1,2,0:0:0:0:
192,192,51864,1,0,0:0:0:0:
320,192,52305,1,8,0:0:0:0:
448,192,52305,1,0,0:0:0:0:
64,192,52526,1,2,0:0:0:0:
192,192,52526,1,0,0:0:0:0:
320,192,52967,128,4,54511:0:0:0:0:
448,192,52967,128,2,54511:0:0:0:0:
64,192,54511,1,2,0:0:0:0:
192,192,54732,1,8,0:0:0:0:
320,192,54952,1,8,0:0:0:0:
448,192,55173,1,8,0:0:0:0:
192,192,55393,1,2,0:0:0:0:
64,192,55393,1,4,0:0:0:0:
320,192,55614,1,0,0:0:0:0:
64,192,55835,1,8,0:0:0:0:
448,192,55835,1,0,0:0:0:0:
320,192,56055,1,2,0:0:0:0:
192,192,56276,1,0,0:0:0:0:
448,192,56496,1,0,0:0:0:0:
320,192,56717,1,8,0:0:0:0:
64,192,56717,1,0,0:0:0:0:
192,192,56937,1,0,0:0:0:0:
64,192,57158,1,2,0:0:0:0:
448,192,57158,1,0,0:0:0:0:
320,192,57379,1,0,0:0:0:0:
192,192,57599,1,8,0:0:0:0:
64,192,57599,1,0,0:0:0:0:
320,192,57820,1,2,0:0:0:0:
448,192,58040,1,0,0:0:0:0:
192,192,58261,1,2,0:0:0:0:
320,192,58482,1,8,0:0:0:0:
64,192,58482,1,0,0:0:0:0:
448,192,58702,1,0,0:0:0:0:
192,192,58923,1,2,0:0:0:0:
64,192,58923,1,0,0:0:0:0:
320,192,59143,1,0,0:0:0:0:
64,192,59364,1,8,0:0:0:0:
448,192,59364,1,0,0:0:0:0:
320,192,59585,1,2,0:0:0:0:
192,192,59805,1,0,0:0:0:0:
448,192,60026,1,0,0:0:0:0:
320,192,60246,1,8,0:0:0:0:
64,192,60246,1,0,0:0:0:0:
192,192,60467,1,0,0:0:0:0:
64,192,60687,1,2,0:0:0:0:
448,192,60687,1,0,0:0:0:0:
320,192,60908,1,0,0:0:0:0:
192,192,61129,1,8,0:0:0:0:
64,192,61129,1,0,0:0:0:0:
448,192,61349,1,2,0:0:0:0:
64,192,61570,1,0,0:0:0:0:
192,192,61790,1,2,0:0:0:0:
448,192,62011,1,8,0:0:0:0:
320,192,62011,1,0,0:0:0:0:
192,192,62232,1,0,0:0:0:0:
64,192,62452,1,2,0:0:0:0:
320,192,62452,128,0,62893:0:0:0:0:
192,192,62893,1,2,0:0:0:0:
64,192,62893,1,0,0:0:0:0:
448,192,63114,128,0,63555:0:0:0:0:
64,192,63335,1,2,0:0:0:0:
192,192,63555,1,0,0:0:0:0:
448,192,63776,1,8,0:0:0:0:
320,192,63776,1,0,0:0:0:0:
448,192,63996,1,8,0:0:0:0:
320,192,63996,1,0,0:0:0:0:
192,192,64217,1,2,0:0:0:0:
64,192,64217,1,4,0:0:0:0:
320,192,64658,1,8,0:0:0:0:
448,192,64658,1,2,0:0:0:0:
448,192,65099,1,2,0:0:0:0:
64,192,65099,1,8,0:0:0:0:
320,192,65540,1,8,0:0:0:0:
192,192,65540,1,2,0:0:0:0:
448,192,65982,1,2,0:0:0:0:
64,192,65982,1,4,0:0:0:0:
64,192,67746,1,0,0:0:0:70:whistle.wav
448,192,67746,1,2,0:0:0:0:
320,192,68436,1,0,0:0:0:0:
192,192,68932,1,0,0:0:0:0:
64,192,69401,1,0,0:0:0:0:
448,192,69814,1,0,0:0:0:0:
192,192,70366,128,0,71607:0:0:0:0:
320,192,71827,128,0,75246:0:0:0:70:whistle.wav
