osu file format v14

[General]
AudioFilename: audio.mp3
AudioLeadIn: 0
PreviewTime: 36864
Countdown: 0
SampleSet: Soft
StackLeniency: 0.7
Mode: 3
LetterboxInBreaks: 0
SpecialStyle: 0
WidescreenStoryboard: 0

[Editor]
DistanceSpacing: 1.4
BeatDivisor: 2
GridSize: 8
TimelineZoom: 0.9999999

[Metadata]
Title:Catch You Catch Me (TV Size)
TitleUnicode:캐치 유 캐치 미 (TV Size)
Artist:Jang Sukhui, Jeong Yeojin
ArtistUnicode:장숙희, 정여진
Creator:Seulgi
Version:7K NM
Source:카드캡터 체리
Tags:anime pop Hoto Cocoa Lude Interlude- Cardcaptor Sakura Bang Yongseok Bae Sukhyeon Kim Juhee korean opening OP カードキャプターさくら clamp kinomoto
BeatmapID:1086553
BeatmapSetID:511125

[Difficulty]
HPDrainRate:7.5
CircleSize:7
OverallDifficulty:7
ApproachRate:5
SliderMultiplier:1.4
SliderTickRate:1

[Events]
//Background and Video events
0,0,"Cardcaptor.Sakura.full.1991054.jpg",0,0
//Break Periods
//Storyboard Layer 0 (Background)
//Storyboard Layer 1 (Fail)
//Storyboard Layer 2 (Pass)
//Storyboard Layer 3 (Foreground)
//Storyboard Layer 4 (Overlay)
//Storyboard Sound Samples

[TimingPoints]
688,441.176470588235,4,2,1,30,1,0
37746,-100,4,2,1,30,0,1
65982,-100,4,2,1,30,0,0

[HitObjects]
475,192,1570,128,0,2011:0:0:0:0:
402,192,2011,128,0,2452:0:0:0:0:
109,192,2452,1,0,0:0:0:70:whistle.wav
182,192,2673,1,0,0:0:0:0:
329,192,2893,1,0,0:0:0:0:
256,192,3114,1,0,0:0:0:0:
36,192,3335,1,0,0:0:0:70:whistle.wav
109,192,3555,1,0,0:0:0:0:
402,192,3776,1,0,0:0:0:0:
256,192,3996,1,0,0:0:0:0:
475,192,4217,1,0,0:0:0:70:whistle.wav
36,192,4437,1,0,0:0:0:0:
182,192,4658,1,0,0:0:0:0:
256,192,4879,1,0,0:0:0:0:
402,192,5099,1,0,0:0:0:70:whistle.wav
329,192,5320,1,0,0:0:0:0:
109,192,5540,1,0,0:0:0:0:
36,192,5761,1,0,0:0:0:70:whistle.wav
182,192,5982,128,0,6423:0:0:0:70:whistle.wav
329,192,6423,128,0,6864:0:0:0:0:
475,192,6864,128,0,7305:0:0:0:70:whistle.wav
182,192,7305,1,0,0:0:0:0:
36,192,7305,128,0,7746:0:0:0:0:
256,192,7746,1,0,0:0:0:0:
109,192,7746,128,0,8187:0:0:0:70:whistle.wav
329,192,8187,1,0,0:0:0:0:
182,192,8187,128,0,8629:0:0:0:70:whistle.wav
402,192,8629,1,0,0:0:0:70:whistle.wav
256,192,8629,128,0,9070:0:0:0:0:
329,192,9070,128,0,9511:0:0:0:70:whistle.wav
475,192,9070,128,0,9511:0:0:0:0:
36,192,9511,128,0,11276:0:0:0:70:whistle.wav
182,192,9511,128,0,11276:0:0:0:0:
475,192,10173,1,0,0:0:0:0:
402,192,10393,1,0,0:0:0:0:
329,192,10614,1,0,0:0:0:0:
402,192,11055,1,0,0:0:0:0:
475,192,11276,1,0,0:0:0:70:whistle.wav
109,192,11717,1,0,0:0:0:0:
329,192,11717,1,0,0:0:0:0:
256,192,11937,1,0,0:0:0:0:
182,192,12158,1,0,0:0:0:0:
36,192,12599,1,0,0:0:0:0:
256,192,13040,1,2,0:0:0:0:
402,192,13040,1,0,0:0:0:70:whistle.wav
329,192,13261,1,0,0:0:0:0:
109,192,13482,1,0,0:0:0:0:
182,192,13702,1,0,0:0:0:0:
475,192,13923,1,0,0:0:0:0:
329,192,14143,128,0,14585:0:0:0:0:
109,192,14585,1,2,0:0:0:0:
256,192,14805,1,2,0:0:0:0:
475,192,14805,1,0,0:0:0:70:whistle.wav
182,192,15026,1,0,0:0:0:0:
109,192,15246,1,0,0:0:0:0:
402,192,15467,128,0,15908:0:0:0:0:
36,192,15687,1,0,0:0:0:0:
182,192,15687,1,0,0:0:0:0:
329,192,15908,1,0,0:0:0:0:
256,192,16129,1,0,0:0:0:0:
475,192,16570,1,2,0:0:0:0:
36,192,16570,1,0,0:0:0:70:whistle.wav
256,192,16790,1,0,0:0:0:0:
329,192,17011,1,0,0:0:0:0:
402,192,17232,1,0,0:0:0:0:
475,192,17452,1,0,0:0:0:0:
109,192,17452,1,0,0:0:0:0:
329,192,17673,1,0,0:0:0:0:
182,192,17893,1,0,0:0:0:0:
329,192,18114,1,2,0:0:0:0:
475,192,18335,128,2,18776:0:0:0:0:
36,192,18335,1,0,0:0:0:70:whistle.wav
329,192,18776,128,0,19217:0:0:0:0:
182,192,19217,128,0,19658:0:0:0:0:
475,192,19217,1,0,0:0:0:0:
36,192,19658,128,0,20099:0:0:0:0:
182,192,20099,1,2,0:0:0:0:
402,192,20099,1,0,0:0:0:70:whistle.wav
109,192,20320,1,0,0:0:0:0:
36,192,20540,1,0,0:0:0:0:
182,192,20761,128,0,21202:0:0:0:0:
475,192,20982,1,0,0:0:0:0:
256,192,21202,1,0,0:0:0:0:
182,192,21643,1,2,0:0:0:0:
109,192,21864,1,2,0:0:0:0:
329,192,21864,1,0,0:0:0:70:whistle.wav
402,192,22085,1,0,0:0:0:0:
329,192,22305,1,0,0:0:0:0:
402,192,22526,128,0,22967:0:0:0:0:
36,192,22746,1,0,0:0:0:0:
109,192,22746,1,0,0:0:0:0:
256,192,22967,1,0,0:0:0:0:
329,192,23187,1,0,0:0:0:0:
402,192,23629,1,2,0:0:0:0:
36,192,23629,1,0,0:0:0:70:whistle.wav
402,192,23849,1,0,0:0:0:0:
256,192,24070,1,0,0:0:0:0:
256,192,24290,1,0,0:0:0:0:
109,192,24511,1,0,0:0:0:0:
402,192,24511,1,0,0:0:0:0:
109,192,24732,1,0,0:0:0:0:
256,192,24952,1,0,0:0:0:0:
256,192,25173,128,2,25835:0:0:0:0:
475,192,25173,1,0,0:0:0:0:
36,192,25393,1,2,0:0:0:0:
182,192,26055,1,0,0:0:0:0:
109,192,26276,128,0,26717:0:0:0:0:
402,192,26717,1,0,0:0:0:70:whistle.wav
475,192,26937,128,0,28482:0:0:0:0:
109,192,27158,1,2,0:0:0:0:
109,192,27379,1,0,0:0:0:0:
329,192,27599,1,8,0:0:0:0:
182,192,27599,1,0,0:0:0:0:
256,192,27820,1,2,0:0:0:0:
36,192,28040,1,0,0:0:0:0:
36,192,28261,1,0,0:0:0:0:
402,192,28482,1,8,0:0:0:0:
182,192,28482,1,0,0:0:0:0:
109,192,28702,1,0,0:0:0:0:
475,192,28923,1,2,0:0:0:0:
475,192,29143,1,0,0:0:0:0:
402,192,29364,1,8,0:0:0:0:
109,192,29364,1,0,0:0:0:0:
256,192,29585,1,2,0:0:0:0:
329,192,29805,1,0,0:0:0:0:
329,192,30026,1,0,0:0:0:0:
109,192,30246,1,8,0:0:0:0:
402,192,30246,1,0,0:0:0:0:
182,192,30467,1,0,0:0:0:0:
36,192,30687,1,2,0:0:0:0:
36,192,30908,1,0,0:0:0:0:
256,192,31129,1,8,0:0:0:0:
182,192,31129,1,0,0:0:0:0:
329,192,31349,1,2,0:0:0:0:
109,192,31570,1,0,0:0:0:0:
109,192,31790,1,0,0:0:0:0:
256,192,32011,1,8,0:0:0:0:
329,192,32011,1,0,0:0:0:0:
402,192,32232,1,0,0:0:0:0:
182,192,32452,1,2,0:0:0:0:
182,192,32673,1,0,0:0:0:0:
329,192,32893,1,8,0:0:0:0:
402,192,32893,1,0,0:0:0:0:
475,192,33114,1,2,0:0:0:0:
256,192,33335,1,0,0:0:0:0:
256,192,33555,1,0,0:0:0:0:
182,192,33776,1,8,0:0:0:0:
329,192,33776,1,0,0:0:0:0:
182,192,33996,1,8,0:0:0:0:
329,192,33996,1,0,0:0:0:0:
36,192,34217,128,2,34437:0:0:0:0:
475,192,34217,1,4,0:0:0:0:
182,192,34437,128,2,34658:0:0:0:0:
109,192,34658,128,2,34879:0:0:0:0:
256,192,34879,128,2,35099:0:0:0:0:
475,192,35099,128,2,35320:0:0:0:0:
182,192,35099,1,0,0:0:0:0:
329,192,35320,128,2,35540:0:0:0:0:
402,192,35540,128,2,35761:0:0:0:0:
109,192,35540,1,0,0:0:0:0:
256,192,35761,128,2,35982:0:0:0:0:
36,192,35982,1,8,0:0:0:0:
182,192,35982,1,0,0:0:0:0:
109,192,35982,1,0,0:0:0:0:
329,192,36202,1,8,0:0:0:0:
475,192,36202,1,0,0:0:0:0:
402,192,36202,1,0,0:0:0:0:
402,192,36864,1,0,0:0:0:0:
475,192,36864,1,0,0:0:0:0:
329,192,37305,1,8,0:0:0:0:
402,192,37305,1,0,0:0:0:0:
256,192,37526,1,0,0:0:0:0:
182,192,37526,1,0,0:0:0:0:
36,192,37746,128,6,37967:0:0:0:0:
109,192,37967,128,0,38187:0:0:0:0:
182,192,38187,128,8,38408:0:0:0:0:
329,192,38187,1,0,0:0:0:0:
256,192,38408,128,2,38629:0:0:0:0:
402,192,38629,1,0,0:0:0:0:
475,192,38629,1,0,0:0:0:0:
329,192,39070,1,8,0:0:0:0:
256,192,39070,1,0,0:0:0:0:
182,192,39290,1,0,0:0:0:0:
36,192,39290,1,0,0:0:0:0:
109,192,39511,128,2,39732:0:0:0:0:
182,192,39732,128,0,39952:0:0:0:0:
256,192,39952,128,8,40173:0:0:0:0:
475,192,39952,1,0,0:0:0:0:
329,192,40173,128,2,40393:0:0:0:0:
36,192,40393,1,0,0:0:0:0:
109,192,40393,1,0,0:0:0:0:
329,192,40835,1,8,0:0:0:0:
475,192,40835,1,0,0:0:0:0:
256,192,41055,1,0,0:0:0:0:
402,192,41055,1,0,0:0:0:0:
182,192,41276,128,2,41496:0:0:0:0:
256,192,41496,128,0,41717:0:0:0:0:
329,192,41717,128,8,41937:0:0:0:0:
36,192,41717,1,0,0:0:0:0:
402,192,41937,128,2,42158:0:0:0:0:
182,192,42158,1,0,0:0:0:0:
109,192,42158,1,0,0:0:0:0:
36,192,42599,1,8,0:0:0:0:
329,192,42599,1,0,0:0:0:0:
109,192,42820,1,0,0:0:0:0:
402,192,42820,1,0,0:0:0:0:
256,192,43040,128,2,43261:0:0:0:0:
329,192,43261,128,0,43482:0:0:0:0:
402,192,43482,128,8,43702:0:0:0:0:
109,192,43482,1,0,0:0:0:0:
475,192,43702,128,2,43923:0:0:0:0:
182,192,43702,1,0,0:0:0:0:
36,192,44143,1,2,0:0:0:0:
182,192,44364,1,8,0:0:0:0:
329,192,44364,1,0,0:0:0:0:
182,192,44585,1,8,0:0:0:0:
329,192,44585,1,0,0:0:0:0:
36,192,44805,1,4,0:0:0:0:
475,192,44805,128,2,45246:0:0:0:0:
109,192,45026,1,0,0:0:0:0:
402,192,45246,128,2,45687:0:0:0:0:
182,192,45246,1,8,0:0:0:0:
36,192,45467,1,2,0:0:0:0:
329,192,45687,128,0,46129:0:0:0:0:
36,192,46129,1,8,0:0:0:0:
182,192,46129,1,0,0:0:0:0:
109,192,46349,128,0,47232:0:0:0:0:
256,192,46570,1,2,0:0:0:0:
329,192,47011,1,8,0:0:0:0:
475,192,47011,1,0,0:0:0:0:
402,192,47232,128,2,47893:0:0:0:0:
256,192,47673,1,2,0:0:0:0:
36,192,47893,1,8,0:0:0:0:
182,192,47893,1,0,0:0:0:0:
109,192,48335,128,2,48776:0:0:0:0:
182,192,48776,1,8,0:0:0:0:
402,192,48776,1,0,0:0:0:0:
329,192,48996,1,2,0:0:0:0:
256,192,49217,1,0,0:0:0:0:
402,192,49437,128,0,49879:0:0:0:0:
182,192,49658,1,8,0:0:0:0:
109,192,49658,1,0,0:0:0:0:
329,192,49879,1,0,0:0:0:0:
109,192,50099,1,2,0:0:0:0:
475,192,50099,128,0,50320:0:0:0:0:
402,192,50320,128,0,50540:0:0:0:0:
182,192,50540,128,8,50761:0:0:0:0:
36,192,50540,1,0,0:0:0:0:
256,192,50761,128,2,51202:0:0:0:0:
329,192,51202,1,2,0:0:0:0:
109,192,51423,1,8,0:0:0:0:
402,192,51423,1,0,0:0:0:0:
109,192,51643,1,8,0:0:0:0:
402,192,51643,1,0,0:0:0:0:
256,192,51864,1,2,0:0:0:0:
36,192,51864,1,0,0:0:0:0:
475,192,51864,1,0,0:0:0:0:
109,192,52305,1,8,0:0:0:0:
329,192,52305,1,0,0:0:0:0:
182,192,52526,1,2,0:0:0:0:
402,192,52526,1,0,0:0:0:0:
109,192,52967,128,4,54511:0:0:0:0:
402,192,52967,128,0,54511:0:0:0:0:
256,192,52967,1,2,0:0:0:0:
475,192,54511,128,2,54952:0:0:0:0:
36,192,54511,1,0,0:0:0:0:
182,192,54732,1,8,0:0:0:0:
36,192,54952,1,8,0:0:0:0:
329,192,54952,1,0,0:0:0:0:
182,192,55173,1,8,0:0:0:0:
402,192,55173,1,0,0:0:0:0:
475,192,55393,128,6,55614:0:0:0:0:
402,192,55614,128,0,55835:0:0:0:0:
329,192,55835,128,8,56055:0:0:0:0:
109,192,55835,1,0,0:0:0:0:
256,192,56055,128,2,56276:0:0:0:0:
36,192,56055,1,0,0:0:0:0:
402,192,56276,1,0,0:0:0:0:
475,192,56276,1,0,0:0:0:0:
182,192,56717,1,8,0:0:0:0:
256,192,56717,1,0,0:0:0:0:
109,192,56937,1,0,0:0:0:0:
36,192,56937,1,0,0:0:0:0:
402,192,57158,128,2,57379:0:0:0:0:
329,192,57379,128,0,57599:0:0:0:0:
256,192,57599,128,8,57820:0:0:0:0:
36,192,57599,1,0,0:0:0:0:
182,192,57820,128,2,58040:0:0:0:0:
475,192,57820,1,0,0:0:0:0:
109,192,58261,1,2,0:0:0:0:
475,192,58261,1,0,0:0:0:0:
402,192,58482,1,8,0:0:0:0:
36,192,58482,1,0,0:0:0:0:
256,192,58702,1,0,0:0:0:0:
329,192,58923,128,2,59143:0:0:0:0:
109,192,58923,1,0,0:0:0:0:
256,192,59143,128,0,59364:0:0:0:0:
182,192,59364,128,8,59585:0:0:0:0:
475,192,59364,1,0,0:0:0:0:
109,192,59585,128,2,59805:0:0:0:0:
402,192,59585,1,0,0:0:0:0:
329,192,59805,1,0,0:0:0:0:
475,192,59805,1,0,0:0:0:0:
36,192,60246,1,8,0:0:0:0:
182,192,60246,1,0,0:0:0:0:
329,192,60467,1,0,0:0:0:0:
475,192,60467,1,0,0:0:0:0:
256,192,60687,128,2,60908:0:0:0:0:
182,192,60908,128,0,61129:0:0:0:0:
109,192,61129,128,8,61349:0:0:0:0:
402,192,61129,1,0,0:0:0:0:
36,192,61349,128,2,61570:0:0:0:0:
329,192,61349,1,0,0:0:0:0:
182,192,61790,1,2,0:0:0:0:
329,192,61790,1,0,0:0:0:0:
109,192,62011,1,8,0:0:0:0:
402,192,62011,1,0,0:0:0:0:
256,192,62232,1,0,0:0:0:0:
182,192,62452,128,2,62893:0:0:0:0:
329,192,62893,1,2,0:0:0:0:
182,192,63114,128,0,63555:0:0:0:0:
329,192,63335,1,2,0:0:0:0:
256,192,63555,128,0,64217:0:0:0:0:
402,192,63776,1,8,0:0:0:0:
109,192,63776,1,0,0:0:0:0:
109,192,63996,1,8,0:0:0:0:
402,192,63996,1,0,0:0:0:0:
36,192,64217,1,2,0:0:0:0:
182,192,64217,1,4,0:0:0:0:
329,192,64217,1,0,0:0:0:0:
109,192,64658,1,8,0:0:0:0:
256,192,64658,1,2,0:0:0:0:
402,192,64658,1,0,0:0:0:0:
182,192,65099,1,2,0:0:0:0:
329,192,65099,1,8,0:0:0:0:
475,192,65099,1,0,0:0:0:0:
256,192,65540,1,8,0:0:0:0:
109,192,65540,1,2,0:0:0:0:
402,192,65540,1,0,0:0:0:0:
36,192,65982,128,2,67746:0:0:0:0:
475,192,65982,128,4,67746:0:0:0:0:
256,192,65982,1,0,0:0:0:0:
402,192,67746,1,0,0:0:0:70:whistle.wav
109,192,67746,1,2,0:0:0:0:
256,192,68436,1,0,0:0:0:0:
182,192,68932,1,0,0:0:0:0:
109,192,69401,1,0,0:0:0:0:
402,192,69814,1,0,0:0:0:0:
36,192,70366,128,0,71607:0:0:0:0:
256,192,71827,128,0,75246:0:0:0:70:whistle.wav
