osu file format v14

[General]
AudioFilename: audio.mp3
AudioLeadIn: 0
PreviewTime: 34391
Countdown: 0
SampleSet: Soft
StackLeniency: 0.5
Mode: 0
LetterboxInBreaks: 0
WidescreenStoryboard: 0

[Editor]
DistanceSpacing: 0.3
BeatDivisor: 4
GridSize: 4
TimelineZoom: 1

[Metadata]
Title:Tightrope (feat. Big Boi)
TitleUnicode:Tightrope (feat. Big Boi)
Artist:Janelle Monae
ArtistUnicode:Janelle Monáe
Creator:Fsjallink
Version:"We Call That Classy Brass"
Source:
Tags:english pop hip hop the archandroid suite neo soul rnb r&b rhythm and blues jazz funk Nate Wonder Nathaniel Irvin III Chuck Lightning Charles Joseph II Antwan Patton Janelle Monáe Robinson outkast big boi leftfoot left foot happy feet ending song just dance 3
BeatmapID:3378490
BeatmapSetID:1655137

[Difficulty]
HPDrainRate:5
CircleSize:4
OverallDifficulty:8
ApproachRate:8.7
SliderMultiplier:1.6
SliderTickRate:1

[Events]
//Background and Video events
0,0,"pexels-mnm-zameer-3308588 (2).jpg",0,0
//Break Periods
//Storyboard Layer 0 (Background)
//Storyboard Layer 1 (Fail)
//Storyboard Layer 2 (Pass)
//Storyboard Layer 3 (Foreground)
//Storyboard Layer 4 (Overlay)
//Storyboard Sound Samples

[TimingPoints]
999,357.142857142857,4,2,0,60,1,0
4035,-153.846153846154,4,2,0,60,0,0
5642,-100,4,2,0,60,0,0
12964,-111.111111111111,4,2,0,50,0,0
33320,-133.333333333333,4,2,0,45,0,0
34392,-111.111111111111,4,2,0,60,0,0
35464,-100,4,2,0,60,0,0
42517,-100,4,2,0,20,0,0
42606,-100,4,2,0,60,0,0
45374,-100,4,2,0,20,0,0
45464,-100,4,2,0,60,0,0
53946,-100,4,2,0,20,0,0
54035,-100,4,2,0,60,0,0
56803,-100,4,2,0,20,0,0
56892,-100,4,2,0,60,0,0
57784,-133.333333333333,4,2,0,60,0,0
58498,-100,4,2,0,60,0,0
58856,-111.111111111111,4,2,0,50,0,0
78856,-133.333333333333,4,2,0,45,0,0
80106,-133.333333333333,4,2,0,60,0,0
80641,-111.111111111111,4,2,0,60,0,0
81357,-100,4,2,0,60,0,0
88231,-100,4,2,0,20,0,0
88320,-100,4,2,0,60,0,0
91089,-100,4,2,0,20,0,0
91178,-100,4,2,0,60,0,0
91535,-100,4,2,0,45,0,0
92428,-100,4,2,0,60,0,0
99660,-100,4,2,0,20,0,0
99749,-100,4,2,0,60,0,0
102517,-100,4,2,0,20,0,0
102606,-100,4,2,0,60,0,0
102964,-100,4,2,0,45,0,0
103498,-133.333333333333,4,2,0,60,0,0
104214,-100,4,2,0,60,0,0
104571,-111.111111111111,4,2,0,50,0,0
149928,-100,4,2,0,60,0,0
156803,-100,4,2,0,20,0,0
156892,-100,4,2,0,60,0,0
158321,-133.333333333333,4,2,0,60,0,0
159392,-111.111111111111,4,2,0,60,0,0
159660,-111.111111111111,4,2,0,20,0,0
159749,-111.111111111111,4,2,0,60,0,0
161178,-100,4,2,0,60,0,0
161446,-100,4,2,0,20,0,0
161535,-100,4,2,0,60,0,0
161803,-100,4,2,0,20,0,0
161892,-100,4,2,0,60,0,0
165821,-133.333333333333,4,2,0,45,0,0
168231,-133.333333333333,4,2,0,20,0,0
168321,-133.333333333333,4,2,0,45,0,0
170464,-133.333333333333,4,2,0,50,0,0
170999,-100,4,2,0,55,0,0
172071,-100,4,2,0,60,0,0
172784,-100,4,2,0,60,0,1
182784,-100,4,2,0,60,0,0
184213,-100,4,2,0,60,0,1
195641,-100,4,2,0,60,0,0
195999,-100,4,2,0,50,0,0
197071,-133.333333333333,4,2,0,50,0,0
198678,-133.333333333333,4,2,0,20,0,0
198767,-133.333333333333,4,2,0,50,0,0
209749,-133.333333333333,4,2,0,60,0,0
210128,-133.333333333333,4,2,1,10,0,0
210285,-133.333333333333,4,2,0,60,0,0
210464,-111.111111111111,4,2,0,65,0,0
210842,-111.111111111111,4,2,1,10,0,0
210999,-111.111111111111,4,2,0,60,0,0
211178,-111.111111111111,4,2,0,65,0,0
211356,-133.333333333333,4,2,0,65,0,0
211735,-133.333333333333,4,2,1,10,0,0
211892,-133.333333333333,4,2,0,60,0,0
212606,-83.3333333333333,4,2,0,70,0,0
212985,-83.3333333333333,4,2,1,20,0,0
213142,-83.3333333333333,4,2,0,60,0,0
213321,-133.333333333333,4,2,0,45,0,0
217428,-133.333333333333,4,2,0,45,0,0
218499,-111.111111111111,4,2,0,55,0,0
227785,-133.333333333333,4,2,0,55,0,0
229928,-100,4,2,0,55,0,0
230999,-111.111111111111,4,2,0,55,0,0
241356,-111.111111111111,4,2,0,60,0,0
241892,-100,4,2,0,60,0,0
254214,-100,4,2,0,50,0,0
255642,-100,4,2,0,40,0,0
257071,-100,4,2,0,30,0,0
258499,-100,4,2,0,20,0,0
259928,-100,4,2,0,10,0,0
261356,-100,4,2,0,5,0,0

[Colours]
Combo1 : 17,254,176
Combo2 : 173,255,95
Combo3 : 255,88,100
Combo4 : 255,94,55

[HitObjects]
256,56,999,5,8,0:0:0:0:
256,56,1357,2,0,P|320:56|360:144,1,160,0|8,1:0|0:1,0:0:0:0:
320,200,1892,2,0,L|328:280,1,80,0|0,1:0|0:0,0:0:0:0:
336,368,2249,1,0,1:0:0:0:
464,328,2428,1,8,0:1:0:0:
464,328,2607,1,0,1:0:0:0:
423,147,2785,6,0,P|399:195|343:203,1,80,0|0,1:0|0:0,0:0:0:0:
320,200,3053,1,2,0:0:0:0:
80,216,3321,2,0,P|88:312|160:344,1,160,2|0,1:2|1:0,0:0:0:0:
248,368,3857,1,8,0:1:0:0:
248,368,4035,6,2,B|224:256|248:168|288:216|296:88|261:7,1,363.999983337403,6|8,1:0|0:1,1:0:0:0:
263,12,5464,1,0,1:0:0:0:
161,52,5641,1,0,1:0:0:0:
161,52,5820,1,0,0:0:0:0:
376,47,5998,2,0,P|445:38|474:32,1,80,2|0,0:0|1:0,0:0:0:0:
328,176,6356,2,0,P|259:185|230:191,1,80,2|0,0:0|1:0,0:0:0:0:
158,314,6713,5,8,0:1:0:0:
171,196,6891,1,0,1:0:0:0:
96,92,7070,2,0,P|39:110|16:218,1,160,0|8,1:0|0:1,0:0:0:0:
65,358,7606,1,0,1:0:0:0:
65,358,7963,5,0,1:0:0:0:
0,290,8141,1,8,0:1:0:0:
158,314,8320,2,0,P|217:316|246:288,1,80,2|0,1:2|1:0,0:0:0:0:
248,282,8588,2,0,P|237:245|205:191,1,80,2|0,0:0|0:0,0:0:0:0:
185,177,8856,1,8,0:1:0:0:
339,242,9034,1,0,1:0:0:0:
498,219,9213,6,0,P|501:164|500:118,1,80,2|2,0:0|1:2,0:0:0:0:
339,256,9570,2,0,P|336:311|337:357,1,80,8|2,0:1|1:2,0:0:0:0:
414,188,9927,2,0,P|366:145|263:99,1,160,2|8,1:2|0:1,0:0:0:0:
53,83,10463,1,0,1:0:0:0:
53,83,10820,6,0,P|122:76|160:68,1,80,0|8,1:0|0:1,0:0:0:0:
174,214,11177,1,2,1:1:0:0:
274,192,11356,1,0,1:0:0:0:
274,192,11534,2,0,P|281:256|283:285,1,80,0|8,0:0|0:1,0:0:0:0:
257,25,11891,1,0,1:0:0:0:
257,25,12248,5,2,1:0:0:0:
371,95,12427,2,0,P|432:84|468:74,1,80,8|0,0:1|1:0,0:0:0:0:
290,155,12784,2,0,P|251:179|249:309,1,160,2|8,0:1|0:0,0:0:0:0:
278,353,13320,1,0,1:0:0:0:
135,311,13498,2,0,P|82:295|35:294,1,71.9999978027344,2|0,0:0|1:0,0:0:0:0:
15,221,13856,1,8,0:0:0:0:
102,210,14034,1,2,1:2:0:0:
102,210,14391,5,2,0:0:0:0:
233,118,14570,2,0,P|226:60|221:25,1,71.9999978027344,8|0,0:0|1:0,0:0:0:0:
222,266,14927,2,0,P|229:324|234:359,1,71.9999978027344,2|0,0:0|1:0,0:0:0:0:
350,174,15284,1,8,0:0:0:0:
441,158,15463,1,2,1:2:0:0:
441,158,15820,5,2,0:0:0:0:
188,189,15998,2,0,P|143:182|91:171,1,71.9999978027344,8|0,0:0|1:0,0:0:0:0:
35,11,16356,5,2,0:0:0:0:
116,101,16534,1,0,1:0:0:0:
233,61,16713,5,8,0:0:0:0:
115,92,16891,1,2,1:2:0:0:
115,92,17248,5,2,0:0:0:0:
208,218,17427,1,8,0:0:0:0:
356,176,17606,1,0,1:0:0:0:
115,92,17784,5,2,0:0:0:0:
270,53,17963,1,0,1:0:0:0:
205,228,18141,5,8,0:0:0:0:
205,228,18320,1,0,1:2:0:0:
363,175,18498,6,0,P|406:223|395:313,1,143.999995605469,2|8,1:2|0:0,0:0:0:0:
358,365,19034,1,0,1:0:0:0:
256,329,19213,2,0,P|206:312|160:303,1,71.9999978027344,2|0,0:0|1:0,0:0:0:0:
38,151,19570,1,8,0:0:0:0:
129,200,19748,1,2,1:2:0:0:
129,200,20106,5,2,0:0:0:0:
248,119,20284,2,0,P|234:69|217:33,1,71.9999978027344,8|0,0:0|1:0,0:0:0:0:
147,6,20641,1,2,0:0:0:0:
321,41,20820,2,0,P|333:97|437:132,1,143.999995605469,2|0,1:2|1:0,0:0:0:0:
334,251,21356,6,0,P|275:260|245:354,1,143.999995605469,2|8,1:2|0:0,0:0:0:0:
242,354,21891,1,0,1:0:0:0:
396,372,22070,2,0,P|444:368|480:362,1,71.9999978027344,2|0,0:0|1:0,0:0:0:0:
478,137,22427,1,8,0:0:0:0:
380,175,22606,2,0,P|330:168|290:156,1,71.9999978027344,2|0,1:2|1:0,1:0:0:0:
220,129,22963,5,2,0:0:0:0:
220,129,23141,1,8,0:0:0:0:
186,205,23320,5,2,1:2:0:0:
186,205,23498,1,2,0:0:0:0:
214,365,23677,1,0,1:0:0:0:
52,315,23856,2,0,P|42:258|35:224,1,71.9999978027344,8|2,0:0|1:2,0:0:0:0:
22,27,24213,6,0,P|45:97|91:164,1,143.999995605469,4|8,0:3|0:0,0:0:0:0:
95,169,24748,1,0,1:0:0:0:
134,284,24927,2,0,P|144:341|151:375,1,71.9999978027344,2|0,0:0|1:0,0:0:0:0:
336,347,25284,1,8,0:0:0:0:
253,257,25463,1,2,1:2:0:0:
253,257,25820,5,2,0:0:0:0:
292,142,25998,2,0,P|309:89|316:48,1,71.9999978027344,8|0,0:0|1:0,0:0:0:0:
471,364,26356,2,0,P|460:329|451:291,1,71.9999978027344,2|0,0:0|1:0,0:0:0:0:
406,197,26713,1,8,0:0:0:0:
448,75,26891,1,2,1:2:0:0:
448,75,27248,5,2,0:0:0:0:
311,289,27427,2,0,P|267:301|212:308,1,71.9999978027344,8|0,0:0|1:0,0:0:0:0:
34,283,27784,5,2,0:0:0:0:
135,296,27963,1,0,1:0:0:0:
101,120,28141,5,8,0:0:0:0:
5,165,28320,1,2,1:2:0:0:
5,165,28677,5,2,0:0:0:0:
187,227,28856,1,8,0:0:0:0:
187,227,29034,1,0,1:0:0:0:
215,18,29213,5,2,0:0:0:0:
197,144,29391,1,0,1:0:0:0:
324,174,29570,5,8,0:0:0:0:
331,44,29748,1,0,1:2:0:0:
451,28,29927,6,0,P|443:96|449:192,1,143.999995605469,2|8,1:2|0:0,0:0:0:0:
470,242,30463,1,0,1:0:0:0:
403,379,30641,2,0,P|389:324|374:289,1,71.9999978027344,2|0,0:0|1:0,0:0:0:0:
197,144,30998,1,8,0:0:0:0:
188,241,31177,1,2,1:2:0:0:
188,241,31534,5,2,0:0:0:0:
292,252,31713,2,0,P|339:242|368:236,1,71.9999978027344,8|0,0:0|1:0,0:0:0:0:
228,333,32070,1,2,0:0:0:0:
120,320,32248,2,0,P|84:314|40:201,1,143.999995605469,2|0,1:2|1:0,0:0:0:0:
135,14,32784,2,0,P|126:83|120:175,1,143.999995605469,2|0,1:2|0:0,0:0:0:0:
39,142,33320,2,0,P|44:78|45:57,1,60.0000022888184,0|2,0:0|0:0,0:0:0:0:
215,17,33677,2,0,P|210:81|210:102,1,60.0000022888184
205,155,34034,1,2,0:0:0:0:
205,155,34391,5,2,0:0:0:0:
116,237,34570,1,2,0:0:0:0:
116,237,34748,1,2,0:0:0:0:
255,335,34927,2,0,P|206:347|163:358,1,71.9999978027344,2|2,0:0|0:0,0:0:0:0:
292,181,35284,1,10,0:0:0:0:
292,181,35642,6,0,P|358:179|410:256,1,160,6|8,1:2|0:1,0:0:0:0:
490,368,36178,2,0,P|491:299|497:200,1,160,2|0,1:2|0:0,0:0:0:0:
481,10,36714,5,8,0:1:0:0:
435,127,36892,1,0,1:0:0:0:
313,52,37071,5,0,1:0:0:0:
437,120,37249,1,2,0:0:0:0:
318,243,37428,5,8,0:1:0:0:
166,162,37606,1,0,1:0:0:0:
309,40,37785,6,0,P|300:97|296:138,1,80,2|0,0:0|1:0,0:0:0:0:
225,350,38142,1,8,0:1:0:0:
22,290,38321,1,2,1:2:0:0:
22,290,38499,6,0,P|106:276|205:262,1,160,2|8,1:2|0:1,0:0:0:0:
478,175,39035,2,0,P|394:189|295:203,1,160,2|0,1:2|1:0,0:0:0:0:
279,292,39571,2,0,P|287:337|291:372,2,80,8|0|0,0:1|1:0|1:0,0:0:0:0:
247,97,40106,1,0,0:0:0:0:
247,97,40285,5,10,0:0:0:0:
164,185,40464,1,0,1:0:0:0:
137,34,40642,5,2,0:0:0:0:
341,227,40821,2,0,B|337:181|340:132|353:161|361:101|349:50,1,160,2|0,1:2|1:2,2:2:0:0:
505,37,41356,2,0,P|458:60|437:86,1,80,2|0,1:2|0:0,0:0:0:0:
281,311,41714,2,0,P|258:264|232:243,1,80,10|0,0:0|1:0,0:0:0:0:
128,207,42071,1,2,0:0:0:0:
15,249,42249,2,0,P|-2:323|16:376,1,120,2|0,1:2|0:0,0:0:0:0:
40,384,42606,2,0,P|100:379|131:376,1,80,2|0,1:2|1:0,0:0:0:0:
201,319,42964,5,2,0:0:0:0:
201,319,43142,1,8,0:0:0:0:
281,336,43321,5,2,1:2:0:0:
281,336,43499,1,2,0:0:0:0:
371,247,43678,6,0,P|433:266|456:377,1,160,2|0,1:2|1:0,0:0:0:0:
276,235,44214,2,0,P|280:181|282:142,1,80,2|0,0:0|0:0,0:0:0:0:
370,83,44571,2,0,P|366:137|364:176,1,80,2|0,0:0|0:0,0:0:0:0:
438,21,44928,1,2,0:0:0:0:
438,21,45106,2,0,P|486:38|488:126,1,120,2|0,0:0|0:0,0:0:0:0:
473,119,45464,2,0,P|468:182|461:283,1,160,2|0,0:0|0:0,0:0:0:0:
372,332,45999,5,10,0:0:0:0:
250,260,46178,1,0,0:0:0:0:
376,233,46356,5,2,0:0:0:0:
174,353,46535,1,8,0:3:0:0:
18,207,46714,2,0,P|19:151|17:106,1,80,10|2,0:2|1:2,0:0:0:0:
207,13,47071,6,2,P|265:6|326:107,1,160,6|8,1:0|0:1,1:0:0:0:
105,201,47606,2,0,P|111:139|196:101,1,160,2|0,1:2|1:0,0:0:0:0:
201,102,48142,1,8,0:1:0:0:
363,115,48321,2,0,P|435:121|472:123,1,80,2|0,1:2|1:2,1:2:0:0:
273,193,48678,2,0,P|196:187|159:185,1,80,2|10,0:0|0:0,0:0:0:0:
348,241,49035,1,0,1:0:0:0:
359,357,49214,5,2,0:0:0:0:
249,315,49392,1,0,1:0:0:0:
461,233,49571,5,8,0:1:0:0:
376,357,49749,1,2,1:2:0:0:
345,52,49928,6,0,P|407:51|457:135,1,160,2|8,1:2|0:1,0:0:0:0:
241,227,50464,2,0,P|178:221|61:208,1,160,2|0,1:2|1:0,0:0:0:0:
57,208,50999,1,8,0:1:0:0:
51,117,51178,2,0,P|114:115|148:105,1,80,2|0,1:2|1:0,0:0:0:0:
235,316,51534,2,0,P|274:307|313:309,1,80,2|10,0:0|0:0,0:0:0:0:
416,312,51891,1,0,1:0:0:0:
416,312,52071,5,2,0:0:0:0:
241,227,52249,2,0,B|196:239|157:243|150:205|94:224|54:242,1,160,2|0,1:2|1:0,0:0:0:0:
33,373,52785,2,0,P|30:327|17:289,1,80,2|0,1:2|0:0,0:0:0:0:
225,61,53142,2,0,P|228:107|241:145,1,80,10|0,0:0|1:0,0:0:0:0:
313,191,53499,1,2,0:0:0:0:
474,147,53678,2,0,P|495:113|461:23,1,120,2|0,1:2|0:0,0:0:0:0:
450,23,54035,2,0,P|400:27|358:31,1,80,2|0,1:2|1:0,0:0:0:0:
313,191,54391,1,0,0:0:0:0:
313,191,54570,6,0,P|316:237|320:280,1,80,10|0,0:0|1:0,0:0:0:0:
408,274,54927,2,0,P|411:320|415:363,1,80,2|0,0:0|1:0,0:0:0:0:
402,185,55284,1,10,0:0:0:0:
402,185,55463,1,0,1:0:0:0:
245,350,55641,2,0,P|193:340|158:337,1,80,2|0,1:2|0:0,0:0:0:0:
12,239,55998,2,0,P|60:247|99:250,1,80,10|0,0:0|0:0,0:0:0:0:
193,169,56356,1,2,0:0:0:0:
193,169,56534,2,0,P|150:167|63:105,1,120,2|0,0:0|0:0,0:0:0:0:
78,124,56891,2,0,P|86:58|83:20,1,80,2|0,0:0|0:0,0:0:0:0:
166,18,57248,5,0,0:0:0:0:
189,22,57427,1,10,0:0:0:0:
212,26,57606,1,0,0:0:0:0:
323,88,57784,6,0,P|257:100|240:107,1,60.0000022888184,2|0,0:0|0:0,0:0:0:0:
397,29,58141,2,0,P|436:25|469:17,1,60.0000022888184,10|0,0:0|0:0,0:0:0:0:
426,144,58498,2,0,P|376:162|361:280,1,160,2|8,1:1|0:0,0:0:0:0:
398,325,59034,1,0,1:0:0:0:
509,250,59213,2,0,P|507:190|505:163,1,71.9999978027344,2|0,0:0|1:0,0:0:0:0:
261,261,59570,1,8,0:0:0:0:
266,352,59748,1,2,1:2:0:0:
266,352,60106,5,2,0:0:0:0:
128,353,60284,2,0,P|63:341|35:326,1,71.9999978027344,8|0,0:0|1:0,0:0:0:0:
265,170,60641,2,0,P|306:180|336:206,1,71.9999978027344,2|0,0:0|1:0,0:0:0:0:
194,305,60998,1,8,0:0:0:0:
32,255,61177,2,0,P|15:211|57:120,1,143.999995605469,2|2,1:2|0:0,0:0:0:0:
284,30,61713,6,0,P|225:50|189:50,1,71.9999978027344,8|0,0:0|1:0,0:0:0:0:
125,40,62070,5,2,0:0:0:0:
170,167,62248,1,0,1:0:0:0:
303,144,62427,5,8,0:0:0:0:
260,295,62606,1,2,1:2:0:0:
260,295,62963,5,2,0:0:0:0:
276,210,63141,1,8,0:0:0:0:
362,230,63320,1,0,1:0:0:0:
233,331,63498,5,2,0:0:0:0:
203,116,63677,1,0,1:0:0:0:
412,126,63856,5,8,0:0:0:0:
340,315,64034,1,0,1:0:0:0:
142,309,64213,6,0,P|132:254|107:160,1,143.999995605469,2|8,1:2|0:0,0:0:0:0:
90,91,64748,1,0,1:0:0:0:
232,303,64927,2,0,P|222:373|221:404,1,71.9999978027344,2|0,0:0|1:0,0:0:0:0:
229,212,65284,1,8,0:0:0:0:
301,254,65463,2,0,P|355:228|459:217,1,143.999995605469,2|2,1:2|0:0,0:0:0:0:
508,68,65998,6,0,P|472:65|437:60,1,71.9999978027344,8|0,0:0|1:0,0:0:0:0:
432,304,66356,5,2,0:0:0:0:
470,142,66534,1,0,1:0:0:0:
512,241,66713,5,8,0:0:0:0:
394,207,66891,1,2,1:2:0:0:
263,201,67070,6,0,P|195:276|213:332,1,143.999995605469,2|10,1:2|0:0,0:0:0:0:
401,361,67606,2,0,P|459:345|486:337,1,71.9999978027344,0|2,1:0|0:0,0:0:0:0:
233,123,67963,2,0,P|198:132|163:142,1,71.9999978027344,0|10,1:0|0:0,0:0:0:0:
319,23,68320,1,2,1:2:0:0:
319,23,68677,5,2,0:0:0:0:
319,23,68856,1,8,0:0:0:0:
232,37,69034,5,2,1:2:0:0:
232,37,69213,1,2,0:0:0:0:
215,213,69391,1,0,1:0:0:0:
312,186,69570,2,0,P|355:174|410:164,1,71.9999978027344,10|4,0:0|0:3,0:0:0:0:
240,301,69927,6,0,P|186:301|128:214,1,143.999995605469,2|8,1:0|0:0,0:0:0:0:
115,159,70463,1,0,1:0:0:0:
288,154,70641,2,0,P|293:202|279:238,1,71.9999978027344,0|0,1:0|0:0,0:0:0:0:
34,300,70998,1,8,0:0:0:0:
118,352,71177,1,2,1:2:0:0:
118,352,71534,5,2,0:0:0:0:
113,151,71713,2,0,P|103:88|93:51,1,71.9999978027344,8|0,0:0|1:0,0:0:0:0:
240,301,72070,2,0,P|250:364|260:401,1,71.9999978027344,2|0,0:0|1:0,0:0:0:0:
363,189,72427,2,0,P|409:181|445:173,1,71.9999978027344,10|0,0:0|1:0,0:0:0:0:
220,220,72784,2,0,P|83:249|49:254,1,143.999995605469,2|8,1:0|0:0,1:0:0:0:
349,191,73320,1,0,1:0:0:0:
248,304,73498,5,2,0:0:0:0:
108,148,73677,1,0,1:0:0:0:
257,29,73856,5,8,0:0:0:0:
245,119,74034,1,2,1:2:0:0:
245,119,74391,5,2,0:0:0:0:
133,57,74570,1,8,0:0:0:0:
133,57,74748,1,0,1:0:0:0:
5,186,74927,5,2,0:0:0:0:
127,139,75106,1,0,1:0:0:0:
241,277,75284,5,2,0:0:0:0:
120,220,75463,1,0,1:0:0:0:
301,180,75641,6,0,P|330:200|348:316,1,143.999995605469,2|8,1:0|0:0,0:0:0:0:
317,365,76177,1,0,1:0:0:0:
436,366,76356,2,0,P|447:321|470:296,1,71.9999978027344,2|0,0:0|1:0,0:0:0:0:
393,70,76713,2,0,P|353:94|319:95,1,71.9999978027344,8|2,0:0|1:2,0:0:0:0:
476,24,77070,1,8,0:3:0:0:
424,149,77248,6,0,P|430:192|436:251,1,71.9999978027344,2|8,0:0|0:0,0:0:0:0:
319,370,77606,1,0,1:0:0:0:
477,284,77784,1,2,0:0:0:0:
342,113,77963,2,0,P|289:113|246:201,1,143.999995605469,2|0,1:2|1:0,0:0:0:0:
159,364,78498,2,0,P|153:276|147:206,1,143.999995605469,2|0,1:0|0:0,0:0:0:0:
33,23,79034,6,0,P|35:58|37:92,1,60.0000022888184,0|2,0:0|0:0,0:0:0:0:
225,196,79391,2,0,P|223:161|221:127,1,60.0000022888184
43,157,79748,1,2,0:0:0:0:
43,157,80106,5,2,0:0:0:0:
225,196,80284,1,2,0:0:0:0:
225,196,80463,1,2,0:0:0:0:
104,255,80641,2,2,P|49:261|13:260,1,71.9999978027344
284,65,80998,1,10,0:0:0:0:
284,65,81357,6,0,P|367:61|452:55,1,160,6|8,1:2|0:1,0:0:0:0:
219,341,81892,2,0,P|136:345|51:351,1,160,2|0,1:2|1:0,0:0:0:0:
28,355,82428,1,8,0:1:0:0:
47,115,82606,2,0,P|51:54|55:17,1,80,2|0,1:2|1:0,0:0:0:0:
184,204,82964,2,0,P|217:153|239:123,1,80,2|8,0:0|0:0,0:0:0:0:
311,107,83321,1,0,1:0:0:0:
427,260,83499,5,2,0:0:0:0:
250,292,83678,1,0,1:0:0:0:
329,216,83856,1,10,0:0:0:0:
217,113,84035,6,0,P|173:126|133:134,1,80,2|0,1:2|1:0,0:0:0:0:
408,367,84392,2,0,P|452:354|492:346,1,80,2|8,0:0|0:0,0:0:0:0:
291,207,84749,2,0,B|252:201|209:202|209:222|159:238|114:223,1,160,2|0,1:2|1:0,0:0:0:0:
58,198,85285,1,8,0:1:0:0:
307,73,85464,2,0,P|348:66|419:56,1,80,2|0,1:2|1:2,0:0:0:0:
258,373,85821,6,2,P|255:333|252:294,1,80,2|10,0:0|0:0,0:0:0:0:
230,41,86178,1,2,1:0:0:0:
480,244,86356,1,2,0:0:0:0:
463,37,86535,2,0,P|371:81|358:132,1,160,2|2,1:2|1:2,0:0:0:0:
312,369,87070,6,0,P|289:318|257:304,1,80,2|0,1:2|0:0,0:0:0:0:
267,118,87427,2,0,P|251:160|196:173,1,80,10|0,0:0|1:0,0:0:0:0:
7,252,87784,1,2,0:0:0:0:
142,243,87963,2,0,P|163:298|128:365,1,120,2|0,0:0|0:0,0:0:0:0:
116,354,88320,2,0,P|70:351|26:349,1,80,2|0,1:2|1:2,0:0:0:0:
116,153,88678,2,0,B|157:137|206:157|203:176|246:176|300:168,1,160,2|0,0:0|1:0,0:0:0:0:
292,168,89214,5,0,0:0:0:0:
275,259,89392,2,0,P|281:306|283:345,1,80,2|8,1:2|0:1,0:0:0:0:
481,150,89749,1,0,1:0:0:0:
454,53,89928,2,0,P|390:57|343:59,1,80,2|0,1:2|0:0,0:0:0:0:
162,90,90285,2,0,P|226:94|273:96,1,80,10|0,0:0|1:0,0:0:0:0:
360,332,90642,1,2,0:0:0:0:
357,256,90821,2,0,P|352:171|346:104,1,120,0|0,1:2|0:0,0:0:0:0:
346,119,91178,6,0,P|280:125|235:214,1,160,2|0,0:0|0:0,0:0:0:0:
239,299,91714,5,2,0:0:0:0:
242,330,91892,1,0,0:0:0:0:
84,381,92071,5,2,0:0:0:0:
104,196,92249,1,2,0:0:0:0:
409,323,92428,2,0,P|479:314|503:314,1,80,8|8,0:0|0:3,0:0:0:0:
342,264,92785,6,0,P|343:167|416:111,1,160,6|8,1:2|0:0,0:0:0:0:
232,333,93321,2,0,P|156:297|141:192,1,160,2|0,1:2|1:0,0:0:0:0:
134,150,93856,1,8,0:1:0:0:
256,19,94035,2,0,P|247:69|237:105,1,80,2|0,1:2|1:0,0:0:0:0:
54,341,94392,2,0,P|45:291|35:255,1,80,2|8,0:0|0:0,0:0:0:0:
15,167,94749,1,2,1:2:0:0:
155,138,94928,5,0,0:0:0:0:
137,345,95106,1,2,1:2:0:0:
31,253,95285,5,8,0:0:0:0:
247,216,95464,1,2,1:2:0:0:
100,25,95642,6,0,P|103:74|117:141,1,80,2|0,1:2|0:0,0:0:0:0:
271,357,95999,1,8,0:1:0:0:
477,261,96178,2,0,P|460:130|448:91,1,160,2|0,1:2|1:0,0:0:0:0:
374,337,96714,1,8,0:1:0:0:
261,358,96892,2,0,P|208:362|170:365,1,80,2|0,1:2|1:0,0:0:0:0:
289,125,97249,2,0,P|342:129|380:132,1,80,2|8,0:0|0:1,0:0:0:0:
365,207,97606,1,0,1:0:0:0:
363,240,97785,1,2,0:0:0:0:
141,277,97964,2,0,P|135:212|225:142,1,160,2|0,1:2|1:0,0:0:0:0:
362,18,98499,6,0,P|308:29|201:39,1,160,2|8,1:2|0:1,0:0:0:0:
118,43,99035,1,0,1:0:0:0:
221,229,99214,1,2,0:0:0:0:
398,105,99392,2,0,P|348:114|323:181,1,120,2|0,1:2|0:0,0:0:0:0:
347,190,99749,2,0,P|358:281|360:293,1,80,2|0,1:2|1:0,0:0:0:0:
483,368,100106,2,0,P|486:315|498:195,1,160,2|0,0:0|1:2,0:0:0:0:
456,123,100642,5,2,0:0:0:0:
470,5,100821,1,0,1:0:0:0:
255,97,100999,5,10,0:0:0:0:
356,109,101178,1,0,1:0:0:0:
247,197,101356,2,0,B|236:244|242:278|261:276|271:313|262:369,1,160,2|10,1:2|0:0,0:0:0:0:
263,375,101892,1,0,1:0:0:0:
413,187,102071,1,2,0:0:0:0:
174,332,102249,2,0,P|131:333|82:279,1,120,2|0,1:2|0:0,0:0:0:0:
94,254,102606,2,0,P|96:182|96:158,1,80,2|0,1:2|1:0,0:0:0:0:
179,119,102963,5,0,0:0:0:0:
177,95,103141,1,8,0:0:0:0:
175,71,103320,1,0,1:0:0:0:
86,71,103498,2,0,P|86:41|89:-2,1,60.0000022888184,2|0,0:0|0:0,0:0:0:0:
3,107,103856,2,0,P|2:146|1:176,1,60.0000022888184,2|0,0:0|0:0,0:0:0:0:
69,349,104214,6,2,P|84:279|176:248,1,160,4|8,0:0|0:0,1:0:0:0:
183,245,104749,1,0,1:0:0:0:
337,264,104928,2,0,P|329:307|324:347,1,71.9999978027344,2|0,0:0|1:0,0:0:0:0:
229,380,105285,2,0,P|237:337|242:297,1,71.9999978027344,8|0,0:0|1:0,0:0:0:0:
264,108,105642,1,0,1:0:0:0:
266,93,105821,1,0,0:0:0:0:
185,71,105999,2,0,P|177:114|172:154,1,71.9999978027344,8|0,0:0|1:0,0:0:0:0:
228,218,106356,6,0,P|276:207|330:198,1,71.9999978027344,2|0,0:0|1:0,0:0:0:0:
446,149,106714,1,8,0:0:0:0:
385,315,106892,1,0,1:0:0:0:
304,176,107071,2,0,P|304:112|299:18,1,143.999995605469,2|8,1:2|0:0,0:0:0:0:
380,19,107606,1,0,1:0:0:0:
229,300,107785,5,2,0:0:0:0:
222,206,107964,1,0,1:0:0:0:
381,227,108142,5,8,0:0:0:0:
292,382,108321,1,0,1:0:0:0:
127,232,108499,6,0,P|116:172|111:148,1,71.9999978027344,2|0,1:2|0:0,0:0:0:0:
86,366,108856,1,8,0:0:0:0:
245,195,109035,1,0,1:0:0:0:
445,306,109214,2,0,P|438:341|431:376,1,71.9999978027344,2|0,0:0|1:0,0:0:0:0:
357,251,109571,2,0,P|360:215|361:180,1,71.9999978027344,8|0,0:0|1:0,0:0:0:0:
499,136,109928,2,0,P|486:74|389:52,1,143.999995605469,6|8,1:2|0:0,0:0:0:0:
342,47,110464,5,0,1:0:0:0:
231,210,110642,2,0,P|234:259|255:296,1,71.9999978027344,2|0,0:0|1:0,0:0:0:0:
452,366,110999,2,0,P|449:317|428:280,1,71.9999978027344,8|0,0:0|1:0,0:0:0:0:
377,241,111356,5,0,1:0:0:0:
231,365,111535,1,0,0:0:0:0:
205,185,111714,1,8,0:0:0:0:
388,255,111892,1,2,1:2:0:0:
411,31,112071,2,0,P|354:37|311:41,1,71.9999978027344,2|0,0:0|1:0,0:0:0:0:
116,198,112428,2,0,P|122:252|123:290,1,71.9999978027344,10|0,0:0|1:0,0:0:0:0:
201,382,112785,2,0,B|187:344|200:301|214:303|222:254|193:211,1,143.999995605469,6|10,1:2|0:0,0:0:0:0:
175,40,113321,5,0,1:0:0:0:
84,57,113499,1,2,0:0:0:0:
102,147,113678,1,0,1:0:0:0:
193,128,113856,1,8,0:0:0:0:
74,47,114035,1,0,1:0:0:0:
13,194,114214,2,0,P|17:240|21:278,1,71.9999978027344,0|0,1:0|0:0,0:0:0:0:
280,342,114571,2,0,P|313:313|325:231,2,95.9999970703126,2|2|2,1:2|0:0|1:2,0:0:0:0:
192,348,115285,2,0,P|144:343|110:341,1,71.9999978027344,8|0,0:0|1:0,0:0:0:0:
156,117,115642,1,4,1:3:0:0:
156,117,116089,6,0,P|229:133|281:138,1,107.999996704102,2|0,0:0|0:0,0:0:0:0:
286,142,116446,1,0,0:0:0:0:
286,142,116535,1,2,0:0:0:0:
392,160,116714,1,8,0:0:0:0:
496,176,116892,1,0,0:0:0:0:
348,252,117071,2,0,P|302:262|246:272,1,71.9999978027344,0|0,1:0|0:0,0:0:0:0:
172,292,117428,1,8,0:0:0:0:
301,350,117606,2,0,P|372:337|426:327,2,107.999996704102,2|2|8,1:2|0:0|0:0,0:0:0:0:
276,353,118321,1,0,1:2:0:0:
256,186,118499,6,0,P|251:120|250:84,1,71.9999978027344,2|0,1:2|0:0,0:0:0:0:
334,82,118856,2,0,P|329:16|328:-20,1,71.9999978027344,10|0,0:0|1:0,0:0:0:0:
410,180,119214,2,0,P|407:215|404:251,1,71.9999978027344,2|0,0:0|1:0,0:0:0:0:
488,284,119571,2,0,P|485:319|482:355,1,71.9999978027344,10|0,0:0|1:0,0:0:0:0:
279,370,119928,5,0,0:0:0:0:
136,308,120106,1,2,0:0:0:0:
264,356,120285,5,8,0:0:0:0:
274,210,120464,2,0,P|284:137|287:74,2,107.999996704102,2|2|10,1:2|0:0|0:0,0:0:0:0:
274,210,121178,1,0,1:0:0:0:
81,243,121356,6,0,P|36:249|-9:255,1,71.9999978027344,0|0,1:0|0:0,0:0:0:0:
160,160,121714,1,10,0:0:0:0:
192,272,121892,1,0,1:0:0:0:
112,352,122071,1,2,0:0:0:0:
112,352,122160,1,0,0:0:0:0:
112,352,122249,1,0,1:0:0:0:
10,172,122428,6,0,P|22:126|52:81,1,71.9999978027344,10|0,0:0|1:0,0:0:0:0:
285,347,122785,2,0,P|238:338|191:311,1,71.9999978027344,2|0,1:2|0:0,0:0:0:0:
257,129,123142,1,10,0:0:0:0:
257,129,123231,1,0,0:0:0:0:
257,129,123321,1,2,1:2:0:0:
424,138,123499,2,0,P|414:190|344:223,2,107.999996704102,2|2|2,0:0|0:0|1:2,0:0:0:0:
407,125,124124,1,0,0:0:0:0:
407,125,124214,1,4,1:3:0:0:
256,192,124392,12,8,126714,0:0:0:0:
204,143,127071,6,0,P|265:130|291:118,1,71.9999978027344,6|0,1:0|0:0,0:0:0:0:
86,127,127428,2,0,P|70:166|79:212,1,71.9999978027344,8|0,0:0|1:0,0:0:0:0:
138,341,127784,5,2,0:0:0:0:
277,299,127964,1,0,1:0:0:0:
146,310,128142,5,8,0:0:0:0:
242,278,128321,1,2,1:2:0:0:
242,278,128678,5,2,0:0:0:0:
408,369,128856,2,0,P|448:361|481:338,1,71.9999978027344,8|0,0:0|1:0,0:0:0:0:
342,64,129214,2,0,P|332:103|338:157,1,71.9999978027344,2|0,0:0|1:0,0:0:0:0:
483,264,129571,2,0,P|493:225|487:171,1,71.9999978027344,10|0,0:0|1:0,0:0:0:0:
238,157,129928,2,0,P|191:168|147:178,1,71.9999978027344,2|0,0:1|1:0,0:0:0:0:
35,25,130285,5,10,0:0:0:0:
21,133,130464,1,0,1:0:0:0:
147,304,130642,5,2,0:0:0:0:
140,182,130821,1,0,1:0:0:0:
36,254,130999,5,10,0:0:0:0:
36,254,131178,1,0,1:0:0:0:
262,237,131356,5,2,0:0:0:0:
145,311,131535,1,0,1:0:0:0:
383,293,131714,5,10,0:0:0:0:
258,232,131892,1,0,1:0:0:0:
501,211,132071,5,2,0:0:0:0:
384,300,132249,1,0,1:0:0:0:
353,26,132428,5,10,0:0:0:0:
372,220,132606,1,2,1:2:0:0:
160,152,132785,6,0,P|238:141|329:162,1,143.999995605469,2|10,1:0|2:0,0:0:0:0:
374,229,133321,1,0,1:0:0:0:
460,151,133499,2,0,P|460:108|468:56,1,71.9999978027344,2|0,0:0|1:0,0:0:0:0:
282,232,133856,1,8,0:0:0:0:
421,345,134035,2,0,P|419:263|349:225,1,143.999995605469,2|2,1:2|0:0,0:0:0:0:
153,62,134571,6,0,P|202:76|248:84,1,71.9999978027344,8|0,0:0|1:0,0:0:0:0:
390,83,134928,1,2,0:0:0:0:
249,165,135106,2,0,B|198:160|172:179|182:188|137:210|82:180,1,143.999995605469,0|0,1:0|1:0,0:0:0:0:
35,371,135642,2,0,P|39:307|116:274,1,143.999995605469,2|8,1:0|0:0,0:0:0:0:
188,270,136178,1,2,1:2:0:0:
137,101,136356,6,0,P|93:116|40:116,1,71.9999978027344,2|0,0:0|1:0,0:0:0:0:
244,17,136714,1,8,0:0:0:0:
251,173,136892,1,2,1:2:0:0:
251,173,137249,5,2,0:0:0:0:
251,173,137428,1,8,0:0:0:0:
341,151,137606,5,2,1:2:0:0:
341,151,137785,1,2,0:0:0:0:
452,277,137964,1,0,1:0:0:0:
452,277,138142,2,0,P|415:262|378:252,1,71.9999978027344,10|0,0:0|1:0,0:0:0:0:
228,83,138499,6,0,P|262:73|295:59,1,71.9999978027344,2|0,1:0|0:0,0:0:0:0:
497,67,138856,1,8,0:0:0:0:
497,67,139035,1,0,1:0:0:0:
378,169,139214,2,0,P|344:155|310:145,2,71.9999978027344,0|0|8,0:0|1:0|0:0,0:0:0:0:
472,164,139749,2,0,B|484:208|462:245|451:232|434:266|458:325,1,143.999995605469,2|0,1:2|1:0,0:0:0:0:
323,375,140285,6,0,P|323:330|316:288,1,71.9999978027344,8|0,0:0|1:0,0:0:0:0:
172,99,140642,2,0,P|172:144|179:186,1,71.9999978027344,2|0,0:0|1:0,0:0:0:0:
309,209,140999,1,8,0:0:0:0:
58,235,141178,2,0,B|99:214|135:236|131:250|182:269|227:236,1,143.999995605469,2|0,1:2|0:0,0:0:0:0:
327,219,141714,5,8,0:0:0:0:
237,350,141892,1,0,1:0:0:0:
81,304,142071,1,2,0:0:0:0:
181,169,142249,1,0,1:0:0:0:
205,262,142428,5,10,0:0:0:0:
205,262,142606,1,0,1:0:0:0:
189,369,142785,5,2,0:0:0:0:
217,142,142964,1,0,1:0:0:0:
391,348,143142,5,10,0:0:0:0:
373,176,143321,1,0,1:0:0:0:
111,324,143499,2,0,P|66:333|12:341,1,71.9999978027344,2|0,0:0|1:0,0:0:0:0:
312,42,143856,2,0,P|276:36|241:28,1,71.9999978027344,10|0,0:0|1:0,0:0:0:0:
500,224,144214,6,0,B|459:215|415:227|429:239|384:263|344:244,1,143.999995605469,6|8,1:0|0:0,0:0:0:0:
106,233,144749,1,0,1:0:0:0:
106,233,144928,2,0,P|103:171|97:136,1,71.9999978027344,2|0,0:0|1:0,0:0:0:0:
62,38,145285,1,8,0:0:0:0:
176,283,145464,2,0,P|231:266|258:172,1,143.999995605469,0|0,1:0|1:0,0:0:0:0:
357,10,145999,5,2,0:0:0:0:
357,10,146178,2,0,P|360:72|366:107,1,71.9999978027344,0|2,1:0|0:0,0:0:0:0:
427,137,146535,1,0,1:0:0:0:
512,104,146714,1,8,0:0:0:0:
512,104,146892,1,0,1:0:0:0:
273,167,147071,6,0,P|216:151|110:157,1,143.999995605469,6|8,1:2|0:0,0:0:0:0:
105,158,147606,1,0,1:0:0:0:
272,76,147785,2,0,P|315:85|350:90,1,71.9999978027344,2|0,0:0|1:0,0:0:0:0:
496,14,148142,1,8,0:0:0:0:
370,183,148321,2,0,P|362:255|357:353,1,143.999995605469,2|2,1:2|0:0,0:0:0:0:
440,357,148856,5,8,0:0:0:0:
440,357,149035,1,2,1:2:0:0:
481,206,149214,5,2,0:0:0:0:
288,327,149392,1,2,0:0:0:0:
456,365,149571,1,10,0:0:0:0:
312,171,149749,1,2,1:2:0:0:
119,260,149928,6,0,P|115:168|106:87,1,160,6|2,1:2|0:0,0:0:0:0:
284,207,150464,2,0,P|275:286|272:366,1,160,2|0,1:2|1:0,0:0:0:0:
197,368,150999,1,2,0:3:0:0:
300,114,151178,2,0,P|347:135|367:186,1,80,2|0,1:2|1:0,0:0:0:0:
125,343,151534,2,0,P|76:337|40:236,1,160,2|0,0:0|1:0,0:0:0:0:
139,77,152070,5,2,0:0:0:0:
200,155,152248,1,0,1:0:0:0:
98,184,152427,1,2,0:3:0:0:
45,106,152606,1,0,1:0:0:0:
277,79,152784,6,0,P|334:74|459:59,1,160,2|8,1:2|0:0,0:0:0:0:
235,305,153320,2,0,P|178:310|53:325,1,160,2|0,1:2|1:0,0:0:0:0:
42,326,153856,1,2,0:0:0:0:
322,331,154035,2,0,P|312:271|283:237,1,80,2|0,1:2|1:2,1:2:0:0:
227,189,154392,1,2,0:0:0:0:
404,384,154571,2,0,P|426:327|418:283,1,80,2|0,0:3|1:0,0:0:0:0:
449,46,154928,1,2,0:0:0:0:
340,91,155106,2,0,P|325:138|406:228,1,160,2|0,1:2|1:2,0:0:0:0:
501,218,155642,1,2,0:0:0:0:
181,202,155999,6,0,P|101:216|77:313,1,160,2|2,0:0|0:0,0:0:0:0:
253,365,156535,2,0,P|256:314|265:237,1,120,2|0,1:2|0:0,0:0:0:0:
273,202,156892,2,0,P|308:238|417:232,1,160,2|2,1:2|0:0,0:0:0:0:
484,165,157428,2,0,P|480:98|477:67,1,80,2|0,0:3|1:0,0:0:0:0:
361,0,157785,2,0,P|362:39|366:79,1,80,2|0,0:0|1:0,0:0:0:0:
369,99,158053,1,0,0:0:0:0:
369,99,158142,1,2,0:0:0:0:
288,163,158321,2,0,B|254:153|229:168|226:181|187:200|151:175,1,120.000004577637,2|0,1:2|0:0,0:0:0:0:
65,30,158856,1,2,0:0:0:0:
65,30,159214,5,2,0:0:0:0:
181,104,159392,2,0,P|107:111|68:113,1,107.999996704102,2|0,0:0|0:0,0:0:0:0:
33,117,159749,2,0,P|36:178|103:231,1,143.999995605469,2|0,1:2|0:0,0:0:0:0:
173,231,160285,1,2,0:0:0:0:
256,203,160464,1,0,1:0:0:0:
340,224,160642,5,2,0:0:0:0:
465,354,160821,1,0,1:0:0:0:
382,382,160999,1,2,0:3:0:0:
468,265,161178,6,0,P|468:193|473:109,1,120,2|0,1:2|0:0,0:0:0:0:
387,36,161535,2,0,P|385:86|384:159,1,120,2|0,0:0|0:0,0:0:0:0:
293,324,161892,2,0,P|296:222|298:79,1,240,2|2,1:2|0:3,0:0:0:0:
221,18,162606,2,0,P|171:18|124:107,1,160,2|2,1:2|0:0,0:0:0:0:
188,363,163142,2,0,P|187:301|189:178,1,160,2|2,0:0|0:3,0:0:0:0:
26,133,163678,1,4,0:3:0:0:
26,133,164035,6,0,P|33:181|85:203,1,80,4|0,0:3|1:0,0:0:0:0:
187,188,164392,2,0,P|227:178|291:196,1,80,2|0,0:0|0:0,0:0:0:0:
152,358,164749,2,0,P|97:373|10:291,1,160,2|0,1:2|1:0,0:0:0:0:
240,276,165285,1,2,0:0:0:0:
240,276,165374,1,0,0:0:0:0:
240,276,165464,6,0,P|241:326|240:371,1,80,2|0,1:2|1:0,0:0:0:0:
329,377,165821,1,2,0:0:0:0:
329,377,165999,2,0,P|380:350|408:344,1,60.0000022888184,2|0,0:3|1:0,0:0:0:0:
503,207,166356,1,2,0:0:0:0:
503,207,166535,2,0,P|462:234|428:244,1,60.0000022888184,0|0,1:0|0:0,0:0:0:0:
259,172,166892,2,0,P|266:94|320:60,2,120.000004577637,2|2|0,1:2|0:0|1:0,0:0:0:0:
275,197,167785,5,2,0:0:0:0:
179,309,167964,2,0,P|183:248|144:212,1,90.0000034332277,2|0,0:0|0:0,0:0:0:0:
128,196,168321,2,0,P|74:209|48:210,1,60.0000022888184,2|0,0:0|0:0,0:0:0:0:
36,280,168678,1,2,0:0:0:0:
8,84,168856,5,2,0:0:0:0:
8,84,169035,1,0,0:0:0:0:
96,100,169214,2,0,P|149:113|180:116,1,60.0000022888184,2|0,0:0|0:0,0:0:0:0:
232,132,169571,1,2,0:0:0:0:
368,24,169749,2,0,P|320:36|240:46,2,120.000004577637,2|0|2,0:0|0:0|0:0,0:0:0:0:
368,24,170821,5,0,1:0:0:0:
368,24,170999,2,0,P|373:88|334:182,1,160,2|2,0:0|0:0,0:0:0:0:
175,134,171535,1,2,0:0:0:0:
276,228,171714,2,0,P|304:268|306:314,1,80,2|0,0:0|0:0,0:0:0:0:
293,95,172071,5,2,0:0:0:0:
231,297,172249,1,0,0:0:0:0:
231,50,172428,5,8,0:0:0:0:
287,339,172606,1,2,0:0:0:0:
506,153,172785,2,4,P|484:75|386:51,1,160,4|8,1:2|0:2,1:2:0:0:
383,42,173321,1,0,1:0:0:0:
302,184,173499,5,2,0:0:0:0:
328,287,173678,1,0,1:0:0:0:
333,154,173856,5,10,0:0:0:0:
302,316,174035,1,2,1:2:0:0:
302,316,174392,5,2,0:0:0:0:
166,342,174571,2,0,P|108:348|60:350,1,80,2|0,0:0|1:0,0:0:0:0:
19,125,174928,1,2,0:0:0:0:
8,249,175106,1,0,1:0:0:0:
140,263,175285,1,8,0:0:0:0:
152,137,175464,1,2,1:2:0:0:
103,8,175642,6,4,P|53:30|24:148,1,160,4|8,1:2|1:2,1:2:0:0:
19,137,176178,1,0,1:0:0:0:
171,276,176356,5,2,0:0:0:0:
264,261,176535,1,0,1:0:0:0:
254,170,176714,1,10,0:0:0:0:
158,182,176892,1,0,1:0:0:0:
465,352,177249,5,2,0:0:0:0:
465,352,177606,1,0,1:0:0:0:
450,99,177785,5,2,0:0:0:0:
292,277,177964,1,0,1:0:0:0:
444,265,178142,5,10,0:0:0:0:
251,100,178321,1,0,1:0:0:0:
128,305,178499,2,0,P|195:324|278:358,1,160,4|8,1:2|0:0,1:0:0:0:
297,370,179035,1,0,1:0:0:0:
355,165,179214,5,2,0:0:0:0:
448,298,179392,1,0,1:0:0:0:
349,288,179571,5,10,0:0:0:0:
476,176,179749,1,0,1:0:0:0:
476,176,180106,6,0,P|469:243|459:353,1,160,2|0,0:0|1:0,0:0:0:0:
332,369,180642,5,2,0:0:0:0:
201,210,180821,1,0,1:0:0:0:
366,98,180999,5,10,0:0:0:0:
192,213,181178,1,0,1:0:0:0:
100,198,181356,6,0,P|53:188|-11:178,1,80,4|0,1:2|0:0,0:0:0:0:
230,38,181714,2,0,P|220:85|210:149,1,80,10|0,0:0|0:0,0:0:0:0:
328,133,182071,5,2,0:0:0:0:
201,210,182249,1,0,1:0:0:0:
282,328,182428,5,10,0:0:0:0:
188,205,182606,1,0,1:0:0:0:
212,111,182785,6,0,P|218:71|227:32,1,80,2|0,1:0|0:0,0:0:0:0:
414,174,183142,2,0,P|453:182|492:189,1,80,10|0,0:1|1:0,0:0:0:0:
213,289,183499,2,0,P|204:328|197:367,1,80,2|0,0:1|1:0,0:0:0:0:
85,236,183856,2,0,P|45:229|6:220,1,80,10|0,0:1|1:0,0:0:0:0:
83,32,184214,5,6,1:0:0:0:
83,32,184303,1,0,0:0:0:0:
83,32,184391,1,2,0:3:0:0:
203,118,184570,1,2,1:1:0:0:
203,118,184659,1,2,0:2:0:0:
425,22,184839,2,0,P|350:37|272:22,1,120,2|0,1:1|1:0,0:0:0:0:
319,260,185285,5,8,0:0:0:0:
210,206,185464,1,0,1:0:0:0:
308,124,185642,1,2,1:1:0:0:
308,124,185731,1,2,0:0:0:0:
418,177,185910,6,0,P|411:240|405:327,1,120,10|0,0:1|1:0,0:0:0:0:
427,313,186267,1,0,0:0:0:0:
430,328,186356,1,2,0:0:0:0:
433,343,186446,1,0,0:0:0:0:
437,358,186535,1,0,1:0:0:0:
501,155,186714,2,0,P|496:87|462:69,1,80,10|0,0:0|1:0,0:0:0:0:
272,0,187071,2,0,P|277:68|311:86,1,80,4|2,1:2|0:1,0:0:0:0:
410,82,187428,5,10,0:1:0:0:
410,82,187517,1,0,0:0:0:0:
410,82,187606,1,0,1:0:0:0:
355,207,187784,1,2,0:1:0:0:
355,207,187873,1,2,0:0:0:0:
201,213,188053,2,0,P|201:289|217:363,1,120,10|0,0:1|1:0,0:0:0:0:
356,356,188499,5,2,1:1:0:0:
356,356,188589,1,2,0:0:0:0:
221,341,188767,2,0,P|176:349|76:356,1,120,10|0,0:1|1:0,0:0:0:0:
85,353,189124,1,0,0:0:0:0:
68,351,189214,1,2,0:0:0:0:
52,348,189303,1,0,0:0:0:0:
36,343,189392,1,0,1:0:0:0:
23,156,189571,1,8,0:0:0:0:
85,246,189749,1,0,1:0:0:0:
191,237,189928,1,0,1:0:0:0:
191,237,190285,5,10,0:1:0:0:
110,60,190464,2,0,P|53:76|29:173,1,160,6|0,1:2|1:0,0:0:0:0:
205,237,190999,2,0,P|211:174|214:128,1,80,8|0,0:0|1:0,0:0:0:0:
129,364,191356,2,0,P|186:353|246:343,1,80,0|0,1:0|0:0,0:0:0:0:
462,304,191714,1,2,0:0:0:0:
366,286,191892,1,0,1:0:0:0:
366,286,192249,5,0,1:0:0:0:
484,208,192428,1,8,0:0:0:0:
484,208,192606,1,0,1:0:0:0:
248,320,192785,2,2,B|214:324|164:325|174:300|121:289|83:300,1,160,6|8,1:0|0:0,1:0:0:0:
216,239,193320,1,0,1:0:0:0:
216,239,193678,6,0,P|220:177|300:125,1,160,2|0,0:0|1:0,0:0:0:0:
278,38,194214,2,0,P|232:44|196:48,2,80,0|8|8,1:0|0:3|0:0,0:0:0:0:
408,31,194749,1,0,1:0:0:0:
408,31,195106,5,2,1:2:0:0:
261,162,195285,1,10,0:0:0:0:
74,105,195464,1,2,1:2:0:0:
265,173,195642,6,0,P|273:217|264:335,1,160,4|2,1:2|0:3,0:0:0:0:
154,381,196178,1,2,1:2:0:0:
40,307,196356,2,0,P|37:262|41:219,2,80,2|0|0,0:0|0:0|0:0,0:0:0:0:
153,365,196892,1,0,0:0:0:0:
266,332,197071,1,2,1:2:0:0:
161,268,197249,2,0,P|148:187|156:125,1,120.000004577637,2|0,0:0|1:0,0:0:0:0:
150,147,197964,6,0,P|107:155|66:155,1,60.0000022888184,0|8,0:0|0:0,0:0:0:0:
259,258,198320,2,0,P|267:301|267:342,1,60.0000022888184,2|0,0:0|1:0,0:0:0:0:
232,68,198766,6,0,P|297:59|342:44,1,90.0000034332277,2|2,0:0|0:0,0:0:0:0:
447,115,199214,2,0,P|394:130|368:143,1,60.0000022888184,2|0,0:0|0:0,0:0:0:0:
346,295,199571,1,0,0:0:0:0:
346,295,199749,1,0,0:0:0:0:
302,167,199928,6,0,P|241:165|172:156,1,120.000004577637,2|0,1:2|0:0,0:0:0:0:
57,82,200464,2,0,P|58:30|56:6,2,60.0000022888184,2|0|0,1:2|0:0|1:0,0:0:0:0:
12,157,200999,1,2,0:0:0:0:
15,188,201178,1,2,1:2:0:0:
116,237,201356,6,0,P|102:287|102:358,1,120.000004577637,0|2,1:0|0:3,0:0:0:0:
261,375,201892,2,0,P|309:368|331:364,2,60.0000022888184,2|0|0,1:2|0:0|0:0,0:0:0:0:
187,310,202428,1,8,0:0:0:0:
219,207,202606,1,0,0:0:0:0:
333,275,202785,2,0,P|392:293|469:292,1,120.000004577637,2|2,1:2|0:0,0:0:0:0:
455,295,203498,6,0,P|455:339|453:372,1,60.0000022888184,2|0,0:0|1:0,0:0:0:0:
481,209,203856,2,0,P|483:171|490:134,1,60.0000022888184,2|0,0:0|1:0,0:0:0:0:
380,121,204214,2,0,P|404:44|404:-4,1,120.000004577637,2|8,1:2|0:0,0:0:0:0:
285,134,204749,1,0,1:0:0:0:
285,134,205106,6,0,L|216:124,1,60.0000022888184,0|2,0:0|0:3,0:0:0:0:
116,109,205464,1,0,0:0:0:0:
135,209,205642,2,0,P|141:247|145:279,2,60.0000022888184,0|0|0,1:0|0:0|0:0,0:0:0:0:
113,102,206178,1,0,1:0:0:0:
113,102,206535,5,0,1:0:0:0:
212,128,206714,2,0,P|267:127|295:117,1,60.0000022888184,10|0,0:0|1:0,0:0:0:0:
471,162,207071,2,0,P|399:174|332:187,1,120.000004577637,0|8,1:0|0:0,0:0:0:0:
289,248,207606,1,0,1:0:0:0:
371,305,207785,2,0,P|374:348|376:377,2,60.0000022888184,2|0|8,0:0|0:0|0:0,0:0:0:0:
441,246,208321,1,0,0:0:0:0:
291,364,208499,1,0,1:0:0:0:
174,356,208678,6,0,P|111:347|40:333,2,120.000004577637,2|0|0,0:0|1:0|1:0,0:0:0:0:
301,363,209571,1,8,0:0:0:0:
428,298,209749,2,0,L|439:118,1,180.000006866455,2|0,1:2|0:0,0:0:0:0:
95,77,210464,2,0,P|205:89|330:96,1,215.999993408203,2|8,1:2|0:0,0:0:0:0:
438,108,211178,1,2,1:2:0:0:
266,185,211356,2,0,P|194:180|75:171,1,180.000006866455,0|0,1:0|1:0,0:0:0:0:
238,370,212249,6,0,P|234:321|233:284,1,60.0000022888184,0|8,1:0|0:0,0:0:0:0:
269,6,212606,2,2,P|265:84|258:298,1,287.999991210938,6|10,1:0|0:0,1:0:0:0:
260,376,213321,1,0,0:0:0:0:
478,221,213499,6,0,P|432:231|416:234,1,60.0000022888184,2|0,0:0|0:0,0:0:0:0:
337,329,213856,2,0,P|366:323|395:316,1,60.0000022888184,10|0,0:0|0:0,0:0:0:0:
491,366,214214,2,0,P|481:320|478:304,1,60.0000022888184,2|0,0:0|0:0,0:0:0:0:
327,193,214571,2,0,P|332:222|339:251,1,60.0000022888184,10|0,0:0|0:0,0:0:0:0:
337,329,214928,1,0,0:0:0:0:
337,329,215106,1,0,0:0:0:0:
412,152,215285,2,0,P|408:99|338:57,2,120.000004577637,10|2|8,0:0|0:0|0:0,0:0:0:0:
275,211,216178,2,0,P|237:204|195:197,1,60.0000022888184,0|2,0:0|0:0,0:0:0:0:
94,109,216535,1,0,0:0:0:0:
94,109,216714,6,0,P|145:103|225:89,1,120.000004577637,10|2,0:0|1:2,0:0:0:0:
60,358,217428,2,0,P|53:287|43:228,1,120.000004577637,10|0,0:0|0:0,0:0:0:0:
38,14,217964,2,0,P|43:62|46:93,1,60.0000022888184,2|8,1:2|0:0,0:0:0:0:
130,172,218321,1,2,1:2:0:0:
130,172,218410,1,2,0:0:0:0:
130,172,218499,6,0,P|127:218|164:315,1,143.999995605469,6|8,0:0|0:0,0:0:0:0:
381,280,219035,1,2,0:0:0:0:
381,280,219392,1,2,0:0:0:0:
310,341,219571,2,0,P|261:351|225:363,1,71.9999978027344,8|0,0:0|0:0,0:0:0:0:
361,182,219928,2,0,P|352:139|347:94,1,71.9999978027344,2|2,0:0|3:0,0:0:0:0:
347,84,220196,1,2,0:3:0:0:
347,84,220285,1,8,0:0:0:0:
402,5,220464,1,2,0:0:0:0:
402,5,220821,5,2,0:0:0:0:
251,98,220999,1,8,0:0:0:0:
141,83,221178,1,2,0:3:0:0:
141,83,221267,1,2,0:3:0:0:
141,83,221356,2,0,P|130:130|131:180,1,71.9999978027344,2|0,0:0|0:0,0:0:0:0:
156,240,221714,1,8,0:0:0:0:
253,222,221892,2,0,P|311:225|357:296,1,143.999995605469,2|2,0:0|0:0,0:0:0:0:
460,371,222428,2,0,P|449:324|450:274,1,71.9999978027344,8|2,0:0|0:0,0:0:0:0:
466,209,222785,5,2,0:3:0:0:
467,191,222874,1,2,0:3:0:0:
468,172,222964,1,2,0:3:0:0:
469,154,223053,1,2,0:3:0:0:
470,136,223142,1,8,0:0:0:0:
376,155,223321,2,0,P|388:93|368:4,1,143.999995605469,2|2,0:0|0:0,0:0:0:0:
272,36,223856,5,8,0:0:0:0:
248,32,223946,1,2,0:3:0:0:
226,30,224035,1,2,0:3:0:0:
204,28,224124,1,2,0:3:0:0:
182,25,224214,2,0,P|133:18|109:14,1,71.9999978027344,2|0,0:0|0:0,0:0:0:0:
11,156,224571,1,8,0:0:0:0:
103,128,224749,6,0,P|158:114|252:118,1,143.999995605469,2|2,0:0|0:0,0:0:0:0:
283,292,225285,1,8,0:0:0:0:
283,292,225464,1,2,0:0:0:0:
336,202,225642,2,0,P|384:200|418:196,2,71.9999978027344,2|0|8,0:0|0:0|0:0,0:0:0:0:
207,217,226178,1,2,0:3:0:0:
207,217,226267,1,2,0:3:0:0:
207,217,226356,6,0,P|159:219|125:223,2,71.9999978027344,2|0|8,0:0|0:0|0:0,0:0:0:0:
284,303,226892,1,0,0:0:0:0:
155,361,227071,2,0,P|114:360|64:261,1,143.999995605469,2|8,0:0|0:0,0:0:0:0:
68,88,227606,1,2,0:0:0:0:
163,139,227785,6,0,P|218:145|239:148,1,60.0000022888184
142,280,228142,2,0,P|146:244|149:214,1,60.0000022888184,8|0,0:0|0:0,0:0:0:0:
233,230,228499,2,0,P|288:236|307:239,1,60.0000022888184
219,367,228856,2,0,P|223:331|226:304,1,60.0000022888184,8|0,0:0|0:0,0:0:0:0:
308,316,229214,2,0,P|363:322|387:326,1,60.0000022888184
479,182,229571,2,0,P|443:177|410:173,1,60.0000022888184,8|8,0:0|1:3,0:0:0:0:
512,264,229928,6,0,P|418:250|342:241,1,160,6|2,0:0|0:0,0:0:0:0:
283,79,230464,1,2,0:0:0:0:
283,79,230821,1,2,0:0:0:0:
262,170,230999,2,0,P|223:186|188:190,1,71.9999978027344,8|0,0:0|0:0,0:0:0:0:
363,22,231356,2,0,P|408:25|456:117,1,143.999995605469,2|8,0:0|0:0,0:0:0:0:
429,275,231892,2,0,P|374:263|353:173,1,143.999995605469,2|8,0:0|0:3,0:0:0:0:
372,104,232428,1,8,0:0:0:0:
372,104,232606,1,8,0:3:0:0:
278,255,232785,6,0,P|236:262|138:305,1,143.999995605469,2|8,0:0|0:0,0:0:0:0:
11,291,233321,1,2,0:0:0:0:
11,291,233678,1,2,0:0:0:0:
85,233,233856,2,0,P|87:192|81:148,1,71.9999978027344,8|0,0:0|0:0,0:0:0:0:
4,4,234214,2,0,P|-1:62|5:164,1,143.999995605469,2|8,0:0|0:0,0:0:0:0:
166,306,234749,2,0,P|171:248|165:146,1,143.999995605469,2|8,0:0|0:3,0:0:0:0:
164,142,235196,1,2,0:3:0:0:
164,142,235285,1,2,0:3:0:0:
8,168,235464,1,8,0:3:0:0:
138,52,235642,6,0,P|196:55|248:147,1,143.999995605469,2|8,0:0|0:0,0:0:0:0:
168,323,236178,2,0,P|85:339|2:353,1,143.999995605469,2|2,0:0|0:0,0:0:0:0:
2,232,236714,1,8,0:0:0:0:
18,239,236803,1,2,0:3:0:0:
35,244,236892,1,2,0:3:0:0:
52,246,236981,1,2,0:3:0:0:
70,247,237071,2,0,P|128:236|157:226,2,71.9999978027344,2|0|8,0:0|0:0|0:0,0:0:0:0:
33,109,237606,2,0,P|25:68|23:59,2,35.9999989013672,8|2|2,0:0|0:3|0:3,0:0:0:0:
113,151,237964,1,8,0:3:0:0:
198,172,238142,2,0,P|256:183|285:193,1,71.9999978027344,8|8,0:0|0:3,0:0:0:0:
483,113,238499,6,0,P|423:133|349:191,1,143.999995605469,2|8,0:0|0:0,0:0:0:0:
334,355,239035,1,2,0:0:0:0:
334,355,239392,2,0,P|326:285|320:258,1,71.9999978027344,2|8,0:0|0:0,0:0:0:0:
309,114,239749,1,2,0:3:0:0:
309,114,239839,1,2,0:3:0:0:
309,114,239928,5,2,0:3:0:0:
406,94,240106,1,8,0:3:0:0:
273,209,240285,1,8,0:0:0:0:
256,202,240374,1,2,0:3:0:0:
238,196,240464,1,10,0:3:0:0:
220,192,240553,1,2,0:3:0:0:
202,190,240642,2,0,P|141:184|116:186,1,71.9999978027344,2|8,0:3|0:3,0:0:0:0:
385,17,240999,2,0,P|437:30|486:31,1,71.9999978027344,8|10,0:0|0:0,0:0:0:0:
286,101,241356,1,4,1:3:0:0:
286,101,241714,5,8,1:2:0:0:
418,300,241892,2,0,P|473:280|495:182,1,160,0|0,1:0|1:0,0:0:0:0:
284,118,242428,2,0,P|285:161|283:204,1,80,8|0,0:0|1:0,0:0:0:0:
194,369,242785,2,0,P|198:294|193:208,1,160,2|8,1:2|0:0,0:0:0:0:
176,41,243321,1,0,1:0:0:0:
176,41,243678,5,2,1:2:0:0:
43,108,243856,1,8,0:0:0:0:
97,3,244035,2,0,P|90:76|100:163,1,160,2|2,1:2|0:0,0:0:0:0:
261,231,244571,2,0,P|310:221|362:216,1,80,8|0,0:0|1:0,0:0:0:0:
152,342,244928,1,0,0:0:0:0:
51,331,245106,1,2,1:2:0:0:
32,229,245285,2,0,P|28:180|25:137,1,80,8|0,0:0|1:0,0:0:0:0:
152,354,245642,1,2,1:2:0:0:
269,349,245820,2,8,P|332:341|361:339,2,80,2|8|2,0:0|0:0|1:2,0:0:0:0:
269,349,246535,5,0,1:0:0:0:
281,129,246714,1,8,0:0:0:0:
281,129,246892,1,0,1:0:0:0:
370,201,247071,2,0,P|420:193|473:181,1,80,2|0,1:2|0:0,0:0:0:0:
481,106,247428,1,8,0:0:0:0:
485,270,247606,2,0,B|437:269|398:294|422:307|378:332|334:323,1,160,2|2,2:2|2:2,2:2:0:0:
194,303,248142,2,0,P|144:295|91:283,1,80,10|0,0:0|1:0,0:0:0:0:
350,242,248499,6,0,P|358:157|364:50,1,160,2|8,1:2|0:0,0:2:0:0:
227,17,249035,1,0,1:0:0:0:
227,17,249392,1,0,1:0:0:0:
365,71,249571,2,0,P|416:62|469:48,1,80,10|0,0:0|1:0,0:0:0:0:
250,145,249928,2,0,P|203:162|188:271,1,160,2|8,1:2|0:0,0:0:0:0:
118,105,250464,2,0,P|95:49|-3:51,1,160,2|0,1:2|1:0,0:0:0:0:
21,226,250999,2,0,P|67:204|107:195,1,80,8|0,0:0|1:0,0:0:0:0:
254,225,251356,6,0,P|265:283|281:387,1,160,0|8,1:0|0:0,0:0:0:0:
500,325,251892,1,0,1:0:0:0:
500,325,252249,2,0,P|454:347|414:356,1,80,0|10,1:0|0:0,0:0:0:0:
256,192,252606,1,0,1:0:0:0:
256,192,252785,1,4,1:2:0:0:
256,192,252964,12,0,261356,0:0:0:0:
