osu file format v14

[General]
AudioFilename: audio.mp3
AudioLeadIn: 0
PreviewTime: 125161
Countdown: 0
SampleSet: Soft
StackLeniency: 0.7
Mode: 0
LetterboxInBreaks: 0
WidescreenStoryboard: 1

[Editor]
Bookmarks: 8356,25052,41748,58443,75139,91835,108530,125226,141922,156530,160704,177400,194095
DistanceSpacing: 1.3
BeatDivisor: 8
GridSize: 4
TimelineZoom: 1.9

[Metadata]
Title:Make Me Feel
TitleUnicode:Make Me Feel
Artist:Janelle Monae
ArtistUnicode:Janelle MonĂ¡e
Creator:Mao
Version:Pride
Source:
Tags:pop english funk dirty computer robinson appleeaterx mint r&b rnb rhythm and blues soul
BeatmapID:2426783
BeatmapSetID:1163305

[Difficulty]
HPDrainRate:7
CircleSize:4.3
OverallDifficulty:7.3
ApproachRate:8.5
SliderMultiplier:2
SliderTickRate:1

[Events]
//Background and Video events
0,0,"makemefeel.jpg",0,0
Video,-31500,"Make Me Feel.avi"
//Break Periods
//Storyboard Layer 0 (Background)
//Storyboard Layer 1 (Fail)
//Storyboard Layer 2 (Pass)
//Storyboard Layer 3 (Foreground)
//Storyboard Layer 4 (Overlay)
//Storyboard Sound Samples

[TimingPoints]
9,521.739130434783,4,2,0,30,1,0
9,-200,4,2,0,30,0,0
335,-200,4,2,0,5,0,0
400,-200,4,2,0,30,0,0
1117,-200,4,2,0,5,0,0
1182,-200,4,2,0,30,0,0
2422,-200,4,2,0,5,0,0
2487,-200,4,2,0,30,0,0
3204,-200,4,2,0,5,0,0
3269,-200,4,2,0,30,0,0
4182,-66.6666666666667,4,2,0,30,0,0
4443,-200,4,2,0,30,0,0
4509,-200,4,2,0,5,0,0
4574,-200,4,2,0,30,0,0
5291,-200,4,2,0,5,0,0
5356,-200,4,2,0,30,0,0
6595,-200,4,2,0,5,0,0
6661,-200,4,2,0,30,0,0
7378,-200,4,2,0,5,0,0
7443,-200,4,2,0,30,0,0
8095,-100,4,2,0,30,0,0
8356,-200,4,2,0,30,0,0
8682,-200,4,2,0,5,0,0
8748,-200,4,2,0,30,0,0
9465,-200,4,2,0,5,0,0
9530,-200,4,2,0,30,0,0
10769,-200,4,2,0,5,0,0
10835,-200,4,2,0,30,0,0
11552,-200,4,2,0,5,0,0
11617,-200,4,2,0,30,0,0
12856,-200,4,2,0,5,0,0
12922,-200,4,2,0,30,0,0
13639,-200,4,2,0,5,0,0
13704,-200,4,2,0,30,0,0
14943,-200,4,2,0,5,0,0
15009,-200,4,2,0,30,0,0
15726,-200,4,2,0,5,0,0
15791,-200,4,2,0,30,0,0
17030,-200,4,2,0,5,0,0
17095,-200,4,2,0,30,0,0
17813,-200,4,2,0,5,0,0
17878,-200,4,2,0,30,0,0
19117,-200,4,2,0,5,0,0
19182,-200,4,2,0,30,0,0
19900,-200,4,2,0,5,0,0
19965,-200,4,2,0,30,0,0
21204,-200,4,2,0,5,0,0
21269,-200,4,2,0,30,0,0
21987,-200,4,2,0,5,0,0
22052,-200,4,2,0,30,0,0
23291,-200,4,2,0,5,0,0
23356,-200,4,2,0,30,0,0
24074,-200,4,2,0,5,0,0
24139,-200,4,2,0,30,0,0
25052,-66.6666666666667,4,2,0,30,0,0
25313,-200,4,2,0,30,0,0
25378,-200,4,2,0,5,0,0
25443,-200,4,2,0,30,0,0
26161,-200,4,2,0,5,0,0
26226,-200,4,2,0,30,0,0
27465,-200,4,2,0,5,0,0
27530,-200,4,2,0,30,0,0
28248,-200,4,2,0,5,0,0
28313,-200,4,2,0,30,0,0
29552,-200,4,2,0,5,0,0
29617,-200,4,2,0,30,0,0
30335,-200,4,2,0,5,0,0
30400,-200,4,2,0,30,0,0
31639,-200,4,2,0,5,0,0
31704,-200,4,2,0,30,0,0
32422,-200,4,2,0,5,0,0
32487,-200,4,2,0,30,0,0
33726,-200,4,2,0,5,0,0
33791,-200,4,2,0,30,0,0
34443,-133.333333333333,4,2,0,30,0,0
35487,-200,4,2,0,30,0,0
35813,-200,4,2,0,5,0,0
35878,-200,4,2,0,30,0,0
36595,-200,4,2,0,5,0,0
36661,-200,4,2,0,30,0,0
37900,-200,4,2,0,5,0,0
37965,-200,4,2,0,30,0,0
38617,-133.333333333333,4,2,0,30,0,0
39139,-200,4,2,0,30,0,0
39987,-200,4,2,0,5,0,0
40052,-200,4,2,0,30,0,0
40769,-200,4,2,0,5,0,0
40835,-200,4,2,0,30,0,0
41226,-133.333333333333,4,2,0,30,0,0
41487,-100,4,2,0,30,0,0
41748,-66.6666666666667,4,2,0,40,0,0
42269,-200,4,2,0,40,0,0
42335,-200,4,2,0,5,0,0
42400,-200,4,2,0,40,0,0
44422,-200,4,2,0,5,0,0
44487,-200,4,2,0,40,0,0
45465,-200,4,2,0,5,0,0
45530,-200,4,2,0,40,0,0
45726,-200,4,2,0,5,0,0
45791,-200,4,2,0,40,0,0
45922,-80,4,2,0,40,0,0
46443,-200,4,2,0,40,0,0
46509,-200,4,2,0,5,0,0
46574,-200,4,2,0,40,0,0
48595,-200,4,2,0,5,0,0
48661,-200,4,2,0,40,0,0
49639,-200,4,2,0,5,0,0
49704,-200,4,2,0,40,0,0
49900,-200,4,2,0,5,0,0
49965,-200,4,2,0,40,0,0
50095,-80,4,2,0,40,0,0
50617,-200,4,2,0,40,0,0
50682,-200,4,2,0,5,0,0
50748,-200,4,2,0,40,0,0
52769,-200,4,2,0,5,0,0
52835,-200,4,2,0,40,0,0
53813,-200,4,2,0,5,0,0
53878,-200,4,2,0,40,0,0
54074,-200,4,2,0,5,0,0
54139,-200,4,2,0,40,0,0
54856,-200,4,2,0,5,0,0
54922,-200,4,2,0,40,0,0
56095,-80,4,2,0,40,0,0
56291,-200,4,2,0,40,0,0
58443,-66.6666666666667,4,2,0,50,0,0
58704,-200,4,2,0,50,0,0
58769,-200,4,2,0,5,0,0
58835,-200,4,2,0,50,0,0
59552,-200,4,2,0,5,0,0
59617,-200,4,2,0,50,0,0
60009,-100,4,2,0,50,0,0
60856,-100,4,2,0,5,0,0
60922,-100,4,2,0,50,0,0
61639,-100,4,2,0,5,0,0
61704,-100,4,2,0,50,0,0
62161,-100,4,2,0,5,0,0
62356,-100,4,2,0,50,0,0
62422,-100,4,2,0,5,0,0
62617,-100,4,2,0,50,0,0
62878,-200,4,2,0,50,0,0
62943,-200,4,2,0,5,0,0
63009,-200,4,2,0,50,0,0
63726,-200,4,2,0,5,0,0
63791,-200,4,2,0,50,0,0
64182,-80,4,2,0,50,0,0
64704,-100,4,2,0,50,0,0
65030,-100,4,2,0,5,0,0
65095,-100,4,2,0,50,0,0
65552,-100,4,2,0,5,0,0
65617,-100,4,2,0,50,0,0
66335,-100,4,2,0,5,0,0
66400,-100,4,2,0,50,0,0
66595,-100,4,2,0,5,0,0
66661,-100,4,2,0,50,0,0
67052,-200,4,2,0,50,0,0
67117,-200,4,2,0,5,0,0
67313,-100,4,2,0,50,0,0
67835,-200,4,2,0,50,0,0
67900,-200,4,2,0,5,0,0
68095,-80,4,2,0,50,0,0
68356,-100,4,2,0,50,0,0
68878,-80,4,2,0,50,0,0
69139,-100,4,2,0,50,0,0
69204,-100,4,2,0,5,0,0
69269,-100,4,2,0,50,0,0
69987,-100,4,2,0,5,0,0
70052,-100,4,2,0,50,0,0
70509,-100,4,2,0,5,0,0
70574,-100,4,2,0,50,0,0
70769,-100,4,2,0,5,0,0
70835,-100,4,2,0,50,0,0
70965,-66.6666666666667,4,2,0,50,0,0
71226,-200,4,2,0,50,0,0
71291,-200,4,2,0,5,0,0
71356,-200,4,2,0,50,0,0
72074,-200,4,2,0,5,0,0
72139,-200,4,2,0,50,0,0
72530,-100,4,2,0,50,0,0
73052,-66.6666666666667,4,2,0,50,0,0
73378,-66.6666666666667,4,2,0,5,0,0
73443,-66.6666666666667,4,2,0,50,0,0
74161,-66.6666666666667,4,2,0,5,0,0
74226,-66.6666666666667,4,2,0,50,0,0
77226,-100,4,2,0,35,0,0
77422,-100,4,2,0,5,0,0
77487,-200,4,2,0,35,0,0
77552,-200,4,2,0,5,0,0
77617,-200,4,2,0,35,0,0
77748,-200,4,2,0,35,0,0
78269,-100,4,2,0,35,0,0
78465,-100,4,2,0,5,0,0
78530,-200,4,2,0,35,0,0
78595,-200,4,2,0,5,0,0
78661,-200,4,2,0,35,0,0
79313,-66.6666666666667,4,2,0,35,0,0
79574,-200,4,2,0,35,0,0
79639,-200,4,2,0,5,0,0
79704,-200,4,2,0,35,0,0
81400,-100,4,2,0,35,0,0
81595,-100,4,2,0,5,0,0
81661,-200,4,2,0,35,0,0
81726,-200,4,2,0,5,0,0
81791,-200,4,2,0,35,0,0
81922,-200,4,2,0,35,0,0
82443,-100,4,2,0,35,0,0
82704,-200,4,2,0,35,0,0
82769,-200,4,2,0,5,0,0
82835,-200,4,2,0,35,0,0
83813,-200,4,2,0,5,0,0
83878,-200,4,2,0,35,0,0
84335,-200,4,2,0,5,0,0
84400,-200,4,2,0,35,0,0
85117,-200,4,2,0,5,0,0
85182,-200,4,2,0,35,0,0
85378,-200,4,2,0,5,0,0
85443,-200,4,2,0,35,0,0
85574,-100,4,2,0,35,0,0
85769,-100,4,2,0,5,0,0
85835,-200,4,2,0,35,0,0
85900,-200,4,2,0,5,0,0
85965,-200,4,2,0,35,0,0
86095,-100,4,2,0,35,0,0
86356,-200,4,2,0,35,0,0
86617,-100,4,2,0,35,0,0
86878,-200,4,2,0,35,0,0
86943,-200,4,2,0,5,0,0
87139,-200,4,2,0,35,0,0
87987,-200,4,2,0,5,0,0
88052,-200,4,2,0,35,0,0
89291,-200,4,2,0,5,0,0
89487,-200,4,2,0,35,0,0
89552,-200,4,2,0,35,0,0
89748,-100,4,2,0,35,0,0
89943,-100,4,2,0,5,0,0
90009,-200,4,2,0,35,0,0
90074,-200,4,2,0,5,0,0
90139,-200,4,2,0,35,0,0
90856,-200,4,2,0,5,0,0
90922,-200,4,2,0,35,0,0
91313,-133.333333333333,4,2,0,35,0,0
91509,-100,4,2,0,35,0,0
91835,-66.6666666666667,4,2,0,40,0,0
92356,-200,4,2,0,40,0,0
92422,-200,4,2,0,5,0,0
92487,-200,4,2,0,40,0,0
94509,-200,4,2,0,5,0,0
94574,-200,4,2,0,40,0,0
95552,-200,4,2,0,5,0,0
95617,-200,4,2,0,40,0,0
95813,-200,4,2,0,5,0,0
96009,-80,4,2,0,40,0,0
96530,-200,4,2,0,40,0,0
96595,-200,4,2,0,5,0,0
96661,-200,4,2,0,40,0,0
98682,-200,4,2,0,5,0,0
98748,-200,4,2,0,40,0,0
99726,-200,4,2,0,5,0,0
99791,-200,4,2,0,40,0,0
99987,-200,4,2,0,5,0,0
100182,-80,4,2,0,40,0,0
100704,-200,4,2,0,40,0,0
100769,-200,4,2,0,5,0,0
100835,-200,4,2,0,40,0,0
102856,-200,4,2,0,5,0,0
102922,-200,4,2,0,40,0,0
103900,-200,4,2,0,5,0,0
103965,-200,4,2,0,40,0,0
104161,-200,4,2,0,5,0,0
104226,-200,4,2,0,40,0,0
104943,-200,4,2,0,5,0,0
105009,-200,4,2,0,40,0,0
105922,-100,4,2,0,40,0,0
106182,-80,4,2,0,40,0,0
106378,-200,4,2,0,40,0,0
108530,-66.6666666666667,4,2,0,55,0,0
108726,-66.6666666666667,4,2,0,5,0,0
108791,-200,4,2,0,55,0,0
108856,-200,4,2,0,5,0,0
108922,-200,4,2,0,55,0,0
109574,-100,4,2,0,55,0,0
109835,-200,4,2,0,55,0,0
110095,-100,4,2,0,55,0,0
110617,-80,4,2,0,55,0,0
110813,-80,4,2,0,5,0,0
110878,-200,4,2,0,55,0,0
110943,-200,4,2,0,5,0,0
111009,-200,4,2,0,55,0,0
111661,-100,4,2,0,55,0,0
111726,-100,4,2,0,5,0,0
111791,-100,4,2,0,55,0,0
112182,-200,4,2,0,55,0,0
112248,-200,4,2,0,5,0,0
112313,-200,4,2,0,55,0,0
112509,-200,4,2,0,5,0,0
112574,-200,4,2,0,55,0,0
112704,-80,4,2,0,55,0,0
112900,-80,4,2,0,5,0,0
112965,-200,4,2,0,55,0,0
113030,-200,4,2,0,5,0,0
113095,-200,4,2,0,55,0,0
113748,-80,4,2,0,55,0,0
113813,-80,4,2,0,5,0,0
113878,-80,4,2,0,55,0,0
115052,-100,4,2,0,55,0,0
115117,-100,4,2,0,5,0,0
115182,-100,4,2,0,55,0,0
115639,-100,4,2,0,5,0,0
115704,-100,4,2,0,55,0,0
116291,-100,4,2,0,5,0,0
116356,-200,4,2,0,55,0,0
116422,-200,4,2,0,5,0,0
116487,-200,4,2,0,55,0,0
116682,-200,4,2,0,5,0,0
116748,-200,4,2,0,55,0,0
116878,-80,4,2,0,55,0,0
117074,-80,4,2,0,5,0,0
117139,-200,4,2,0,55,0,0
117204,-200,4,2,0,5,0,0
117269,-200,4,2,0,55,0,0
117661,-100,4,2,0,55,0,0
117856,-100,4,2,0,5,0,0
117922,-100,4,2,0,55,0,0
117987,-100,4,2,0,5,0,0
118052,-100,4,2,0,55,0,0
118182,-80,4,2,0,55,0,0
118443,-100,4,2,0,55,0,0
118965,-80,4,2,0,55,0,0
119161,-80,4,2,0,5,0,0
119226,-200,4,2,0,55,0,0
119291,-200,4,2,0,5,0,0
119356,-200,4,2,0,55,0,0
120009,-100,4,2,0,55,0,0
120074,-100,4,2,0,5,0,0
120139,-100,4,2,0,55,0,0
120465,-200,4,2,0,5,0,0
120530,-200,4,2,0,55,0,0
120595,-200,4,2,0,5,0,0
120661,-200,4,2,0,55,0,0
120856,-200,4,2,0,5,0,0
120922,-200,4,2,0,55,0,0
121052,-80,4,2,0,55,0,0
121248,-80,4,2,0,5,0,0
121313,-200,4,2,0,55,0,0
121378,-200,4,2,0,5,0,0
121443,-200,4,2,0,55,0,0
122095,-100,4,2,0,55,0,0
122161,-100,4,2,0,5,0,0
122226,-100,4,2,0,55,0,0
123139,-66.6666666666667,4,2,0,55,0,0
123465,-66.6666666666667,4,2,0,5,0,0
123530,-66.6666666666667,4,2,0,55,0,0
124248,-66.6666666666667,4,2,0,5,0,0
124313,-66.6666666666667,4,2,0,55,0,0
125226,-66.6666666666667,4,2,0,75,0,1
126791,-50,4,2,0,75,0,0
127052,-66.6666666666667,4,2,0,75,0,0
127639,-66.6666666666667,4,2,0,5,0,0
127704,-66.6666666666667,4,2,0,75,0,0
128943,-66.6666666666667,4,2,0,5,0,0
129009,-66.6666666666667,4,2,0,75,0,0
129204,-66.6666666666667,4,2,0,5,0,0
129269,-66.6666666666667,4,2,0,75,0,0
129400,-66.6666666666667,4,2,0,75,0,1
130965,-200,4,2,0,75,0,0
131226,-66.6666666666667,4,2,0,75,0,0
131487,-100,4,2,0,75,0,0
131878,-66.6666666666667,4,2,0,75,0,0
132139,-100,4,2,0,75,0,0
132530,-66.6666666666667,4,2,0,75,0,0
133574,-66.6666666666667,4,2,0,75,0,1
134878,-50,4,2,0,75,0,1
135139,-66.6666666666667,4,2,0,75,0,0
135400,-100,4,2,0,75,0,0
135661,-66.6666666666667,4,2,0,75,0,0
135987,-66.6666666666667,4,2,0,5,0,0
136052,-66.6666666666667,4,2,0,75,0,0
137291,-66.6666666666667,4,2,0,5,0,0
137356,-66.6666666666667,4,2,0,75,0,0
137487,-50,4,2,0,75,0,0
137748,-50,4,2,0,75,0,1
139313,-66.6666666666667,4,2,0,75,0,0
139574,-50,4,2,0,75,0,0
139835,-100,4,2,0,75,0,0
140161,-100,4,2,0,5,0,0
140226,-66.6666666666667,4,2,0,75,0,0
141139,-100,4,2,0,75,0,0
141400,-133.333333333333,4,2,0,45,0,0
141922,-66.6666666666667,4,2,0,45,0,0
142443,-200,4,2,0,45,0,0
142509,-200,4,2,0,5,0,0
142574,-200,4,2,0,45,0,0
144596,-200,4,2,0,5,0,0
144661,-200,4,2,0,45,0,0
145639,-200,4,2,0,5,0,0
145704,-200,4,2,0,45,0,0
145900,-200,4,2,0,5,0,0
146095,-80,4,2,0,45,0,0
146617,-200,4,2,0,45,0,0
146682,-200,4,2,0,5,0,0
146748,-200,4,2,0,45,0,0
148769,-200,4,2,0,5,0,0
148835,-200,4,2,0,45,0,0
149813,-200,4,2,0,5,0,0
149878,-200,4,2,0,45,0,0
150074,-200,4,2,0,5,0,0
150269,-80,4,2,0,45,0,0
150791,-200,4,2,0,45,0,0
150856,-200,4,2,0,5,0,0
150922,-200,4,2,0,45,0,0
152943,-200,4,2,0,5,0,0
153009,-200,4,2,0,45,0,0
153922,-80,4,2,0,45,0,0
153987,-200,4,2,0,5,0,0
154052,-200,4,2,0,45,0,0
154182,-100,4,2,0,45,0,0
154248,-200,4,2,0,5,0,0
154313,-200,4,2,0,45,0,0
155030,-200,4,2,0,5,0,0
155096,-200,4,2,0,45,0,0
156009,-80,4,2,0,45,0,0
156269,-80,4,2,0,45,0,0
156465,-80,4,2,0,45,0,0
156530,-80,4,2,0,25,0,0
160704,-66.6666666666667,4,2,0,55,0,0
160965,-200,4,2,0,55,0,0
161030,-200,4,2,0,5,0,0
161095,-200,4,2,0,55,0,0
161748,-100,4,2,0,55,0,0
161813,-100,4,2,0,5,0,0
161878,-100,4,2,0,55,0,0
162791,-80,4,2,0,55,0,0
163052,-200,4,2,0,55,0,0
163117,-200,4,2,0,5,0,0
163182,-200,4,2,0,55,0,0
163835,-66.6666666666667,4,2,0,55,0,0
164095,-80,4,2,0,55,0,0
164356,-200,4,2,0,55,0,0
164422,-200,4,2,0,5,0,0
164487,-200,4,2,0,55,0,0
164682,-200,4,2,0,5,0,0
164748,-200,4,2,0,55,0,0
164878,-80,4,2,0,55,0,0
165139,-200,4,2,0,55,0,0
165204,-200,4,2,0,5,0,0
165269,-200,4,2,0,55,0,0
165922,-80,4,2,0,55,0,0
165987,-80,4,2,0,5,0,0
166052,-80,4,2,0,55,0,0
166965,-100,4,2,0,55,0,0
167291,-100,4,2,0,5,0,0
167356,-100,4,2,0,55,0,0
167813,-100,4,2,0,5,0,0
167878,-100,4,2,0,55,0,0
168530,-200,4,2,0,55,0,0
168595,-200,4,2,0,5,0,0
168661,-200,4,2,0,55,0,0
168856,-200,4,2,0,5,0,0
168922,-200,4,2,0,55,0,0
169052,-80,4,2,0,55,0,0
169313,-200,4,2,0,55,0,0
169378,-200,4,2,0,5,0,0
169443,-200,4,2,0,55,0,0
169835,-100,4,2,0,55,0,0
170161,-100,4,2,0,5,0,0
170226,-100,4,2,0,55,0,0
170356,-66.6666666666667,4,2,0,55,0,0
170617,-80,4,2,0,55,0,0
171400,-200,4,2,0,55,0,0
171465,-200,4,2,0,5,0,0
171530,-200,4,2,0,55,0,0
172182,-100,4,2,0,55,0,0
172248,-100,4,2,0,5,0,0
172313,-100,4,2,0,55,0,0
172704,-200,4,2,0,55,0,0
172769,-200,4,2,0,5,0,0
172835,-200,4,2,0,55,0,0
173030,-200,4,2,0,5,0,0
173226,-80,4,2,0,55,0,0
173487,-200,4,2,0,55,0,0
173552,-200,4,2,0,5,0,0
173617,-200,4,2,0,55,0,0
174269,-100,4,2,0,55,0,0
174791,-50,4,2,0,55,0,0
175052,-66.6666666666667,4,2,0,55,0,0
175639,-66.6666666666667,4,2,0,5,0,0
175704,-66.6666666666667,4,2,0,55,0,0
176422,-66.6666666666667,4,2,0,5,0,0
176487,-66.6666666666667,4,2,0,55,0,0
177400,-66.6666666666667,4,2,0,60,0,0
178704,-57.1428571428571,4,2,0,65,0,0
178965,-50,4,2,0,65,0,0
179226,-66.6666666666667,4,2,0,65,0,0
179682,-66.6666666666667,4,2,0,5,0,0
179748,-200,4,2,0,65,0,0
179813,-200,4,2,0,5,0,0
179878,-200,4,2,0,65,0,0
180400,-66.6666666666667,4,2,0,65,0,0
181052,-200,4,2,0,65,0,0
181117,-200,4,2,0,5,0,0
181182,-200,4,2,0,65,0,0
181378,-200,4,2,0,5,0,0
181443,-200,4,2,0,65,0,0
182878,-57.1428571428571,4,2,0,65,0,0
183139,-50,4,2,0,65,0,0
183400,-66.6666666666667,4,2,0,65,0,0
183856,-66.6666666666667,4,2,0,5,0,0
183922,-200,4,2,0,65,0,0
183987,-200,4,2,0,5,0,0
184052,-200,4,2,0,65,0,0
184182,-100,4,2,0,65,0,0
184509,-100,4,2,0,5,0,0
184574,-100,4,2,0,65,0,0
184965,-66.6666666666667,4,2,0,65,0,0
185226,-200,4,2,0,65,0,0
185291,-200,4,2,0,5,0,0
185356,-200,4,2,0,65,0,0
185552,-200,4,2,0,5,0,0
185617,-200,4,2,0,65,0,0
187052,-57.1428571428571,4,2,0,65,0,0
187313,-50,4,2,0,65,0,0
187574,-66.6666666666667,4,2,0,65,0,0
188030,-66.6666666666667,4,2,0,5,0,0
188095,-200,4,2,0,65,0,0
188161,-200,4,2,0,5,0,0
188226,-200,4,2,0,65,0,0
188487,-66.6666666666667,4,2,0,65,0,0
189400,-200,4,2,0,65,0,0
189465,-200,4,2,0,5,0,0
189530,-200,4,2,0,65,0,0
189726,-200,4,2,0,5,0,0
189791,-200,4,2,0,65,0,0
191226,-50,4,2,0,65,0,0
191487,-44.4444444444445,4,2,0,65,0,0
191748,-66.6666666666667,4,2,0,65,0,0
192335,-66.6666666666667,4,2,0,5,0,0
192400,-66.6666666666667,4,2,0,65,0,0
193117,-66.6666666666667,4,2,0,5,0,0
193182,-66.6666666666667,4,2,0,65,0,0
193574,-200,4,2,0,40,0,0
193639,-200,4,2,0,5,0,0
193704,-200,4,2,0,40,0,0
193900,-200,4,2,0,5,0,0

[Colours]
Combo1 : 0,89,255
Combo2 : 248,109,182
Combo3 : 223,131,243
Combo4 : 111,134,227
Combo5 : 255,141,113
Combo6 : 245,10,139
Combo7 : 166,103,250

[HitObjects]
42,45,9,5,0,3:0:0:0:
108,85,269,2,0,L|128:81,1,12.5,2|2,0:0|0:0,0:0:0:0:
130,73,530,1,8,0:0:0:0:
43,192,791,1,0,3:0:0:0:
89,255,1052,2,0,L|109:259,1,12.5,2|0,0:0|0:0,0:0:0:0:
109,269,1574,2,0,L|161:264,1,50,8|0,0:0|3:0,0:0:0:0:
309,357,2095,5,2,3:0:0:0:
235,327,2356,2,0,L|215:331,1,12.5,2|0,0:0|0:0,0:0:0:0:
216,337,2616,1,8,0:0:0:0:
389,342,2878,1,0,3:0:0:0:
423,274,3139,2,0,L|443:270,1,12.5,2|0,0:0|0:0,0:0:0:0:
447,278,3661,2,0,L|499:283,1,50,10|2,0:0|0:0,0:0:0:0:
512,260,4052,1,0,3:0:0:0:
402,189,4182,6,2,B|371:186|371:186|360:177|360:177|328:173,1,75.0000028610231,4|0,0:0|0:0,0:0:0:0:
472,121,4443,2,0,L|491:125,1,12.5,2|0,0:0|0:0,0:0:0:0:
487,134,4704,1,8,0:0:0:0:
382,96,4965,1,0,3:0:0:0:
341,17,5226,2,0,L|358:8,1,12.5,2|0,0:0|0:0,0:0:0:0:
363,20,5748,2,0,L|312:44,1,50,8|0,0:0|3:0,0:0:0:0:
211,198,6269,5,2,3:0:0:0:
285,168,6529,2,0,L|305:172,1,12.5,2|0,0:0|0:0,0:0:0:0:
303,180,6790,1,8,0:0:0:0:
167,127,7052,1,0,3:0:0:0:
141,51,7313,2,0,L|161:47,1,12.5,2|0,0:0|0:0,0:0:0:0:
45,275,7835,53,8,0:0:0:0:
15,234,7965,1,0,3:0:0:0:
24,185,8095,2,0,L|101:168,1,75,2|2,0:0|0:0,0:0:0:0:
167,127,8356,5,0,3:0:0:0:
225,188,8617,2,0,L|221:211,1,12.5,2|0,0:0|0:0,0:0:0:0:
230,210,8878,1,8,0:0:0:0:
239,75,9139,1,0,3:0:0:0:
321,56,9400,2,0,L|317:38,1,12.5,2|0,0:0|0:0,0:0:0:0:
336,40,9922,2,0,L|330:71,1,25,8|0,0:0|0:0,0:0:0:0:
413,10,10182,1,0,3:0:0:0:
501,113,10443,5,0,3:0:0:0:
426,148,10704,2,0,L|422:169,1,12.5,2|0,0:0|0:0,0:0:0:0:
428,171,10965,1,8,0:0:0:0:
491,294,11226,1,0,3:0:0:0:
411,266,11487,2,0,L|414:287,1,12.5,2|0,0:0|0:0,0:0:0:0:
406,289,12009,2,0,L|401:317,1,25,8|0,0:0|0:0,0:0:0:0:
309,376,12269,1,0,3:0:0:0:
284,333,12400,1,0,3:0:0:0:
237,318,12530,5,0,3:0:0:0:
159,347,12791,2,0,L|142:350,1,12.5,2|0,0:0|0:0,0:0:0:0:
137,357,13052,1,8,0:0:0:0:
64,261,13313,1,0,3:0:0:0:
143,233,13574,2,0,L|163:236,1,12.5,2|0,0:0|0:0,0:0:0:0:
179,248,14095,2,0,L|143:252,1,25,8|0,0:0|0:0,0:0:0:0:
224,184,14356,1,0,3:0:0:0:
100,97,14617,53,0,3:0:0:0:
161,44,14878,2,0,L|158:23,1,12.5,2|0,0:0|0:0,0:0:0:0:
165,20,15139,1,8,0:0:0:0:
248,89,15400,1,0,3:0:0:0:
308,143,15661,2,0,L|303:166,1,12.5,2|0,0:0|0:0,0:0:0:0:
315,162,16182,2,0,L|318:197,1,25,8|0,0:0|0:0,0:0:0:0:
410,259,16443,1,0,3:0:0:0:
443,218,16574,1,0,3:0:0:0:
494,217,16704,5,0,3:0:0:0:
471,137,16965,2,0,L|454:132,1,12.5,2|0,0:0|0:0,0:0:0:0:
453,123,17226,1,8,0:0:0:0:
336,66,17487,1,0,3:0:0:0:
308,143,17748,2,0,L|294:146,1,12.5,2|0,0:0|0:0,0:0:0:0:
279,159,18269,2,0,L|310:164,1,25,12|0,0:0|0:0,0:0:0:0:
207,8,18530,1,0,3:0:0:0:
88,51,18791,5,0,3:0:0:0:
164,79,19052,2,0,L|161:95,1,12.5,2|0,0:0|0:0,0:0:0:0:
171,101,19313,1,8,0:0:0:0:
107,193,19574,1,0,3:0:0:0:
29,219,19835,2,0,L|31:237,1,12.5,2|0,0:0|0:0,0:0:0:0:
38,239,20226,1,0,0:0:0:0:
31,252,20356,2,0,L|28:278,1,25,8|0,0:0|0:0,0:0:0:0:
84,368,20617,1,0,3:0:0:0:
125,336,20748,1,0,3:0:0:0:
174,346,20878,5,0,3:0:0:0:
249,377,21139,2,0,L|267:373,1,12.5,2|0,0:0|0:0,0:0:0:0:
269,363,21400,1,8,0:0:0:0:
379,314,21661,1,0,3:0:0:0:
454,345,21922,2,0,L|469:348,1,12.5,2|0,0:0|0:0,0:0:0:0:
487,357,22443,2,0,L|452:364,1,25,8|0,0:0|0:0,0:0:0:0:
512,283,22704,1,0,3:0:0:0:
378,228,22965,53,0,3:0:0:0:
355,154,23226,2,0,L|358:135,1,12.5,2|0,0:0|0:0,0:0:0:0:
350,132,23487,1,8,0:0:0:0:
467,77,23748,1,0,3:0:0:0:
386,55,24009,2,0,L|366:51,1,12.5,2|0,0:0|0:0,0:0:0:0:
360,42,24530,2,0,L|326:48,1,25,8|0,0:0|0:0,0:0:0:0:
194,102,24791,1,0,3:0:0:0:
167,57,24922,1,0,3:0:0:0:
115,56,25052,6,2,B|85:63|85:63|78:74|78:74|45:81,1,75.0000028610231,4|0,0:0|0:0,0:3:0:0:
119,153,25313,2,0,L|115:176,1,12.5,2|0,0:0|0:0,0:0:0:0:
111,146,25574,1,8,0:0:0:0:
44,263,25835,1,0,3:0:0:0:
89,342,26096,2,0,L|93:324,1,12.5,2|0,0:0|0:0,0:0:0:0:
99,349,26618,2,0,L|104:325,1,25,8|0,0:0|0:0,0:0:0:0:
177,377,26878,1,0,3:0:0:0:
308,262,27139,5,0,3:0:0:0:
235,296,27400,2,0,L|238:318,1,12.5,2|0,0:0|0:0,0:0:0:0:
227,287,27661,1,8,0:0:0:0:
331,186,27922,1,0,3:0:0:0:
294,115,28183,2,0,L|297:94,1,12.5,2|0,0:0|0:0,0:0:0:0:
271,125,28704,1,10,0:0:0:0:
273,74,28835,1,0,3:0:0:0:
308,39,28965,1,0,3:0:0:0:
358,34,29096,1,2,0:0:0:0:
352,21,29226,5,0,3:0:0:0:
447,83,29487,2,0,L|430:86,1,12.5,2|0,0:0|0:0,0:0:0:0:
457,75,29748,1,8,0:0:0:0:
367,194,30009,1,0,3:0:0:0:
445,212,30270,2,0,L|465:215,1,12.5,2|0,0:0|0:0,0:0:0:0:
436,201,30791,2,0,L|400:205,1,25,8|0,0:0|0:0,0:0:0:0:
484,293,31052,1,0,3:0:0:0:
307,369,31313,53,0,3:0:0:0:
368,318,31574,2,0,L|365:297,1,12.5,2|0,0:0|0:0,0:0:0:0:
380,329,31835,1,8,0:0:0:0:
283,198,32096,1,0,3:0:0:0:
256,305,32357,2,0,L|267:284,1,12.5,2|0,0:0|0:0,0:0:0:0:
198,359,32748,1,0,0:0:0:0:
183,365,32878,1,10,0:0:0:0:
152,325,33009,1,0,0:0:0:0:
104,309,33139,1,2,3:0:0:0:
61,282,33270,1,0,3:0:0:0:
36,238,33400,5,4,0:0:0:0:
15,342,33661,2,0,L|-7:348,1,12.5,2|0,0:0|0:0,0:0:0:0:
27,350,33922,1,8,0:0:0:0:
131,229,34183,1,0,3:0:0:0:
96,73,34444,2,2,B|42:87|66:126|10:140,1,112.500004291535,6|0,0:0|0:0,0:3:0:0:
126,89,34965,1,10,0:0:0:0:
165,81,35095,1,0,3:0:0:0:
191,106,35226,1,2,3:0:0:0:
386,24,35487,5,0,3:0:0:0:
298,67,35748,2,0,L|282:64,1,12.5,2|0,0:0|0:0,0:0:0:0:
306,78,36009,1,8,0:0:0:0:
392,120,36270,1,0,3:0:0:0:
483,163,36531,2,0,L|465:165,1,12.5,2|0,0:0|0:0,0:0:0:0:
284,259,36922,1,0,0:0:0:0:
275,276,37052,1,10,0:0:0:0:
323,264,37182,1,2,0:0:0:0:
365,290,37313,1,0,3:0:0:0:
382,336,37444,1,2,3:0:0:0:
423,363,37574,5,4,0:0:0:0:
470,273,37835,2,0,L|452:277,1,12.5,2|0,0:0|0:0,0:0:0:0:
480,263,38096,1,8,0:0:0:0:
376,193,38357,1,0,3:0:0:0:
198,322,38618,2,2,B|257:308|249:357|303:344,1,112.500004291535,6|0,0:0|0:0,0:3:0:0:
195,357,39139,2,0,L|160:364,1,25,8|0,0:0|0:0,0:0:0:0:
106,312,39400,1,0,3:0:0:0:
218,197,39661,53,0,3:0:0:0:
160,141,39922,2,0,L|137:146,1,12.5,2|0,0:0|0:0,0:0:0:0:
168,130,40183,1,8,0:0:0:0:
78,199,40444,1,0,3:0:0:0:
31,129,40705,2,0,L|11:125,1,12.5,2|0,0:0|0:0,0:0:0:0:
173,24,40965,6,0,P|193:34|198:44,1,25,2|0,0:0|0:0,0:0:0:0:
288,70,41226,2,2,P|279:92|278:113,1,37.5000014305115,10|0,0:0|0:0,0:3:0:0:
232,206,41487,2,2,P|246:233|257:257,1,50,2|0,0:0|0:0,0:3:0:0:
438,303,41748,6,2,B|327:277|343:376|223:358,1,225.000008583069,4|0,1:0|0:0,0:3:0:0:
159,329,42269,2,0,L|143:332,1,12.5,12|0,0:0|0:0,0:0:0:0:
40,325,42530,6,0,L|139:341,1,100,4|0,3:0|3:0,0:0:0:0:
229,278,43313,2,0,L|220:226,1,50,8|0,0:0|0:0,0:0:0:0:
146,134,43835,53,4,3:0:0:0:
65,160,44096,1,0,0:0:0:0:
19,93,44356,2,0,L|24:73,1,12.5,8|0,0:0|0:0,0:0:0:0:
62,172,44617,1,4,3:0:0:0:
110,50,44878,1,0,0:0:0:0:
193,28,45139,1,0,3:0:0:0:
282,8,45400,2,0,L|286:27,1,12.5,10|0,0:0|0:0,0:0:0:0:
353,94,45661,2,0,L|355:81,1,12.5,2|0,0:0|0:0,0:0:0:0:
282,36,45922,6,2,B|375:21|362:104|455:83,1,187.5,4|0,1:1|0:0,0:3:0:0:
491,150,46443,2,0,L|488:169,1,12.5,12|0,0:0|0:0,0:0:0:0:
489,255,46704,6,0,L|476:148,1,100,4|4,3:0|0:3,0:0:0:0:
366,103,47487,2,0,L|376:52,1,50,8|0,0:0|0:0,0:0:0:0:
386,188,48009,5,4,3:0:0:0:
322,244,48269,1,0,0:0:0:0:
347,324,48530,2,0,L|368:330,1,12.5,8|0,0:0|0:0,0:0:0:0:
309,240,48791,1,4,3:0:0:0:
266,365,49052,1,0,0:0:0:0:
184,341,49313,1,0,3:0:0:0:
102,320,49574,2,0,L|83:324,1,12.5,10|0,0:0|0:0,0:0:0:0:
28,249,49835,2,0,L|47:253,1,12.5,2|0,0:0|0:0,0:0:0:0:
77,338,50095,54,2,B|55:244|139:257|124:164,1,187.5,4|0,1:0|0:0,0:3:0:0:
47,141,50617,2,0,L|50:123,1,12.5,12|0,0:0|0:0,0:0:0:0:
47,26,50878,6,0,L|60:128,1,100,4|4,3:0|0:3,0:0:0:0:
133,206,51661,2,0,L|144:148,1,50,8|0,0:0|0:0,0:0:0:0:
227,16,52182,5,4,3:0:0:0:
299,62,52443,1,0,0:0:0:0:
264,141,52704,2,0,L|246:138,1,12.5,8|0,0:0|0:0,0:0:0:0:
313,57,52965,1,4,3:0:0:0:
338,199,53226,1,2,0:0:0:0:
325,282,53487,1,0,3:0:0:0:
311,363,53748,2,0,L|331:361,1,12.5,10|0,0:0|0:0,0:0:0:0:
423,318,54009,2,0,L|404:313,1,12.5,2|0,0:0|0:0,0:0:0:0:
333,371,54269,5,4,1:0:0:0:
404,323,54530,1,0,0:0:0:0:
325,282,54791,2,0,L|310:285,1,12.5,10|0,0:0|0:0,0:0:0:0:
410,314,55052,1,4,3:0:0:0:
339,192,55313,1,2,0:0:0:0:
364,111,55574,1,0,3:0:0:0:
247,220,55835,1,8,0:0:0:0:
178,166,56095,54,2,L|196:95,1,62.5,0|0,0:0|0:0,0:0:0:0:
181,95,56291,2,0,L|178:76,1,12.5,2|0,0:0|3:0,0:0:0:0:
505,104,58443,6,2,P|451:102|421:169,1,112.500004291535,4|0,1:0|0:0,0:3:0:0:
422,160,58704,2,0,L|441:167,1,12.5,2|0,0:0|0:0,0:0:0:0:
470,241,58965,1,8,0:0:0:0:
333,364,59226,1,4,0:3:0:0:
375,286,59487,2,0,L|394:279,1,12.5,2|0,0:0|0:0,0:0:0:0:
384,293,60009,2,0,P|363:273|336:288,1,50,8|0,0:0|0:0,0:0:0:0:
263,316,60269,2,0,P|242:336|215:321,1,50,4|0,0:3|0:0,0:0:0:0:
73,269,60530,5,6,1:2:0:0:
38,364,60791,2,0,L|33:334,1,25,2|0,0:0|0:0,0:0:0:0:
149,297,61052,2,0,P|139:338|136:354,1,50,8|0,0:0|0:0,0:0:0:0:
203,235,61313,1,4,0:3:0:0:
129,204,61574,2,0,L|124:174,1,25,2|0,0:0|0:0,0:0:0:0:
28,55,61835,2,2,P|40:91|47:128,1,75,2|0,0:0|0:0,0:0:0:0:
37,137,62095,2,0,L|13:131,1,25,8|0,0:0|0:0,0:0:0:0:
128,87,62356,2,0,L|147:72,1,25,2|0,0:0|0:0,0:0:0:0:
399,35,62617,6,0,P|381:68|350:48,1,75,4|0,1:0|0:0,0:0:0:0:
350,51,62878,2,0,L|336:47,1,12.5,2|0,0:0|0:0,0:0:0:0:
267,19,63139,1,8,0:0:0:0:
350,177,63400,1,4,0:3:0:0:
434,142,63661,2,0,L|453:134,1,12.5,2|0,0:0|0:0,0:0:0:0:
459,160,64182,2,2,P|426:132|395:110,1,62.5,10|0,0:0|0:0,0:0:0:0:
469,300,64443,2,2,P|460:257|450:220,1,62.5,4|0,0:3|0:0,0:0:0:0:
412,370,64704,53,6,1:2:0:0:
278,280,64965,2,0,L|306:280,1,25,2|0,0:0|0:0,0:0:0:0:
233,365,65226,2,0,P|258:359|288:358,1,50,8|0,0:0|0:0,0:0:0:0:
151,241,65487,2,0,L|177:259,1,25,4|0,0:3|0:0,0:0:0:0:
101,370,65748,2,0,P|123:357|145:340,1,50,2|0,0:0|0:0,0:0:0:0:
20,202,66009,2,2,P|9:236|34:284,1,75,2|0,0:0|0:0,0:0:0:0:
33,278,66269,2,0,L|66:273,1,25,10|0,0:0|0:0,0:0:0:0:
127,153,66530,2,0,L|160:148,1,25,2|0,0:0|0:0,0:0:0:0:
11,66,66791,6,2,P|35:73|79:44,1,75,4|0,1:0|0:0,0:3:0:0:
87,47,67052,2,0,L|90:24,1,12.5,2|0,0:0|0:0,0:0:0:0:
162,1,67313,1,8,0:0:0:0:
292,100,67574,2,0,P|268:107|224:78,1,75,4|0,0:3|0:0,0:0:0:0:
216,81,67835,2,0,L|213:58,1,12.5,2|0,0:0|0:0,0:0:0:0:
390,92,68095,2,2,P|420:66|477:25,1,93.75,4|0,0:0|0:0,0:3:0:0:
451,31,68356,2,0,P|468:66|476:93,1,50,10|0,0:0|0:0,0:0:0:0:
402,176,68617,2,0,P|385:141|377:114,1,50,4|0,0:3|0:0,0:0:0:0:
505,239,68878,6,2,P|467:242|434:302,1,93.75,6|0,1:2|0:0,0:3:0:0:
432,302,69139,2,0,L|439:347,1,25,2|0,0:0|0:0,0:0:0:0:
345,247,69400,1,8,0:0:0:0:
246,370,69661,1,6,0:3:0:0:
331,359,69922,2,0,L|334:334,1,25,2|0,0:0|0:0,0:0:0:0:
248,232,70182,2,2,L|165:206,1,75,2|0,0:0|0:0,0:3:0:0:
164,204,70443,2,0,L|159:165,1,25,10|0,0:0|0:0,0:0:0:0:
80,163,70704,2,0,L|75:124,1,25,2|0,0:0|0:0,0:0:0:0:
3,353,70965,6,2,P|27:304|81:298,1,112.500004291535,4|0,1:0|0:0,0:3:0:0:
91,287,71226,2,0,L|110:294,1,12.5,2|0,0:0|0:0,0:0:0:0:
142,364,71487,1,8,0:0:0:0:
273,238,71748,1,4,0:3:0:0:
293,318,72009,2,0,L|312:311,1,12.5,2|0,0:0|0:0,0:0:0:0:
312,341,72531,2,0,P|284:335|262:353,1,50,8|0,0:0|0:0,0:0:0:0:
414,308,72791,2,0,P|441:299|448:325,1,50,4|0,0:3|0:0,0:0:0:0:
340,174,73052,53,6,1:2:0:0:
334,185,73313,2,0,L|378:192,1,37.5000014305115,2|0,0:0|0:0,0:0:0:0:
436,121,73443,2,2,P|473:115|506:97,1,75.0000028610231,2|8,0:0|0:0,0:3:0:0:
301,20,73704,1,2,0:0:0:0:
301,20,73835,2,2,P|341:8|364:64,1,112.500004291535,4|0,1:2|0:0,0:3:0:0:
343,88,74095,6,0,L|293:116,1,37.5000014305115,2|0,0:0|0:0,0:0:0:0:
212,54,74226,2,2,P|167:47|123:39,1,75.0000028610231,2|0,0:0|0:0,0:3:0:0:
32,174,74487,1,2,0:0:0:0:
98,221,74617,2,2,B|156:209|165:161|232:150,1,150.000005722046,12|2,0:0|3:0,0:3:0:0:
256,192,75139,12,0,76965,0:0:0:0:
75,35,77226,6,0,P|97:65|88:116,1,75,6|0,3:3|0:0,0:0:0:0:
86,112,77487,2,0,L|84:129,1,12.5,2|0,0:0|0:0,0:0:0:0:
46,144,77617,1,2,0:2:0:0:
52,164,77748,1,8,0:0:0:0:
145,234,78009,1,8,3:0:0:0:
86,291,78269,2,0,P|49:293|15:319,1,75,2|0,0:2|0:0,0:0:0:0:
26,326,78530,2,0,L|23:348,1,12.5,0|0,3:0|0:0,0:0:0:0:
161,366,78791,1,10,0:0:0:0:
176,318,78922,1,0,3:0:0:0:
217,291,79052,1,0,3:0:0:0:
265,301,79182,1,2,0:0:0:0:
247,338,79313,6,2,B|276:341|276:341|287:352|287:352|317:361,1,75.0000028610231,4|0,0:0|0:0,0:3:0:0:
399,314,79574,2,0,L|397:302,1,12.5,2|0,0:0|0:0,0:0:0:0:
374,290,79704,1,2,0:0:0:0:
377,268,79835,1,8,0:0:0:0:
501,208,80095,1,8,3:0:0:0:
445,143,80356,2,0,L|449:121,1,12.5,2|0,0:0|0:0,0:0:0:0:
431,112,80878,2,0,L|456:109,1,25,8|0,0:0|0:0,0:0:0:0:
381,43,81139,1,0,3:0:0:0:
294,146,81400,54,0,P|291:110|257:74,1,75,6|0,3:3|0:0,0:0:0:0:
255,72,81661,2,0,L|233:77,1,12.5,2|0,0:0|0:0,0:0:0:0:
214,56,81791,1,2,0:0:0:0:
195,48,81922,1,8,0:0:0:0:
53,132,82182,1,8,3:0:0:0:
86,207,82443,2,0,P|57:229|48:275,1,75,2|0,0:0|0:0,0:0:0:0:
52,275,82704,2,0,L|30:280,1,12.5,0|0,3:0|0:0,0:0:0:0:
167,234,82965,1,10,0:0:0:0:
216,241,83095,1,0,3:0:0:0:
251,277,83226,1,0,3:0:0:0:
251,328,83356,1,2,0:0:0:0:
287,362,83487,5,6,3:2:0:0:
343,297,83748,2,0,L|345:274,1,12.5,2|0,0:0|0:0,0:0:0:0:
363,276,83878,1,2,0:0:0:0:
356,255,84009,1,8,0:0:0:0:
425,167,84269,2,0,L|430:144,1,12.5,2|0,0:0|0:0,0:0:0:0:
408,156,84530,2,2,L|400:81,1,75,2|0,0:0|0:0,0:3:0:0:
393,77,85052,2,0,L|395:62,1,12.5,8|0,3:2|0:0,0:0:0:0:
321,27,85313,2,0,L|324:5,1,12.5,0|0,3:3|0:0,0:0:0:0:
222,50,85574,6,0,P|187:77|183:114,1,75,2|0,3:2|0:0,0:0:0:0:
188,115,85835,2,0,L|183:135,1,12.5,2|0,0:0|0:0,0:0:0:0:
163,138,85965,1,2,0:0:0:0:
167,158,86095,1,12,0:0:0:0:
288,190,86356,1,6,3:0:0:0:
350,242,86617,2,2,P|382:222|425:229,1,75.0000028610231,2|0,0:0|0:0,0:3:0:0:
423,235,86878,2,0,L|428:253,1,12.5,2|0,3:0|0:0,0:0:0:0:
266,296,87139,1,8,0:0:0:0:
222,323,87269,1,0,3:0:0:0:
171,312,87400,1,0,3:0:0:0:
122,326,87530,1,2,0:0:0:0:
92,367,87661,5,6,3:2:0:0:
17,325,87922,2,0,L|15:307,1,12.5,2|0,0:0|0:0,0:0:0:0:
36,302,88052,1,2,0:0:0:0:
43,278,88182,1,8,0:0:0:0:
147,231,88443,1,8,3:0:0:0:
88,171,88704,2,2,L|81:91,1,75,2|0,0:0|0:0,0:0:0:0:
90,87,89226,2,0,L|107:91,1,12.5,8|0,3:2|0:0,0:0:0:0:
136,8,89487,2,0,L|148:10,1,12.5,2|0,3:2|0:0,0:0:0:0:
264,90,89748,54,2,P|286:64|332:62,1,75,2|0,3:2|0:0,0:3:0:0:
333,67,90009,2,0,L|351:71,1,12.5,2|0,0:0|0:0,0:0:0:0:
367,93,90139,1,2,0:0:0:0:
388,89,90269,1,8,0:0:0:0:
332,203,90530,1,4,3:0:0:0:
395,253,90791,2,0,L|415:257,1,12.5,2|0,0:0|0:0,0:0:0:0:
242,379,91052,6,0,P|238:357|234:347,1,25,2|0,0:0|0:0,0:0:0:0:
147,307,91313,2,2,P|150:285|161:263,1,37.5000014305115,10|0,0:0|0:3,0:3:0:0:
250,190,91574,2,2,P|243:159|230:133,1,50,0|0,0:3|0:3,0:3:0:0:
11,75,91835,6,2,B|125:99|109:0|220:26,1,225.000008583069,4|0,1:0|0:0,0:3:0:0:
315,58,92356,2,0,L|299:61,1,12.5,12|0,0:0|0:0,0:0:0:0:
395,62,92617,6,0,L|296:46,1,100,4|0,3:0|3:0,0:0:0:0:
232,193,93400,2,0,L|223:141,1,50,8|0,0:0|0:0,0:0:0:0:
245,282,93922,53,4,3:0:0:0:
164,308,94183,1,0,0:0:0:0:
226,372,94443,2,0,L|231:352,1,12.5,8|0,0:0|0:0,0:0:0:0:
180,228,94704,1,4,3:0:0:0:
0,366,94965,1,0,0:0:0:0:
83,344,95226,1,0,3:0:0:0:
13,262,95487,2,0,L|17:281,1,12.5,10|0,0:0|0:0,0:0:0:0:
102,219,95748,2,0,L|100:232,1,12.5,2|0,0:0|0:0,0:0:0:0:
195,247,96009,6,2,B|102:232|115:315|22:294,1,187.5,4|0,1:1|0:0,0:3:0:0:
25,165,96530,2,0,L|44:162,1,12.5,12|0,0:0|0:0,0:0:0:0:
126,141,96791,6,0,L|19:128,1,100,4|4,3:0|0:3,0:0:0:0:
223,45,97574,2,0,L|166:55,1,50,8|0,0:0|0:0,0:0:0:0:
401,110,98096,5,4,3:0:0:0:
313,96,98356,1,0,0:0:0:0:
414,103,98617,2,0,L|422:87,1,12.5,8|0,0:0|0:0,0:0:0:0:
310,79,98878,1,4,3:0:0:0:
386,214,99139,1,0,0:0:0:0:
477,202,99400,1,0,3:0:0:0:
442,295,99661,2,0,L|423:299,1,12.5,10|0,0:0|0:0,0:0:0:0:
351,361,99922,2,0,L|370:357,1,12.5,2|0,0:0|0:0,0:0:0:0:
470,380,100182,54,2,B|374:363|419:291|328:268,1,187.5,4|0,1:0|0:0,0:3:0:0:
240,324,100704,2,0,L|259:328,1,12.5,12|0,0:0|0:0,0:0:0:0:
157,352,100965,6,0,L|267:336,1,100,4|4,3:0|0:3,0:0:0:0:
68,324,101748,2,0,L|12:332,1,50,8|0,0:0|0:0,0:0:0:0:
210,248,102269,5,4,3:0:0:0:
138,202,102530,1,0,0:0:0:0:
173,123,102791,2,0,L|191:126,1,12.5,8|0,0:0|0:0,0:0:0:0:
123,209,103052,1,4,3:0:0:0:
19,58,103313,1,2,0:0:0:0:
117,36,103574,1,0,3:0:0:0:
217,16,103835,2,0,L|232:4,1,12.5,10|0,0:0|0:0,0:0:0:0:
129,28,104096,2,0,L|110:23,1,12.5,2|0,0:0|0:0,0:0:0:0:
32,157,104356,5,4,1:0:0:0:
112,194,104617,1,0,0:0:0:0:
39,245,104878,2,0,L|28:249,1,12.5,10|0,0:0|0:0,0:0:0:0:
116,208,105139,1,4,3:0:0:0:
170,275,105400,1,2,0:0:0:0:
87,321,105661,1,0,3:0:0:0:
329,368,105922,54,2,P|323:346|296:326,1,50,10|0,0:0|0:0,0:3:0:0:
412,247,106182,2,2,P|416:219|430:176,1,62.5,0|0,0:0|0:0,0:3:0:0:
436,191,106378,2,0,L|449:178,1,12.5,2|0,0:0|3:0,0:0:0:0:
53,30,108530,6,2,P|106:20|135:82,1,112.500004291535,4|0,1:0|0:0,0:3:0:0:
142,74,108791,2,0,L|138:97,1,12.5,2|0,0:0|0:0,0:0:0:0:
80,128,108922,1,2,0:0:0:0:
100,117,109052,1,8,0:0:0:0:
9,237,109313,1,4,0:3:0:0:
38,315,109574,2,0,L|33:342,1,25,2|0,0:0|0:0,0:0:0:0:
0,215,109835,1,0,0:0:0:0:
47,360,110095,2,0,P|62:341|86:343,1,50,8|0,0:0|0:0,0:0:0:0:
215,362,110356,2,0,P|230:380|254:378,1,50,4|0,0:3|0:0,0:0:0:0:
268,222,110617,6,0,P|223:216|193:260,1,93.75,6|0,1:2|0:0,0:0:0:0:
186,259,110878,2,0,L|166:252,1,12.5,2|0,0:0|0:0,0:0:0:0:
130,198,111009,1,2,0:0:0:0:
135,219,111139,1,8,0:0:0:0:
10,127,111400,1,4,0:3:0:0:
68,67,111661,2,0,L|73:31,1,25,2|0,0:0|0:0,0:0:0:0:
238,13,111922,2,2,P|245:47|248:93,1,75,2|0,0:0|0:0,0:0:0:0:
239,95,112182,2,0,L|219:100,1,12.5,8|0,0:0|0:0,0:0:0:0:
298,184,112443,2,0,L|318:189,1,12.5,2|0,0:0|0:0,0:0:0:0:
504,62,112704,6,2,P|448:68|430:106,1,93.75,6|0,1:2|0:0,0:3:0:0:
442,105,112965,2,0,L|445:125,1,12.5,2|0,0:0|0:0,0:0:0:0:
464,186,113095,1,0,0:0:0:0:
470,166,113226,1,8,0:0:0:0:
501,361,113487,1,4,0:3:0:0:
421,335,113748,2,0,L|383:341,1,31.25,2|0,0:0|0:0,0:0:0:0:
507,344,114009,1,0,0:0:0:0:
341,196,114269,2,0,P|362:159|381:142,1,62.5,10|0,0:0|0:0,0:0:0:0:
270,303,114530,2,0,P|267:260|271:234,1,62.5,4|0,0:3|0:0,0:0:0:0:
317,380,114791,53,6,1:2:0:0:
175,333,115052,2,0,P|152:337|137:349,1,25,2|0,0:0|0:0,0:0:0:0:
64,343,115182,1,2,0:0:0:0:
74,357,115313,2,0,P|109:362|131:373,1,50,8|0,0:0|0:0,0:0:0:0:
190,224,115574,2,0,P|167:228|152:240,1,25,4|0,0:3|0:0,0:0:0:0:
15,241,115835,2,0,P|50:246|72:257,1,50,2|0,0:0|0:0,0:0:0:0:
166,127,116095,2,2,P|123:123|91:107,1,75,2|0,0:0|0:0,0:3:0:0:
90,98,116356,2,0,L|94:80,1,12.5,10|0,0:0|0:0,0:0:0:0:
209,32,116617,2,0,L|205:14,1,12.5,2|0,0:0|0:0,0:0:0:0:
466,43,116878,6,2,P|415:53|397:94,1,93.75,4|0,1:0|0:0,0:3:0:0:
411,101,117139,2,0,L|427:107,1,12.5,2|0,0:0|0:0,0:0:0:0:
490,125,117269,1,2,0:0:0:0:
470,129,117400,1,8,0:0:0:0:
293,171,117661,2,0,P|331:176|362:219,1,75,4|0,0:3|0:0,0:0:0:0:
361,215,117922,2,0,L|356:245,1,25,2|0,0:0|0:0,0:0:0:0:
188,364,118182,2,2,P|192:317|215:262,1,93.75,4|0,0:0|0:0,0:3:0:0:
215,286,118443,2,0,P|179:293|157:298,1,50,10|0,0:0|0:0,0:0:0:0:
23,221,118704,2,0,P|59:214|81:209,1,50,4|0,0:3|0:0,0:0:0:0:
161,28,118965,6,2,P|123:68|126:114,1,93.75,6|0,1:2|0:0,0:3:0:0:
133,114,119226,2,0,L|129:134,1,12.5,2|0,0:0|0:0,0:0:0:0:
166,188,119356,1,2,0:0:0:0:
160,168,119487,1,8,0:0:0:0:
336,35,119748,1,6,0:3:0:0:
259,83,120009,2,0,L|230:77,1,25,2|0,0:0|0:0,0:0:0:0:
342,197,120269,2,2,P|374:197|424:170,1,75,2|0,0:0|0:0,0:0:0:0:
423,173,120530,2,0,L|421:152,1,12.5,10|0,0:0|0:0,0:0:0:0:
504,238,120791,2,0,L|502:217,1,12.5,2|0,0:0|0:0,0:0:0:0:
341,362,121052,6,2,P|308:324|247:330,1,93.75,6|0,1:2|0:0,0:3:0:0:
257,333,121313,2,0,L|234:338,1,12.5,2|0,0:0|0:0,0:0:0:0:
193,285,121443,1,2,0:0:0:0:
198,305,121574,1,8,0:0:0:0:
41,186,121835,1,4,0:3:0:0:
85,112,122095,2,0,L|79:77,1,25,2|0,0:0|0:0,0:0:0:0:
34,202,122356,1,0,0:0:0:0:
167,28,122617,2,0,P|205:30|220:52,1,50,8|0,0:0|0:0,0:0:0:0:
294,136,122878,2,0,P|318:140|339:128,1,50,4|0,0:3|0:0,0:0:0:0:
473,22,123139,53,6,1:2:0:0:
484,34,123400,2,0,P|490:52|493:72,1,37.5000014305115,2|0,0:0|0:0,0:0:0:0:
423,142,123530,2,2,P|460:149|497:179,1,75.0000028610231,2|8,0:0|0:0,0:3:0:0:
340,286,123791,1,2,0:0:0:0:
340,286,123922,2,2,P|350:242|419:240,1,112.500004291535,4|0,1:2|0:0,0:3:0:0:
420,256,124182,6,0,L|430:301,1,37.5000014305115,2|0,0:0|0:0,0:0:0:0:
342,376,124313,2,2,P|307:362|269:353,1,75.0000028610231,2|0,0:0|0:0,0:3:0:0:
15,301,124574,1,2,0:0:0:0:
74,362,124704,2,2,B|153:362|134:306|206:297,1,150.000005722046,12|2,0:0|3:0,0:3:0:0:
70,76,125226,37,6,1:0:0:0:
152,99,125356,1,6,3:0:0:0:
235,123,125487,1,14,1:3:0:0:
317,147,125617,1,6,0:3:0:0:
238,145,125748,5,14,1:2:0:0:
168,124,125878,1,6,0:3:0:0:
97,104,126009,1,14,1:3:0:0:
26,83,126139,1,4,0:3:0:0:
90,123,126269,5,2,1:0:0:0:
147,140,126399,1,4,0:3:0:0:
205,156,126530,1,14,1:2:0:0:
266,173,126660,1,4,0:3:0:0:
150,262,126791,6,2,P|78:252|-27:216,1,150,4|0,1:0|0:0,0:3:0:0:
19,217,127052,2,0,P|31:262|41:315,1,75.0000028610231,4|0,3:0|0:0,0:0:0:0:
277,366,127313,6,2,P|321:333|274:282,1,112.500004291535,4|0,1:0|0:0,0:3:0:0:
284,287,127574,2,0,L|237:293,1,37.5000014305115,2|0,0:0|0:0,0:0:0:0:
360,226,127704,1,4,0:0:0:0:
360,226,127835,2,0,P|405:212|429:194,1,75.0000028610231,10|0,0:0|0:0,0:0:0:0:
492,337,128095,2,0,P|460:316|424:306,1,75.0000028610231,6|0,3:0|0:0,0:0:0:0:
496,138,128356,2,2,P|510:96|519:-10,1,150.000005722046,4|2,0:0|0:0,0:3:0:0:
309,62,128878,2,0,L|262:58,1,37.5000014305115,10|0,0:0|0:0,0:0:0:0:
182,22,129139,2,0,L|135:18,1,37.5000014305115,2|0,0:0|0:0,0:0:0:0:
324,158,129400,37,6,1:0:0:0:
246,180,129530,1,6,3:0:0:0:
169,202,129661,1,14,1:3:0:0:
91,225,129791,1,6,0:3:0:0:
161,223,129922,5,14,1:2:0:0:
227,204,130052,1,6,0:3:0:0:
293,185,130183,1,14,1:3:0:0:
359,166,130313,1,4,0:3:0:0:
304,200,130443,5,2,1:0:0:0:
247,217,130573,1,4,0:3:0:0:
190,233,130704,1,14,1:2:0:0:
131,250,130834,1,4,0:3:0:0:
256,326,130965,6,0,L|302:334,1,37.5,8|0,0:0|0:0,0:0:0:0:
308,337,131226,2,0,L|228:365,1,75.0000028610231,4|0,0:3|0:0,0:0:0:0:
11,214,131487,6,2,B|74:227|47:274|113:284,1,125,4|0,1:0|0:0,0:3:0:0:
114,299,131878,2,0,P|83:313|47:348,1,75.0000028610231,2|8,0:0|0:0,0:0:0:0:
188,157,132139,1,2,0:0:0:0:
243,92,132269,2,0,P|253:54|252:32,1,50,6|0,0:3|0:0,0:0:0:0:
24,18,132530,2,2,P|27:57|86:104,1,112.500004291535,4|0,0:0|0:0,0:3:0:0:
101,97,132791,2,0,P|124:70|163:55,1,75.0000028610231,0|0,0:0|0:0,0:0:0:0:
325,174,133052,6,2,B|303:206|341:246|411:220|424:116|339:95,1,225.000008583069,4|0,0:0|0:0,0:3:0:0:
421,311,133574,21,6,1:0:0:0:
338,296,133704,1,6,3:0:0:0:
256,281,133835,1,14,1:3:0:0:
173,267,133965,1,6,0:3:0:0:
239,298,134096,5,14,1:2:0:0:
309,310,134226,1,6,0:3:0:0:
379,322,134357,1,14,1:3:0:0:
450,334,134487,1,4,0:3:0:0:
383,341,134617,5,2,1:0:0:0:
322,330,134747,1,4,0:3:0:0:
267,322,134878,38,2,L|170:302,1,100,6|4,1:2|0:3,0:3:0:0:
42,189,135139,2,2,P|84:177|118:158,1,75.0000028610231,14|0,0:0|0:0,0:3:0:0:
44,329,135400,2,0,P|30:359|26:387,1,50,4|0,0:3|0:0,0:0:0:0:
213,191,135661,6,2,P|211:120|205:49,1,112.500004291535,6|0,1:2|0:0,0:3:0:0:
214,61,135922,2,0,L|171:53,1,37.5000014305115,2|0,0:0|0:0,0:0:0:0:
98,39,136052,1,2,0:0:0:0:
261,131,136182,2,2,P|297:110|338:101,1,75.0000028610231,8|0,0:0|0:0,0:3:0:0:
466,209,136443,2,0,P|413:218|394:165,1,112.500004291535,6|0,0:3|0:0,0:0:0:0:
403,155,136704,2,2,P|411:118|428:70,1,75.0000028610231,2|0,0:0|0:0,0:3:0:0:
305,222,136965,2,0,P|316:257|324:294,1,75.0000028610231,4|0,0:0|0:0,0:0:0:0:
470,335,137226,2,0,L|424:330,1,37.5000014305115,10|0,0:0|0:0,0:0:0:0:
187,240,137487,2,2,B|122:248|118:308|59:312,1,150,4|0,0:0|0:0,0:3:0:0:
45,304,137748,37,6,1:0:0:0:
127,320,137878,1,6,3:0:0:0:
210,338,138009,1,14,1:3:0:0:
294,355,138139,1,6,0:3:0:0:
228,322,138270,85,14,1:2:0:0:
157,308,138400,1,6,0:3:0:0:
87,293,138531,1,14,1:3:0:0:
15,277,138661,1,4,0:3:0:0:
85,271,138791,85,2,1:0:0:0:
144,282,138921,1,4,0:3:0:0:
203,295,139052,1,14,1:2:0:0:
264,307,139182,1,4,0:3:0:0:
180,189,139313,38,0,L|106:173,1,75.0000028610231,12|0,0:0|0:0,0:0:0:0:
345,132,139574,2,2,B|410:124|414:64|473:60,1,150,2|0,0:0|0:0,0:3:0:0:
466,72,139835,6,2,P|424:59|379:53,1,75,4|0,1:0|0:0,0:3:0:0:
383,41,140095,2,0,L|358:28,1,25,2|0,0:0|0:0,0:0:0:0:
282,61,140226,2,0,P|243:68|197:83,1,75.0000028610231,2|8,0:0|0:0,0:0:0:0:
146,210,140487,5,2,0:0:0:0:
95,147,140617,2,2,P|84:108|81:61,1,75.0000028610231,6|0,0:3|0:0,0:3:0:0:
321,292,140878,2,2,P|343:258|357:185,1,112.500004291535,4|0,0:0|0:0,0:3:0:0:
369,189,141139,6,0,P|376:214|384:237,1,50,2|0,0:0|0:0,0:0:0:0:
232,251,141400,2,2,P|232:269|225:286,1,37.5000014305115,8|0,0:0|0:0,0:3:0:0:
122,344,141661,2,2,P|118:362|134:371,1,37.5000014305115,2|0,0:0|0:0,0:3:0:0:
260,156,141922,54,2,B|133:189|172:98|27:145,1,225.000008583069,4|0,1:0|0:0,0:3:0:0:
23,218,142443,2,0,L|28:240,1,12.5,12|0,0:0|0:0,0:0:0:0:
15,341,142704,6,0,L|34:240,1,100,4|0,3:0|3:0,0:0:0:0:
148,356,143487,2,0,L|95:366,1,50,8|0,0:0|0:0,0:0:0:0:
222,277,144009,5,4,3:0:0:0:
304,307,144269,1,0,0:0:0:0:
219,291,144530,2,0,L|200:295,1,12.5,8|0,0:0|0:0,0:0:0:0:
298,321,144791,1,4,3:0:0:0:
167,374,145052,1,0,0:0:0:0:
209,200,145313,1,0,3:0:0:0:
132,163,145574,2,0,L|136:147,1,12.5,10|0,0:0|0:0,0:0:0:0:
186,56,145835,2,0,L|189:68,1,12.5,2|0,0:0|0:0,0:0:0:0:
69,97,146095,6,2,B|174:70|144:139|252:119,1,187.5,4|0,1:1|0:0,0:3:0:0:
329,150,146617,2,0,L|326:132,1,12.5,12|0,0:0|0:0,0:0:0:0:
353,20,146878,54,0,L|338:129,1,100,4|4,3:0|0:3,0:0:0:0:
440,193,147661,2,0,L|447:141,1,50,8|0,0:0|0:0,0:0:0:0:
330,245,148182,5,4,3:0:0:0:
356,323,148443,1,0,0:0:0:0:
439,324,148704,2,0,L|458:319,1,12.5,8|0,0:0|0:0,0:0:0:0:
348,335,148965,1,4,3:0:0:0:
260,190,149226,1,2,0:0:0:0:
216,371,149487,1,0,3:0:0:0:
137,334,149748,2,0,L|139:316,1,12.5,10|0,0:0|0:0,0:0:0:0:
169,207,150009,2,0,L|170:219,1,12.5,2|0,0:0|0:0,0:0:0:0:
121,311,150269,6,2,B|101:205|170:235|143:130,1,187.5,4|0,1:0|0:0,0:3:0:0:
61,70,150791,2,0,L|82:73,1,12.5,12|0,0:0|0:0,0:0:0:0:
186,43,151052,6,0,L|82:62,1,100,4|4,3:0|0:3,0:0:0:0:
284,128,151835,2,0,L|231:119,1,50,8|0,0:0|0:0,0:0:0:0:
364,29,152356,53,4,3:0:0:0:
443,61,152617,1,0,0:0:0:0:
420,140,152878,2,0,L|423:162,1,12.5,8|0,0:0|0:0,0:0:0:0:
457,53,153139,1,4,3:0:0:0:
482,226,153400,1,2,0:0:0:0:
401,251,153661,1,0,3:0:0:0:
324,279,153922,6,2,P|292:300|305:314,1,62.5,10|0,0:2|0:0,0:1:0:0:
134,375,154182,2,2,P|116:371|85:341,1,50,2|0,0:2|0:1,0:1:0:0:
232,209,154443,5,4,1:0:0:0:
172,270,154704,1,0,0:0:0:0:
87,258,154965,2,0,L|67:264,1,12.5,10|0,0:0|0:0,0:0:0:0:
175,284,155226,1,4,3:0:0:0:
236,220,155487,1,2,0:0:0:0:
322,243,155748,1,0,3:0:0:0:
397,193,156009,6,2,P|400:158|377:136,1,62.5,10|0,0:2|0:2,0:1:0:0:
233,109,156269,2,2,P|248:79|253:43,1,62.5,2|0,0:2|0:1,0:1:0:0:
256,31,156465,2,2,P|248:19|246:0,1,31.25,2|2,0:2|0:1,0:1:0:0:
3,297,160704,54,2,P|56:287|85:349,1,112.500004291535,4|0,1:0|0:0,0:3:0:0:
88,351,160965,2,0,L|84:374,1,12.5,2|0,0:0|0:0,0:0:0:0:
167,326,161096,1,2,0:0:0:0:
176,346,161226,1,8,0:0:0:0:
232,174,161487,1,4,0:3:0:0:
158,215,161748,2,0,L|153:242,1,25,2|0,0:0|0:0,0:0:0:0:
203,85,162009,1,0,0:0:0:0:
29,167,162269,2,0,P|53:168|65:189,1,50,8|0,0:0|0:0,0:0:0:0:
124,46,162530,2,0,P|100:43|84:61,1,50,4|0,0:3|0:0,0:0:0:0:
282,114,162791,6,2,P|327:120|357:76,1,93.75,6|0,1:2|0:0,0:3:0:0:
354,70,163052,2,0,L|334:63,1,12.5,2|0,0:0|0:0,0:0:0:0:
438,36,163183,1,2,0:0:0:0:
459,31,163313,1,8,0:0:0:0:
456,226,163574,1,4,0:3:0:0:
428,123,163835,2,2,L|415:210,1,75.0000028610231,2|0,0:0|0:0,0:3:0:0:
432,370,164096,2,2,P|429:332|391:283,1,93.75,2|0,0:0|0:0,0:3:0:0:
389,297,164356,2,0,L|409:302,1,12.5,8|0,0:0|0:0,0:0:0:0:
270,363,164617,2,0,L|290:358,1,12.5,2|0,0:0|0:0,0:0:0:0:
254,156,164878,6,2,P|198:162|180:200,1,93.75,6|0,1:2|0:0,0:3:0:0:
176,202,165139,2,0,L|179:222,1,12.5,2|0,0:0|0:0,0:0:0:0:
243,275,165269,1,0,0:0:0:0:
249,255,165400,1,8,0:0:0:0:
136,370,165661,5,4,0:3:0:0:
107,332,165791,1,2,0:0:0:0:
61,332,165922,2,0,L|23:338,1,31.25,2|0,0:0|0:0,0:0:0:0:
48,171,166183,1,0,0:0:0:0:
76,209,166313,1,0,0:0:0:0:
49,249,166443,2,2,P|32:209|29:184,1,62.5,10|0,0:0|0:0,0:0:0:0:
176,114,166704,2,2,P|162:142|155:172,1,62.5,4|0,0:3|0:0,0:0:0:0:
8,12,166965,53,6,1:2:0:0:
174,36,167226,2,0,P|151:40|136:52,1,25,2|0,0:0|0:0,0:0:0:0:
55,92,167356,1,2,0:0:0:0:
65,78,167487,2,0,P|100:73|122:62,1,50,8|0,0:0|0:0,0:0:0:0:
238,171,167748,2,0,P|261:175|276:187,1,25,4|0,0:3|0:0,0:0:0:0:
352,80,168009,2,2,P|328:88|303:90,1,50,2|0,0:0|0:0,0:3:0:0:
489,250,168269,2,2,P|449:231|425:205,1,75,2|0,0:0|0:0,0:3:0:0:
415,207,168530,2,0,L|419:189,1,12.5,10|0,0:0|0:0,0:0:0:0:
455,353,168791,2,0,L|464:337,1,12.5,2|0,0:0|0:0,0:0:0:0:
314,229,169052,6,2,P|263:239|245:280,1,93.75,4|0,1:0|0:0,0:3:0:0:
252,285,169313,2,0,L|246:303,1,12.5,2|0,0:0|0:0,0:0:0:0:
321,363,169443,1,2,0:0:0:0:
317,346,169574,1,8,0:0:0:0:
164,314,169835,2,0,P|175:350|223:373,1,75,4|0,0:3|0:0,0:0:0:0:
213,384,170096,2,0,L|243:378,1,25,2|0,0:0|0:0,0:0:0:0:
82,280,170356,2,2,P|86:233|117:161,1,112.500004291535,4|0,0:0|0:0,0:3:0:0:
111,183,170617,2,0,P|75:190|42:189,1,62.5,10|0,0:0|0:0,0:0:0:0:
27,376,170878,2,0,P|57:366|95:365,1,62.5,4|0,0:3|0:0,0:0:0:0:
287,272,171139,6,2,P|241:267|210:233,1,93.75,6|0,1:2|0:0,0:3:0:0:
203,226,171400,2,0,L|199:246,1,12.5,2|0,0:0|0:0,0:0:0:0:
268,173,171530,1,2,0:0:0:0:
263,157,171661,1,8,0:0:0:0:
90,19,171922,1,6,0:3:0:0:
148,82,172183,2,0,L|172:76,1,25,2|0,0:0|0:0,0:0:0:0:
324,8,172443,2,2,P|354:18|391:61,1,75,2|0,0:0|0:0,0:3:0:0:
395,40,172704,2,0,L|393:19,1,12.5,10|0,0:0|0:0,0:0:0:0:
494,109,172965,2,0,L|499:88,1,12.5,2|0,0:0|0:0,0:0:0:0:
319,150,173226,6,2,P|368:158|394:214,1,93.75,6|0,1:2|0:0,0:3:0:0:
390,207,173487,2,0,L|367:212,1,12.5,2|0,0:0|0:0,0:0:0:0:
470,207,173617,1,2,0:0:0:0:
484,212,173748,1,8,0:0:0:0:
389,384,174009,1,4,0:3:0:0:
438,323,174269,2,2,L|431:272,1,50,2|0,0:0|0:0,0:3:0:0:
319,354,174530,1,2,3:0:0:0:
282,161,174791,54,2,P|244:163|208:218,1,100,14|0,1:2|0:0,0:3:0:0:
88,298,175052,2,0,P|112:302|149:271,1,75.0000028610231,4|0,0:3|0:0,0:0:0:0:
336,256,175313,5,6,1:2:0:0:
324,266,175574,2,0,P|305:265|285:260,1,37.5000014305115,2|0,0:0|0:0,0:0:0:0:
197,196,175704,2,2,P|177:163|174:116,1,75.0000028610231,2|8,0:0|0:0,0:3:0:0:
25,16,175965,1,2,0:0:0:0:
25,16,176095,2,2,P|69:26|71:95,1,112.500004291535,4|0,1:2|0:0,0:3:0:0:
71,101,176356,6,0,L|81:146,1,37.5000014305115,2|0,0:0|0:0,0:0:0:0:
87,245,176487,2,2,P|52:231|18:216,1,75.0000028610231,2|0,0:0|0:0,0:3:0:0:
217,318,176748,1,2,0:0:0:0:
158,379,176878,2,2,B|79:379|101:315|26:314,1,150.000005722046,12|2,0:0|3:0,0:3:0:0:
160,39,177400,21,6,1:0:0:0:
208,53,177530,1,2,3:3:0:0:
257,67,177661,1,4,3:3:0:0:
305,81,177791,1,2,3:3:0:0:
230,99,177922,5,10,3:2:0:0:
188,87,178052,1,2,3:3:0:0:
147,75,178183,1,4,3:3:0:0:
105,63,178313,1,2,3:3:0:0:
157,120,178443,5,6,0:0:0:0:
192,131,178574,1,4,3:3:0:0:
223,147,178704,38,2,P|242:173|233:230,1,87.500000834465,2|0,0:0|0:0,0:3:0:0:
6,302,178965,2,2,P|42:261|134:269,1,150,12|0,0:0|0:0,0:3:0:0:
138,257,179226,2,0,P|125:309|124:342,1,75.0000028610231,4|0,0:3|0:0,0:0:0:0:
393,373,179487,6,2,P|361:336|303:353,1,112.500004291535,6|0,1:2|0:0,0:3:0:0:
300,361,179748,2,0,L|282:355,1,12.5,2|0,0:0|0:0,0:0:0:0:
206,307,179878,1,2,0:0:0:0:
220,301,180008,1,8,0:0:0:0:
84,168,180269,1,4,0:3:0:0:
94,67,180530,2,2,P|98:108|96:155,1,75.0000028610231,2|0,0:0|0:0,0:3:0:0:
67,315,180791,2,2,P|92:271|153:241,1,112.500004291535,2|0,0:0|0:3,0:0:0:0:
154,233,181052,2,0,L|158:212,1,12.5,8|0,0:0|0:0,0:0:0:0:
240,111,181313,2,0,L|236:92,1,12.5,2|0,0:0|0:0,0:0:0:0:
443,239,181574,5,6,1:2:0:0:
395,253,181704,1,2,0:3:0:0:
346,267,181835,1,4,0:3:0:0:
298,281,181965,1,2,0:3:0:0:
373,299,182096,5,10,3:2:0:0:
415,287,182226,1,2,0:3:0:0:
456,275,182357,1,4,0:3:0:0:
498,263,182487,1,2,0:3:0:0:
446,320,182617,5,6,3:2:0:0:
411,331,182748,1,4,0:3:0:0:
376,343,182878,38,2,P|347:373|301:365,1,87.500000834465,2|2,0:3|0:3,0:3:0:0:
84,245,183139,2,2,P|155:232|200:294,1,150,6|0,0:0|0:0,0:3:0:0:
209,300,183400,2,0,P|215:248|224:221,1,75.0000028610231,4|0,3:0|0:0,0:0:0:0:
479,93,183661,6,2,P|435:140|384:121,1,112.500004291535,6|0,1:2|0:0,0:3:0:0:
384,120,183922,2,0,L|386:103,1,12.5,2|0,0:0|0:0,0:0:0:0:
345,24,184052,1,2,0:0:0:0:
355,35,184182,2,0,P|360:76|362:94,1,50,8|0,0:0|0:0,0:0:0:0:
246,38,184443,2,0,P|247:25|251:5,1,25,4|0,0:3|0:0,0:0:0:0:
293,145,184704,2,2,P|298:186|300:204,1,50,2|0,0:0|0:0,0:3:0:0:
452,293,184965,2,2,P|408:265|333:264,1,112.500004291535,2|0,0:0|0:0,0:0:0:0:
344,268,185226,2,0,L|339:288,1,12.5,8|0,0:0|0:0,0:0:0:0:
248,364,185487,2,0,L|253:384,1,12.5,2|0,0:0|0:0,0:0:0:0:
67,222,185748,37,6,1:2:0:0:
115,211,185878,1,2,0:3:0:0:
165,200,186009,1,4,0:3:0:0:
214,190,186139,1,2,0:3:0:0:
141,167,186270,85,10,3:2:0:0:
98,176,186400,1,2,0:3:0:0:
56,185,186531,1,4,0:3:0:0:
13,194,186661,1,4,0:3:0:0:
69,140,186791,85,6,3:2:0:0:
105,132,186922,1,4,0:3:0:0:
142,124,187052,38,2,P|135:81|163:45,1,87.500000834465,2|0,0:0|0:0,0:3:0:0:
409,31,187313,2,2,P|350:88|262:79,1,150,6|0,0:0|0:0,0:3:0:0:
278,78,187574,2,0,P|286:120|288:159,1,75.0000028610231,4|0,0:3|0:0,0:0:0:0:
149,263,187835,38,2,P|203:272|218:328,1,112.500004291535,6|0,1:2|0:0,0:3:0:0:
225,333,188095,2,0,L|220:354,1,12.5,2|0,0:0|0:0,0:0:0:0:
136,350,188226,1,2,0:0:0:0:
139,365,188356,1,8,0:0:0:0:
31,202,188617,1,4,0:3:0:0:
40,294,188878,2,2,P|40:251|43:208,1,75.0000028610231,2|0,0:0|0:0,0:3:0:0:
36,52,189139,2,2,P|56:109|101:141,1,112.500004291535,2|0,0:0|0:0,0:0:0:0:
107,149,189400,2,0,L|128:145,1,12.5,8|0,0:0|0:0,0:0:0:0:
173,26,189661,2,0,L|185:28,1,12.5,2|0,0:0|0:0,0:0:0:0:
351,115,189922,5,6,1:2:0:0:
399,126,190052,1,2,0:3:0:0:
449,137,190183,1,4,0:3:0:0:
498,147,190313,1,2,0:3:0:0:
425,170,190444,5,14,3:2:0:0:
382,161,190574,1,2,0:3:0:0:
340,152,190705,1,4,0:3:0:0:
297,143,190835,1,4,0:3:0:0:
353,197,190965,5,2,3:2:0:0:
389,205,191096,1,4,0:3:0:0:
426,215,191226,38,2,P|457:237|458:296,1,100,6|0,0:0|0:0,0:3:0:0:
257,380,191487,2,2,P|243:303|325:288,1,168.750006437302,4|2,1:0|0:3,0:3:0:0:
322,295,191748,2,0,P|272:302|240:302,1,75.0000028610231,4|0,0:3|0:0,0:0:0:0:
57,227,192009,5,6,1:2:0:0:
70,242,192269,2,0,P|74:218|82:195,1,37.5000014305115,2|0,0:0|0:0,0:0:0:0:
16,122,192400,2,2,P|40:89|80:60,1,75.0000028610231,2|8,0:0|0:0,0:3:0:0:
252,168,192661,1,2,0:0:0:0:
252,168,192791,2,2,P|215:214|168:196,1,112.500004291535,4|0,1:2|0:0,0:3:0:0:
161,185,193052,54,0,L|153:132,1,37.5000014305115,2|0,0:0|0:0,0:0:0:0:
258,77,193182,2,2,L|271:-7,1,75.0000028610231,2|0,0:0|0:0,0:3:0:0:
337,105,193443,1,2,0:0:0:0:
412,90,193574,22,0,L|429:87,1,12.5,10|0,0:0|0:0,0:0:0:0:
498,106,193835,2,0,L|494:125,1,12.5,2|0,0:0|0:0,0:0:0:0:
